  0
SECTION
  2
HEADER
  9
$ACADVER
  1
AC1015
  9
$ACADMAINTVER
 70
    20
  9
$DWGCODEPAGE
  3
ANSI_932
  9
$INSBASE
 10
0.0
 20
0.0
 30
0.0
  9
$EXTMIN
 10
19.98230080583869
 20
4.998642665099623
 30
-0.0000000000000058
  9
$EXTMAX
 10
405.0164804526332
 20
280.0145880740771
 30
0.0000000000000104
  9
$LIMMIN
 10
0.0
 20
0.0
  9
$LIMMAX
 10
420.0
 20
297.0
  9
$ORTHOMODE
 70
     0
  9
$REGENMODE
 70
     1
  9
$FILLMODE
 70
     1
  9
$QTEXTMODE
 70
     0
  9
$MIRRTEXT
 70
     1
  9
$LTSCALE
 40
15.0
  9
$ATTMODE
 70
     1
  9
$TEXTSIZE
 40
3.0
  9
$TRACEWID
 40
1.0
  9
$TEXTSTYLE
  7
STANDARD
  9
$CLAYER
  8
CASE
  9
$CELTYPE
  6
BYLAYER
  9
$CECOLOR
 62
   256
  9
$CELTSCALE
 40
1.0
  9
$DISPSILH
 70
     0
  9
$DIMSCALE
 40
0.0
  9
$DIMASZ
 40
2.0
  9
$DIMEXO
 40
0.5
  9
$DIMDLI
 40
10.0
  9
$DIMRND
 40
0.0
  9
$DIMDLE
 40
0.0
  9
$DIMEXE
 40
0.5
  9
$DIMTP
 40
0.0
  9
$DIMTM
 40
0.0
  9
$DIMTXT
 40
2.0
  9
$DIMCEN
 40
0.0
  9
$DIMTSZ
 40
0.0
  9
$DIMTOL
 70
     0
  9
$DIMLIM
 70
     0
  9
$DIMTIH
 70
     0
  9
$DIMTOH
 70
     0
  9
$DIMSE1
 70
     0
  9
$DIMSE2
 70
     0
  9
$DIMTAD
 70
     1
  9
$DIMZIN
 70
     0
  9
$DIMBLK
  1

  9
$DIMASO
 70
     1
  9
$DIMSHO
 70
     1
  9
$DIMPOST
  1

  9
$DIMAPOST
  1

  9
$DIMALT
 70
     0
  9
$DIMALTD
 70
     2
  9
$DIMALTF
 40
25.4
  9
$DIMLFAC
 40
1.0
  9
$DIMTOFL
 70
     0
  9
$DIMTVP
 40
0.0
  9
$DIMTIX
 70
     0
  9
$DIMSOXD
 70
     0
  9
$DIMSAH
 70
     1
  9
$DIMBLK1
  1
OPEN
  9
$DIMBLK2
  1
OPEN
  9
$DIMSTYLE
  2
STANDARD
  9
$DIMCLRD
 70
     0
  9
$DIMCLRE
 70
     0
  9
$DIMCLRT
 70
     0
  9
$DIMTFAC
 40
1.0
  9
$DIMGAP
 40
0.5
  9
$DIMJUST
 70
     0
  9
$DIMSD1
 70
     0
  9
$DIMSD2
 70
     0
  9
$DIMTOLJ
 70
     1
  9
$DIMTZIN
 70
     0
  9
$DIMALTZ
 70
     0
  9
$DIMALTTZ
 70
     0
  9
$DIMUPT
 70
     0
  9
$DIMDEC
 70
     2
  9
$DIMTDEC
 70
     0
  9
$DIMALTU
 70
     2
  9
$DIMALTTD
 70
     2
  9
$DIMTXSTY
  7
STANDARD
  9
$DIMAUNIT
 70
     0
  9
$DIMADEC
 70
     0
  9
$DIMALTRND
 40
0.0
  9
$DIMAZIN
 70
     0
  9
$DIMDSEP
 70
    46
  9
$DIMATFIT
 70
     3
  9
$DIMFRAC
 70
     0
  9
$DIMLDRBLK
  1
OPEN
  9
$DIMLUNIT
 70
     2
  9
$DIMLWD
 70
    -2
  9
$DIMLWE
 70
    -2
  9
$DIMTMOVE
 70
     0
  9
$LUNITS
 70
     2
  9
$LUPREC
 70
     4
  9
$SKETCHINC
 40
1.0
  9
$FILLETRAD
 40
1.0
  9
$AUNITS
 70
     0
  9
$AUPREC
 70
     0
  9
$MENU
  1
.
  9
$ELEVATION
 40
0.0
  9
$PELEVATION
 40
0.0
  9
$THICKNESS
 40
0.0
  9
$LIMCHECK
 70
     0
  9
$CHAMFERA
 40
2.0
  9
$CHAMFERB
 40
2.0
  9
$CHAMFERC
 40
20.0
  9
$CHAMFERD
 40
0.0
  9
$SKPOLY
 70
     0
  9
$TDCREATE
 40
2450857.620429745
  9
$TDUCREATE
 40
2450857.245429745
  9
$TDUPDATE
 40
2459306.534204329
  9
$TDUUPDATE
 40
2459306.159204329
  9
$TDINDWG
 40
17.2029931250
  9
$TDUSRTIMER
 40
17.2029931250
  9
$USRTIMER
 70
     1
  9
$ANGBASE
 50
0.0
  9
$ANGDIR
 70
     0
  9
$PDMODE
 70
     0
  9
$PDSIZE
 40
0.0
  9
$PLINEWID
 40
0.0
  9
$SPLFRAME
 70
     0
  9
$SPLINETYPE
 70
     6
  9
$SPLINESEGS
 70
     8
  9
$HANDSEED
  5
64974
  9
$SURFTAB1
 70
     6
  9
$SURFTAB2
 70
     6
  9
$SURFTYPE
 70
     6
  9
$SURFU
 70
     6
  9
$SURFV
 70
     6
  9
$UCSBASE
  2

  9
$UCSNAME
  2

  9
$UCSORG
 10
0.0
 20
0.0
 30
0.0
  9
$UCSXDIR
 10
1.0
 20
0.0
 30
0.0
  9
$UCSYDIR
 10
0.0
 20
1.0
 30
0.0
  9
$UCSORTHOREF
  2

  9
$UCSORTHOVIEW
 70
     0
  9
$UCSORGTOP
 10
0.0
 20
0.0
 30
0.0
  9
$UCSORGBOTTOM
 10
0.0
 20
0.0
 30
0.0
  9
$UCSORGLEFT
 10
0.0
 20
0.0
 30
0.0
  9
$UCSORGRIGHT
 10
0.0
 20
0.0
 30
0.0
  9
$UCSORGFRONT
 10
0.0
 20
0.0
 30
0.0
  9
$UCSORGBACK
 10
0.0
 20
0.0
 30
0.0
  9
$PUCSBASE
  2

  9
$PUCSNAME
  2

  9
$PUCSORG
 10
0.0
 20
0.0
 30
0.0
  9
$PUCSXDIR
 10
1.0
 20
0.0
 30
0.0
  9
$PUCSYDIR
 10
0.0
 20
1.0
 30
0.0
  9
$PUCSORTHOREF
  2

  9
$PUCSORTHOVIEW
 70
     0
  9
$PUCSORGTOP
 10
0.0
 20
0.0
 30
0.0
  9
$PUCSORGBOTTOM
 10
0.0
 20
0.0
 30
0.0
  9
$PUCSORGLEFT
 10
0.0
 20
0.0
 30
0.0
  9
$PUCSORGRIGHT
 10
0.0
 20
0.0
 30
0.0
  9
$PUCSORGFRONT
 10
0.0
 20
0.0
 30
0.0
  9
$PUCSORGBACK
 10
0.0
 20
0.0
 30
0.0
  9
$USERI1
 70
     0
  9
$USERI2
 70
     0
  9
$USERI3
 70
     0
  9
$USERI4
 70
     0
  9
$USERI5
 70
     0
  9
$USERR1
 40
0.0
  9
$USERR2
 40
0.0
  9
$USERR3
 40
0.0
  9
$USERR4
 40
0.0
  9
$USERR5
 40
0.0
  9
$WORLDVIEW
 70
     1
  9
$SHADEDGE
 70
     3
  9
$SHADEDIF
 70
    70
  9
$TILEMODE
 70
     1
  9
$MAXACTVP
 70
    16
  9
$PINSBASE
 10
0.0
 20
0.0
 30
0.0
  9
$PLIMCHECK
 70
     0
  9
$PEXTMIN
 10
1.000000000000000E+20
 20
1.000000000000000E+20
 30
1.000000000000000E+20
  9
$PEXTMAX
 10
-1.000000000000000E+20
 20
-1.000000000000000E+20
 30
-1.000000000000000E+20
  9
$PLIMMIN
 10
0.0
 20
0.0
  9
$PLIMMAX
 10
420.0
 20
297.0
  9
$UNITMODE
 70
     0
  9
$VISRETAIN
 70
     0
  9
$PLINEGEN
 70
     0
  9
$PSLTSCALE
 70
     1
  9
$TREEDEPTH
 70
  3020
  9
$CMLSTYLE
  2
STANDARD
  9
$CMLJUST
 70
     0
  9
$CMLSCALE
 40
1.0
  9
$PROXYGRAPHICS
 70
     1
  9
$MEASUREMENT
 70
     1
  9
$CELWEIGHT
370
    -1
  9
$ENDCAPS
280
     0
  9
$JOINSTYLE
280
     0
  9
$LWDISPLAY
290
     0
  9
$INSUNITS
 70
     0
  9
$HYPERLINKBASE
  1

  9
$STYLESHEET
  1
tmi_penstyle.ctb
  9
$XEDIT
290
     1
  9
$CEPSNTYPE
380
     0
  9
$PSTYLEMODE
290
     1
  9
$FINGERPRINTGUID
  2
{8D1C7DDA-AA12-416B-84D2-4F4EDE59CB65}
  9
$VERSIONGUID
  2
{DB968689-D065-41CC-A786-30B1B60C95EF}
  9
$EXTNAMES
290
     1
  9
$PSVPSCALE
 40
0.0
  9
$OLESTARTUP
290
     0
  0
ENDSEC
  0
SECTION
  2
CLASSES
  0
CLASS
  1
DICTIONARYVAR
  2
AcDbDictionaryVar
  3
ObjectDBX Classes
 90
        0
280
     0
281
     0
  0
CLASS
  1
ACDBDICTIONARYWDFLT
  2
AcDbDictionaryWithDefault
  3
ObjectDBX Classes
 90
        0
280
     0
281
     0
  0
CLASS
  1
ACDBPLACEHOLDER
  2
AcDbPlaceHolder
  3
ObjectDBX Classes
 90
        0
280
     0
281
     0
  0
CLASS
  1
LAYOUT
  2
AcDbLayout
  3
ObjectDBX Classes
 90
        0
280
     0
281
     0
  0
CLASS
  1
SORTENTSTABLE
  2
AcDbSortentsTable
  3
ObjectDBX Classes
 90
        0
280
     0
281
     0
  0
CLASS
  1
MATERIAL
  2
AcDbMaterial
  3
ObjectDBX Classes
 90
        0
280
     0
281
     0
  0
ENDSEC
  0
SECTION
  2
TABLES
  0
TABLE
  2
VPORT
  5
8
330
0
100
AcDbSymbolTable
 70
     2
  0
VPORT
  5
6496A
330
8
100
AcDbSymbolTableRecord
100
AcDbViewportTableRecord
  2
*Active
 70
     0
 10
0.0
 20
0.0
 11
1.0
 21
1.0
 12
212.4993906292359
 22
142.5066153695883
 13
0.0
 23
0.0
 14
0.5
 24
0.5
 15
5.0
 25
5.0
 16
0.0
 26
0.0
 36
1.0
 17
0.0
 27
0.0
 37
0.0
 40
276.9413779322608
 41
1.636682242990654
 42
50.0
 43
0.0
 44
0.0
 50
0.0
 51
0.0
 71
     0
 72
   100
 73
     1
 74
     0
 75
     1
 76
     1
 77
     0
 78
     0
281
     0
 65
     1
110
0.0
120
0.0
130
0.0
111
1.0
121
0.0
131
0.0
112
0.0
122
1.0
132
0.0
 79
     0
146
0.0
  0
ENDTAB
  0
TABLE
  2
LTYPE
  5
5
330
0
100
AcDbSymbolTable
 70
    10
  0
LTYPE
  5
14
330
5
100
AcDbSymbolTableRecord
100
AcDbLinetypeTableRecord
  2
BYBLOCK
 70
     0
  3

 72
    65
 73
     0
 40
0.0
  0
LTYPE
  5
15
330
5
100
AcDbSymbolTableRecord
100
AcDbLinetypeTableRecord
  2
BYLAYER
 70
     0
  3

 72
    65
 73
     0
 40
0.0
  0
LTYPE
  5
16
330
5
100
AcDbSymbolTableRecord
100
AcDbLinetypeTableRecord
  2
CONTINUOUS
 70
     0
  3
Solid line
 72
    65
 73
     0
 40
0.0
  0
LTYPE
  5
61
330
5
100
AcDbSymbolTableRecord
100
AcDbLinetypeTableRecord
  2
CENTER2
 70
     0
  3
___ _ ___ _ ___ _ ___ _ ___ _ ___ _ ___ _ ___ _
 72
    65
 73
     4
 40
1.125
 49
0.75
 74
     0
 49
-0.125
 74
     0
 49
0.125
 74
     0
 49
-0.125
 74
     0
  0
LTYPE
  5
62
330
5
100
AcDbSymbolTableRecord
100
AcDbLinetypeTableRecord
  2
DASHED2
 70
     0
  3
_ _ _ _ _ _ _ _ _ _ _ _ _ _ _ _ _ _ _ _ _ _ _ _
 72
    65
 73
     2
 40
0.375
 49
0.25
 74
     0
 49
-0.125
 74
     0
  0
LTYPE
  5
B555
330
5
100
AcDbSymbolTableRecord
100
AcDbLinetypeTableRecord
  2
CHAIN
 70
     0
  3
Chain ____ _ ____ _ ____ _ ____ _ ____ _ ____
 72
    65
 73
     4
 40
0.3543
 49
0.2362
 74
     0
 49
-0.0295
 74
     0
 49
0.0591
 74
     0
 49
-0.0295
 74
     0
  0
LTYPE
  5
1BAE1
330
5
100
AcDbSymbolTableRecord
100
AcDbLinetypeTableRecord
  2
DOT
 70
     0
  3
・・・・・・・・・・・・・・・
 72
    65
 73
     2
 40
6.5
 49
0.1
 74
     0
 49
-6.4
 74
     0
  0
LTYPE
  5
1D159
330
5
100
AcDbSymbolTableRecord
100
AcDbLinetypeTableRecord
  2
AM_ISO02W050x2
 70
     0
  3
 _ _ _ _ _ _ _ _ _ _ _ _
 72
    65
 73
     2
 40
3.75
 49
3.0
 74
     0
 49
-0.75
 74
     0
  0
LTYPE
  5
1E418
330
5
100
AcDbSymbolTableRecord
100
AcDbLinetypeTableRecord
  2
DASH_DOT
 70
     0
  3
Dash dot __ . __ . __ . __ . __ . __ . __ . __
 72
    65
 73
     4
 40
0.37
 49
0.24
 74
     0
 49
-0.06
 74
     0
 49
0.01
 74
     0
 49
-0.06
 74
     0
  0
LTYPE
  5
1E419
330
5
100
AcDbSymbolTableRecord
100
AcDbLinetypeTableRecord
  2
DASHED
 70
     0
  3
Dashed __ __ __ __ __ __ __ __ __ __ __ __ __ _
 72
    65
 73
     2
 40
0.2067
 49
0.1654
 74
     0
 49
-0.0413
 74
     0
  0
LTYPE
  5
33EB6
330
5
100
AcDbSymbolTableRecord
100
AcDbLinetypeTableRecord
  2
DASHDOT2
 70
     0
  3
Dash dot (.5x) _._._._._._._._._._._._._._._.
 72
    65
 73
     4
 40
12.7
 49
6.349999999999997
 74
     0
 49
-3.174999999999998
 74
     0
 49
0.0
 74
     0
 49
-3.174999999999998
 74
     0
  0
LTYPE
  5
3661F
330
5
100
AcDbSymbolTableRecord
100
AcDbLinetypeTableRecord
  2
CENTER
 70
     0
  3
Center ____ _ ____ _ ____ _ ____ _ ____ _ ____
 72
    65
 73
     4
 40
50.8
 49
31.75
 74
     0
 49
-6.349999999999998
 74
     0
 49
6.349999999999998
 74
     0
 49
-6.349999999999998
 74
     0
  0
ENDTAB
  0
TABLE
  2
LAYER
  5
2
102
{ACAD_XDICTIONARY
360
B207
102
}
330
0
100
AcDbSymbolTable
 70
    38
  0
LAYER
  5
F
330
2
100
AcDbSymbolTableRecord
100
AcDbLayerTableRecord
  2
0
 70
     0
 62
     7
  6
CONTINUOUS
370
    -3
390
A786
  0
LAYER
  5
63
330
2
100
AcDbSymbolTableRecord
100
AcDbLayerTableRecord
  2
WAKU
 70
     0
 62
     7
  6
CONTINUOUS
370
    -3
390
A786
  0
LAYER
  5
64
330
2
100
AcDbSymbolTableRecord
100
AcDbLayerTableRecord
  2
SUNPOU
 70
     0
 62
     5
  6
CONTINUOUS
370
    -3
390
A786
  0
LAYER
  5
65
330
2
100
AcDbSymbolTableRecord
100
AcDbLayerTableRecord
  2
CENTER
 70
     0
 62
    14
  6
CENTER2
370
    -3
390
A786
  0
LAYER
  5
66
330
2
100
AcDbSymbolTableRecord
100
AcDbLayerTableRecord
  2
KAGESEN
 70
     0
 62
     5
  6
DASHED2
370
    -3
390
A786
  0
LAYER
  5
7DC
330
2
100
AcDbSymbolTableRecord
100
AcDbLayerTableRecord
  2
DEFPOINTS
 70
     0
 62
     7
  6
CONTINUOUS
290
     0
370
    -3
390
A786
  0
LAYER
  5
B206
330
2
100
AcDbSymbolTableRecord
100
AcDbLayerTableRecord
  2
CSLAYER1
 70
     0
 62
     7
  6
CONTINUOUS
370
    -3
390
A786
  0
LAYER
  5
B556
330
2
100
AcDbSymbolTableRecord
100
AcDbLayerTableRecord
  2
Center Mark (ISO)
 70
     0
 62
   131
  6
CONTINUOUS
370
    18
390
A786
  0
LAYER
  5
B557
330
2
100
AcDbSymbolTableRecord
100
AcDbLayerTableRecord
  2
Centerline (ISO)
 70
     0
 62
   131
  6
CONTINUOUS
370
    18
390
A786
  0
LAYER
  5
B558
330
2
100
AcDbSymbolTableRecord
100
AcDbLayerTableRecord
  2
Dimension (ISO)
 70
     0
 62
     7
  6
CONTINUOUS
370
    18
390
A786
  0
LAYER
  5
B559
330
2
100
AcDbSymbolTableRecord
100
AcDbLayerTableRecord
  2
Hatch (ISO)
 70
     0
 62
     1
  6
CONTINUOUS
370
    18
390
A786
  0
LAYER
  5
B55A
330
2
100
AcDbSymbolTableRecord
100
AcDbLayerTableRecord
  2
Section Line (ISO)
 70
     0
 62
     7
  6
CHAIN
370
    25
390
A786
  0
LAYER
  5
B55B
330
2
100
AcDbSymbolTableRecord
100
AcDbLayerTableRecord
  2
Symbol (ISO)
 70
     0
 62
     7
  6
CONTINUOUS
370
    18
390
A786
  0
LAYER
  5
B55C
330
2
100
AcDbSymbolTableRecord
100
AcDbLayerTableRecord
  2
Visible (ISO)
 70
     0
 62
     7
  6
CONTINUOUS
370
    35
390
A786
  0
LAYER
  5
C386
330
2
100
AcDbSymbolTableRecord
100
AcDbLayerTableRecord
  2
LINE
 70
     0
 62
     7
  6
CONTINUOUS
370
    -3
390
A786
  0
LAYER
  5
1AF9E
330
2
100
AcDbSymbolTableRecord
100
AcDbLayerTableRecord
  2
CASE
 70
     0
 62
     7
  6
CONTINUOUS
370
    -3
390
A786
  0
LAYER
  5
1AF9F
330
2
100
AcDbSymbolTableRecord
100
AcDbLayerTableRecord
  2
PARTS
 70
     0
 62
     5
  6
CONTINUOUS
370
    -3
390
A786
  0
LAYER
  5
1BAE2
330
2
100
AcDbSymbolTableRecord
100
AcDbLayerTableRecord
  2
PCB
 70
     0
 62
     1
  6
CONTINUOUS
370
    -3
390
A786
  0
LAYER
  5
1D15A
330
2
100
AcDbSymbolTableRecord
100
AcDbLayerTableRecord
  2
AM_5
 70
     0
 62
     3
  6
CONTINUOUS
370
    25
390
A786
  0
LAYER
  5
1D15B
102
{ACAD_XDICTIONARY
360
1D15C
102
}
330
2
100
AcDbSymbolTableRecord
100
AcDbLayerTableRecord
  2
ｶﾊﾞｰ
 70
     0
 62
     7
  6
CONTINUOUS
370
    25
390
A786
  0
LAYER
  5
1D15E
102
{ACAD_XDICTIONARY
360
1D15F
102
}
330
2
100
AcDbSymbolTableRecord
100
AcDbLayerTableRecord
  2
ｼｬｰｼ
 70
     0
 62
     2
  6
CONTINUOUS
370
    25
390
A786
  0
LAYER
  5
1D161
102
{ACAD_XDICTIONARY
360
1D162
102
}
330
2
100
AcDbSymbolTableRecord
100
AcDbLayerTableRecord
  2
ｼｬｰｼ0
 70
     0
 62
     2
  6
AM_ISO02W050x2
370
    13
390
A786
  0
LAYER
  5
1D164
102
{ACAD_XDICTIONARY
360
1D165
102
}
330
2
100
AcDbSymbolTableRecord
100
AcDbLayerTableRecord
  2
ｶﾊﾞｰ0
 70
     0
 62
     7
  6
AM_ISO02W050x2
370
    13
390
A786
  0
LAYER
  5
1D167
330
2
100
AcDbSymbolTableRecord
100
AcDbLayerTableRecord
  2
AM_PAREF
 70
     0
 62
     4
  6
CONTINUOUS
290
     0
370
    25
390
A786
  0
LAYER
  5
1D168
330
2
100
AcDbSymbolTableRecord
100
AcDbLayerTableRecord
  2
ﾋﾞｽ
 70
     0
 62
     8
  6
CONTINUOUS
370
    25
390
A786
  0
LAYER
  5
1D169
330
2
100
AcDbSymbolTableRecord
100
AcDbLayerTableRecord
  2
ﾋﾞｽ0
 70
     0
 62
     8
  6
AM_ISO02W050x2
370
    13
390
A786
  0
LAYER
  5
1D16A
330
2
100
AcDbSymbolTableRecord
100
AcDbLayerTableRecord
  2
ｺﾞﾑ足
 70
     0
 62
     8
  6
CONTINUOUS
370
    25
390
A786
  0
LAYER
  5
1E41A
330
2
100
AcDbSymbolTableRecord
100
AcDbLayerTableRecord
  2
Border (ISO)
 70
     0
 62
     7
  6
CONTINUOUS
370
    35
390
A786
  0
LAYER
  5
1E41B
330
2
100
AcDbSymbolTableRecord
100
AcDbLayerTableRecord
  2
Hidden (ISO)
 70
     0
 62
     7
  6
DASHED
370
    25
390
A786
  0
LAYER
  5
1E41C
330
2
100
AcDbSymbolTableRecord
100
AcDbLayerTableRecord
  2
Symbol (ANSI)
 70
     0
 62
     3
  6
CONTINUOUS
370
    25
390
A786
  0
LAYER
  5
1E41D
330
2
100
AcDbSymbolTableRecord
100
AcDbLayerTableRecord
  2
Title (ISO)
 70
     0
 62
     7
  6
CONTINUOUS
370
    35
390
A786
  0
LAYER
  5
33EB7
330
2
100
AcDbSymbolTableRecord
100
AcDbLayerTableRecord
  2
DIM
 70
     0
 62
     7
  6
CONTINUOUS
370
     9
390
A786
1001
AcAecLayerStandard
1000

1000

  0
LAYER
  5
33EB8
330
2
100
AcDbSymbolTableRecord
100
AcDbLayerTableRecord
  2
COMPONENT
 70
     0
 62
     4
  6
CONTINUOUS
370
    18
390
A786
1001
AcAecLayerStandard
1000

1000

  0
LAYER
  5
33EB9
330
2
100
AcDbSymbolTableRecord
100
AcDbLayerTableRecord
  2
FRAME
 70
     0
 62
     2
  6
CONTINUOUS
370
    40
390
A786
1001
AcAecLayerStandard
1000

1000

  0
LAYER
  5
33EBA
330
2
100
AcDbSymbolTableRecord
100
AcDbLayerTableRecord
  2
PCB_PAT
 70
     0
 62
     9
  6
CONTINUOUS
370
    -3
390
A786
1001
AcAecLayerStandard
1000

1000

  0
LAYER
  5
4528C
330
2
100
AcDbSymbolTableRecord
100
AcDbLayerTableRecord
  2
部品線1
 70
     0
 62
   210
  6
CONTINUOUS
370
    35
390
A786
  0
LAYER
  5
4528D
330
2
100
AcDbSymbolTableRecord
100
AcDbLayerTableRecord
  2
部品線３
 70
     0
 62
   141
  6
CONTINUOUS
370
    35
390
A786
  0
LAYER
  5
47898
102
{ACAD_XDICTIONARY
360
47899
102
}
330
2
100
AcDbSymbolTableRecord
100
AcDbLayerTableRecord
  2
Sketch Geometry (ISO)
 70
     0
 62
     7
  6
CONTINUOUS
370
    25
390
A786
  0
ENDTAB
  0
TABLE
  2
STYLE
  5
3
330
0
100
AcDbSymbolTable
 70
     8
  0
STYLE
  5
10
330
3
100
AcDbSymbolTableRecord
100
AcDbTextStyleTableRecord
  2
STANDARD
 70
     0
 40
0.0
 41
1.0
 50
0.0
 71
     0
 42
3.0
  3
C:\Program Files\AutoCAD LT\romans.shx
  4
C:\Program Files\AutoCAD LT\extfont.shx
  0
STYLE
  5
B55D
330
3
100
AcDbSymbolTableRecord
100
AcDbTextStyleTableRecord
  2
Note Text (TK)
 70
     0
 40
0.0
 41
1.0
 50
0.0
 71
     0
 42
0.2
  3

  4

1001
ACAD
1000
MS PGothic
1071
      256
  0
STYLE
  5
1AFA0
330
3
100
AcDbSymbolTableRecord
100
AcDbTextStyleTableRecord
  2
EASYDRAW_FONT
 70
     0
 40
1.0
 41
1.0
 50
0.0
 71
     0
 42
1.0
  3
monotxt
  4
bigfont
  0
STYLE
  5
1D16B
330
3
100
AcDbSymbolTableRecord
100
AcDbTextStyleTableRecord
  2
takachi1
 70
     0
 40
2.5
 41
1.0
 50
0.0
 71
     0
 42
2.5
  3

  4

1001
ACAD
1000
MS PGothic
1071
    32818
  0
STYLE
  5
1E41E
330
3
100
AcDbSymbolTableRecord
100
AcDbTextStyleTableRecord
  2
Label Text (JIS)
 70
     0
 40
0.0
 41
1.0
 50
0.0
 71
     0
 42
0.2
  3

  4

1001
ACAD
1000
MS PGothic
1071
      256
  0
STYLE
  5
1E41F
330
3
100
AcDbSymbolTableRecord
100
AcDbTextStyleTableRecord
  2
Note Text (JIS)
 70
     0
 40
0.0
 41
1.0
 50
0.0
 71
     0
 42
0.2
  3

  4

1001
ACAD
1000
MS PGothic
1071
      256
  0
STYLE
  5
1E420
330
3
100
AcDbSymbolTableRecord
100
AcDbTextStyleTableRecord
  2
Note Text2 (JIS)
 70
     0
 40
0.0
 41
1.0
 50
0.0
 71
     0
 42
0.2
  3

  4

1001
ACAD
1000
MS PGothic
1071
      256
  0
STYLE
  5
1E421
330
3
100
AcDbSymbolTableRecord
100
AcDbTextStyleTableRecord
  2
文字スタイル34
 70
     0
 40
0.0
 41
1.0
 50
0.0
 71
     0
 42
0.2
  3
tahoma.ttf
  4

1001
ACAD
1000
Tahoma
1071
      256
  0
ENDTAB
  0
TABLE
  2
VIEW
  5
6
330
0
100
AcDbSymbolTable
 70
     0
  0
ENDTAB
  0
TABLE
  2
UCS
  5
7
330
0
100
AcDbSymbolTable
 70
     0
  0
ENDTAB
  0
TABLE
  2
APPID
  5
9
330
0
100
AcDbSymbolTable
 70
    12
  0
APPID
  5
11
330
9
100
AcDbSymbolTableRecord
100
AcDbRegAppTableRecord
  2
ACAD
 70
     0
  0
APPID
  5
5E9A
330
9
100
AcDbSymbolTableRecord
100
AcDbRegAppTableRecord
  2
CONTENTTABDATA
 70
     0
  0
APPID
  5
5E9B
330
9
100
AcDbSymbolTableRecord
100
AcDbRegAppTableRecord
  2
CONTENTCURRENTTAB
 70
     0
  0
APPID
  5
B55F
330
9
100
AcDbSymbolTableRecord
100
AcDbRegAppTableRecord
  2
ACAD_PSEXT
 70
     0
  0
APPID
  5
BA4C
330
9
100
AcDbSymbolTableRecord
100
AcDbRegAppTableRecord
  2
ACAD_DSTYLE_DIMRADIAL_EXTENSION
 70
     0
  0
APPID
  5
BA4D
330
9
100
AcDbSymbolTableRecord
100
AcDbRegAppTableRecord
  2
ACAD_DSTYLE_DIMINSPECT
 70
     0
  0
APPID
  5
1D16E
330
9
100
AcDbSymbolTableRecord
100
AcDbRegAppTableRecord
  2
GENIUS_GENODEF_13
 70
     0
  0
APPID
  5
1D16F
330
9
100
AcDbSymbolTableRecord
100
AcDbRegAppTableRecord
  2
GENIUS_GENOBJ-N-FIL_13
 70
     0
  0
APPID
  5
33EBD
330
9
100
AcDbSymbolTableRecord
100
AcDbRegAppTableRecord
  2
AcadAnnotative
 70
     0
  0
APPID
  5
33EBE
330
9
100
AcDbSymbolTableRecord
100
AcDbRegAppTableRecord
  2
ACAD_DSTYLE_DIMJAG
 70
     0
  0
APPID
  5
33EBF
330
9
100
AcDbSymbolTableRecord
100
AcDbRegAppTableRecord
  2
ACAD_DSTYLE_DIMTALN
 70
     0
  0
APPID
  5
33EC0
330
9
100
AcDbSymbolTableRecord
100
AcDbRegAppTableRecord
  2
AcAecLayerStandard
 70
     0
  0
ENDTAB
  0
TABLE
  2
DIMSTYLE
  5
A
330
0
100
AcDbSymbolTable
 70
    16
100
AcDbDimStyleTable
 71
     1
340
1D
  0
DIMSTYLE
105
1D
102
{ACAD_REACTORS
330
605E1
330
606BB
330
606BC
330
606BD
330
60706
330
6049D
330
6049E
330
6049F
102
}
330
A
100
AcDbSymbolTableRecord
100
AcDbDimStyleTableRecord
  2
STANDARD
 70
     0
340
10
  0
DIMSTYLE
105
24
330
A
100
AcDbSymbolTableRecord
100
AcDbDimStyleTableRecord
  2
ISO-25
 70
     0
 41
2.5
 42
0.625
 43
3.75
 44
1.25
 74
     0
 77
     1
 78
     8
140
2.5
141
2.5
143
0.0394
145
1.0
147
0.625
172
     1
340
10
  0
DIMSTYLE
105
25
330
A
100
AcDbSymbolTableRecord
100
AcDbDimStyleTableRecord
  2
ISO-35
 70
     0
 41
3.5
 42
0.875
 43
5.25
 44
1.75
 74
     0
 77
     1
 78
     8
140
3.5
141
3.5
143
0.0394
145
1.399999999999999
147
0.875
172
     1
340
10
  0
DIMSTYLE
105
26
330
A
100
AcDbSymbolTableRecord
100
AcDbDimStyleTableRecord
  2
ISO-5
 70
     0
 41
5.0
 42
1.25
 43
7.5
 44
2.5
 74
     0
 77
     1
 78
     8
140
5.0
141
5.0
143
0.0394
145
2.0
147
1.25
172
     1
340
10
  0
DIMSTYLE
105
27
330
A
100
AcDbSymbolTableRecord
100
AcDbDimStyleTableRecord
  2
ISO-7
 70
     0
 41
7.0
 42
1.75
 43
10.5
 44
3.5
 74
     0
 77
     1
 78
     8
140
7.0
141
7.0
143
0.0394
145
2.799999999999999
147
1.75
172
     1
340
10
  0
DIMSTYLE
105
28
330
A
100
AcDbSymbolTableRecord
100
AcDbDimStyleTableRecord
  2
ISO1
 70
     0
 41
10.0
 42
2.5
 43
15.0
 44
5.0
 74
     0
 77
     1
 78
     8
140
10.0
141
10.0
143
0.0394
145
4.0
147
2.5
172
     1
340
10
  0
DIMSTYLE
105
29
330
A
100
AcDbSymbolTableRecord
100
AcDbDimStyleTableRecord
  2
ISO1-4
 70
     0
 41
14.0
 42
3.5
 43
21.0
 44
7.0
 74
     0
 77
     1
 78
     8
140
14.0
141
14.0
143
0.0394
145
5.599999999999999
147
3.5
172
     1
340
10
  0
DIMSTYLE
105
2A
330
A
100
AcDbSymbolTableRecord
100
AcDbDimStyleTableRecord
  2
ISO2
 70
     0
 41
20.0
 42
5.0
 43
30.0
 44
10.0
 74
     0
 77
     1
 78
     8
140
20.0
141
20.0
143
0.0394
145
8.0
147
5.0
172
     1
340
10
  0
DIMSTYLE
105
B55E
330
A
100
AcDbSymbolTableRecord
100
AcDbDimStyleTableRecord
  2
Default - Method 1b (TK)
 70
     0
 40
1.5
 41
2.5
 42
1.499999999999999
 43
10.0
 44
1.0
 45
0.00000001
 46
5.0
 73
     0
 77
     1
 78
     8
 79
     1
140
2.5
143
0.03937
146
1.799999952316284
147
1.0
171
     3
172
     1
176
   100
177
   100
178
     7
271
     1
272
     2
274
     3
284
     8
286
     8
340
B55D
371
    -1
372
    -1
  0
DIMSTYLE
105
1D16C
330
A
100
AcDbSymbolTableRecord
100
AcDbDimStyleTableRecord
  2
AM_ANSI
 70
     0
  4
mm
 41
0.1
 42
0.05
 43
0.5
 44
0.1
 47
0.1
 48
0.1
 78
     7
 79
     2
140
0.12
141
0.0
146
0.71
147
0.06
176
   256
177
   256
178
     2
274
     4
284
     7
340
10
371
    -1
372
    -1
  0
DIMSTYLE
105
1D16D
330
A
100
AcDbSymbolTableRecord
100
AcDbDimStyleTableRecord
  2
AM_ISO
 70
     0
  4
"
 41
2.5
 42
1.0
 43
10.0
 44
1.0
 47
0.1
 48
0.1
 73
     0
 74
     0
 77
     1
 78
     8
 79
     2
140
3.5
141
0.0
143
0.0393701
146
0.71
147
1.5
172
     1
176
     3
177
     3
178
     2
271
     2
272
     2
283
     0
284
     8
340
10
341
1D153
342
1D153
371
    -1
372
    -1
  0
DIMSTYLE
105
1E422
330
A
100
AcDbSymbolTableRecord
100
AcDbDimStyleTableRecord
  2
Default (JIS)
 70
     0
 40
1.5
 41
2.5
 42
0.8
 43
5.0
 44
1.0
 45
0.00000001
 46
5.0
 73
     0
 77
     1
 78
     8
 79
     2
140
2.299999952316284
143
0.03937
147
0.8
171
     3
172
     1
176
   100
177
   100
178
     7
271
     2
272
     2
274
     3
340
1E41F
341
BA
342
BA
371
    25
372
    25
  0
DIMSTYLE
105
1E423
330
A
100
AcDbSymbolTableRecord
100
AcDbDimStyleTableRecord
  2
Default 2(JIS)$7
 70
     0
 40
1.5
 41
2.5
 42
0.8
 43
5.0
 44
1.0
 45
0.00000001
 46
5.0
 73
     0
 77
     1
 78
     8
 79
     2
140
2.299999952316284
143
0.03937
147
0.8
171
     3
172
     1
176
     3
177
   100
178
     7
271
     2
272
     2
274
     3
340
1E420
341
BA
342
BA
371
    -1
372
    25
  0
DIMSTYLE
105
33EBB
330
A
100
AcDbSymbolTableRecord
100
AcDbDimStyleTableRecord
  2
Annotative
 70
     0
 40
0.0
 41
2.5
 42
0.625
 43
3.75
 44
1.25
 73
     0
 74
     0
 77
     1
 78
     8
140
2.5
141
2.5
143
0.03937007874016
147
0.625
171
     3
172
     1
271
     2
272
     2
274
     3
278
    44
283
     0
284
     8
340
10
1001
AcadAnnotative
1000
AnnotativeData
1002
{
1070
     1
1070
     1
1002
}
1001
ACAD_DSTYLE_DIMJAG
1070
   388
1040
1.5
1001
ACAD_DSTYLE_DIMTALN
1070
   392
1070
     0
  0
DIMSTYLE
105
33EBC
330
A
100
AcDbSymbolTableRecord
100
AcDbDimStyleTableRecord
  2
ISO-25-2
 70
     0
 41
0.3
 42
0.1
 43
3.75
 44
0.3
 73
     0
 74
     0
 77
     1
 78
     8
140
0.5
141
0.1
143
0.03937007874016
147
0.2
171
     3
172
     1
271
     2
272
     2
274
     3
278
    44
283
     0
284
     8
340
10
  0
DIMSTYLE
105
34A9B
330
A
100
AcDbSymbolTableRecord
100
AcDbDimStyleTableRecord
  2
A3WAKU
 70
     0
 41
2.0
 42
0.5
 43
10.0
 44
0.5
 73
     0
 74
     0
 77
     1
140
4.0
141
0.0
147
0.5
173
     1
271
     0
272
     0
340
10
341
BA
343
BA
344
BA
  0
ENDTAB
  0
TABLE
  2
BLOCK_RECORD
  5
1
330
0
100
AcDbSymbolTable
 70
    11
  0
BLOCK_RECORD
  5
1A
102
{ACAD_XDICTIONARY
360
36592
102
}
330
1
100
AcDbSymbolTableRecord
100
AcDbBlockTableRecord
  2
*MODEL_SPACE
340
A789
  0
BLOCK_RECORD
  5
17
330
1
100
AcDbSymbolTableRecord
100
AcDbBlockTableRecord
  2
*PAPER_SPACE
340
A78A
  0
BLOCK_RECORD
  5
BA
330
1
100
AcDbSymbolTableRecord
100
AcDbBlockTableRecord
  2
_OPEN
340
0
  0
BLOCK_RECORD
  5
1D153
330
1
100
AcDbSymbolTableRecord
100
AcDbBlockTableRecord
  2
_Open30
340
0
102
{BLKREFS
331
6489A
331
6489B
331
648A3
331
648A4
331
648AC
331
648AD
331
6492A
331
6492B
331
64938
331
64939
331
64940
331
64941
331
64949
331
6494A
331
64952
331
64953
102
}
  0
BLOCK_RECORD
  5
600CD
330
1
100
AcDbSymbolTableRecord
100
AcDbBlockTableRecord
  2
_DOT
340
0
  0
BLOCK_RECORD
  5
60715
330
1
100
AcDbSymbolTableRecord
100
AcDbBlockTableRecord
  2
*D3
340
0
  0
BLOCK_RECORD
  5
6076B
330
1
100
AcDbSymbolTableRecord
100
AcDbBlockTableRecord
  2
*D4
340
0
  0
BLOCK_RECORD
  5
60777
330
1
100
AcDbSymbolTableRecord
100
AcDbBlockTableRecord
  2
*D5
340
0
  0
BLOCK_RECORD
  5
60783
330
1
100
AcDbSymbolTableRecord
100
AcDbBlockTableRecord
  2
*D6
340
0
  0
BLOCK_RECORD
  5
6078F
330
1
100
AcDbSymbolTableRecord
100
AcDbBlockTableRecord
  2
*D7
340
0
  0
BLOCK_RECORD
  5
6079C
330
1
100
AcDbSymbolTableRecord
100
AcDbBlockTableRecord
  2
*D8
340
0
  0
BLOCK_RECORD
  5
607A8
330
1
100
AcDbSymbolTableRecord
100
AcDbBlockTableRecord
  2
*D9
340
0
  0
BLOCK_RECORD
  5
607B4
330
1
100
AcDbSymbolTableRecord
100
AcDbBlockTableRecord
  2
*D10
340
0
  0
ENDTAB
  0
ENDSEC
  0
SECTION
  2
BLOCKS
  0
BLOCK
  5
1B
330
1A
100
AcDbEntity
  8
0
100
AcDbBlockBegin
  2
*MODEL_SPACE
 70
     0
 10
0.0
 20
0.0
 30
0.0
  3
*MODEL_SPACE
  1

  0
ENDBLK
  5
1C
330
1A
100
AcDbEntity
  8
0
100
AcDbBlockEnd
  0
BLOCK
  5
18
330
17
100
AcDbEntity
 67
     1
  8
0
100
AcDbBlockBegin
  2
*PAPER_SPACE
 70
     0
 10
0.0
 20
0.0
 30
0.0
  3
*PAPER_SPACE
  1

  0
ENDBLK
  5
19
330
17
100
AcDbEntity
 67
     1
  8
0
100
AcDbBlockEnd
  0
BLOCK
  5
BB
330
BA
100
AcDbEntity
  8
0
100
AcDbBlockBegin
  2
_OPEN
 70
     0
 10
0.0
 20
0.0
 30
0.0
  3
_OPEN
  1

  0
LINE
  5
BC
330
BA
100
AcDbEntity
  8
0
  6
ByBlock
 62
     0
100
AcDbLine
 10
-1.0
 20
0.1666666666666666
 30
0.0
 11
0.0
 21
0.0
 31
0.0
  0
LINE
  5
BD
330
BA
100
AcDbEntity
  8
0
  6
ByBlock
 62
     0
100
AcDbLine
 10
0.0
 20
0.0
 30
0.0
 11
-1.0
 21
-0.1666666666666666
 31
0.0
  0
LINE
  5
BE
330
BA
100
AcDbEntity
  8
0
  6
ByBlock
 62
     0
100
AcDbLine
 10
0.0
 20
0.0
 30
0.0
 11
-1.0
 21
0.0
 31
0.0
  0
ENDBLK
  5
BF
330
BA
100
AcDbEntity
  8
0
100
AcDbBlockEnd
  0
BLOCK
  5
1D154
330
1D153
100
AcDbEntity
  8
0
100
AcDbBlockBegin
  2
_Open30
 70
     0
 10
0.0
 20
0.0
 30
0.0
  3
_Open30
  1

  0
LINE
  5
1D155
330
1D153
100
AcDbEntity
  8
0
  6
ByBlock
 62
     0
370
    -2
100
AcDbLine
 10
-1.0
 20
0.26794919
 30
0.0
 11
0.0
 21
0.0
 31
0.0
  0
LINE
  5
1D156
330
1D153
100
AcDbEntity
  8
0
  6
ByBlock
 62
     0
370
    -2
100
AcDbLine
 10
0.0
 20
0.0
 30
0.0
 11
-1.0
 21
-0.26794919
 31
0.0
  0
LINE
  5
1D157
330
1D153
100
AcDbEntity
  8
0
  6
ByBlock
 62
     0
370
    -2
100
AcDbLine
 10
0.0
 20
0.0
 30
0.0
 11
-1.0
 21
0.0
 31
0.0
  0
ENDBLK
  5
1D158
330
1D153
100
AcDbEntity
  8
0
100
AcDbBlockEnd
  0
BLOCK
  5
600CE
330
600CD
100
AcDbEntity
  8
0
100
AcDbBlockBegin
  2
_DOT
 70
     0
 10
0.0
 20
0.0
 30
0.0
  3
_DOT
  1

  0
LWPOLYLINE
  5
600CF
330
600CD
100
AcDbEntity
  8
0
  6
ByBlock
 62
     0
100
AcDbPolyline
 90
        2
 70
     1
 43
0.5
 10
-0.25
 20
0.0
 42
1.0
 10
0.25
 20
0.0
 42
1.0
  0
LINE
  5
600D0
330
600CD
100
AcDbEntity
  8
0
  6
ByBlock
 62
     0
100
AcDbLine
 10
-0.5
 20
0.0
 30
0.0
 11
-1.0
 21
0.0
 31
0.0
  0
ENDBLK
  5
600D1
330
600CD
100
AcDbEntity
  8
0
100
AcDbBlockEnd
  0
BLOCK
  5
6071F
330
60715
100
AcDbEntity
  8
0
100
AcDbBlockBegin
  2
*D3
 70
     1
 10
0.0
 20
0.0
 30
0.0
  3
*D3
  1

  0
LINE
  5
64927
330
60715
100
AcDbEntity
  8
SUNPOU
 62
     0
370
    -2
100
AcDbLine
 10
166.255394
 20
57.63275999999999
 30
0.0
 11
166.255394
 21
34.5
 31
0.0
  0
LINE
  5
64928
330
60715
100
AcDbEntity
  8
SUNPOU
 62
     0
370
    -2
100
AcDbLine
 10
206.2553929999999
 20
57.63275999999999
 30
0.0
 11
206.2553929999999
 21
34.5
 31
0.0
  0
LINE
  5
64929
330
60715
100
AcDbEntity
  8
SUNPOU
 62
     0
370
    -2
100
AcDbLine
 10
168.7553939999999
 20
35.0
 30
0.0
 11
203.755393
 21
35.0
 31
0.0
  0
INSERT
  5
6492A
330
60715
100
AcDbEntity
  8
SUNPOU
 62
     0
370
    -2
100
AcDbBlockReference
  2
_Open30
 10
166.255394
 20
35.0
 30
0.0
 41
2.5
 42
2.5
 43
2.5
 50
180.0
  0
INSERT
  5
6492B
330
60715
100
AcDbEntity
  8
SUNPOU
 62
     0
370
    -2
100
AcDbBlockReference
  2
_Open30
 10
206.2553929999999
 20
35.0
 30
0.0
 41
2.5
 42
2.5
 43
2.5
  0
MTEXT
  5
6492C
330
60715
100
AcDbEntity
  8
SUNPOU
 62
     0
100
AcDbMText
 10
186.2553935
 20
37.5
 30
0.0
 40
4.0
 41
0.0
 71
     5
 72
     1
  1
\A1;40
 73
     1
 44
1.0
1001
ACAD
1000
MTEXTBEGIN
1070
    73
1070
     1
1070
    44
1040
1.0
1070
    74
1070
     0
1000
MTEXTEND
  0
POINT
  5
6492D
330
60715
100
AcDbEntity
  8
DEFPOINTS
 62
     0
100
AcDbPoint
 10
166.255394
 20
58.13275999999999
 30
0.0
  0
POINT
  5
6492E
330
60715
100
AcDbEntity
  8
DEFPOINTS
 62
     0
100
AcDbPoint
 10
206.2553929999999
 20
58.13275999999999
 30
0.0
  0
POINT
  5
6492F
330
60715
100
AcDbEntity
  8
DEFPOINTS
 62
     0
100
AcDbPoint
 10
206.2553929999999
 20
35.0
 30
0.0
  0
ENDBLK
  5
60720
330
60715
100
AcDbEntity
  8
0
100
AcDbBlockEnd
  0
BLOCK
  5
60775
330
6076B
100
AcDbEntity
  8
0
100
AcDbBlockBegin
  2
*D4
 70
     1
 10
0.0
 20
0.0
 30
0.0
  3
*D4
  1

  0
LINE
  5
648A9
330
6076B
100
AcDbEntity
  8
SUNPOU
 62
     0
370
    -2
100
AcDbLine
 10
295.712091
 20
126.777576
 30
0.0
 11
295.712091
 21
140.3336669999999
 31
0.0
  0
LINE
  5
648AA
330
6076B
100
AcDbEntity
  8
SUNPOU
 62
     0
370
    -2
100
AcDbLine
 10
341.112091
 20
126.777576
 30
0.0
 11
341.112091
 21
140.3336669999999
 31
0.0
  0
LINE
  5
648AB
330
6076B
100
AcDbEntity
  8
SUNPOU
 62
     0
370
    -2
100
AcDbLine
 10
298.212091
 20
139.8336669999999
 30
0.0
 11
338.612091
 21
139.8336669999999
 31
0.0
  0
INSERT
  5
648AC
330
6076B
100
AcDbEntity
  8
SUNPOU
 62
     0
370
    -2
100
AcDbBlockReference
  2
_Open30
 10
295.712091
 20
139.8336669999999
 30
0.0
 41
2.5
 42
2.5
 43
2.5
 50
180.0
  0
INSERT
  5
648AD
330
6076B
100
AcDbEntity
  8
SUNPOU
 62
     0
370
    -2
100
AcDbBlockReference
  2
_Open30
 10
341.112091
 20
139.8336669999999
 30
0.0
 41
2.5
 42
2.5
 43
2.5
  0
MTEXT
  5
648AE
330
6076B
100
AcDbEntity
  8
SUNPOU
 62
     0
100
AcDbMText
 10
318.412091
 20
142.3336669999999
 30
0.0
 40
4.0
 41
0.0
 71
     5
 72
     1
  1
\A1;45.4
 73
     1
 44
1.0
1001
ACAD
1000
MTEXTBEGIN
1070
    73
1070
     1
1070
    44
1040
1.0
1070
    74
1070
     0
1000
MTEXTEND
  0
POINT
  5
648AF
330
6076B
100
AcDbEntity
  8
DEFPOINTS
 62
     0
100
AcDbPoint
 10
295.712091
 20
126.277576
 30
0.0
  0
POINT
  5
648B0
330
6076B
100
AcDbEntity
  8
DEFPOINTS
 62
     0
100
AcDbPoint
 10
341.112091
 20
126.277576
 30
0.0
  0
POINT
  5
648B1
330
6076B
100
AcDbEntity
  8
DEFPOINTS
 62
     0
100
AcDbPoint
 10
341.112091
 20
139.8336669999999
 30
0.0
  0
ENDBLK
  5
60776
330
6076B
100
AcDbEntity
  8
0
100
AcDbBlockEnd
  0
BLOCK
  5
60781
330
60777
100
AcDbEntity
  8
0
100
AcDbBlockBegin
  2
*D5
 70
     1
 10
0.0
 20
0.0
 30
0.0
  3
*D5
  1

  0
LINE
  5
648A0
330
60777
100
AcDbEntity
  8
SUNPOU
 62
     0
370
    -2
100
AcDbLine
 10
298.212091
 20
129.277576
 30
0.0
 11
268.947058
 21
129.277576
 31
0.0
  0
LINE
  5
648A1
330
60777
100
AcDbEntity
  8
SUNPOU
 62
     0
370
    -2
100
AcDbLine
 10
298.212091
 20
95.97757599999999
 30
0.0
 11
268.947058
 21
95.97757600000001
 31
0.0
  0
LINE
  5
648A2
330
60777
100
AcDbEntity
  8
SUNPOU
 62
     0
370
    -2
100
AcDbLine
 10
269.447058
 20
126.777576
 30
0.0
 11
269.447058
 21
98.47757600000001
 31
0.0
  0
INSERT
  5
648A3
330
60777
100
AcDbEntity
  8
SUNPOU
 62
     0
370
    -2
100
AcDbBlockReference
  2
_Open30
 10
269.447058
 20
129.277576
 30
0.0
 41
2.5
 42
2.5
 43
2.5
 50
90.0
  0
INSERT
  5
648A4
330
60777
100
AcDbEntity
  8
SUNPOU
 62
     0
370
    -2
100
AcDbBlockReference
  2
_Open30
 10
269.447058
 20
95.97757600000001
 30
0.0
 41
2.5
 42
2.5
 43
2.5
 50
270.0
  0
MTEXT
  5
648A5
330
60777
100
AcDbEntity
  8
SUNPOU
 62
     0
100
AcDbMText
 10
266.947058
 20
112.627576
 30
0.0
 40
4.0
 41
0.0
 71
     5
 72
     1
  1
\A1;33.3
 11
0.0000000000000001
 21
1.0
 31
0.0
 73
     1
 44
1.0
1001
ACAD
1000
MTEXTBEGIN
1070
    73
1070
     1
1070
    44
1040
1.0
1070
    74
1070
     0
1000
MTEXTEND
  0
POINT
  5
648A6
330
60777
100
AcDbEntity
  8
DEFPOINTS
 62
     0
100
AcDbPoint
 10
298.712091
 20
129.277576
 30
0.0
  0
POINT
  5
648A7
330
60777
100
AcDbEntity
  8
DEFPOINTS
 62
     0
100
AcDbPoint
 10
298.712091
 20
95.97757599999999
 30
0.0
  0
POINT
  5
648A8
330
60777
100
AcDbEntity
  8
DEFPOINTS
 62
     0
100
AcDbPoint
 10
269.447058
 20
95.97757600000001
 30
0.0
  0
ENDBLK
  5
60782
330
60777
100
AcDbEntity
  8
0
100
AcDbBlockEnd
  0
BLOCK
  5
6078D
330
60783
100
AcDbEntity
  8
0
100
AcDbBlockBegin
  2
*D6
 70
     1
 10
0.0
 20
0.0
 30
0.0
  3
*D6
  1

  0
LINE
  5
64897
330
60783
100
AcDbEntity
  8
SUNPOU
 62
     0
370
    -2
100
AcDbLine
 10
298.212091
 20
83.977576
 30
0.0
 11
268.947058
 21
83.97757600000002
 31
0.0
  0
LINE
  5
64898
330
60783
100
AcDbEntity
  8
SUNPOU
 62
     0
370
    -2
100
AcDbLine
 10
298.212091
 20
59.27757600000001
 30
0.0
 11
268.947058
 21
59.27757600000002
 31
0.0
  0
LINE
  5
64899
330
60783
100
AcDbEntity
  8
SUNPOU
 62
     0
370
    -2
100
AcDbLine
 10
269.447058
 20
81.47757600000002
 30
0.0
 11
269.447058
 21
61.77757600000002
 31
0.0
  0
INSERT
  5
6489A
330
60783
100
AcDbEntity
  8
SUNPOU
 62
     0
370
    -2
100
AcDbBlockReference
  2
_Open30
 10
269.447058
 20
83.97757600000002
 30
0.0
 41
2.5
 42
2.5
 43
2.5
 50
90.0
  0
INSERT
  5
6489B
330
60783
100
AcDbEntity
  8
SUNPOU
 62
     0
370
    -2
100
AcDbBlockReference
  2
_Open30
 10
269.447058
 20
59.27757600000002
 30
0.0
 41
2.5
 42
2.5
 43
2.5
 50
270.0
  0
MTEXT
  5
6489C
330
60783
100
AcDbEntity
  8
SUNPOU
 62
     0
100
AcDbMText
 10
266.947058
 20
71.447576
 30
0.0
 40
4.0
 41
0.0
 71
     5
 72
     1
  1
\A1;24.7
 11
0.0000000000000001
 21
1.0
 31
0.0
 73
     1
 44
1.0
1001
ACAD
1000
MTEXTBEGIN
1070
    73
1070
     1
1070
    44
1040
1.0
1070
    74
1070
     0
1000
MTEXTEND
  0
POINT
  5
6489D
330
60783
100
AcDbEntity
  8
DEFPOINTS
 62
     0
100
AcDbPoint
 10
298.712091
 20
83.977576
 30
0.0
  0
POINT
  5
6489E
330
60783
100
AcDbEntity
  8
DEFPOINTS
 62
     0
100
AcDbPoint
 10
298.712091
 20
59.27757600000001
 30
0.0
  0
POINT
  5
6489F
330
60783
100
AcDbEntity
  8
DEFPOINTS
 62
     0
100
AcDbPoint
 10
269.447058
 20
59.27757600000002
 30
0.0
  0
ENDBLK
  5
6078E
330
60783
100
AcDbEntity
  8
0
100
AcDbBlockEnd
  0
BLOCK
  5
6079A
330
6078F
100
AcDbEntity
  8
0
100
AcDbBlockBegin
  2
*D7
 70
     1
 10
0.0
 20
0.0
 30
0.0
  3
*D7
  1

  0
LINE
  5
64930
330
6078F
100
AcDbEntity
  8
SUNPOU
 62
     0
370
    -2
100
AcDbLine
 10
206.2553929999999
 20
57.63275999999999
 30
0.0
 11
206.2553929999999
 21
34.5
 31
0.0
  0
LINE
  5
64931
330
6078F
100
AcDbEntity
  8
SUNPOU
 62
     0
370
    -2
100
AcDbLine
 10
208.755394
 20
64.000122
 30
0.0
 11
208.755394
 21
34.5
 31
0.0
  0
LINE
  5
64932
330
6078F
100
AcDbEntity
  8
SUNPOU
 62
     0
370
    -2
100
AcDbLine
 10
203.755393
 20
35.0
 30
0.0
 11
201.255393
 21
35.0
 31
0.0
  0
LINE
  5
64933
330
6078F
100
AcDbEntity
  8
SUNPOU
 62
     0
370
    -2
100
AcDbLine
 10
211.255394
 20
35.0
 30
0.0
 11
213.755394
 21
35.0
 31
0.0
  0
LINE
  5
64934
330
6078F
100
AcDbEntity
  8
SUNPOU
 62
     0
370
    -2
100
AcDbLine
 10
207.5053935
 20
35.0
 30
0.0
 11
210.5
 21
27.0
 31
0.0
  0
LINE
  5
64935
330
6078F
100
AcDbEntity
  8
SUNPOU
 62
     0
370
    -2
100
AcDbLine
 10
210.5
 20
27.0
 30
0.0
 11
219.8809523809524
 21
27.0
 31
0.0
  0
MTEXT
  5
64936
330
6078F
100
AcDbEntity
  8
SUNPOU
 62
     0
100
AcDbMText
 10
215.1904761904762
 20
29.5
 30
0.0
 40
4.0
 41
0.0
 71
     5
 72
     1
  1
\A1;2.5
 73
     1
 44
1.0
1001
ACAD
1000
MTEXTBEGIN
1070
    73
1070
     1
1070
    44
1040
1.0
1070
    74
1070
     0
1000
MTEXTEND
  0
LINE
  5
64937
330
6078F
100
AcDbEntity
  8
SUNPOU
 62
     0
370
    -2
100
AcDbLine
 10
206.2553929999999
 20
35.0
 30
0.0
 11
208.755394
 21
35.0
 31
0.0
  0
INSERT
  5
64938
330
6078F
100
AcDbEntity
  8
SUNPOU
 62
     0
370
    -2
100
AcDbBlockReference
  2
_Open30
 10
206.2553929999999
 20
35.0
 30
0.0
 41
2.5
 42
2.5
 43
2.5
  0
INSERT
  5
64939
330
6078F
100
AcDbEntity
  8
SUNPOU
 62
     0
370
    -2
100
AcDbBlockReference
  2
_Open30
 10
208.755394
 20
35.0
 30
0.0
 41
2.5
 42
2.5
 43
2.5
 50
180.0
  0
POINT
  5
6493A
330
6078F
100
AcDbEntity
  8
DEFPOINTS
 62
     0
100
AcDbPoint
 10
206.2553929999999
 20
58.13275999999999
 30
0.0
  0
POINT
  5
6493B
330
6078F
100
AcDbEntity
  8
DEFPOINTS
 62
     0
100
AcDbPoint
 10
208.755394
 20
64.500122
 30
0.0
  0
POINT
  5
6493C
330
6078F
100
AcDbEntity
  8
DEFPOINTS
 62
     0
100
AcDbPoint
 10
208.755394
 20
35.0
 30
0.0
  0
ENDBLK
  5
6079B
330
6078F
100
AcDbEntity
  8
0
100
AcDbBlockEnd
  0
BLOCK
  5
607A6
330
6079C
100
AcDbEntity
  8
0
100
AcDbBlockBegin
  2
*D8
 70
     1
 10
0.0
 20
0.0
 30
0.0
  3
*D8
  1

  0
LINE
  5
6494F
330
6079C
100
AcDbEntity
  8
SUNPOU
 62
     0
370
    -2
100
AcDbLine
 10
52.0
 20
62.5
 30
0.0
 11
52.0
 21
34.5
 31
0.0
  0
LINE
  5
64950
330
6079C
100
AcDbEntity
  8
SUNPOU
 62
     0
370
    -2
100
AcDbLine
 10
133.0
 20
62.5
 30
0.0
 11
133.0
 21
34.5
 31
0.0
  0
LINE
  5
64951
330
6079C
100
AcDbEntity
  8
SUNPOU
 62
     0
370
    -2
100
AcDbLine
 10
54.5
 20
35.0
 30
0.0
 11
130.5
 21
35.0
 31
0.0
  0
INSERT
  5
64952
330
6079C
100
AcDbEntity
  8
SUNPOU
 62
     0
370
    -2
100
AcDbBlockReference
  2
_Open30
 10
52.0
 20
35.0
 30
0.0
 41
2.5
 42
2.5
 43
2.5
 50
180.0
  0
INSERT
  5
64953
330
6079C
100
AcDbEntity
  8
SUNPOU
 62
     0
370
    -2
100
AcDbBlockReference
  2
_Open30
 10
133.0
 20
35.0
 30
0.0
 41
2.5
 42
2.5
 43
2.5
  0
MTEXT
  5
64954
330
6079C
100
AcDbEntity
  8
SUNPOU
 62
     0
100
AcDbMText
 10
92.5
 20
37.5
 30
0.0
 40
4.0
 41
0.0
 71
     5
 72
     1
  1
\A1;81
 73
     1
 44
1.0
1001
ACAD
1000
MTEXTBEGIN
1070
    73
1070
     1
1070
    44
1040
1.0
1070
    74
1070
     0
1000
MTEXTEND
  0
POINT
  5
64955
330
6079C
100
AcDbEntity
  8
DEFPOINTS
 62
     0
100
AcDbPoint
 10
52.0
 20
63.0
 30
0.0
  0
POINT
  5
64956
330
6079C
100
AcDbEntity
  8
DEFPOINTS
 62
     0
100
AcDbPoint
 10
133.0
 20
63.0
 30
0.0
  0
POINT
  5
64957
330
6079C
100
AcDbEntity
  8
DEFPOINTS
 62
     0
100
AcDbPoint
 10
133.0
 20
35.0
 30
0.0
  0
ENDBLK
  5
607A7
330
6079C
100
AcDbEntity
  8
0
100
AcDbBlockEnd
  0
BLOCK
  5
607B2
330
607A8
100
AcDbEntity
  8
0
100
AcDbBlockBegin
  2
*D9
 70
     1
 10
0.0
 20
0.0
 30
0.0
  3
*D9
  1

  0
LINE
  5
64946
330
607A8
100
AcDbEntity
  8
SUNPOU
 62
     0
370
    -2
100
AcDbLine
 10
64.39922480581419
 20
190.9996099953247
 30
0.0
 11
41.26846599999995
 21
190.9996099953248
 31
0.0
  0
LINE
  5
64947
330
607A8
100
AcDbEntity
  8
SUNPOU
 62
     0
370
    -2
100
AcDbLine
 10
64.5
 20
50.0
 30
0.0
 11
41.26846599999993
 21
50.0
 31
0.0
  0
LINE
  5
64948
330
607A8
100
AcDbEntity
  8
SUNPOU
 62
     0
370
    -2
100
AcDbLine
 10
41.76846599999996
 20
188.4996099953248
 30
0.0
 11
41.76846599999993
 21
52.5
 31
0.0
  0
INSERT
  5
64949
330
607A8
100
AcDbEntity
  8
SUNPOU
 62
     0
370
    -2
100
AcDbBlockReference
  2
_Open30
 10
41.76846599999996
 20
190.9996099953248
 30
0.0
 41
2.5
 42
2.5
 43
2.5
 50
90.0
  0
INSERT
  5
6494A
330
607A8
100
AcDbEntity
  8
SUNPOU
 62
     0
370
    -2
100
AcDbBlockReference
  2
_Open30
 10
41.76846599999993
 20
50.0
 30
0.0
 41
2.5
 42
2.5
 43
2.5
 50
270.0
  0
MTEXT
  5
6494B
330
607A8
100
AcDbEntity
  8
SUNPOU
 62
     0
100
AcDbMText
 10
39.26846599999993
 20
120.4998049976624
 30
0.0
 40
4.0
 41
0.0
 71
     5
 72
     1
  1
\A1;141
 11
0.0000000000000001
 21
1.0
 31
0.0
 73
     1
 44
1.0
1001
ACAD
1000
MTEXTBEGIN
1070
    73
1070
     1
1070
    44
1040
1.0
1070
    74
1070
     0
1000
MTEXTEND
  0
POINT
  5
6494C
330
607A8
100
AcDbEntity
  8
DEFPOINTS
 62
     0
100
AcDbPoint
 10
64.89922480581419
 20
190.9996099953247
 30
0.0
  0
POINT
  5
6494D
330
607A8
100
AcDbEntity
  8
DEFPOINTS
 62
     0
100
AcDbPoint
 10
65.0
 20
50.0
 30
0.0
  0
POINT
  5
6494E
330
607A8
100
AcDbEntity
  8
DEFPOINTS
 62
     0
100
AcDbPoint
 10
41.76846599999993
 20
50.0
 30
0.0
  0
ENDBLK
  5
607B3
330
607A8
100
AcDbEntity
  8
0
100
AcDbBlockEnd
  0
BLOCK
  5
607BE
330
607B4
100
AcDbEntity
  8
0
100
AcDbBlockBegin
  2
*D10
 70
     1
 10
0.0
 20
0.0
 30
0.0
  3
*D10
  1

  0
LINE
  5
6493D
330
607B4
100
AcDbEntity
  8
SUNPOU
 62
     0
370
    -2
100
AcDbLine
 10
83.49999953131225
 20
200.1964076210507
 30
0.0
 11
41.26846599999999
 21
200.1964076210508
 31
0.0
  0
LINE
  5
6493E
330
607B4
100
AcDbEntity
  8
SUNPOU
 62
     0
370
    -2
100
AcDbLine
 10
64.39922480581419
 20
190.9996099953247
 30
0.0
 11
41.26846599999999
 21
190.9996099953248
 31
0.0
  0
LINE
  5
6493F
330
607B4
100
AcDbEntity
  8
SUNPOU
 62
     0
370
    -2
100
AcDbLine
 10
41.76846599999999
 20
197.6964076210507
 30
0.0
 11
41.76846599999999
 21
193.4996099953248
 31
0.0
  0
INSERT
  5
64940
330
607B4
100
AcDbEntity
  8
SUNPOU
 62
     0
370
    -2
100
AcDbBlockReference
  2
_Open30
 10
41.76846599999999
 20
200.1964076210508
 30
0.0
 41
2.5
 42
2.5
 43
2.5
 50
90.0
  0
INSERT
  5
64941
330
607B4
100
AcDbEntity
  8
SUNPOU
 62
     0
370
    -2
100
AcDbBlockReference
  2
_Open30
 10
41.76846599999999
 20
190.9996099953248
 30
0.0
 41
2.5
 42
2.5
 43
2.5
 50
270.0
  0
MTEXT
  5
64942
330
607B4
100
AcDbEntity
  8
SUNPOU
 62
     0
100
AcDbMText
 10
39.26846599999996
 20
195.5980088081878
 30
0.0
 40
4.0
 41
0.0
 71
     5
 72
     1
  1
\A1;9
 11
0.0000000000000001
 21
1.0
 31
0.0
 73
     1
 44
1.0
1001
ACAD
1000
MTEXTBEGIN
1070
    73
1070
     1
1070
    44
1040
1.0
1070
    74
1070
     0
1000
MTEXTEND
  0
POINT
  5
64943
330
607B4
100
AcDbEntity
  8
DEFPOINTS
 62
     0
100
AcDbPoint
 10
83.99999953131226
 20
200.1964076210507
 30
0.0
  0
POINT
  5
64944
330
607B4
100
AcDbEntity
  8
DEFPOINTS
 62
     0
100
AcDbPoint
 10
64.89922480581419
 20
190.9996099953247
 30
0.0
  0
POINT
  5
64945
330
607B4
100
AcDbEntity
  8
DEFPOINTS
 62
     0
100
AcDbPoint
 10
41.76846599999999
 20
190.9996099953248
 30
0.0
  0
ENDBLK
  5
607BF
330
607B4
100
AcDbEntity
  8
0
100
AcDbBlockEnd
  0
ENDSEC
  0
SECTION
  2
ENTITIES
  0
LINE
  5
C9
330
1A
100
AcDbEntity
  8
WAKU
 62
     7
100
AcDbLine
 10
405.0
 20
280.0
 30
0.0
 11
20.0
 21
280.0
 31
0.0
  0
LINE
  5
CB
330
1A
100
AcDbEntity
  8
WAKU
 62
     7
100
AcDbLine
 10
20.0
 20
5.0
 30
0.0
 11
405.0
 21
5.0
 31
0.0
  0
LINE
  5
D4
330
1A
100
AcDbEntity
  8
WAKU
100
AcDbLine
 10
405.0
 20
5.0
 30
0.0
 11
405.0
 21
280.0
 31
0.0
  0
LINE
  5
D5
330
1A
100
AcDbEntity
  8
WAKU
100
AcDbLine
 10
20.0
 20
280.0
 30
0.0
 11
20.0
 21
5.0
 31
0.0
  0
LINE
  5
D6
330
1A
100
AcDbEntity
  8
WAKU
 62
     7
100
AcDbLine
 10
225.0
 20
50.0
 30
0.0
 11
405.0
 21
50.0
 31
0.0
  0
LINE
  5
D7
330
1A
100
AcDbEntity
  8
WAKU
100
AcDbLine
 10
225.0
 20
5.0
 30
0.0
 11
225.0
 21
50.0
 31
0.0
  0
LINE
  5
D8
330
1A
100
AcDbEntity
  8
WAKU
100
AcDbLine
 10
345.0
 20
5.0
 30
0.0
 11
345.0
 21
50.0
 31
0.0
  0
LINE
  5
D9
330
1A
100
AcDbEntity
  8
WAKU
 62
     7
100
AcDbLine
 10
345.0
 20
15.0
 30
0.0
 11
405.0
 21
15.0
 31
0.0
  0
LINE
  5
DA
330
1A
100
AcDbEntity
  8
WAKU
 62
     7
100
AcDbLine
 10
345.0
 20
22.0
 30
0.0
 11
405.0
 21
22.0
 31
0.0
  0
LINE
  5
DB
330
1A
100
AcDbEntity
  8
WAKU
 62
     7
100
AcDbLine
 10
345.0
 20
29.0
 30
0.0
 11
405.0
 21
29.0
 31
0.0
  0
LINE
  5
DC
330
1A
100
AcDbEntity
  8
WAKU
 62
     7
100
AcDbLine
 10
345.0
 20
36.0
 30
0.0
 11
405.0
 21
36.0
 31
0.0
  0
LINE
  5
DD
330
1A
100
AcDbEntity
  8
WAKU
 62
     7
100
AcDbLine
 10
345.0
 20
43.0
 30
0.0
 11
405.0
 21
43.0
 31
0.0
  0
LINE
  5
DE
330
1A
100
AcDbEntity
  8
WAKU
100
AcDbLine
 10
360.0
 20
15.0
 30
0.0
 11
360.0
 21
50.0
 31
0.0
  0
LINE
  5
DF
330
1A
100
AcDbEntity
  8
WAKU
100
AcDbLine
 10
352.0
 20
5.0
 30
0.0
 11
352.0
 21
15.0
 31
0.0
  0
LINE
  5
E0
330
1A
100
AcDbEntity
  8
WAKU
100
AcDbLine
 10
330.0
 20
13.0
 30
0.0
 11
330.0
 21
34.0
 31
0.0
  0
LINE
  5
E1
330
1A
100
AcDbEntity
  8
WAKU
100
AcDbLine
 10
315.0
 20
13.0
 30
0.0
 11
315.0
 21
34.0
 31
0.0
  0
LINE
  5
E2
330
1A
100
AcDbEntity
  8
WAKU
100
AcDbLine
 10
300.0
 20
34.0
 30
0.0
 11
300.0
 21
50.0
 31
0.0
  0
LINE
  5
E3
330
1A
100
AcDbEntity
  8
WAKU
100
AcDbLine
 10
285.0
 20
13.0
 30
0.0
 11
285.0
 21
50.0
 31
0.0
  0
LINE
  5
E4
330
1A
100
AcDbEntity
  8
WAKU
100
AcDbLine
 10
345.0
 20
40.0
 30
0.0
 11
285.0
 21
40.0
 31
0.0
  0
LINE
  5
E5
330
1A
100
AcDbEntity
  8
WAKU
100
AcDbLine
 10
345.0
 20
34.0
 30
0.0
 11
285.0
 21
34.0
 31
0.0
  0
LINE
  5
E6
330
1A
100
AcDbEntity
  8
WAKU
100
AcDbLine
 10
345.0
 20
28.0
 30
0.0
 11
285.0
 21
28.0
 31
0.0
  0
LINE
  5
E7
330
1A
100
AcDbEntity
  8
WAKU
100
AcDbLine
 10
345.0
 20
13.0
 30
0.0
 11
225.0
 21
13.0
 31
0.0
  0
MTEXT
  5
E9
330
1A
100
AcDbEntity
  8
WAKU
100
AcDbMText
 10
345.0
 20
43.0
 30
0.0
 40
4.0
 41
15.0
 71
     1
 72
     5
  1

 73
     1
 44
1.0
1001
ACAD
1000
MTEXTBEGIN
1070
    73
1070
     1
1070
    44
1040
1.0
1070
    74
1070
     0
1000
MTEXTEND
  0
MTEXT
  5
EA
330
1A
100
AcDbEntity
  8
WAKU
100
AcDbMText
 10
345.0
 20
49.0
 30
0.0
 40
4.0
 41
14.0
 71
     1
 72
     5
  1

 73
     1
 44
1.0
1001
ACAD
1000
MTEXTBEGIN
1070
    73
1070
     1
1070
    44
1040
1.0
1070
    74
1070
     0
1000
MTEXTEND
  0
MTEXT
  5
ED
330
1A
100
AcDbEntity
  8
WAKU
100
AcDbMText
 10
347.3192310662242
 20
34.48051906497278
 30
0.0
 40
3.0
 41
11.0
 71
     1
 72
     5
  1
部品表
 73
     1
 44
1.0
1001
ACAD
1000
MTEXTBEGIN
1070
    73
1070
     1
1070
    44
1040
1.0
1070
    74
1070
     0
1000
MTEXTEND
  0
MTEXT
  5
EE
330
1A
100
AcDbEntity
  8
WAKU
100
AcDbMText
 10
327.0
 20
82.0
 30
0.0
 40
3.0
 41
37.0
 71
     1
 72
     5
  1

 73
     1
 44
1.0
1001
ACAD
1000
MTEXTBEGIN
1070
    73
1070
     1
1070
    44
1040
1.0
1070
    74
1070
     0
1000
MTEXTEND
  0
MTEXT
  5
F0
330
1A
100
AcDbEntity
  8
WAKU
100
AcDbMText
 10
347.2
 20
47.7
 30
0.0
 40
3.0
 41
10.0
 71
     1
 72
     5
  1
機種名
 73
     1
 44
1.0
1001
ACAD
1000
MTEXTBEGIN
1070
    73
1070
     1
1070
    44
1040
1.0
1070
    74
1070
     0
1000
MTEXTEND
  0
MTEXT
  5
F1
330
1A
100
AcDbEntity
  8
WAKU
100
AcDbMText
 10
347.2999999999999
 20
40.69999999999999
 30
0.0
 40
3.0
 41
10.0
 71
     1
 72
     5
  1
部　名
 73
     1
 44
1.0
1001
ACAD
1000
MTEXTBEGIN
1070
    73
1070
     1
1070
    44
1040
1.0
1070
    74
1070
     0
1000
MTEXTEND
  0
MTEXT
  5
F2
330
1A
100
AcDbEntity
  8
WAKU
100
AcDbMText
 10
346.0
 20
27.0
 30
0.0
 40
3.0
 41
10.0
 71
     1
 72
     5
  1
ｽﾄｯｸNo.
 73
     1
 44
1.0
1001
ACAD
1000
MTEXTBEGIN
1070
    73
1070
     1
1070
    44
1040
1.0
1070
    74
1070
     0
1000
MTEXTEND
  0
MTEXT
  5
F3
330
1A
100
AcDbEntity
  8
WAKU
100
AcDbMText
 10
347.0
 20
20.0
 30
0.0
 40
3.0
 41
12.0
 71
     1
 72
     5
  1
適用ﾛｯﾄ
 73
     1
 44
1.0
1001
ACAD
1000
MTEXTBEGIN
1070
    73
1070
     1
1070
    44
1040
1.0
1070
    74
1070
     0
1000
MTEXTEND
  0
MTEXT
  5
F5
330
1A
100
AcDbEntity
  8
WAKU
100
AcDbMText
 10
330.0
 20
85.0
 30
0.0
 40
3.0
 41
12.0
 71
     1
 72
     5
  1

 73
     1
 44
1.0
1001
ACAD
1000
MTEXTBEGIN
1070
    73
1070
     1
1070
    44
1040
1.0
1070
    74
1070
     0
1000
MTEXTEND
  0
MTEXT
  5
FF
330
1A
100
AcDbEntity
  8
WAKU
100
AcDbMText
 10
271.0
 20
82.0
 30
0.0
 40
3.0
 41
74.0
 71
     1
 72
     5
  1

 73
     1
 44
1.0
1001
ACAD
1000
MTEXTBEGIN
1070
    73
1070
     1
1070
    44
1040
1.0
1070
    74
1070
     0
1000
MTEXTEND
  0
LINE
  5
78B
330
1A
100
AcDbEntity
  8
WAKU
100
AcDbLine
 10
285.0
 20
17.0
 30
0.0
 11
225.0
 21
17.0
 31
0.0
  0
LINE
  5
78C
330
1A
100
AcDbEntity
  8
WAKU
100
AcDbLine
 10
285.0
 20
21.0
 30
0.0
 11
225.0
 21
21.0
 31
0.0
  0
LINE
  5
78D
330
1A
100
AcDbEntity
  8
WAKU
100
AcDbLine
 10
285.0
 20
25.0
 30
0.0
 11
225.0
 21
25.0
 31
0.0
  0
LINE
  5
78E
330
1A
100
AcDbEntity
  8
WAKU
100
AcDbLine
 10
285.0
 20
29.0
 30
0.0
 11
225.0
 21
29.0
 31
0.0
  0
LINE
  5
78F
330
1A
100
AcDbEntity
  8
WAKU
100
AcDbLine
 10
285.0
 20
33.0
 30
0.0
 11
225.0
 21
33.0
 31
0.0
  0
LINE
  5
790
330
1A
100
AcDbEntity
  8
WAKU
100
AcDbLine
 10
285.0
 20
37.0
 30
0.0
 11
225.0
 21
37.0
 31
0.0
  0
LINE
  5
791
330
1A
100
AcDbEntity
  8
WAKU
100
AcDbLine
 10
285.0
 20
41.0
 30
0.0
 11
225.0
 21
41.0
 31
0.0
  0
LINE
  5
792
330
1A
100
AcDbEntity
  8
WAKU
100
AcDbLine
 10
285.0
 20
45.0
 30
0.0
 11
225.0
 21
45.0
 31
0.0
  0
LINE
  5
794
330
1A
100
AcDbEntity
  8
WAKU
100
AcDbLine
 10
233.0
 20
13.0
 30
0.0
 11
233.0
 21
50.0
 31
0.0
  0
LINE
  5
795
330
1A
100
AcDbEntity
  8
WAKU
100
AcDbLine
 10
246.0
 20
13.0
 30
0.0
 11
246.0
 21
50.0
 31
0.0
  0
LINE
  5
796
330
1A
100
AcDbEntity
  8
WAKU
100
AcDbLine
 10
256.0
 20
13.0
 30
0.0
 11
256.0
 21
50.0
 31
0.0
  0
TEXT
  5
797
330
1A
100
AcDbEntity
  8
WAKU
100
AcDbText
 10
226.0
 20
46.0
 30
0.0
 40
3.0
  1
記号
100
AcDbText
  0
TEXT
  5
798
330
1A
100
AcDbEntity
  8
WAKU
100
AcDbText
 10
234.5
 20
46.0
 30
0.0
 40
3.0
  1
年月日
100
AcDbText
  0
TEXT
  5
799
330
1A
100
AcDbEntity
  8
WAKU
100
AcDbText
 10
248.0
 20
46.0
 30
0.0
 40
3.0
  1
担当
100
AcDbText
  0
TEXT
  5
79A
330
1A
100
AcDbEntity
  8
WAKU
100
AcDbText
 10
263.5
 20
46.0
 30
0.0
 40
3.0
  1
改連No.
100
AcDbText
  0
TEXT
  5
7C5
330
1A
100
AcDbEntity
  8
WAKU
100
AcDbText
 10
228.0
 20
17.5
 30
0.0
 40
2.0
  1
1
100
AcDbText
  0
TEXT
  5
7C6
330
1A
100
AcDbEntity
  8
WAKU
100
AcDbText
 10
228.0
 20
21.5
 30
0.0
 40
2.0
  1
2
100
AcDbText
  0
TEXT
  5
7C7
330
1A
100
AcDbEntity
  8
WAKU
100
AcDbText
 10
228.0
 20
25.5
 30
0.0
 40
2.0
  1
3
100
AcDbText
  0
TEXT
  5
7C8
330
1A
100
AcDbEntity
  8
WAKU
100
AcDbText
 10
228.0
 20
29.5
 30
0.0
 40
2.0
  1
4
100
AcDbText
  0
TEXT
  5
7C9
330
1A
100
AcDbEntity
  8
WAKU
100
AcDbText
 10
228.0
 20
33.5
 30
0.0
 40
2.0
  1
5
100
AcDbText
  0
TEXT
  5
7CA
330
1A
100
AcDbEntity
  8
WAKU
100
AcDbText
 10
228.0
 20
37.5
 30
0.0
 40
2.0
  1
6
100
AcDbText
  0
TEXT
  5
7CB
330
1A
100
AcDbEntity
  8
WAKU
100
AcDbText
 10
228.0
 20
41.5
 30
0.0
 40
2.0
  1
7
100
AcDbText
  0
TEXT
  5
7CC
330
1A
100
AcDbEntity
  8
WAKU
100
AcDbText
 10
226.0
 20
13.5
 30
0.0
 40
3.0
  1
設置
100
AcDbText
  0
TEXT
  5
7CD
330
1A
100
AcDbEntity
  8
WAKU
100
AcDbText
 10
287.5
 20
35.5
 30
0.0
 40
3.0
  1
尺　度
 72
     4
 11
292.5
 21
37.0
 31
0.0
100
AcDbText
  0
LINE
  5
7CE
330
1A
100
AcDbEntity
  8
WAKU
100
AcDbLine
 10
298.0
 20
48.0
 30
0.0
 11
287.0
 21
42.0
 31
0.0
  0
TEXT
  5
7CF
330
1A
100
AcDbEntity
  8
WAKU
100
AcDbText
 10
346.5
 20
10.5
 30
0.0
 40
3.0
  1
図
100
AcDbText
  0
TEXT
  5
7D0
330
1A
100
AcDbEntity
  8
WAKU
100
AcDbText
 10
346.5
 20
6.0
 30
0.0
 40
3.0
  1
番
100
AcDbText
  0
TEXT
  5
7D1
330
1A
100
AcDbEntity
  8
WAKU
100
AcDbText
 10
256.5
 20
6.0
 30
0.0
 40
6.0
  1
東洋測器株式会社
100
AcDbText
  0
TEXT
  5
8C1
330
1A
100
AcDbEntity
  8
0
100
AcDbText
 10
293.0
 20
41.5
 30
0.0
 40
3.0
  1
1
100
AcDbText
  0
TEXT
  5
8C4
330
1A
100
AcDbEntity
  8
0
100
AcDbText
 10
315.3533333333334
 20
43.0
 30
0.0
 40
4.0
  1
外 形 図
 41
0.8
 72
     4
 11
322.5
 21
45.0
 31
0.0
100
AcDbText
  0
TEXT
  5
8C5
330
1A
100
AcDbEntity
  8
0
100
AcDbText
 10
362.0
 20
44.5
 30
0.0
 40
3.0
  1
TI-801
 11
362.0
 21
44.5
 31
0.0
100
AcDbText
 73
     1
  0
TEXT
  5
8C6
330
1A
100
AcDbEntity
  8
0
100
AcDbText
 10
287.5
 20
44.5
 30
0.0
 40
3.0
  1
1
100
AcDbText
  0
TEXT
  5
222A
330
1A
100
AcDbEntity
  8
0
100
AcDbText
 10
358.0
 20
7.5
 30
0.0
 40
3.0
  1
EA3-00152
100
AcDbText
  0
LWPOLYLINE
  5
8980
330
1A
100
AcDbEntity
  8
0
100
AcDbPolyline
 90
        3
 70
     1
 43
0.0
 10
398.0002991937029
 20
13.75002575180714
 10
393.6701721747807
 20
6.250025751807143
 10
402.330426212625
 20
6.250025751807143
  0
LWPOLYLINE
  5
89DF
330
1A
100
AcDbEntity
  8
WAKU
100
AcDbPolyline
 90
        3
 70
     1
 43
0.0
 10
229.0
 20
45.0
 10
226.8349364905389
 20
41.25
 10
231.1650635094611
 20
41.25
  0
LWPOLYLINE
  5
89E0
330
1A
100
AcDbEntity
  8
WAKU
100
AcDbPolyline
 90
        3
 70
     1
 43
0.0
 10
229.0
 20
41.0
 10
226.8349364905389
 20
37.25
 10
231.1650635094611
 20
37.25
  0
LWPOLYLINE
  5
89E1
330
1A
100
AcDbEntity
  8
WAKU
100
AcDbPolyline
 90
        3
 70
     1
 43
0.0
 10
229.0
 20
33.0
 10
226.8349364905389
 20
29.25
 10
231.1650635094611
 20
29.25
  0
LWPOLYLINE
  5
89E2
330
1A
100
AcDbEntity
  8
WAKU
100
AcDbPolyline
 90
        3
 70
     1
 43
0.0
 10
229.0
 20
37.0
 10
226.8349364905389
 20
33.25
 10
231.1650635094611
 20
33.25
  0
LWPOLYLINE
  5
89E3
330
1A
100
AcDbEntity
  8
WAKU
100
AcDbPolyline
 90
        3
 70
     1
 43
0.0
 10
229.0
 20
21.0
 10
226.8349364905389
 20
17.25
 10
231.1650635094611
 20
17.25
  0
LWPOLYLINE
  5
89E4
330
1A
100
AcDbEntity
  8
WAKU
100
AcDbPolyline
 90
        3
 70
     1
 43
0.0
 10
229.0
 20
25.0
 10
226.8349364905389
 20
21.25
 10
231.1650635094611
 20
21.25
  0
LWPOLYLINE
  5
89E5
330
1A
100
AcDbEntity
  8
WAKU
100
AcDbPolyline
 90
        3
 70
     1
 43
0.0
 10
229.0
 20
29.0
 10
226.8349364905389
 20
25.25
 10
231.1650635094611
 20
25.25
  0
TEXT
  5
941F
330
1A
100
AcDbEntity
  8
0
100
AcDbText
 10
234.0
 20
14.0
 30
0.0
 40
2.0
  1
20.09.09
 41
0.8
100
AcDbText
  0
TEXT
  5
9420
330
1A
100
AcDbEntity
  8
0
100
AcDbText
 10
247.5
 20
13.5
 30
0.0
 40
3.0
  1
大野
100
AcDbText
  0
TEXT
  5
A8B3
330
1A
100
AcDbEntity
  8
0
100
AcDbText
 10
396.5
 20
7.0
 30
0.0
 40
3.0
  1
2
100
AcDbText
  0
TEXT
  5
A953
330
1A
100
AcDbEntity
  8
WAKU
100
AcDbText
 10
332.5
 20
29.5
 30
0.0
 40
3.0
  1
設　計
 72
     4
 11
337.5
 21
31.0
 31
0.0
100
AcDbText
  0
TEXT
  5
A954
330
1A
100
AcDbEntity
  8
WAKU
100
AcDbText
 10
317.6
 20
29.5
 30
0.0
 40
3.0
  1
検　図
 72
     4
 11
322.5
 21
31.0
 31
0.0
100
AcDbText
  0
TEXT
  5
A955
330
1A
100
AcDbEntity
  8
WAKU
100
AcDbText
 10
295.0
 20
29.5
 30
0.0
 40
3.0
  1
承　認
 72
     4
 11
300.0
 21
31.0
 31
0.0
100
AcDbText
  0
TEXT
  5
A956
330
1A
100
AcDbEntity
  8
WAKU
100
AcDbText
 10
315.7
 20
35.5
 30
0.0
 40
3.0
  1
名　　称
 72
     4
 11
322.5
 21
37.0
 31
0.0
100
AcDbText
  0
TEXT
  5
A957
330
1A
100
AcDbEntity
  8
0
100
AcDbText
 10
316.0
 20
14.0
 30
0.0
 40
2.0
  1
20.10.07
100
AcDbText
  0
TEXT
  5
A958
330
1A
100
AcDbEntity
  8
0
100
AcDbText
 10
318.0
 20
19.0
 30
0.0
 40
4.0
  1
奥野
100
AcDbText
  0
TEXT
  5
A959
330
1A
100
AcDbEntity
  8
0
100
AcDbText
 10
333.0
 20
19.0
 30
0.0
 40
4.0
  1
大野
100
AcDbText
  0
TEXT
  5
A95A
330
1A
100
AcDbEntity
  8
0
100
AcDbText
 10
331.0
 20
14.0
 30
0.0
 40
2.0
  1
20.10.07
100
AcDbText
  0
LINE
  5
A9CF
330
1A
100
AcDbEntity
  8
WAKU
100
AcDbLine
 10
300.0
 20
13.0
 30
0.0
 11
300.0
 21
28.0
 31
0.0
  0
TEXT
  5
57FA6
330
1A
100
AcDbEntity
  8
0
100
AcDbText
 10
288.0
 20
19.0
 30
0.0
 40
4.0
  1
金子
100
AcDbText
  0
TEXT
  5
57FA7
330
1A
100
AcDbEntity
  8
0
100
AcDbText
 10
286.0
 20
14.0
 30
0.0
 40
2.0
  1
20.10.07
100
AcDbText
  0
TEXT
  5
5F71F
330
1A
100
AcDbEntity
  8
0
100
AcDbText
 10
234.0
 20
18.0
 30
0.0
 40
2.0
  1
20.10.07
 41
0.8
100
AcDbText
  0
TEXT
  5
5F720
330
1A
100
AcDbEntity
  8
0
100
AcDbText
 10
247.5
 20
17.5
 30
0.0
 40
3.0
  1
大野
100
AcDbText
  0
DIMENSION
  5
6049D
330
1A
100
AcDbEntity
  8
SUNPOU
100
AcDbDimension
  2
*D8
 10
133.0
 20
35.0
 30
0.0
 11
92.5
 21
37.5
 31
0.0
 70
    32
 71
     5
 42
81.0
  3
STANDARD
100
AcDbAlignedDimension
 13
52.0
 23
63.0
 33
0.0
 14
133.0
 24
63.0
 34
0.0
100
AcDbRotatedDimension
1001
ACAD
1000
DSTYLE
1002
{
1070
    41
1040
2.5
1070
    42
1040
0.5
1070
    43
1040
10.0
1070
    44
1040
0.5
1070
    73
1070
     0
1070
    74
1070
     0
1070
    77
1070
     1
1070
   140
1040
4.0
1070
   141
1040
0.0
1070
   147
1040
0.5
1070
   271
1070
     0
1070
   272
1070
     2
1070
   341
1005
1D153
1070
   342
1005
1D153
1070
   343
1005
1D153
1070
   344
1005
600CD
1002
}
  0
DIMENSION
  5
6049E
330
1A
100
AcDbEntity
  8
SUNPOU
100
AcDbDimension
  2
*D9
 10
41.76846599999993
 20
50.0
 30
0.0
 11
39.26846599999993
 21
120.4998049976624
 31
0.0
 70
    32
 71
     5
 42
140.9996099953247
  3
STANDARD
100
AcDbAlignedDimension
 13
64.89922480581419
 23
190.9996099953247
 33
0.0
 14
65.0
 24
50.0
 34
0.0
 50
90.0
100
AcDbRotatedDimension
1001
ACAD
1000
DSTYLE
1002
{
1070
    41
1040
2.5
1070
    42
1040
0.5
1070
    43
1040
10.0
1070
    44
1040
0.5
1070
    73
1070
     0
1070
    74
1070
     0
1070
    77
1070
     1
1070
   140
1040
4.0
1070
   141
1040
0.0
1070
   147
1040
0.5
1070
   271
1070
     0
1070
   272
1070
     2
1070
   279
1070
     1
1070
   341
1005
1D153
1070
   342
1005
1D153
1070
   343
1005
1D153
1070
   344
1005
600CD
1002
}
  0
DIMENSION
  5
6049F
330
1A
100
AcDbEntity
  8
SUNPOU
100
AcDbDimension
  2
*D10
 10
41.76846599999999
 20
190.9996099953248
 30
0.0
 11
39.26846599999996
 21
195.5980088081878
 31
0.0
 70
    32
 71
     5
 42
9.196797625725963
  3
STANDARD
100
AcDbAlignedDimension
 13
83.99999953131226
 23
200.1964076210507
 33
0.0
 14
64.89922480581419
 24
190.9996099953247
 34
0.0
 50
90.0
100
AcDbRotatedDimension
1001
ACAD
1000
DSTYLE
1002
{
1070
    41
1040
2.5
1070
    42
1040
0.5
1070
    43
1040
10.0
1070
    44
1040
0.5
1070
    73
1070
     0
1070
    74
1070
     0
1070
    77
1070
     1
1070
   140
1040
4.0
1070
   141
1040
0.0
1070
   147
1040
0.5
1070
   271
1070
     0
1070
   272
1070
     2
1070
   341
1005
1D153
1070
   342
1005
1D153
1070
   343
1005
1D153
1070
   344
1005
600CD
1002
}
  0
LINE
  5
604A0
330
1A
100
AcDbEntity
  8
0
100
AcDbLine
 10
119.6
 20
249.761782
 30
0.0
 11
119.6
 21
223.461782
 31
0.0
  0
LINE
  5
604A1
330
1A
100
AcDbEntity
  8
0
100
AcDbLine
 10
65.39999999999998
 20
249.761782
 30
0.0
 11
119.6
 21
249.761782
 31
0.0
  0
LINE
  5
604A2
330
1A
100
AcDbEntity
  8
0
100
AcDbLine
 10
119.6
 20
223.461782
 30
0.0
 11
65.39999999999998
 21
223.461782
 31
0.0
  0
LINE
  5
604A3
330
1A
100
AcDbEntity
  8
0
100
AcDbLine
 10
65.39999999999998
 20
223.461782
 30
0.0
 11
65.39999999999998
 21
249.761782
 31
0.0
  0
POINT
  5
604A4
330
1A
100
AcDbEntity
  8
0
100
AcDbPoint
 10
65.39999999999998
 20
236.611782
 30
0.0
  0
LINE
  5
604DE
330
1A
100
AcDbEntity
  8
0
100
AcDbLine
 10
120.0
 20
62.0
 30
0.0
 11
65.0
 21
62.0
 31
0.0
  0
LINE
  5
604DF
330
1A
100
AcDbEntity
  8
0
100
AcDbLine
 10
63.5
 20
63.5
 30
0.0
 11
63.5
 21
177.4999999999999
 31
0.0
  0
LINE
  5
604E0
330
1A
100
AcDbEntity
  8
0
100
AcDbLine
 10
65.0
 20
179.0
 30
0.0
 11
120.0
 21
179.0
 31
0.0
  0
ARC
  5
604E1
330
1A
100
AcDbEntity
  8
0
100
AcDbCircle
 10
65.0
 20
63.5
 30
0.0
 40
1.5
100
AcDbArc
 50
180.0
 51
270.0
  0
ARC
  5
604E2
330
1A
100
AcDbEntity
  8
0
100
AcDbCircle
 10
65.0
 20
177.4999999999999
 30
0.0
 40
1.5
100
AcDbArc
 50
90.0
 51
180.0
  0
ARC
  5
604E3
330
1A
100
AcDbEntity
  8
0
100
AcDbCircle
 10
120.0
 20
177.4999999999999
 30
0.0
 40
1.5
100
AcDbArc
 50
0.0
 51
90.0
  0
LINE
  5
604E4
330
1A
100
AcDbEntity
  8
0
100
AcDbLine
 10
121.5
 20
63.5
 30
0.0
 11
121.5
 21
177.4999999999999
 31
0.0
  0
ARC
  5
604E5
330
1A
100
AcDbEntity
  8
0
100
AcDbCircle
 10
120.0
 20
63.5
 30
0.0
 40
1.5
100
AcDbArc
 50
270.0
 51
0.0
  0
ARC
  5
604E9
330
1A
100
AcDbEntity
  8
0
100
AcDbCircle
 10
65.0
 20
178.0
 30
0.0
 40
13.0
100
AcDbArc
 50
90.44415800000031
 51
180.0
  0
ARC
  5
604EA
330
1A
100
AcDbEntity
  8
0
100
AcDbCircle
 10
64.89999999999998
 20
190.899613
 30
0.0
 40
0.1
100
AcDbArc
 50
0.0
 51
90.44415800000031
  0
LINE
  5
604EB
330
1A
100
AcDbEntity
  8
0
100
AcDbLine
 10
52.0
 20
178.0
 30
0.0
 11
52.0
 21
63.0
 31
0.0
  0
ARC
  5
604EC
330
1A
100
AcDbEntity
  8
0
100
AcDbCircle
 10
65.0
 20
63.0
 30
0.0
 40
13.0
100
AcDbArc
 50
180.0
 51
270.0
  0
LINE
  5
604ED
330
1A
100
AcDbEntity
  8
0
100
AcDbLine
 10
65.0
 20
50.0
 30
0.0
 11
120.0
 21
50.0
 31
0.0
  0
ARC
  5
604EE
330
1A
100
AcDbEntity
  8
0
100
AcDbCircle
 10
120.0
 20
63.0
 30
0.0
 40
13.0
100
AcDbArc
 50
270.0
 51
0.0
  0
LINE
  5
604EF
330
1A
100
AcDbEntity
  8
0
100
AcDbLine
 10
133.0
 20
63.0
 30
0.0
 11
133.0
 21
178.0
 31
0.0
  0
ARC
  5
604F0
330
1A
100
AcDbEntity
  8
0
100
AcDbCircle
 10
120.0
 20
178.0
 30
0.0
 40
13.0
100
AcDbArc
 50
0.0
 51
89.55584199999968
  0
ARC
  5
604F1
330
1A
100
AcDbEntity
  8
0
100
AcDbCircle
 10
120.1
 20
190.899613
 30
0.0
 40
0.1
100
AcDbArc
 50
89.55584199999968
 51
180.0
  0
LINE
  5
604F2
330
1A
100
AcDbEntity
  8
0
100
AcDbLine
 10
120.0
 20
190.6999999999999
 30
0.0
 11
65.0
 21
190.6999999999999
 31
0.0
  0
LINE
  5
604F3
330
1A
100
AcDbEntity
  8
0
100
AcDbLine
 10
65.0
 20
190.6999999999999
 30
0.0
 11
65.0
 21
190.899613
 31
0.0
  0
LINE
  5
604F4
330
1A
100
AcDbEntity
  8
0
100
AcDbLine
 10
120.0
 20
190.6999999999999
 30
0.0
 11
120.0
 21
190.899613
 31
0.0
  0
LINE
  5
604F5
330
1A
100
AcDbEntity
  8
0
100
AcDbLine
 10
122.25
 20
177.749939
 30
0.0
 11
122.25
 21
63.24993899999999
 31
0.0
  0
ARC
  5
604F7
330
1A
100
AcDbEntity
  8
0
100
AcDbCircle
 10
120.25
 20
177.749939
 30
0.0
 40
2.0
100
AcDbArc
 50
0.0
 51
90.0
  0
ARC
  5
604F9
330
1A
100
AcDbEntity
  8
0
100
AcDbCircle
 10
120.25
 20
63.24993899999999
 30
0.0
 40
2.0
100
AcDbArc
 50
270.0
 51
0.0
  0
LINE
  5
604FB
330
1A
100
AcDbEntity
  8
0
100
AcDbLine
 10
64.75
 20
179.749939
 30
0.0
 11
120.25
 21
179.749939
 31
0.0
  0
LINE
  5
604FD
330
1A
100
AcDbEntity
  8
0
100
AcDbLine
 10
120.25
 20
61.24993899999998
 30
0.0
 11
64.75
 21
61.24993899999998
 31
0.0
  0
ARC
  5
604FF
330
1A
100
AcDbEntity
  8
0
100
AcDbCircle
 10
64.75
 20
177.749939
 30
0.0
 40
2.0
100
AcDbArc
 50
90.0
 51
180.0
  0
ARC
  5
60501
330
1A
100
AcDbEntity
  8
0
100
AcDbCircle
 10
64.75
 20
63.24993899999999
 30
0.0
 40
2.0
100
AcDbArc
 50
180.0
 51
270.0
  0
LINE
  5
60503
330
1A
100
AcDbEntity
  8
0
100
AcDbLine
 10
62.75
 20
63.24993899999999
 30
0.0
 11
62.75
 21
177.749939
 31
0.0
  0
LINE
  5
60551
330
1A
100
AcDbEntity
  8
0
100
AcDbLine
 10
65.0
 20
223.611782
 30
0.0
 11
65.0
 21
249.6117829999999
 31
0.0
  0
ARC
  5
60552
330
1A
100
AcDbEntity
  8
0
100
AcDbCircle
 10
65.5
 20
223.611782
 30
0.0
 40
0.5
100
AcDbArc
 50
180.0
 51
270.0
  0
LINE
  5
60553
330
1A
100
AcDbEntity
  8
0
100
AcDbLine
 10
65.5
 20
223.1117820000001
 30
0.0
 11
119.0
 21
223.1117820000001
 31
0.0
  0
LINE
  5
60554
330
1A
100
AcDbEntity
  8
0
100
AcDbLine
 10
119.5
 20
223.1117820000001
 30
0.0
 11
92.5
 21
223.1117820000001
 31
0.0
  0
ARC
  5
60555
330
1A
100
AcDbEntity
  8
0
100
AcDbCircle
 10
119.5
 20
223.611782
 30
0.0
 40
0.5
100
AcDbArc
 50
270.0
 51
0.0
  0
LINE
  5
60556
330
1A
100
AcDbEntity
  8
0
100
AcDbLine
 10
120.0
 20
240.311782
 30
0.0
 11
120.0
 21
223.611782
 31
0.0
  0
LINE
  5
60557
330
1A
100
AcDbEntity
  8
0
100
AcDbLine
 10
120.0
 20
249.6117829999999
 30
0.0
 11
120.0
 21
240.311782
 31
0.0
  0
ARC
  5
60558
330
1A
100
AcDbEntity
  8
0
100
AcDbCircle
 10
119.5
 20
249.6117829999999
 30
0.0
 40
0.5
100
AcDbArc
 50
0.0
 51
90.0
  0
LINE
  5
60559
330
1A
100
AcDbEntity
  8
0
100
AcDbLine
 10
119.5
 20
250.111783
 30
0.0
 11
65.5
 21
250.111783
 31
0.0
  0
ARC
  5
6055A
330
1A
100
AcDbEntity
  8
0
100
AcDbCircle
 10
65.5
 20
249.6117829999999
 30
0.0
 40
0.5
100
AcDbArc
 50
90.0
 51
180.0
  0
ARC
  5
6055B
330
1A
100
AcDbEntity
  8
0
100
AcDbCircle
 10
125.250763
 20
254.311782
 30
0.0
 40
2.0
100
AcDbArc
 50
74.21328099999931
 51
90.0
  0
ARC
  5
6055C
330
1A
100
AcDbEntity
  8
0
100
AcDbCircle
 10
59.74923699999999
 20
254.311782
 30
0.0
 40
2.0
100
AcDbArc
 50
90.0
 51
105.7867190000007
  0
LINE
  5
6055D
330
1A
100
AcDbEntity
  8
0
100
AcDbLine
 10
125.250763
 20
256.311782
 30
0.0
 11
121.000122
 21
256.311782
 31
0.0
  0
LINE
  5
6055E
330
1A
100
AcDbEntity
  8
0
100
AcDbLine
 10
59.20512200000001
 20
256.236345
 30
0.0
 11
55.84483499999999
 21
255.28632
 31
0.0
  0
ARC
  5
6055F
330
1A
100
AcDbEntity
  8
0
100
AcDbCircle
 10
53.04146299999996
 20
252.863209
 30
0.0
 40
0.2
100
AcDbArc
 50
150.1612120000003
 51
195.7867190000006
  0
LINE
  5
60560
330
1A
100
AcDbEntity
  8
0
100
AcDbLine
 10
64.00012199999998
 20
256.311782
 30
0.0
 11
59.74923699999999
 21
256.311782
 31
0.0
  0
ARC
  5
60561
330
1A
100
AcDbEntity
  8
0
100
AcDbCircle
 10
131.9574839999999
 20
252.859486
 30
0.0
 40
0.2
100
AcDbArc
 50
344.2132809999994
 51
29.77279099999911
  0
LINE
  5
60562
330
1A
100
AcDbEntity
  8
0
100
AcDbLine
 10
129.151363
 20
255.2873949999999
 30
0.0
 11
125.794877
 21
256.236345
 31
0.0
  0
ARC
  5
60563
330
1A
100
AcDbEntity
  8
0
100
AcDbCircle
 10
57.20512100000002
 20
250.474915
 30
0.0
 40
5.0
100
AcDbArc
 50
105.7867190000007
 51
150.1612120000003
  0
LINE
  5
60564
330
1A
100
AcDbEntity
  8
0
100
AcDbLine
 10
52.84900699999997
 20
252.808798
 30
0.0
 11
52.939863
 21
252.487434
 31
0.0
  0
LINE
  5
60565
330
1A
100
AcDbEntity
  8
0
100
AcDbLine
 10
132.060136
 20
252.487434
 30
0.0
 11
132.14994
 21
252.805075
 31
0.0
  0
LINE
  5
60566
330
1A
100
AcDbEntity
  8
0
100
AcDbLine
 10
65.46208899999999
 20
255.811782
 30
0.0
 11
59.81847299999998
 21
255.811782
 31
0.0
  0
LINE
  5
60568
330
1A
100
AcDbEntity
  8
0
100
AcDbLine
 10
119.53791
 20
255.811782
 30
0.0
 11
65.46208899999999
 21
255.811782
 31
0.0
  0
LINE
  5
6056A
330
1A
100
AcDbEntity
  8
0
100
AcDbLine
 10
125.181525
 20
255.811782
 30
0.0
 11
119.53791
 21
255.811782
 31
0.0
  0
LINE
  5
6056D
330
1A
100
AcDbEntity
  8
0
100
AcDbLine
 10
119.2236229999999
 20
215.811782
 30
0.0
 11
124.867238
 21
215.811782
 31
0.0
  0
LINE
  5
6056F
330
1A
100
AcDbEntity
  8
0
100
AcDbLine
 10
60.13276100000002
 20
215.811782
 30
0.0
 11
65.77637699999996
 21
215.811782
 31
0.0
  0
LINE
  5
60572
330
1A
100
AcDbEntity
  8
0
100
AcDbLine
 10
65.77637699999996
 20
215.811782
 30
0.0
 11
119.2236229999999
 21
215.811782
 31
0.0
  0
ARC
  5
60574
330
1A
100
AcDbEntity
  8
0
100
AcDbCircle
 10
59.81847299999998
 20
253.811782
 30
0.0
 40
2.0
100
AcDbArc
 50
90.0
 51
105.7773620000007
  0
ARC
  5
60575
330
1A
100
AcDbEntity
  8
0
100
AcDbCircle
 10
125.181526
 20
253.811782
 30
0.0
 40
2.0
100
AcDbArc
 50
74.22263799999926
 51
90.0
  0
ARC
  5
60576
330
1A
100
AcDbEntity
  8
0
100
AcDbCircle
 10
124.867239
 20
217.811782
 30
0.0
 40
2.0
100
AcDbArc
 50
270.0
 51
285.7773620000007
  0
ARC
  5
60577
330
1A
100
AcDbEntity
  8
0
100
AcDbCircle
 10
60.13276000000002
 20
217.811782
 30
0.0
 40
2.0
100
AcDbArc
 50
254.2226379999993
 51
270.0
  0
ARC
  5
60578
330
1A
100
AcDbEntity
  8
0
100
AcDbCircle
 10
127.791077
 20
250.47599
 30
0.0
 40
5.0
100
AcDbArc
 50
29.77279099999911
 51
74.21328099999931
  0
ARC
  5
60579
330
1A
100
AcDbEntity
  8
0
100
AcDbCircle
 10
52.10006099999998
 20
240.311782
 30
0.0
 40
0.1
100
AcDbArc
 50
177.9999999999997
 51
182.0000000000003
  0
LINE
  5
6057A
330
1A
100
AcDbEntity
  8
0
100
AcDbLine
 10
52.34429099999999
 20
250.1709949999999
 30
0.0
 11
52.00012199999997
 21
240.315272
 31
0.0
  0
ARC
  5
6057D
330
1A
100
AcDbEntity
  8
0
100
AcDbCircle
 10
57.34124500000001
 20
249.996498
 30
0.0
 40
5.0
100
AcDbArc
 50
105.7436359999996
 51
177.9999999999997
  0
ARC
  5
6057E
330
1A
100
AcDbEntity
  8
0
100
AcDbCircle
 10
52.74740700000001
 20
252.433022
 30
0.0
 40
0.2
100
AcDbArc
 50
332.0589789999999
 51
15.78671900000059
  0
LINE
  5
6057F
330
1A
100
AcDbEntity
  8
0
100
AcDbLine
 10
132.999878
 20
240.315272
 30
0.0
 11
132.655708
 21
250.1709949999999
 31
0.0
  0
LINE
  5
60582
330
1A
100
AcDbEntity
  8
0
100
AcDbLine
 10
52.00012199999997
 20
240.308292
 30
0.0
 11
52.65857799999998
 21
221.4525689999999
 31
0.0
  0
ARC
  5
60585
330
1A
100
AcDbEntity
  8
0
100
AcDbCircle
 10
57.65553199999999
 20
221.627066
 30
0.0
 40
5.0
100
AcDbArc
 50
182.0000000000003
 51
254.2563830000014
  0
LINE
  5
60586
330
1A
100
AcDbEntity
  8
0
100
AcDbLine
 10
132.3414209999999
 20
221.4525689999999
 30
0.0
 11
132.999878
 21
240.308292
 31
0.0
  0
ARC
  5
60588
330
1A
100
AcDbEntity
  8
0
100
AcDbCircle
 10
127.344467
 20
221.627066
 30
0.0
 40
5.0
100
AcDbArc
 50
285.7436220000011
 51
357.9999999999997
  0
LINE
  5
60589
330
1A
100
AcDbEntity
  8
0
100
AcDbLine
 10
128.7011339999999
 20
216.814639
 30
0.0
 11
125.41104
 21
215.887132
 31
0.0
  0
LINE
  5
6058C
330
1A
100
AcDbEntity
  8
0
100
AcDbLine
 10
59.59213
 20
215.886238
 30
0.0
 11
56.29886599999998
 21
216.814639
 31
0.0
  0
LINE
  5
6058E
330
1A
100
AcDbEntity
  8
0
100
AcDbLine
 10
55.984577
 20
254.8089249999999
 30
0.0
 11
59.27724699999998
 21
255.737159
 31
0.0
  0
LINE
  5
60591
330
1A
100
AcDbEntity
  8
0
100
AcDbLine
 10
125.725327
 20
255.736433
 30
0.0
 11
129.015422
 21
254.808924
 31
0.0
  0
ARC
  5
60593
330
1A
100
AcDbEntity
  8
0
100
AcDbCircle
 10
127.658754
 20
249.996498
 30
0.0
 40
5.0
100
AcDbArc
 50
2.000000000000306
 51
74.25635800000069
  0
ARC
  5
60594
330
1A
100
AcDbEntity
  8
0
100
AcDbCircle
 10
132.252592
 20
252.433022
 30
0.0
 40
0.2
100
AcDbArc
 50
164.2132809999994
 51
207.9410219999977
  0
LINE
  5
60595
330
1A
100
AcDbEntity
  8
0
100
AcDbLine
 10
64.00012199999998
 20
255.811782
 30
0.0
 11
64.00012199999998
 21
257.311782
 31
0.0
  0
LINE
  5
60596
330
1A
100
AcDbEntity
  8
0
100
AcDbLine
 10
69.00012199999998
 20
257.311782
 30
0.0
 11
69.00012199999998
 21
255.811782
 31
0.0
  0
ARC
  5
60597
330
1A
100
AcDbEntity
  8
0
100
AcDbCircle
 10
65.00012199999997
 20
257.311782
 30
0.0
 40
1.0
100
AcDbArc
 50
90.0
 51
180.0
  0
ARC
  5
60598
330
1A
100
AcDbEntity
  8
0
100
AcDbCircle
 10
68.00012199999997
 20
257.311782
 30
0.0
 40
1.0
100
AcDbArc
 50
0.0
 51
90.0
  0
LINE
  5
60599
330
1A
100
AcDbEntity
  8
0
100
AcDbLine
 10
68.00012199999997
 20
258.311782
 30
0.0
 11
65.00012199999997
 21
258.311782
 31
0.0
  0
LINE
  5
6059A
330
1A
100
AcDbEntity
  8
0
100
AcDbLine
 10
116.000122
 20
255.811782
 30
0.0
 11
116.000122
 21
257.311782
 31
0.0
  0
LINE
  5
6059B
330
1A
100
AcDbEntity
  8
0
100
AcDbLine
 10
121.000122
 20
257.311782
 30
0.0
 11
121.000122
 21
255.811782
 31
0.0
  0
ARC
  5
6059C
330
1A
100
AcDbEntity
  8
0
100
AcDbCircle
 10
117.000122
 20
257.311782
 30
0.0
 40
1.0
100
AcDbArc
 50
90.0
 51
180.0
  0
ARC
  5
6059D
330
1A
100
AcDbEntity
  8
0
100
AcDbCircle
 10
120.000122
 20
257.311782
 30
0.0
 40
1.0
100
AcDbArc
 50
0.0
 51
90.0
  0
LINE
  5
6059E
330
1A
100
AcDbEntity
  8
0
100
AcDbLine
 10
120.000122
 20
258.311782
 30
0.0
 11
117.000122
 21
258.311782
 31
0.0
  0
POINT
  5
605A8
330
1A
100
AcDbEntity
  8
0
100
AcDbPoint
 10
92.5
 20
250.111783
 30
0.0
  0
POINT
  5
605A9
330
1A
100
AcDbEntity
  8
0
100
AcDbPoint
 10
65.0
 20
236.611782
 30
0.0
  0
POINT
  5
605AA
330
1A
100
AcDbEntity
  8
0
100
AcDbPoint
 10
52.0
 20
120.5
 30
0.0
  0
ARC
  5
605E0
330
1A
100
AcDbEntity
  8
0
100
AcDbCircle
 10
190.055393
 20
191.4480939312223
 30
0.0
 40
0.1
100
AcDbArc
 50
87.99999999999961
 51
92.0000000000004
  0
DIMENSION
  5
605E1
330
1A
100
AcDbEntity
  8
SUNPOU
100
AcDbDimension
  2
*D3
 10
206.2553929999999
 20
35.0
 30
0.0
 11
186.2553935
 21
37.5
 31
0.0
 70
    32
 71
     5
 42
39.999999
  3
STANDARD
100
AcDbAlignedDimension
 13
166.255394
 23
58.13275999999999
 33
0.0
 14
206.2553929999999
 24
58.13275999999999
 34
0.0
100
AcDbRotatedDimension
1001
ACAD
1000
DSTYLE
1002
{
1070
    41
1040
2.5
1070
    42
1040
0.5
1070
    43
1040
10.0
1070
    44
1040
0.5
1070
    73
1070
     0
1070
    74
1070
     0
1070
    77
1070
     1
1070
   140
1040
4.0
1070
   141
1040
0.0
1070
   147
1040
0.5
1070
   271
1070
     0
1070
   272
1070
     2
1070
   341
1005
1D153
1070
   342
1005
1D153
1070
   343
1005
1D153
1070
   344
1005
600CD
1002
}
  0
ARC
  5
605E2
330
1A
100
AcDbEntity
  8
0
100
AcDbCircle
 10
206.555394
 20
70.20000000000002
 30
0.0
 40
0.2
100
AcDbArc
 50
270.0
 51
0.0
  0
LINE
  5
605E3
330
1A
100
AcDbEntity
  8
0
100
AcDbLine
 10
206.4875
 20
70.0
 30
0.0
 11
206.555394
 21
70.0
 31
0.0
  0
ARC
  5
605E4
330
1A
100
AcDbEntity
  8
0
100
AcDbCircle
 10
206.555394
 20
72.80000000000001
 30
0.0
 40
0.2
100
AcDbArc
 50
0.0
 51
90.0
  0
LINE
  5
605E5
330
1A
100
AcDbEntity
  8
0
100
AcDbLine
 10
206.555394
 20
73.0
 30
0.0
 11
206.4875
 21
73.0
 31
0.0
  0
LINE
  5
605E6
330
1A
100
AcDbEntity
  8
0
100
AcDbLine
 10
206.755394
 20
72.80000000000001
 30
0.0
 11
206.755394
 21
70.20000000000002
 31
0.0
  0
LINE
  5
605E7
330
1A
100
AcDbEntity
  8
0
100
AcDbLine
 10
206.555394
 20
105.0
 30
0.0
 11
206.4875
 21
105.0
 31
0.0
  0
ARC
  5
605E8
330
1A
100
AcDbEntity
  8
0
100
AcDbCircle
 10
206.555394
 20
104.8
 30
0.0
 40
0.2
100
AcDbArc
 50
0.0
 51
90.0
  0
ARC
  5
605E9
330
1A
100
AcDbEntity
  8
0
100
AcDbCircle
 10
206.555394
 20
102.2
 30
0.0
 40
0.2
100
AcDbArc
 50
270.0
 51
0.0
  0
LINE
  5
605EA
330
1A
100
AcDbEntity
  8
0
100
AcDbLine
 10
206.4875
 20
102.0
 30
0.0
 11
206.555394
 21
102.0
 31
0.0
  0
LINE
  5
605EB
330
1A
100
AcDbEntity
  8
0
100
AcDbLine
 10
206.755394
 20
104.8
 30
0.0
 11
206.755394
 21
102.2
 31
0.0
  0
ARC
  5
605EC
330
1A
100
AcDbEntity
  8
0
100
AcDbCircle
 10
206.555394
 20
94.19999999999999
 30
0.0
 40
0.2
100
AcDbArc
 50
270.0
 51
0.0
  0
LINE
  5
605ED
330
1A
100
AcDbEntity
  8
0
100
AcDbLine
 10
206.4875
 20
93.99999999999996
 30
0.0
 11
206.555394
 21
93.99999999999996
 31
0.0
  0
ARC
  5
605EE
330
1A
100
AcDbEntity
  8
0
100
AcDbCircle
 10
206.555394
 20
96.79999999999999
 30
0.0
 40
0.2
100
AcDbArc
 50
0.0
 51
90.0
  0
LINE
  5
605EF
330
1A
100
AcDbEntity
  8
0
100
AcDbLine
 10
206.555394
 20
96.99999999999997
 30
0.0
 11
206.4875
 21
96.99999999999997
 31
0.0
  0
LINE
  5
605F0
330
1A
100
AcDbEntity
  8
0
100
AcDbLine
 10
206.755394
 20
96.79999999999999
 30
0.0
 11
206.755394
 21
94.19999999999999
 31
0.0
  0
LINE
  5
605F1
330
1A
100
AcDbEntity
  8
0
100
AcDbLine
 10
206.555394
 20
112.9999999999999
 30
0.0
 11
206.4875
 21
112.9999999999999
 31
0.0
  0
ARC
  5
605F2
330
1A
100
AcDbEntity
  8
0
100
AcDbCircle
 10
206.555394
 20
112.8
 30
0.0
 40
0.2
100
AcDbArc
 50
0.0
 51
90.0
  0
ARC
  5
605F3
330
1A
100
AcDbEntity
  8
0
100
AcDbCircle
 10
206.555394
 20
110.2
 30
0.0
 40
0.2
100
AcDbArc
 50
270.0
 51
0.0
  0
LINE
  5
605F4
330
1A
100
AcDbEntity
  8
0
100
AcDbLine
 10
206.4875
 20
109.9999999999999
 30
0.0
 11
206.555394
 21
109.9999999999999
 31
0.0
  0
LINE
  5
605F5
330
1A
100
AcDbEntity
  8
0
100
AcDbLine
 10
206.755394
 20
112.8
 30
0.0
 11
206.755394
 21
110.2
 31
0.0
  0
ARC
  5
605F6
330
1A
100
AcDbEntity
  8
0
100
AcDbCircle
 10
206.555394
 20
86.19999999999999
 30
0.0
 40
0.2
100
AcDbArc
 50
270.0
 51
0.0
  0
LINE
  5
605F7
330
1A
100
AcDbEntity
  8
0
100
AcDbLine
 10
206.4875
 20
85.99999999999997
 30
0.0
 11
206.555394
 21
85.99999999999997
 31
0.0
  0
ARC
  5
605F8
330
1A
100
AcDbEntity
  8
0
100
AcDbCircle
 10
206.555394
 20
88.79999999999999
 30
0.0
 40
0.2
100
AcDbArc
 50
0.0
 51
90.0
  0
LINE
  5
605F9
330
1A
100
AcDbEntity
  8
0
100
AcDbLine
 10
206.555394
 20
88.99999999999996
 30
0.0
 11
206.4875
 21
88.99999999999996
 31
0.0
  0
LINE
  5
605FA
330
1A
100
AcDbEntity
  8
0
100
AcDbLine
 10
206.755394
 20
88.79999999999999
 30
0.0
 11
206.755394
 21
86.19999999999999
 31
0.0
  0
LINE
  5
605FB
330
1A
100
AcDbEntity
  8
0
100
AcDbLine
 10
206.555394
 20
120.9999999999999
 30
0.0
 11
206.4875
 21
120.9999999999999
 31
0.0
  0
ARC
  5
605FC
330
1A
100
AcDbEntity
  8
0
100
AcDbCircle
 10
206.555394
 20
120.8
 30
0.0
 40
0.2
100
AcDbArc
 50
0.0
 51
90.0
  0
ARC
  5
605FD
330
1A
100
AcDbEntity
  8
0
100
AcDbCircle
 10
206.555394
 20
118.2
 30
0.0
 40
0.2
100
AcDbArc
 50
270.0
 51
0.0
  0
LINE
  5
605FE
330
1A
100
AcDbEntity
  8
0
100
AcDbLine
 10
206.4875
 20
117.9999999999999
 30
0.0
 11
206.555394
 21
117.9999999999999
 31
0.0
  0
LINE
  5
605FF
330
1A
100
AcDbEntity
  8
0
100
AcDbLine
 10
206.755394
 20
120.8
 30
0.0
 11
206.755394
 21
118.2
 31
0.0
  0
ARC
  5
60600
330
1A
100
AcDbEntity
  8
0
100
AcDbCircle
 10
206.555394
 20
78.20000000000002
 30
0.0
 40
0.2
100
AcDbArc
 50
270.0
 51
0.0
  0
LINE
  5
60601
330
1A
100
AcDbEntity
  8
0
100
AcDbLine
 10
206.4875
 20
78.0
 30
0.0
 11
206.555394
 21
78.0
 31
0.0
  0
ARC
  5
60602
330
1A
100
AcDbEntity
  8
0
100
AcDbCircle
 10
206.555394
 20
80.80000000000001
 30
0.0
 40
0.2
100
AcDbArc
 50
0.0
 51
90.0
  0
LINE
  5
60603
330
1A
100
AcDbEntity
  8
0
100
AcDbLine
 10
206.555394
 20
81.0
 30
0.0
 11
206.4875
 21
81.0
 31
0.0
  0
LINE
  5
60604
330
1A
100
AcDbEntity
  8
0
100
AcDbLine
 10
206.755394
 20
80.80000000000001
 30
0.0
 11
206.755394
 21
78.20000000000002
 31
0.0
  0
LINE
  5
60605
330
1A
100
AcDbEntity
  8
0
100
AcDbLine
 10
206.555394
 20
129.0
 30
0.0
 11
206.4875
 21
129.0
 31
0.0
  0
ARC
  5
60606
330
1A
100
AcDbEntity
  8
0
100
AcDbCircle
 10
206.555394
 20
128.8
 30
0.0
 40
0.2
100
AcDbArc
 50
0.0
 51
90.0
  0
ARC
  5
60607
330
1A
100
AcDbEntity
  8
0
100
AcDbCircle
 10
206.555394
 20
126.2
 30
0.0
 40
0.2
100
AcDbArc
 50
270.0
 51
0.0
  0
LINE
  5
60608
330
1A
100
AcDbEntity
  8
0
100
AcDbLine
 10
206.4875
 20
126.0
 30
0.0
 11
206.555394
 21
126.0
 31
0.0
  0
LINE
  5
60609
330
1A
100
AcDbEntity
  8
0
100
AcDbLine
 10
206.755394
 20
128.8
 30
0.0
 11
206.755394
 21
126.2
 31
0.0
  0
LINE
  5
6060A
330
1A
100
AcDbEntity
  8
0
100
AcDbLine
 10
205.53855
 20
73.0
 30
0.0
 11
206.4875
 21
73.0
 31
0.0
  0
LINE
  5
6060B
330
1A
100
AcDbEntity
  8
0
100
AcDbLine
 10
205.53855
 20
73.0
 30
0.0
 11
203.860922
 21
73.0
 31
0.0
  0
LINE
  5
6060C
330
1A
100
AcDbEntity
  8
0
100
AcDbLine
 10
205.53855
 20
105.0
 30
0.0
 11
206.4875
 21
105.0
 31
0.0
  0
LINE
  5
6060D
330
1A
100
AcDbEntity
  8
0
100
AcDbLine
 10
205.53855
 20
105.0
 30
0.0
 11
203.860922
 21
105.0
 31
0.0
  0
LINE
  5
6060E
330
1A
100
AcDbEntity
  8
0
100
AcDbLine
 10
206.4875
 20
102.0
 30
0.0
 11
205.53855
 21
102.0
 31
0.0
  0
LINE
  5
6060F
330
1A
100
AcDbEntity
  8
0
100
AcDbLine
 10
203.860922
 20
93.99999999999996
 30
0.0
 11
205.53855
 21
93.99999999999996
 31
0.0
  0
LINE
  5
60610
330
1A
100
AcDbEntity
  8
0
100
AcDbLine
 10
206.4875
 20
93.99999999999996
 30
0.0
 11
205.53855
 21
93.99999999999996
 31
0.0
  0
LINE
  5
60611
330
1A
100
AcDbEntity
  8
0
100
AcDbLine
 10
205.53855
 20
112.9999999999999
 30
0.0
 11
206.4875
 21
112.9999999999999
 31
0.0
  0
LINE
  5
60612
330
1A
100
AcDbEntity
  8
0
100
AcDbLine
 10
205.53855
 20
112.9999999999999
 30
0.0
 11
204.129619
 21
112.9999999999999
 31
0.0
  0
LINE
  5
60613
330
1A
100
AcDbEntity
  8
0
100
AcDbLine
 10
206.4875
 20
109.9999999999999
 30
0.0
 11
205.53855
 21
109.9999999999999
 31
0.0
  0
LINE
  5
60614
330
1A
100
AcDbEntity
  8
0
100
AcDbLine
 10
203.860922
 20
85.99999999999997
 30
0.0
 11
205.53855
 21
85.99999999999997
 31
0.0
  0
LINE
  5
60615
330
1A
100
AcDbEntity
  8
0
100
AcDbLine
 10
206.4875
 20
85.99999999999997
 30
0.0
 11
205.53855
 21
85.99999999999997
 31
0.0
  0
LINE
  5
60616
330
1A
100
AcDbEntity
  8
0
100
AcDbLine
 10
205.53855
 20
120.9999999999999
 30
0.0
 11
206.4875
 21
120.9999999999999
 31
0.0
  0
LINE
  5
60617
330
1A
100
AcDbEntity
  8
0
100
AcDbLine
 10
205.53855
 20
120.9999999999999
 30
0.0
 11
203.860922
 21
120.9999999999999
 31
0.0
  0
LINE
  5
60618
330
1A
100
AcDbEntity
  8
0
100
AcDbLine
 10
206.4875
 20
117.9999999999999
 30
0.0
 11
205.53855
 21
117.9999999999999
 31
0.0
  0
LINE
  5
60619
330
1A
100
AcDbEntity
  8
0
100
AcDbLine
 10
203.860922
 20
78.0
 30
0.0
 11
205.53855
 21
78.0
 31
0.0
  0
LINE
  5
6061A
330
1A
100
AcDbEntity
  8
0
100
AcDbLine
 10
206.4875
 20
78.0
 30
0.0
 11
205.53855
 21
78.0
 31
0.0
  0
LINE
  5
6061B
330
1A
100
AcDbEntity
  8
0
100
AcDbLine
 10
205.53855
 20
129.0
 30
0.0
 11
206.4875
 21
129.0
 31
0.0
  0
LINE
  5
6061C
330
1A
100
AcDbEntity
  8
0
100
AcDbLine
 10
205.53855
 20
129.0
 30
0.0
 11
203.860922
 21
129.0
 31
0.0
  0
LINE
  5
6061D
330
1A
100
AcDbEntity
  8
0
100
AcDbLine
 10
206.4875
 20
126.0
 30
0.0
 11
205.53855
 21
126.0
 31
0.0
  0
LINE
  5
6061E
330
1A
100
AcDbEntity
  8
0
100
AcDbLine
 10
203.860922
 20
126.0
 30
0.0
 11
205.53855
 21
126.0
 31
0.0
  0
LINE
  5
6061F
330
1A
100
AcDbEntity
  8
0
100
AcDbLine
 10
205.53855
 20
81.0
 30
0.0
 11
206.4875
 21
81.0
 31
0.0
  0
LINE
  5
60620
330
1A
100
AcDbEntity
  8
0
100
AcDbLine
 10
205.53855
 20
81.0
 30
0.0
 11
203.860922
 21
81.0
 31
0.0
  0
LINE
  5
60621
330
1A
100
AcDbEntity
  8
0
100
AcDbLine
 10
203.860922
 20
117.9999999999999
 30
0.0
 11
205.53855
 21
117.9999999999999
 31
0.0
  0
LINE
  5
60622
330
1A
100
AcDbEntity
  8
0
100
AcDbLine
 10
205.53855
 20
88.99999999999996
 30
0.0
 11
206.4875
 21
88.99999999999996
 31
0.0
  0
LINE
  5
60623
330
1A
100
AcDbEntity
  8
0
100
AcDbLine
 10
205.53855
 20
88.99999999999996
 30
0.0
 11
203.860922
 21
88.99999999999996
 31
0.0
  0
LINE
  5
60624
330
1A
100
AcDbEntity
  8
0
100
AcDbLine
 10
203.860922
 20
109.9999999999999
 30
0.0
 11
205.53855
 21
109.9999999999999
 31
0.0
  0
LINE
  5
60625
330
1A
100
AcDbEntity
  8
0
100
AcDbLine
 10
205.53855
 20
96.99999999999997
 30
0.0
 11
206.4875
 21
96.99999999999997
 31
0.0
  0
LINE
  5
60626
330
1A
100
AcDbEntity
  8
0
100
AcDbLine
 10
205.53855
 20
96.99999999999997
 30
0.0
 11
203.860922
 21
96.99999999999997
 31
0.0
  0
LINE
  5
60627
330
1A
100
AcDbEntity
  8
0
100
AcDbLine
 10
203.860922
 20
102.0
 30
0.0
 11
205.53855
 21
102.0
 31
0.0
  0
ARC
  5
60628
330
1A
100
AcDbEntity
  8
0
100
AcDbCircle
 10
206.455394
 20
105.2
 30
0.0
 40
0.2
100
AcDbArc
 50
180.0
 51
270.0
  0
ARC
  5
60629
330
1A
100
AcDbEntity
  8
0
100
AcDbCircle
 10
206.455394
 20
101.8
 30
0.0
 40
0.2
100
AcDbArc
 50
90.0
 51
180.0
  0
ARC
  5
6062A
330
1A
100
AcDbEntity
  8
0
100
AcDbCircle
 10
206.455394
 20
93.79999999999999
 30
0.0
 40
0.2
100
AcDbArc
 50
90.0
 51
180.0
  0
ARC
  5
6062B
330
1A
100
AcDbEntity
  8
0
100
AcDbCircle
 10
206.455394
 20
97.19999999999998
 30
0.0
 40
0.2
100
AcDbArc
 50
180.0
 51
270.0
  0
ARC
  5
6062C
330
1A
100
AcDbEntity
  8
0
100
AcDbCircle
 10
206.455394
 20
113.2
 30
0.0
 40
0.2
100
AcDbArc
 50
180.0
 51
270.0
  0
ARC
  5
6062D
330
1A
100
AcDbEntity
  8
0
100
AcDbCircle
 10
206.455394
 20
109.8
 30
0.0
 40
0.2
100
AcDbArc
 50
90.0
 51
180.0
  0
ARC
  5
6062E
330
1A
100
AcDbEntity
  8
0
100
AcDbCircle
 10
206.455394
 20
85.79999999999998
 30
0.0
 40
0.2
100
AcDbArc
 50
90.0
 51
180.0
  0
ARC
  5
6062F
330
1A
100
AcDbEntity
  8
0
100
AcDbCircle
 10
206.455394
 20
89.19999999999999
 30
0.0
 40
0.2
100
AcDbArc
 50
180.0
 51
270.0
  0
ARC
  5
60630
330
1A
100
AcDbEntity
  8
0
100
AcDbCircle
 10
206.455394
 20
121.2
 30
0.0
 40
0.2
100
AcDbArc
 50
180.0
 51
270.0
  0
ARC
  5
60631
330
1A
100
AcDbEntity
  8
0
100
AcDbCircle
 10
206.455394
 20
117.8
 30
0.0
 40
0.2
100
AcDbArc
 50
90.0
 51
180.0
  0
ARC
  5
60632
330
1A
100
AcDbEntity
  8
0
100
AcDbCircle
 10
206.455394
 20
77.80000000000001
 30
0.0
 40
0.2
100
AcDbArc
 50
90.0
 51
180.0
  0
ARC
  5
60633
330
1A
100
AcDbEntity
  8
0
100
AcDbCircle
 10
206.455394
 20
81.20000000000002
 30
0.0
 40
0.2
100
AcDbArc
 50
180.0
 51
270.0
  0
ARC
  5
60634
330
1A
100
AcDbEntity
  8
0
100
AcDbCircle
 10
206.455394
 20
129.1999999999999
 30
0.0
 40
0.2
100
AcDbArc
 50
180.0
 51
270.0
  0
ARC
  5
60635
330
1A
100
AcDbEntity
  8
0
100
AcDbCircle
 10
206.455394
 20
125.8
 30
0.0
 40
0.2
100
AcDbArc
 50
90.0
 51
180.0
  0
ARC
  5
60636
330
1A
100
AcDbEntity
  8
0
100
AcDbCircle
 10
206.455394
 20
69.80000000000001
 30
0.0
 40
0.2
100
AcDbArc
 50
90.0
 51
180.0
  0
ARC
  5
60637
330
1A
100
AcDbEntity
  8
0
100
AcDbCircle
 10
206.455394
 20
73.20000000000002
 30
0.0
 40
0.2
100
AcDbArc
 50
180.0
 51
270.0
  0
LINE
  5
60638
330
1A
100
AcDbEntity
  8
0
100
AcDbLine
 10
206.4875
 20
70.0
 30
0.0
 11
205.53855
 21
70.0
 31
0.0
  0
LINE
  5
60639
330
1A
100
AcDbEntity
  8
0
100
AcDbLine
 10
203.860922
 20
70.0
 30
0.0
 11
206.2553929999999
 21
70.0
 31
0.0
  0
LINE
  5
6063A
330
1A
100
AcDbEntity
  8
0
100
AcDbLine
 10
204.098951
 20
73.0
 30
0.0
 11
204.129619
 21
73.0
 31
0.0
  0
LINE
  5
6063B
330
1A
100
AcDbEntity
  8
0
100
AcDbLine
 10
204.098951
 20
105.0
 30
0.0
 11
204.129619
 21
105.0
 31
0.0
  0
LINE
  5
6063C
330
1A
100
AcDbEntity
  8
0
100
AcDbLine
 10
204.129619
 20
93.99999999999996
 30
0.0
 11
204.098951
 21
93.99999999999996
 31
0.0
  0
LINE
  5
6063D
330
1A
100
AcDbEntity
  8
0
100
AcDbLine
 10
204.098951
 20
112.9999999999999
 30
0.0
 11
204.129619
 21
112.9999999999999
 31
0.0
  0
LINE
  5
6063E
330
1A
100
AcDbEntity
  8
0
100
AcDbLine
 10
204.129619
 20
85.99999999999997
 30
0.0
 11
204.098951
 21
85.99999999999997
 31
0.0
  0
LINE
  5
6063F
330
1A
100
AcDbEntity
  8
0
100
AcDbLine
 10
204.098951
 20
120.9999999999999
 30
0.0
 11
204.129619
 21
120.9999999999999
 31
0.0
  0
LINE
  5
60640
330
1A
100
AcDbEntity
  8
0
100
AcDbLine
 10
204.129619
 20
78.0
 30
0.0
 11
204.098951
 21
78.0
 31
0.0
  0
LINE
  5
60641
330
1A
100
AcDbEntity
  8
0
100
AcDbLine
 10
204.098951
 20
129.0
 30
0.0
 11
204.129619
 21
129.0
 31
0.0
  0
LINE
  5
60642
330
1A
100
AcDbEntity
  8
0
100
AcDbLine
 10
204.129619
 20
126.0
 30
0.0
 11
204.098951
 21
126.0
 31
0.0
  0
LINE
  5
60643
330
1A
100
AcDbEntity
  8
0
100
AcDbLine
 10
204.098951
 20
81.0
 30
0.0
 11
204.129619
 21
81.0
 31
0.0
  0
LINE
  5
60644
330
1A
100
AcDbEntity
  8
0
100
AcDbLine
 10
204.129619
 20
117.9999999999999
 30
0.0
 11
204.098951
 21
117.9999999999999
 31
0.0
  0
LINE
  5
60645
330
1A
100
AcDbEntity
  8
0
100
AcDbLine
 10
204.098951
 20
88.99999999999996
 30
0.0
 11
204.129619
 21
88.99999999999996
 31
0.0
  0
LINE
  5
60646
330
1A
100
AcDbEntity
  8
0
100
AcDbLine
 10
204.129619
 20
109.9999999999999
 30
0.0
 11
204.098951
 21
109.9999999999999
 31
0.0
  0
LINE
  5
60647
330
1A
100
AcDbEntity
  8
0
100
AcDbLine
 10
204.098951
 20
96.99999999999997
 30
0.0
 11
204.129619
 21
96.99999999999997
 31
0.0
  0
LINE
  5
60648
330
1A
100
AcDbEntity
  8
0
100
AcDbLine
 10
204.129619
 20
102.0
 30
0.0
 11
204.098951
 21
102.0
 31
0.0
  0
LINE
  5
60649
330
1A
100
AcDbEntity
  8
0
100
AcDbLine
 10
204.129619
 20
70.0
 30
0.0
 11
204.098951
 21
70.0
 31
0.0
  0
LINE
  5
6064A
330
1A
100
AcDbEntity
  8
0
100
AcDbLine
 10
206.2553929999999
 20
63.46208899999999
 30
0.0
 11
206.2553929999999
 21
57.81847400000001
 31
0.0
  0
LINE
  5
6064B
330
1A
100
AcDbEntity
  8
0
100
AcDbLine
 10
206.2553929999999
 20
69.79999900000001
 30
0.0
 11
206.2553929999999
 21
63.46208899999999
 31
0.0
  0
LINE
  5
6064C
330
1A
100
AcDbEntity
  8
0
100
AcDbLine
 10
206.2553929999999
 20
77.80000100000001
 30
0.0
 11
206.2553929999999
 21
73.20000100000001
 31
0.0
  0
LINE
  5
6064D
330
1A
100
AcDbEntity
  8
0
100
AcDbLine
 10
206.2553929999999
 20
85.800003
 30
0.0
 11
206.2553929999999
 21
81.200003
 31
0.0
  0
LINE
  5
6064E
330
1A
100
AcDbEntity
  8
0
100
AcDbLine
 10
206.2553929999999
 20
93.79999999999999
 30
0.0
 11
206.2553929999999
 21
89.19999999999999
 31
0.0
  0
LINE
  5
6064F
330
1A
100
AcDbEntity
  8
0
100
AcDbLine
 10
206.2553929999999
 20
101.800002
 30
0.0
 11
206.2553929999999
 21
97.20000199999999
 31
0.0
  0
LINE
  5
60650
330
1A
100
AcDbEntity
  8
0
100
AcDbLine
 10
206.2553929999999
 20
109.799999
 30
0.0
 11
206.2553929999999
 21
105.199999
 31
0.0
  0
LINE
  5
60651
330
1A
100
AcDbEntity
  8
0
100
AcDbLine
 10
206.2553929999999
 20
117.800001
 30
0.0
 11
206.2553929999999
 21
113.200001
 31
0.0
  0
LINE
  5
60652
330
1A
100
AcDbEntity
  8
0
100
AcDbLine
 10
206.2553929999999
 20
125.799998
 30
0.0
 11
206.2553929999999
 21
121.199998
 31
0.0
  0
LINE
  5
60653
330
1A
100
AcDbEntity
  8
0
100
AcDbLine
 10
206.2553929999999
 20
183.1829079999999
 30
0.0
 11
206.2553929999999
 21
129.1999999999999
 31
0.0
  0
LINE
  5
60654
330
1A
100
AcDbEntity
  8
0
100
AcDbLine
 10
166.2553929999999
 20
177.223624
 30
0.0
 11
166.2553929999999
 21
182.867239
 31
0.0
  0
LINE
  5
60655
330
1A
100
AcDbEntity
  8
0
100
AcDbLine
 10
166.2553929999999
 20
63.776373
 30
0.0
 11
166.2553929999999
 21
177.223624
 31
0.0
  0
LINE
  5
60656
330
1A
100
AcDbEntity
  8
0
100
AcDbLine
 10
166.2553929999999
 20
58.132757
 30
0.0
 11
166.2553929999999
 21
63.776373
 31
0.0
  0
ARC
  5
60657
330
1A
100
AcDbEntity
  8
0
100
AcDbCircle
 10
204.255394
 20
183.181527
 30
0.0
 40
2.0
100
AcDbArc
 50
0.0
 51
15.77736200000092
  0
ARC
  5
60658
330
1A
100
AcDbEntity
  8
0
100
AcDbCircle
 10
204.255394
 20
57.81847400000001
 30
0.0
 40
2.0
100
AcDbArc
 50
344.222637999999
 51
0.0
  0
ARC
  5
60659
330
1A
100
AcDbEntity
  8
0
100
AcDbCircle
 10
168.255394
 20
182.86724
 30
0.0
 40
2.0
100
AcDbArc
 50
164.222637999999
 51
180.0
  0
ARC
  5
6065A
330
1A
100
AcDbEntity
  8
0
100
AcDbCircle
 10
168.255394
 20
58.13275999999999
 30
0.0
 40
2.0
100
AcDbArc
 50
180.0
 51
195.7773620000009
  0
LINE
  5
6065B
330
1A
100
AcDbEntity
  8
0
100
AcDbLine
 10
190.7589089999999
 20
190.9997999999999
 30
0.0
 11
171.885319
 21
190.321108
 31
0.0
  0
LINE
  5
6065C
330
1A
100
AcDbEntity
  8
0
100
AcDbLine
 10
200.620213
 20
190.648374
 30
0.0
 11
190.7589089999999
 21
190.9997999999999
 31
0.0
  0
ARC
  5
6065D
330
1A
100
AcDbEntity
  8
0
100
AcDbCircle
 10
200.442142
 20
185.6515459999999
 30
0.0
 40
5.0
100
AcDbArc
 50
15.74363599999947
 51
87.95902300000095
  0
LINE
  5
6065E
330
1A
100
AcDbEntity
  8
0
100
AcDbLine
 10
200.614607
 20
50.344291
 30
0.0
 11
190.7588839999999
 21
50.00012200000004
 31
0.0
  0
ARC
  5
6065F
330
1A
100
AcDbEntity
  8
0
100
AcDbCircle
 10
200.440109
 20
55.34124600000001
 30
0.0
 40
5.0
100
AcDbArc
 50
272.0000000000004
 51
344.2563420000011
  0
LINE
  5
60660
330
1A
100
AcDbEntity
  8
0
100
AcDbLine
 10
190.751904
 20
50.00012200000004
 30
0.0
 11
171.896179
 21
50.65857800000003
 31
0.0
  0
ARC
  5
60661
330
1A
100
AcDbEntity
  8
0
100
AcDbCircle
 10
190.7553939999999
 20
50.10006099999998
 30
0.0
 40
0.1
100
AcDbArc
 50
267.9999999999996
 51
272.0000000000004
  0
LINE
  5
60662
330
1A
100
AcDbEntity
  8
0
100
AcDbLine
 10
206.180045
 20
183.7253269999999
 30
0.0
 11
205.254569
 21
187.008214
 31
0.0
  0
LINE
  5
60663
330
1A
100
AcDbEntity
  8
0
100
AcDbLine
 10
205.252536
 20
53.984576
 30
0.0
 11
206.180045
 21
57.27467000000001
 31
0.0
  0
LINE
  5
60664
330
1A
100
AcDbEntity
  8
0
100
AcDbLine
 10
166.330743
 20
57.58896200000001
 30
0.0
 11
167.258249
 21
54.298868
 31
0.0
  0
ARC
  5
60665
330
1A
100
AcDbEntity
  8
0
100
AcDbCircle
 10
172.070677
 20
55.65553299999999
 30
0.0
 40
5.0
100
AcDbArc
 50
195.7435950000005
 51
267.9999999999996
  0
LINE
  5
60666
330
1A
100
AcDbEntity
  8
0
100
AcDbLine
 10
167.252575
 20
186.681004
 30
0.0
 11
166.330743
 21
183.41104
 31
0.0
  0
ARC
  5
60667
330
1A
100
AcDbEntity
  8
0
100
AcDbCircle
 10
172.065003
 20
185.324338
 30
0.0
 40
5.0
100
AcDbArc
 50
92.05946300000062
 51
164.2563779999992
  0
ARC
  5
60668
330
1A
100
AcDbEntity
  8
0
100
AcDbCircle
 10
206.255394
 20
179.500122
 30
0.0
 40
1.0
100
AcDbArc
 50
53.13010199999999
 51
90.0
  0
ARC
  5
60669
330
1A
100
AcDbEntity
  8
0
100
AcDbCircle
 10
206.255394
 20
173.500122
 30
0.0
 40
1.0
100
AcDbArc
 50
270.0
 51
306.869898
  0
ARC
  5
6066A
330
1A
100
AcDbEntity
  8
0
100
AcDbCircle
 10
204.0053939999999
 20
176.500122
 30
0.0
 40
4.75
100
AcDbArc
 50
306.869898
 51
53.13010199999999
  0
ARC
  5
6066B
330
1A
100
AcDbEntity
  8
0
100
AcDbCircle
 10
206.255394
 20
67.500122
 30
0.0
 40
1.0
100
AcDbArc
 50
53.13010199999999
 51
90.0
  0
ARC
  5
6066C
330
1A
100
AcDbEntity
  8
0
100
AcDbCircle
 10
206.255394
 20
61.500122
 30
0.0
 40
1.0
100
AcDbArc
 50
270.0
 51
306.869898
  0
ARC
  5
6066D
330
1A
100
AcDbEntity
  8
0
100
AcDbCircle
 10
204.0053939999999
 20
64.500122
 30
0.0
 40
4.75
100
AcDbArc
 50
306.869898
 51
53.13010199999999
  0
ARC
  5
6066E
330
1A
100
AcDbEntity
  8
0
100
AcDbCircle
 10
203.860922
 20
72.0
 30
0.0
 40
1.0
100
AcDbArc
 50
90.0
 51
180.0
  0
ARC
  5
6066F
330
1A
100
AcDbEntity
  8
0
100
AcDbCircle
 10
203.860922
 20
104.0
 30
0.0
 40
1.0
100
AcDbArc
 50
90.0
 51
180.0
  0
ARC
  5
60670
330
1A
100
AcDbEntity
  8
0
100
AcDbCircle
 10
203.860922
 20
111.9999999999999
 30
0.0
 40
1.0
100
AcDbArc
 50
90.0
 51
180.0
  0
ARC
  5
60671
330
1A
100
AcDbEntity
  8
0
100
AcDbCircle
 10
203.860922
 20
119.9999999999999
 30
0.0
 40
1.0
100
AcDbArc
 50
90.0
 51
180.0
  0
ARC
  5
60672
330
1A
100
AcDbEntity
  8
0
100
AcDbCircle
 10
203.860922
 20
128.0
 30
0.0
 40
1.0
100
AcDbArc
 50
90.0
 51
180.0
  0
LINE
  5
60673
330
1A
100
AcDbEntity
  8
0
100
AcDbLine
 10
204.098951
 20
73.0
 30
0.0
 11
204.129619
 21
73.0
 31
0.0
  0
LINE
  5
60674
330
1A
100
AcDbEntity
  8
0
100
AcDbLine
 10
204.098951
 20
105.0
 30
0.0
 11
204.129619
 21
105.0
 31
0.0
  0
LINE
  5
60675
330
1A
100
AcDbEntity
  8
0
100
AcDbLine
 10
203.860922
 20
112.9999999999999
 30
0.0
 11
206.2553929999999
 21
112.9999999999999
 31
0.0
  0
LINE
  5
60676
330
1A
100
AcDbEntity
  8
0
100
AcDbLine
 10
204.098951
 20
120.9999999999999
 30
0.0
 11
204.129619
 21
120.9999999999999
 31
0.0
  0
LINE
  5
60677
330
1A
100
AcDbEntity
  8
0
100
AcDbLine
 10
204.129619
 20
78.0
 30
0.0
 11
204.098951
 21
78.0
 31
0.0
  0
LINE
  5
60678
330
1A
100
AcDbEntity
  8
0
100
AcDbLine
 10
204.098951
 20
129.0
 30
0.0
 11
204.129619
 21
129.0
 31
0.0
  0
LINE
  5
60679
330
1A
100
AcDbEntity
  8
0
100
AcDbLine
 10
204.129619
 20
126.0
 30
0.0
 11
204.098951
 21
126.0
 31
0.0
  0
ARC
  5
6067A
330
1A
100
AcDbEntity
  8
0
100
AcDbCircle
 10
203.860922
 20
80.0
 30
0.0
 40
1.0
100
AcDbArc
 50
90.0
 51
180.0
  0
LINE
  5
6067B
330
1A
100
AcDbEntity
  8
0
100
AcDbLine
 10
204.129619
 20
117.9999999999999
 30
0.0
 11
204.098951
 21
117.9999999999999
 31
0.0
  0
ARC
  5
6067C
330
1A
100
AcDbEntity
  8
0
100
AcDbCircle
 10
203.860922
 20
87.99999999999997
 30
0.0
 40
1.0
100
AcDbArc
 50
90.0
 51
180.0
  0
LINE
  5
6067D
330
1A
100
AcDbEntity
  8
0
100
AcDbLine
 10
204.129619
 20
109.9999999999999
 30
0.0
 11
204.098951
 21
109.9999999999999
 31
0.0
  0
LINE
  5
6067E
330
1A
100
AcDbEntity
  8
0
100
AcDbLine
 10
204.129619
 20
102.0
 30
0.0
 11
204.098951
 21
102.0
 31
0.0
  0
LINE
  5
6067F
330
1A
100
AcDbEntity
  8
0
100
AcDbLine
 10
204.129619
 20
70.0
 30
0.0
 11
204.098951
 21
70.0
 31
0.0
  0
LINE
  5
60680
330
1A
100
AcDbEntity
  8
0
100
AcDbLine
 10
202.860922
 20
71.0
 30
0.0
 11
202.860922
 21
72.0
 31
0.0
  0
ARC
  5
60681
330
1A
100
AcDbEntity
  8
0
100
AcDbCircle
 10
203.860922
 20
71.0
 30
0.0
 40
1.0
100
AcDbArc
 50
180.0
 51
270.0
  0
LINE
  5
60682
330
1A
100
AcDbEntity
  8
0
100
AcDbLine
 10
202.860922
 20
79.0
 30
0.0
 11
202.860922
 21
80.0
 31
0.0
  0
ARC
  5
60683
330
1A
100
AcDbEntity
  8
0
100
AcDbCircle
 10
203.860922
 20
79.0
 30
0.0
 40
1.0
100
AcDbArc
 50
180.0
 51
270.0
  0
LINE
  5
60684
330
1A
100
AcDbEntity
  8
0
100
AcDbLine
 10
202.860922
 20
86.99999999999997
 30
0.0
 11
202.860922
 21
87.99999999999997
 31
0.0
  0
ARC
  5
60685
330
1A
100
AcDbEntity
  8
0
100
AcDbCircle
 10
203.860922
 20
86.99999999999997
 30
0.0
 40
1.0
100
AcDbArc
 50
180.0
 51
270.0
  0
LINE
  5
60686
330
1A
100
AcDbEntity
  8
0
100
AcDbLine
 10
202.860922
 20
94.99999999999998
 30
0.0
 11
202.860922
 21
95.99999999999997
 31
0.0
  0
ARC
  5
60687
330
1A
100
AcDbEntity
  8
0
100
AcDbCircle
 10
203.860922
 20
95.99999999999997
 30
0.0
 40
1.0
100
AcDbArc
 50
90.0
 51
180.0
  0
ARC
  5
60688
330
1A
100
AcDbEntity
  8
0
100
AcDbCircle
 10
203.860922
 20
94.99999999999998
 30
0.0
 40
1.0
100
AcDbArc
 50
180.0
 51
270.0
  0
LINE
  5
60689
330
1A
100
AcDbEntity
  8
0
100
AcDbLine
 10
202.860922
 20
103.0
 30
0.0
 11
202.860922
 21
104.0
 31
0.0
  0
ARC
  5
6068A
330
1A
100
AcDbEntity
  8
0
100
AcDbCircle
 10
203.860922
 20
103.0
 30
0.0
 40
1.0
100
AcDbArc
 50
180.0
 51
270.0
  0
LINE
  5
6068B
330
1A
100
AcDbEntity
  8
0
100
AcDbLine
 10
202.860922
 20
110.9999999999999
 30
0.0
 11
202.860922
 21
111.9999999999999
 31
0.0
  0
ARC
  5
6068C
330
1A
100
AcDbEntity
  8
0
100
AcDbCircle
 10
203.860922
 20
110.9999999999999
 30
0.0
 40
1.0
100
AcDbArc
 50
180.0
 51
270.0
  0
LINE
  5
6068D
330
1A
100
AcDbEntity
  8
0
100
AcDbLine
 10
202.860922
 20
118.9999999999999
 30
0.0
 11
202.860922
 21
119.9999999999999
 31
0.0
  0
ARC
  5
6068E
330
1A
100
AcDbEntity
  8
0
100
AcDbCircle
 10
203.860922
 20
118.9999999999999
 30
0.0
 40
1.0
100
AcDbArc
 50
180.0
 51
270.0
  0
LINE
  5
6068F
330
1A
100
AcDbEntity
  8
0
100
AcDbLine
 10
202.860922
 20
127.0
 30
0.0
 11
202.860922
 21
128.0
 31
0.0
  0
ARC
  5
60690
330
1A
100
AcDbEntity
  8
0
100
AcDbCircle
 10
203.860922
 20
127.0
 30
0.0
 40
1.0
100
AcDbArc
 50
180.0
 51
270.0
  0
LINE
  5
60691
330
1A
100
AcDbEntity
  8
0
100
AcDbLine
 10
191.2553929999999
 20
190.982107
 30
0.0
 11
191.2553929999999
 21
50.01746100000002
 31
0.0
  0
LINE
  5
60692
330
1A
100
AcDbEntity
  8
0
100
AcDbLine
 10
190.855393
 20
190.982107
 30
0.0
 11
190.855393
 21
50.01746100000002
 31
0.0
  0
DIMENSION
  5
606BB
330
1A
100
AcDbEntity
  8
SUNPOU
100
AcDbDimension
  2
*D4
 10
341.112091
 20
139.8336669999999
 30
0.0
 11
318.412091
 21
142.3336669999999
 31
0.0
 70
    32
 71
     5
 42
45.40000000000003
  3
STANDARD
100
AcDbAlignedDimension
 13
295.712091
 23
126.277576
 33
0.0
 14
341.112091
 24
126.277576
 34
0.0
100
AcDbRotatedDimension
1001
ACAD
1000
DSTYLE
1002
{
1070
    41
1040
2.5
1070
    42
1040
0.5
1070
    43
1040
10.0
1070
    44
1040
0.5
1070
    73
1070
     0
1070
    74
1070
     0
1070
    77
1070
     1
1070
   140
1040
4.0
1070
   141
1040
0.0
1070
   147
1040
0.5
1070
   271
1070
     1
1070
   272
1070
     2
1070
   341
1005
1D153
1070
   342
1005
1D153
1070
   343
1005
1D153
1070
   344
1005
600CD
1002
}
  0
DIMENSION
  5
606BC
330
1A
100
AcDbEntity
  8
SUNPOU
100
AcDbDimension
  2
*D5
 10
269.447058
 20
95.97757600000001
 30
0.0
 11
266.947058
 21
112.627576
 31
0.0
 70
    32
 71
     5
 42
33.3
  3
STANDARD
100
AcDbAlignedDimension
 13
298.712091
 23
129.277576
 33
0.0
 14
298.712091
 24
95.97757599999999
 34
0.0
 50
90.0
100
AcDbRotatedDimension
1001
ACAD
1000
DSTYLE
1002
{
1070
    41
1040
2.5
1070
    42
1040
0.5
1070
    43
1040
10.0
1070
    44
1040
0.5
1070
    73
1070
     0
1070
    74
1070
     0
1070
    77
1070
     1
1070
   140
1040
4.0
1070
   141
1040
0.0
1070
   147
1040
0.5
1070
   271
1070
     1
1070
   272
1070
     2
1070
   341
1005
1D153
1070
   342
1005
1D153
1070
   343
1005
1D153
1070
   344
1005
600CD
1002
}
  0
DIMENSION
  5
606BD
330
1A
100
AcDbEntity
  8
SUNPOU
100
AcDbDimension
  2
*D6
 10
269.447058
 20
59.27757600000002
 30
0.0
 11
269.447058
 21
71.447576
 31
0.0
 70
   160
 71
     5
 42
24.7
  3
STANDARD
100
AcDbAlignedDimension
 13
298.712091
 23
83.977576
 33
0.0
 14
298.712091
 24
59.27757600000001
 34
0.0
 50
90.0
100
AcDbRotatedDimension
1001
ACAD
1000
DSTYLE
1002
{
1070
    41
1040
2.5
1070
    42
1040
0.5
1070
    43
1040
10.0
1070
    44
1040
0.5
1070
    73
1070
     0
1070
    74
1070
     0
1070
    77
1070
     1
1070
   140
1040
4.0
1070
   141
1040
0.0
1070
   147
1040
0.5
1070
   271
1070
     1
1070
   272
1070
     2
1070
   341
1005
1D153
1070
   342
1005
1D153
1070
   343
1005
1D153
1070
   344
1005
600CD
1002
}
  0
LINE
  5
606BE
330
1A
100
AcDbEntity
  8
0
100
AcDbLine
 10
355.112091
 20
112.627576
 30
0.0
 11
371.212091
 21
112.627576
 31
0.0
  0
LINE
  5
606BF
330
1A
100
AcDbEntity
  8
0
100
AcDbLine
 10
298.712091
 20
129.277576
 30
0.0
 11
338.112091
 21
129.277576
 31
0.0
  0
LINE
  5
606C0
330
1A
100
AcDbEntity
  8
0
100
AcDbLine
 10
298.712091
 20
95.97757599999999
 30
0.0
 11
338.112091
 21
95.97757599999999
 31
0.0
  0
LINE
  5
606C1
330
1A
100
AcDbEntity
  8
0
100
AcDbLine
 10
295.712091
 20
126.277576
 30
0.0
 11
295.712091
 21
98.977576
 31
0.0
  0
LINE
  5
606C2
330
1A
100
AcDbEntity
  8
0
100
AcDbLine
 10
341.112091
 20
126.277576
 30
0.0
 11
341.112091
 21
98.977576
 31
0.0
  0
ARC
  5
606C3
330
1A
100
AcDbEntity
  8
0
100
AcDbCircle
 10
298.712091
 20
126.277576
 30
0.0
 40
3.0
100
AcDbArc
 50
90.0
 51
180.0
  0
ARC
  5
606C4
330
1A
100
AcDbEntity
  8
0
100
AcDbCircle
 10
338.112091
 20
126.277576
 30
0.0
 40
3.0
100
AcDbArc
 50
0.0
 51
90.0
  0
ARC
  5
606C5
330
1A
100
AcDbEntity
  8
0
100
AcDbCircle
 10
338.112091
 20
98.977576
 30
0.0
 40
3.0
100
AcDbArc
 50
270.0
 51
0.0
  0
ARC
  5
606C6
330
1A
100
AcDbEntity
  8
0
100
AcDbCircle
 10
298.712091
 20
98.977576
 30
0.0
 40
3.0
100
AcDbArc
 50
180.0
 51
270.0
  0
LINE
  5
606C7
330
1A
100
AcDbEntity
  8
0
100
AcDbLine
 10
278.712091
 20
119.627576
 30
0.0
 11
278.712091
 21
118.427576
 31
0.0
  0
LINE
  5
606C8
330
1A
100
AcDbEntity
  8
0
100
AcDbLine
 10
278.712091
 20
119.627576
 30
0.0
 11
295.712091
 21
119.627576
 31
0.0
  0
LINE
  5
606C9
330
1A
100
AcDbEntity
  8
0
100
AcDbLine
 10
278.712091
 20
105.627576
 30
0.0
 11
295.712091
 21
105.627576
 31
0.0
  0
LINE
  5
606CA
330
1A
100
AcDbEntity
  8
0
100
AcDbLine
 10
278.712091
 20
118.427576
 30
0.0
 11
295.712091
 21
118.427576
 31
0.0
  0
LINE
  5
606CB
330
1A
100
AcDbEntity
  8
0
100
AcDbLine
 10
278.712091
 20
106.827576
 30
0.0
 11
295.712091
 21
106.827576
 31
0.0
  0
LINE
  5
606CC
330
1A
100
AcDbEntity
  8
0
100
AcDbLine
 10
278.712091
 20
106.827576
 30
0.0
 11
278.712091
 21
105.627576
 31
0.0
  0
LINE
  5
606CD
330
1A
100
AcDbEntity
  8
0
100
AcDbLine
 10
279.212091
 20
106.827576
 30
0.0
 11
279.212091
 21
105.627576
 31
0.0
  0
LINE
  5
606CE
330
1A
100
AcDbEntity
  8
0
100
AcDbLine
 10
279.212091
 20
119.627576
 30
0.0
 11
279.212091
 21
118.427576
 31
0.0
  0
LINE
  5
606CF
330
1A
100
AcDbEntity
  8
0
100
AcDbLine
 10
295.712091
 20
71.627576
 30
0.0
 11
341.112091
 21
71.627576
 31
0.0
  0
LINE
  5
606D0
330
1A
100
AcDbEntity
  8
0
100
AcDbLine
 10
298.712091
 20
83.977576
 30
0.0
 11
338.112091
 21
83.977576
 31
0.0
  0
LINE
  5
606D1
330
1A
100
AcDbEntity
  8
0
100
AcDbLine
 10
298.712091
 20
59.27757600000001
 30
0.0
 11
338.112091
 21
59.27757600000001
 31
0.0
  0
LINE
  5
606D2
330
1A
100
AcDbEntity
  8
0
100
AcDbLine
 10
295.712091
 20
80.97757599999999
 30
0.0
 11
295.712091
 21
62.27757600000001
 31
0.0
  0
LINE
  5
606D3
330
1A
100
AcDbEntity
  8
0
100
AcDbLine
 10
341.112091
 20
80.97757599999999
 30
0.0
 11
341.112091
 21
62.27757600000001
 31
0.0
  0
ARC
  5
606D4
330
1A
100
AcDbEntity
  8
0
100
AcDbCircle
 10
298.712091
 20
80.97757599999999
 30
0.0
 40
3.0
100
AcDbArc
 50
90.0
 51
180.0
  0
ARC
  5
606D5
330
1A
100
AcDbEntity
  8
0
100
AcDbCircle
 10
298.712091
 20
62.27757600000001
 30
0.0
 40
3.0
100
AcDbArc
 50
180.0
 51
270.0
  0
ARC
  5
606D6
330
1A
100
AcDbEntity
  8
0
100
AcDbCircle
 10
338.112091
 20
62.27757600000001
 30
0.0
 40
3.0
100
AcDbArc
 50
270.0
 51
0.0
  0
ARC
  5
606D7
330
1A
100
AcDbEntity
  8
0
100
AcDbCircle
 10
338.112091
 20
80.97757599999999
 30
0.0
 40
3.0
100
AcDbArc
 50
0.0
 51
90.0
  0
LINE
  5
606D8
330
1A
100
AcDbEntity
  8
0
100
AcDbLine
 10
279.172699
 20
74.627576
 30
0.0
 11
295.712091
 21
74.627576
 31
0.0
  0
LINE
  5
606D9
330
1A
100
AcDbEntity
  8
0
100
AcDbLine
 10
279.172699
 20
68.62757600000001
 30
0.0
 11
295.712091
 21
68.62757600000001
 31
0.0
  0
ARC
  5
606DA
330
1A
100
AcDbEntity
  8
0
100
AcDbCircle
 10
288.712091
 20
71.627576
 30
0.0
 40
10.0
100
AcDbArc
 50
162.5423970000023
 51
197.4576029999978
  0
CIRCLE
  5
606DB
330
1A
100
AcDbEntity
  8
0
100
AcDbCircle
 10
283.712091
 20
71.627576
 30
0.0
 40
1.75
  0
LINE
  5
606DC
330
1A
100
AcDbEntity
  8
0
100
AcDbLine
 10
343.112091
 20
116.627576
 30
0.0
 11
355.112091
 21
115.627576
 31
0.0
  0
LINE
  5
606DD
330
1A
100
AcDbEntity
  8
0
100
AcDbLine
 10
355.112091
 20
115.627576
 30
0.0
 11
355.112091
 21
109.627576
 31
0.0
  0
LINE
  5
606DE
330
1A
100
AcDbEntity
  8
0
100
AcDbLine
 10
355.112091
 20
109.627576
 30
0.0
 11
343.112091
 21
108.627576
 31
0.0
  0
LINE
  5
606DF
330
1A
100
AcDbEntity
  8
0
100
AcDbLine
 10
341.112091
 20
117.627576
 30
0.0
 11
343.112091
 21
117.627576
 31
0.0
  0
LINE
  5
606E0
330
1A
100
AcDbEntity
  8
0
100
AcDbLine
 10
343.112091
 20
117.627576
 30
0.0
 11
343.112091
 21
107.627576
 31
0.0
  0
LINE
  5
606E1
330
1A
100
AcDbEntity
  8
0
100
AcDbLine
 10
343.112091
 20
107.627576
 30
0.0
 11
341.112091
 21
107.627576
 31
0.0
  0
LINE
  5
606E2
330
1A
100
AcDbEntity
  8
0
100
AcDbLine
 10
355.112091
 20
114.627576
 30
0.0
 11
371.212091
 21
114.627576
 31
0.0
  0
LINE
  5
606E3
330
1A
100
AcDbEntity
  8
0
100
AcDbLine
 10
355.112091
 20
110.627576
 30
0.0
 11
371.212091
 21
110.627576
 31
0.0
  0
LINE
  5
606E4
330
1A
100
AcDbEntity
  8
0
100
AcDbLine
 10
355.112091
 20
72.627576
 30
0.0
 11
371.212091
 21
72.627576
 31
0.0
  0
LINE
  5
606E5
330
1A
100
AcDbEntity
  8
0
100
AcDbLine
 10
343.112091
 20
66.627576
 30
0.0
 11
341.112091
 21
66.627576
 31
0.0
  0
LINE
  5
606E6
330
1A
100
AcDbEntity
  8
0
100
AcDbLine
 10
343.112091
 20
76.627576
 30
0.0
 11
343.112091
 21
66.627576
 31
0.0
  0
LINE
  5
606E7
330
1A
100
AcDbEntity
  8
0
100
AcDbLine
 10
341.112091
 20
76.627576
 30
0.0
 11
343.112091
 21
76.627576
 31
0.0
  0
LINE
  5
606E8
330
1A
100
AcDbEntity
  8
0
100
AcDbLine
 10
355.112091
 20
68.62757600000001
 30
0.0
 11
343.112091
 21
67.627576
 31
0.0
  0
LINE
  5
606E9
330
1A
100
AcDbEntity
  8
0
100
AcDbLine
 10
355.112091
 20
74.627576
 30
0.0
 11
355.112091
 21
68.62757600000001
 31
0.0
  0
LINE
  5
606EA
330
1A
100
AcDbEntity
  8
0
100
AcDbLine
 10
343.112091
 20
75.62757600000001
 30
0.0
 11
355.112091
 21
74.627576
 31
0.0
  0
LINE
  5
606EB
330
1A
100
AcDbEntity
  8
0
100
AcDbLine
 10
355.112091
 20
70.62757600000001
 30
0.0
 11
371.212091
 21
70.62757600000001
 31
0.0
  0
LINE
  5
606EC
330
1A
100
AcDbEntity
  8
0
100
AcDbLine
 10
302.712091
 20
76.627576
 30
0.0
 11
302.712091
 21
66.627576
 31
0.0
  0
LINE
  5
606ED
330
1A
100
AcDbEntity
  8
0
100
AcDbLine
 10
303.212091
 20
76.627576
 30
0.0
 11
303.212091
 21
66.627576
 31
0.0
  0
LINE
  5
606EE
330
1A
100
AcDbEntity
  8
0
100
AcDbLine
 10
303.712091
 20
76.627576
 30
0.0
 11
303.712091
 21
66.627576
 31
0.0
  0
LINE
  5
606EF
330
1A
100
AcDbEntity
  8
0
100
AcDbLine
 10
304.212091
 20
76.627576
 30
0.0
 11
304.212091
 21
66.627576
 31
0.0
  0
LINE
  5
606F0
330
1A
100
AcDbEntity
  8
0
100
AcDbLine
 10
304.712091
 20
76.627576
 30
0.0
 11
304.712091
 21
66.627576
 31
0.0
  0
LINE
  5
606F1
330
1A
100
AcDbEntity
  8
0
100
AcDbLine
 10
305.212091
 20
76.627576
 30
0.0
 11
305.212091
 21
66.627576
 31
0.0
  0
LINE
  5
606F2
330
1A
100
AcDbEntity
  8
0
100
AcDbLine
 10
305.712091
 20
76.627576
 30
0.0
 11
305.712091
 21
66.627576
 31
0.0
  0
LINE
  5
606F3
330
1A
100
AcDbEntity
  8
0
100
AcDbLine
 10
306.212091
 20
76.627576
 30
0.0
 11
306.212091
 21
66.627576
 31
0.0
  0
LINE
  5
606F4
330
1A
100
AcDbEntity
  8
0
100
AcDbLine
 10
306.712091
 20
76.627576
 30
0.0
 11
306.712091
 21
66.627576
 31
0.0
  0
LINE
  5
606F5
330
1A
100
AcDbEntity
  8
0
100
AcDbLine
 10
307.212091
 20
76.627576
 30
0.0
 11
307.212091
 21
66.627576
 31
0.0
  0
LINE
  5
606F6
330
1A
100
AcDbEntity
  8
0
100
AcDbLine
 10
307.712091
 20
76.627576
 30
0.0
 11
307.712091
 21
66.627576
 31
0.0
  0
LINE
  5
606F7
330
1A
100
AcDbEntity
  8
0
100
AcDbLine
 10
302.712091
 20
76.627576
 30
0.0
 11
303.212091
 21
76.627576
 31
0.0
  0
LINE
  5
606F8
330
1A
100
AcDbEntity
  8
0
100
AcDbLine
 10
303.712091
 20
76.627576
 30
0.0
 11
304.212091
 21
76.627576
 31
0.0
  0
LINE
  5
606F9
330
1A
100
AcDbEntity
  8
0
100
AcDbLine
 10
304.712091
 20
76.627576
 30
0.0
 11
305.212091
 21
76.627576
 31
0.0
  0
LINE
  5
606FA
330
1A
100
AcDbEntity
  8
0
100
AcDbLine
 10
305.712091
 20
76.627576
 30
0.0
 11
306.212091
 21
76.627576
 31
0.0
  0
LINE
  5
606FB
330
1A
100
AcDbEntity
  8
0
100
AcDbLine
 10
306.712091
 20
76.627576
 30
0.0
 11
307.212091
 21
76.627576
 31
0.0
  0
LINE
  5
606FC
330
1A
100
AcDbEntity
  8
0
100
AcDbLine
 10
302.712091
 20
66.627576
 30
0.0
 11
303.212091
 21
66.627576
 31
0.0
  0
LINE
  5
606FD
330
1A
100
AcDbEntity
  8
0
100
AcDbLine
 10
303.712091
 20
66.627576
 30
0.0
 11
304.212091
 21
66.627576
 31
0.0
  0
LINE
  5
606FE
330
1A
100
AcDbEntity
  8
0
100
AcDbLine
 10
304.712091
 20
66.627576
 30
0.0
 11
305.212091
 21
66.627576
 31
0.0
  0
LINE
  5
606FF
330
1A
100
AcDbEntity
  8
0
100
AcDbLine
 10
305.712091
 20
66.627576
 30
0.0
 11
306.212091
 21
66.627576
 31
0.0
  0
LINE
  5
60700
330
1A
100
AcDbEntity
  8
0
100
AcDbLine
 10
306.712091
 20
66.627576
 30
0.0
 11
307.212091
 21
66.627576
 31
0.0
  0
LINE
  5
60701
330
1A
100
AcDbEntity
  8
0
100
AcDbLine
 10
307.712091
 20
76.627576
 30
0.0
 11
308.212091
 21
76.627576
 31
0.0
  0
LINE
  5
60702
330
1A
100
AcDbEntity
  8
0
100
AcDbLine
 10
308.212091
 20
76.627576
 30
0.0
 11
308.212091
 21
66.627576
 31
0.0
  0
LINE
  5
60703
330
1A
100
AcDbEntity
  8
0
100
AcDbLine
 10
307.712091
 20
66.627576
 30
0.0
 11
308.212091
 21
66.627576
 31
0.0
  0
LINE
  5
60704
330
1A
100
AcDbEntity
  8
0
100
AcDbLine
 10
279.212091
 20
74.627576
 30
0.0
 11
279.212091
 21
68.62757600000001
 31
0.0
  0
TEXT
  5
60705
330
1A
100
AcDbEntity
  8
CSLAYER1
 62
     7
100
AcDbText
 10
269.757855
 20
150.197853
 30
0.0
 40
4.0
  1
オプションACアダプタ　(ケーブル長1.5m)
 11
269.757855
 21
150.197853
 31
0.0
100
AcDbText
 73
     1
  0
DIMENSION
  5
60706
330
1A
100
AcDbEntity
  8
SUNPOU
100
AcDbDimension
  2
*D7
 10
208.755394
 20
35.0
 30
0.0
 11
211.0
 21
27.0
 31
0.0
 70
   160
 71
     5
 42
2.500000999999997
  3
STANDARD
100
AcDbAlignedDimension
 13
206.2553929999999
 23
58.13275999999999
 33
0.0
 14
208.755394
 24
64.500122
 34
0.0
100
AcDbRotatedDimension
1001
ACAD
1000
DSTYLE
1002
{
1070
    41
1040
2.5
1070
    42
1040
0.5
1070
    43
1040
10.0
1070
    44
1040
0.5
1070
    73
1070
     0
1070
    74
1070
     0
1070
    77
1070
     1
1070
   140
1040
4.0
1070
   141
1040
0.0
1070
   147
1040
0.5
1070
   271
1070
     1
1070
   272
1070
     2
1070
   279
1070
     1
1070
   341
1005
1D153
1070
   342
1005
1D153
1070
   343
1005
1D153
1070
   344
1005
600CD
1002
}
  0
ARC
  5
645E3
330
1A
100
AcDbEntity
  8
0
100
AcDbCircle
 10
110.9999999999998
 20
83.49999999999926
 30
0.0
 40
2.5
100
AcDbArc
 50
120.0000000000001
 51
59.99999999999986
  0
MTEXT
  5
645E4
330
1A
100
AcDbEntity
  8
0
100
AcDbMText
 10
116.4999999999998
 20
64.99999999999997
 30
0.0
 40
2.5
 41
31.00000000000021
 71
     9
 72
     5
  1
{\fTahoma|b0|i0|c0|p34;TOYO SOKKI}
 73
     1
 44
1.0
1001
ACAD
1000
MTEXTBEGIN
1070
    73
1070
     1
1070
    44
1040
1.0
1070
    74
1070
     0
1000
MTEXTEND
  0
MTEXT
  5
645E5
330
1A
100
AcDbEntity
  8
0
100
AcDbMText
 10
110.9999999999997
 20
96.99999999999926
 30
0.0
 40
2.2
 41
16.24999999999998
 71
     5
 72
     5
  1
{\fTahoma|b0|i0|c0|p34;CLEAR}
 73
     1
 44
1.0
1001
ACAD
1000
MTEXTBEGIN
1070
    73
1070
     1
1070
    44
1040
1.0
1070
    74
1070
     0
1000
MTEXTEND
  0
MTEXT
  5
645E6
330
1A
100
AcDbEntity
  8
0
100
AcDbMText
 10
110.9999999999998
 20
107.9999999999992
 30
0.0
 40
2.2
 41
16.24999999999998
 71
     5
 72
     5
  1
{\fTahoma|b0|i0|c0|p34;ZERO}
 73
     1
 44
1.0
1001
ACAD
1000
MTEXTBEGIN
1070
    73
1070
     1
1070
    44
1040
1.0
1070
    74
1070
     0
1000
MTEXTEND
  0
LINE
  5
645E7
330
1A
100
AcDbEntity
  8
0
100
AcDbLine
 10
115.9999999999998
 20
78.49999999999926
 30
0.0
 11
105.9999999999997
 21
78.49999999999926
 31
0.0
  0
LINE
  5
645E8
330
1A
100
AcDbEntity
  8
0
100
AcDbLine
 10
115.9999999999998
 20
88.49999999999926
 30
0.0
 11
105.9999999999997
 21
88.49999999999926
 31
0.0
  0
LINE
  5
645E9
330
1A
100
AcDbEntity
  8
0
100
AcDbLine
 10
115.9999999999998
 20
91.99999999999926
 30
0.0
 11
105.9999999999998
 21
91.99999999999926
 31
0.0
  0
LINE
  5
645EA
330
1A
100
AcDbEntity
  8
0
100
AcDbLine
 10
115.9999999999998
 20
101.9999999999992
 30
0.0
 11
105.9999999999998
 21
101.9999999999992
 31
0.0
  0
LINE
  5
645EB
330
1A
100
AcDbEntity
  8
0
100
AcDbLine
 10
115.9999999999998
 20
102.9999999999992
 30
0.0
 11
105.9999999999998
 21
102.9999999999992
 31
0.0
  0
LINE
  5
645EC
330
1A
100
AcDbEntity
  8
0
100
AcDbLine
 10
115.9999999999998
 20
112.9999999999992
 30
0.0
 11
105.9999999999998
 21
112.9999999999992
 31
0.0
  0
LINE
  5
645ED
330
1A
100
AcDbEntity
  8
CASE
100
AcDbLine
 10
111.7499999999998
 20
127.4999999999999
 30
0.0
 11
73.24999999999974
 21
127.4999999999999
 31
0.0
  0
LINE
  5
645EE
330
1A
100
AcDbEntity
  8
CASE
100
AcDbLine
 10
111.7499999999998
 20
154.0
 30
0.0
 11
73.24999999999974
 21
154.0
 31
0.0
  0
LINE
  5
645EF
330
1A
100
AcDbEntity
  8
CASE
100
AcDbLine
 10
71.24999999999975
 20
129.4999999999999
 30
0.0
 11
71.24999999999975
 21
152.0
 31
0.0
  0
MTEXT
  5
645F0
330
1A
100
AcDbEntity
  8
0
100
AcDbMText
 10
95.99999999999985
 20
92.99999999999926
 30
0.0
 40
2.2
 41
16.24999999999998
 71
     2
 72
     5
  1
{\fTahoma|b0|i0|c0|p34;LOG}
 73
     1
 44
1.0
1001
ACAD
1000
MTEXTBEGIN
1070
    73
1070
     1
1070
    44
1040
1.0
1070
    74
1070
     0
1000
MTEXTEND
  0
MTEXT
  5
645F1
330
1A
100
AcDbEntity
  8
0
100
AcDbMText
 10
73.99999999999986
 20
92.99999999999926
 30
0.0
 40
2.2
 41
16.24999999999998
 71
     2
 72
     5
  1
{\fTahoma|b0|i0|c0|p34;LOCK}
 73
     1
 44
1.0
1001
ACAD
1000
MTEXTBEGIN
1070
    73
1070
     1
1070
    44
1040
1.0
1070
    74
1070
     0
1000
MTEXTEND
  0
CIRCLE
  5
645F2
330
1A
100
AcDbEntity
  8
0
100
AcDbCircle
 10
84.49999999999986
 20
96.99999999999926
 30
0.0
 40
6.0
  0
CIRCLE
  5
645F3
330
1A
100
AcDbEntity
  8
0
100
AcDbCircle
 10
84.49999999999986
 20
96.99999999999926
 30
0.0
 40
16.0
  0
CIRCLE
  5
645F4
330
1A
100
AcDbEntity
  8
0
100
AcDbCircle
 10
84.49999999999986
 20
96.99999999999926
 30
0.0
 40
7.0
  0
MTEXT
  5
645F5
330
1A
100
AcDbEntity
  8
0
100
AcDbMText
 10
84.49999999999986
 20
79.99999999999926
 30
0.0
 40
2.2
 41
16.24999999999998
 71
     2
 72
     5
  1
{\fTahoma|b0|i0|c0|p34;HOLD}
 73
     1
 44
1.0
1001
ACAD
1000
MTEXTBEGIN
1070
    73
1070
     1
1070
    44
1040
1.0
1070
    74
1070
     0
1000
MTEXTEND
  0
LINE
  5
645F6
330
1A
100
AcDbEntity
  8
0
100
AcDbLine
 10
84.84640762105128
 20
82.13597799966043
 30
0.0
 11
88.15357713617421
 21
87.8639955998541
 31
0.0
  0
LINE
  5
645F7
330
1A
100
AcDbEntity
  8
0
100
AcDbLine
 10
81.192830484876
 20
88.46399999999931
 30
0.0
 11
87.8071695151228
 21
88.46399999999926
 31
0.0
  0
LINE
  5
645F8
330
1A
100
AcDbEntity
  8
0
100
AcDbLine
 10
84.15359237894822
 20
82.13597799966038
 30
0.0
 11
80.84642286382459
 21
87.8639955998541
 31
0.0
  0
ARC
  5
645F9
330
1A
100
AcDbEntity
  8
0
100
AcDbCircle
 10
84.49999999999986
 20
82.33598239980564
 30
0.0
 40
0.4
100
AcDbArc
 50
210.0007277808299
 51
329.999272219175
  0
ARC
  5
645FA
330
1A
100
AcDbEntity
  8
0
100
AcDbCircle
 10
81.192830484876
 20
88.06399999999934
 30
0.0
 40
0.4
100
AcDbArc
 50
90.0
 51
210.000727780832
  0
ARC
  5
645FB
330
1A
100
AcDbEntity
  8
0
100
AcDbCircle
 10
87.8071695151228
 20
88.06399999999928
 30
0.0
 40
0.4
100
AcDbArc
 50
329.999272219175
 51
90.0
  0
LINE
  5
645FC
330
1A
100
AcDbEntity
  8
0
100
AcDbLine
 10
104.9999999999997
 20
87.49999999999927
 30
0.0
 11
104.9999999999997
 21
79.49999999999926
 31
0.0
  0
ARC
  5
645FD
330
1A
100
AcDbEntity
  8
0
100
AcDbCircle
 10
105.9999999999997
 20
79.49999999999926
 30
0.0
 40
1.0
100
AcDbArc
 50
180.0
 51
270.0
  0
ARC
  5
645FE
330
1A
100
AcDbEntity
  8
0
100
AcDbCircle
 10
105.9999999999997
 20
87.49999999999927
 30
0.0
 40
1.0
100
AcDbArc
 50
90.0
 51
180.0
  0
LINE
  5
645FF
330
1A
100
AcDbEntity
  8
0
100
AcDbLine
 10
69.63597799966087
 20
96.65359237894774
 30
0.0
 11
75.36399559985452
 21
93.34642286382409
 31
0.0
  0
LINE
  5
64600
330
1A
100
AcDbEntity
  8
0
100
AcDbLine
 10
69.63597799966087
 20
97.34640762105073
 30
0.0
 11
75.36399559985452
 21
100.6535771361737
 31
0.0
  0
ARC
  5
64601
330
1A
100
AcDbEntity
  8
0
100
AcDbCircle
 10
69.83598239980605
 20
96.99999999999926
 30
0.0
 40
0.4
100
AcDbArc
 50
120.0007277808248
 51
239.9992722191713
  0
LINE
  5
64602
330
1A
100
AcDbEntity
  8
0
100
AcDbLine
 10
75.9639999999998
 20
93.69283048487563
 30
0.0
 11
75.9639999999998
 21
100.3071695151222
 31
0.0
  0
ARC
  5
64603
330
1A
100
AcDbEntity
  8
0
100
AcDbCircle
 10
75.56399999999971
 20
93.69283048487563
 30
0.0
 40
0.4
100
AcDbArc
 50
239.9992722191713
 51
0.0
  0
ARC
  5
64604
330
1A
100
AcDbEntity
  8
0
100
AcDbCircle
 10
75.56399999999971
 20
100.3071695151222
 30
0.0
 40
0.4
100
AcDbArc
 50
0.0
 51
120.0007277808248
  0
ARC
  5
64605
330
1A
100
AcDbEntity
  8
CASE
100
AcDbCircle
 10
73.24999999999974
 20
129.4999999999999
 30
0.0
 40
2.0
100
AcDbArc
 50
180.0
 51
270.0
  0
MTEXT
  5
64606
330
1A
100
AcDbEntity
  8
0
100
AcDbMText
 10
84.49999999999986
 20
113.9999999999992
 30
0.0
 40
2.2
 41
16.24999999999998
 71
     8
 72
     5
  1
{\fTahoma|b0|i0|c0|p34;LIGHT}
 73
     1
 44
1.0
1001
ACAD
1000
MTEXTBEGIN
1070
    73
1070
     1
1070
    44
1040
1.0
1070
    74
1070
     0
1000
MTEXTEND
  0
LINE
  5
64607
330
1A
100
AcDbEntity
  8
0
100
AcDbLine
 10
99.36402200033874
 20
97.34640762105073
 30
0.0
 11
93.63600440014508
 21
100.6535771361737
 31
0.0
  0
LINE
  5
64608
330
1A
100
AcDbEntity
  8
0
100
AcDbLine
 10
99.36402200033874
 20
96.65359237894774
 30
0.0
 11
93.63600440014508
 21
93.34642286382409
 31
0.0
  0
LINE
  5
64609
330
1A
100
AcDbEntity
  8
0
100
AcDbLine
 10
93.03599999999979
 20
93.69283048487563
 30
0.0
 11
93.03600000000002
 21
100.3071695151222
 31
0.0
  0
ARC
  5
6460A
330
1A
100
AcDbEntity
  8
0
100
AcDbCircle
 10
93.43599999999989
 20
93.69283048487563
 30
0.0
 40
0.4
100
AcDbArc
 50
180.0
 51
300.0007277808288
  0
ARC
  5
6460B
330
1A
100
AcDbEntity
  8
0
100
AcDbCircle
 10
93.43599999999989
 20
100.3071695151222
 30
0.0
 40
0.4
100
AcDbArc
 50
59.99927221917518
 51
180.0
  0
LINE
  5
6460C
330
1A
100
AcDbEntity
  8
0
100
AcDbLine
 10
81.192830484876
 20
105.5359999999992
 30
0.0
 11
87.8071695151228
 21
105.5359999999992
 31
0.0
  0
LINE
  5
6460D
330
1A
100
AcDbEntity
  8
0
100
AcDbLine
 10
84.84640762105128
 20
111.8640220003381
 30
0.0
 11
88.15357713617421
 21
106.1360044001444
 31
0.0
  0
LINE
  5
6460E
330
1A
100
AcDbEntity
  8
0
100
AcDbLine
 10
84.15359237894822
 20
111.8640220003381
 30
0.0
 11
80.84642286382459
 21
106.1360044001444
 31
0.0
  0
ARC
  5
6460F
330
1A
100
AcDbEntity
  8
0
100
AcDbCircle
 10
81.192830484876
 20
105.9359999999992
 30
0.0
 40
0.4
100
AcDbArc
 50
149.9992722191679
 51
270.0
  0
ARC
  5
64610
330
1A
100
AcDbEntity
  8
0
100
AcDbCircle
 10
84.49999999999986
 20
111.6640176001929
 30
0.0
 40
0.4
100
AcDbArc
 50
30.00072778082499
 51
149.9992722191679
  0
ARC
  5
64611
330
1A
100
AcDbEntity
  8
0
100
AcDbCircle
 10
87.8071695151228
 20
105.9359999999992
 30
0.0
 40
0.4
100
AcDbArc
 50
270.0
 51
30.00072778082499
  0
ARC
  5
64612
330
1A
100
AcDbEntity
  8
0
100
AcDbCircle
 10
105.9999999999998
 20
103.9999999999992
 30
0.0
 40
1.0
100
AcDbArc
 50
180.0
 51
270.0
  0
ARC
  5
64613
330
1A
100
AcDbEntity
  8
0
100
AcDbCircle
 10
99.16401760019354
 20
96.99999999999926
 30
0.0
 40
0.4
100
AcDbArc
 50
300.0007277808288
 51
59.99927221917518
  0
LINE
  5
64614
330
1A
100
AcDbEntity
  8
0
100
AcDbLine
 10
104.9999999999998
 20
100.9999999999992
 30
0.0
 11
104.9999999999998
 21
92.99999999999926
 31
0.0
  0
ARC
  5
64615
330
1A
100
AcDbEntity
  8
0
100
AcDbCircle
 10
105.9999999999998
 20
92.99999999999926
 30
0.0
 40
1.0
100
AcDbArc
 50
180.0
 51
270.0
  0
ARC
  5
64616
330
1A
100
AcDbEntity
  8
0
100
AcDbCircle
 10
105.9999999999998
 20
100.9999999999992
 30
0.0
 40
1.0
100
AcDbArc
 50
90.0
 51
180.0
  0
LINE
  5
64617
330
1A
100
AcDbEntity
  8
0
100
AcDbLine
 10
104.9999999999998
 20
111.9999999999992
 30
0.0
 11
104.9999999999998
 21
103.9999999999992
 31
0.0
  0
ARC
  5
64618
330
1A
100
AcDbEntity
  8
0
100
AcDbCircle
 10
105.9999999999998
 20
111.9999999999992
 30
0.0
 40
1.0
100
AcDbArc
 50
90.0
 51
180.0
  0
MTEXT
  5
64619
330
1A
100
AcDbEntity
  8
0
100
AcDbMText
 10
68.49999999999986
 20
175.9999999999999
 30
0.0
 40
2.5
 41
24.99999999999998
 71
     1
 72
     5
  1
{\fTahoma|b0|i0|c0|p34;Handy Indicator}
 73
     1
 44
1.0
1001
ACAD
1000
MTEXTBEGIN
1070
    73
1070
     1
1070
    44
1040
1.0
1070
    74
1070
     0
1000
MTEXTEND
  0
MTEXT
  5
6461A
330
1A
100
AcDbEntity
  8
0
100
AcDbMText
 10
68.49999999999986
 20
170.9999999999999
 30
0.0
 40
2.5
 41
14.49999999999998
 71
     1
 72
     5
  1
{\fTahoma|b0|i0|c0|p34;TI-801}
 73
     1
 44
1.0
1001
ACAD
1000
MTEXTBEGIN
1070
    73
1070
     1
1070
    44
1040
1.0
1070
    74
1070
     0
1000
MTEXTEND
  0
ARC
  5
6461B
330
1A
100
AcDbEntity
  8
CASE
100
AcDbCircle
 10
73.24999999999974
 20
152.0
 30
0.0
 40
2.0
100
AcDbArc
 50
90.0
 51
180.0
  0
LINE
  5
6461C
330
1A
100
AcDbEntity
  8
CASE
100
AcDbLine
 10
113.7499999999998
 20
129.4999999999999
 30
0.0
 11
113.7499999999998
 21
152.0
 31
0.0
  0
LINE
  5
6461D
330
1A
100
AcDbEntity
  8
0
100
AcDbLine
 10
116.9999999999998
 20
87.49999999999927
 30
0.0
 11
116.9999999999998
 21
79.49999999999926
 31
0.0
  0
ARC
  5
6461E
330
1A
100
AcDbEntity
  8
0
100
AcDbCircle
 10
115.9999999999998
 20
79.49999999999926
 30
0.0
 40
1.0
100
AcDbArc
 50
270.0
 51
0.0
  0
LINE
  5
6461F
330
1A
100
AcDbEntity
  8
0
100
AcDbLine
 10
110.9999999999998
 20
83.49999999999926
 30
0.0
 11
110.9999999999998
 21
86.49999999999925
 31
0.0
  0
ARC
  5
64620
330
1A
100
AcDbEntity
  8
0
100
AcDbCircle
 10
115.9999999999998
 20
87.49999999999927
 30
0.0
 40
1.0
100
AcDbArc
 50
0.0
 51
90.0
  0
ARC
  5
64621
330
1A
100
AcDbEntity
  8
0
100
AcDbCircle
 10
115.9999999999998
 20
103.9999999999992
 30
0.0
 40
1.0
100
AcDbArc
 50
270.0
 51
0.0
  0
LINE
  5
64622
330
1A
100
AcDbEntity
  8
0
100
AcDbLine
 10
116.9999999999998
 20
100.9999999999992
 30
0.0
 11
116.9999999999998
 21
92.99999999999926
 31
0.0
  0
ARC
  5
64623
330
1A
100
AcDbEntity
  8
0
100
AcDbCircle
 10
115.9999999999998
 20
92.99999999999926
 30
0.0
 40
1.0
100
AcDbArc
 50
270.0
 51
0.0
  0
ARC
  5
64624
330
1A
100
AcDbEntity
  8
0
100
AcDbCircle
 10
115.9999999999998
 20
100.9999999999992
 30
0.0
 40
1.0
100
AcDbArc
 50
0.0
 51
90.0
  0
LINE
  5
64625
330
1A
100
AcDbEntity
  8
0
100
AcDbLine
 10
116.9999999999998
 20
111.9999999999992
 30
0.0
 11
116.9999999999998
 21
103.9999999999992
 31
0.0
  0
ARC
  5
64626
330
1A
100
AcDbEntity
  8
0
100
AcDbCircle
 10
115.9999999999998
 20
111.9999999999992
 30
0.0
 40
1.0
100
AcDbArc
 50
0.0
 51
90.0
  0
ARC
  5
64627
330
1A
100
AcDbEntity
  8
CASE
100
AcDbCircle
 10
111.7499999999998
 20
129.4999999999999
 30
0.0
 40
2.0
100
AcDbArc
 50
270.0
 51
0.0
  0
ARC
  5
64628
330
1A
100
AcDbEntity
  8
CASE
100
AcDbCircle
 10
111.7499999999998
 20
152.0
 30
0.0
 40
2.0
100
AcDbArc
 50
0.0
 51
90.0
  0
LINE
  5
64637
330
1A
100
AcDbEntity
  8
0
100
AcDbLine
 10
111.1249999999998
 20
83.49999999999926
 30
0.0
 11
111.1249999999998
 21
86.49999999999925
 31
0.0
  0
LINE
  5
64638
330
1A
100
AcDbEntity
  8
0
100
AcDbLine
 10
110.8749999999998
 20
83.49999999999926
 30
0.0
 11
110.8749999999998
 21
86.49999999999925
 31
0.0
  0
ARC
  5
64639
330
1A
100
AcDbEntity
  8
0
100
AcDbCircle
 10
110.9999999999998
 20
83.49999999999926
 30
0.0
 40
2.625
100
AcDbArc
 50
120.0000000000001
 51
59.99999999999986
  0
ARC
  5
6463A
330
1A
100
AcDbEntity
  8
0
100
AcDbCircle
 10
110.9999999999998
 20
83.49999999999926
 30
0.0
 40
2.375
100
AcDbArc
 50
120.0000000000001
 51
59.99999999999986
  0
LINE
  5
6463B
330
1A
100
AcDbEntity
  8
0
100
AcDbLine
 10
109.8124999999998
 20
85.5568103339873
 30
0.0
 11
109.6874999999998
 21
85.77331668493341
 31
0.0
  0
LINE
  5
6463C
330
1A
100
AcDbEntity
  8
0
100
AcDbLine
 10
110.8749999999998
 20
86.49999999999925
 30
0.0
 11
111.1249999999998
 21
86.49999999999925
 31
0.0
  0
LINE
  5
6463D
330
1A
100
AcDbEntity
  8
0
100
AcDbLine
 10
112.3124999999998
 20
85.77331668493341
 30
0.0
 11
112.1874999999998
 21
85.5568103339873
 31
0.0
  0
LINE
  5
6463E
330
1A
100
AcDbEntity
  8
0
100
AcDbLine
 10
110.8749999999998
 20
83.49999999999926
 30
0.0
 11
111.1249999999998
 21
83.49999999999926
 31
0.0
  0
LINE
  5
6463F
330
1A
100
AcDbEntity
  8
0
100
AcDbLine
 10
88.99999999999991
 20
96.99999999999926
 30
0.0
 11
79.99999999999992
 21
96.99999999999926
 31
0.0
  0
MTEXT
  5
64640
330
1A
100
AcDbEntity
  8
0
100
AcDbMText
 10
84.49999999999986
 20
97.99999999999926
 30
0.0
 40
2.2
 41
16.24999999999998
 71
     8
 72
     5
  1
{\fTahoma|b0|i0|c0|p34;MENU}
 73
     1
 44
1.0
1001
ACAD
1000
MTEXTBEGIN
1070
    73
1070
     1
1070
    44
1040
1.0
1070
    74
1070
     0
1000
MTEXTEND
  0
MTEXT
  5
64641
330
1A
100
AcDbEntity
  8
0
100
AcDbMText
 10
84.49999999999986
 20
95.99999999999926
 30
0.0
 40
2.2
 41
16.24999999999998
 71
     2
 72
     5
  1
{\fTahoma|b0|i0|c0|p34;ENTRY}
 73
     1
 44
1.0
1001
ACAD
1000
MTEXTBEGIN
1070
    73
1070
     1
1070
    44
1040
1.0
1070
    74
1070
     0
1000
MTEXTEND
  0
MTEXT
  5
64782
330
1A
100
AcDbEntity
  8
0
100
AcDbMText
 10
73.99999999999995
 20
230.881782
 30
0.0
 40
2.5
 41
11.32222222222222
 71
     8
 72
     5
  1
{\fTahoma|b0|i0|c0|p34;DC 5V}
 11
-1.0
 21
0.0000000000000001
 31
0.0
 73
     1
 44
1.0
1001
ACAD
1000
MTEXTBEGIN
1070
    73
1070
     1
1070
    44
1040
1.0
1070
    74
1070
     0
1000
MTEXTEND
  0
LINE
  5
64783
330
1A
100
AcDbEntity
  8
CASE
100
AcDbLine
 10
114.7499999999999
 20
243.631782
 30
0.0
 11
108.2499999999999
 21
243.631782
 31
0.0
  0
LINE
  5
64784
330
1A
100
AcDbEntity
  8
CASE
100
AcDbLine
 10
114.7499999999999
 20
240.6317819999999
 30
0.0
 11
108.2499999999999
 21
240.6317819999999
 31
0.0
  0
MTEXT
  5
64785
330
1A
100
AcDbEntity
  8
0
100
AcDbMText
 10
111.4999999999999
 20
245.631782
 30
0.0
 40
2.5
 41
8.988888888888888
 71
     2
 72
     5
  1
{\fTahoma|b0|i0|c0|p34;USB}
 11
-1.0
 21
0.0000000000000001
 31
0.0
 73
     1
 44
1.0
1001
ACAD
1000
MTEXTBEGIN
1070
    73
1070
     1
1070
    44
1040
1.0
1070
    74
1070
     0
1000
MTEXTEND
  0
CIRCLE
  5
64786
330
1A
100
AcDbEntity
  8
0
100
AcDbCircle
 10
77.99999999999994
 20
246.381782
 30
0.0
 40
1.5
  0
LINE
  5
64787
330
1A
100
AcDbEntity
  8
CASE
100
AcDbLine
 10
69.99999999999994
 20
231.881782
 30
0.0
 11
77.99999999999994
 21
231.881782
 31
0.0
  0
LINE
  5
64788
330
1A
100
AcDbEntity
  8
CASE
100
AcDbLine
 10
69.99999999999994
 20
243.881782
 30
0.0
 11
77.99999999999994
 21
243.881782
 31
0.0
  0
LINE
  5
64789
330
1A
100
AcDbEntity
  8
PARTS
100
AcDbLine
 10
68.99999999999995
 20
242.8817820000001
 30
0.0
 11
68.99999999999988
 21
238.881782
 31
0.0
  0
LINE
  5
6478A
330
1A
100
AcDbEntity
  8
CASE
100
AcDbLine
 10
68.99999999999995
 20
232.881782
 30
0.0
 11
68.99999999999995
 21
242.881782
 31
0.0
  0
ARC
  5
6478B
330
1A
100
AcDbEntity
  8
CASE
100
AcDbCircle
 10
69.99999999999994
 20
232.881782
 30
0.0
 40
1.0
100
AcDbArc
 50
180.0
 51
270.0
  0
ARC
  5
6478C
330
1A
100
AcDbEntity
  8
CASE
100
AcDbCircle
 10
69.99999999999994
 20
242.8817820000001
 30
0.0
 40
1.0
100
AcDbArc
 50
90.0
 51
180.0
  0
HATCH
  5
6478D
330
1A
100
AcDbEntity
  8
0
100
AcDbHatch
 10
0.0
 20
0.0
 30
0.0
210
0.0
220
0.0
230
1.0
  2
SOLID
 70
     1
 71
     1
 91
        1
 92
        1
 93
        1
 72
     2
 10
73.99999999999995
 20
246.381782
 40
0.4
 50
0.0
 51
360.0
 73
     1
 97
        1
330
6478E
 75
     0
 76
     1
 98
        1
 10
-226.0000000000001
 20
31.38178200000008
  0
CIRCLE
  5
6478E
102
{ACAD_REACTORS
330
6478D
102
}
330
1A
100
AcDbEntity
  8
0
100
AcDbCircle
 10
73.99999999999995
 20
246.381782
 30
0.0
 40
0.4
  0
ARC
  5
6478F
330
1A
100
AcDbEntity
  8
0
100
AcDbCircle
 10
73.99999999999995
 20
246.381782
 30
0.0
 40
1.5
100
AcDbArc
 50
210.0000000000009
 51
149.999999999999
  0
LINE
  5
64790
330
1A
100
AcDbEntity
  8
0
100
AcDbLine
 10
73.59999999999996
 20
246.381782
 30
0.0
 11
71.49999999999995
 21
246.381782
 31
0.0
  0
LINE
  5
64791
330
1A
100
AcDbEntity
  8
0
100
AcDbLine
 10
69.99999999999994
 20
245.7817820000001
 30
0.0
 11
69.99999999999994
 21
246.981782
 31
0.0
  0
LINE
  5
64792
330
1A
100
AcDbEntity
  8
0
100
AcDbLine
 10
70.59999999999996
 20
246.381782
 30
0.0
 11
69.39999999999992
 21
246.381782
 31
0.0
  0
CIRCLE
  5
64793
330
1A
100
AcDbEntity
  8
0
100
AcDbCircle
 10
69.99999999999994
 20
246.3817820000001
 30
0.0
 40
1.5
  0
LINE
  5
64794
330
1A
100
AcDbEntity
  8
0
100
AcDbLine
 10
75.49999999999994
 20
246.381782
 30
0.0
 11
76.49999999999995
 21
246.381782
 31
0.0
  0
LINE
  5
64795
330
1A
100
AcDbEntity
  8
0
100
AcDbLine
 10
78.59999999999996
 20
246.381782
 30
0.0
 11
77.39999999999992
 21
246.381782
 31
0.0
  0
CIRCLE
  5
64796
330
1A
100
AcDbEntity
  8
0
100
AcDbCircle
 10
92.5
 20
236.331782
 30
0.0
 40
7.5
  0
LINE
  5
64797
330
1A
100
AcDbEntity
  8
PARTS
100
AcDbLine
 10
78.99999999999995
 20
242.881782
 30
0.0
 11
78.99999999999995
 21
238.881782
 31
0.0
  0
LINE
  5
64798
330
1A
100
AcDbEntity
  8
CASE
100
AcDbLine
 10
78.99999999999995
 20
232.881782
 30
0.0
 11
78.99999999999995
 21
242.8817819999999
 31
0.0
  0
ARC
  5
64799
330
1A
100
AcDbEntity
  8
CASE
100
AcDbCircle
 10
77.99999999999994
 20
232.881782
 30
0.0
 40
1.0
100
AcDbArc
 50
270.0
 51
0.0
  0
ARC
  5
6479B
330
1A
100
AcDbEntity
  8
CASE
100
AcDbCircle
 10
77.99999999999994
 20
242.8817819999999
 30
0.0
 40
1.0
100
AcDbArc
 50
0.0
 51
90.0
  0
LINE
  5
6479C
330
1A
100
AcDbEntity
  8
CASE
100
AcDbLine
 10
107.2499999999999
 20
241.631782
 30
0.0
 11
107.2499999999999
 21
242.6317819999999
 31
0.0
  0
ARC
  5
6479E
330
1A
100
AcDbEntity
  8
CASE
100
AcDbCircle
 10
108.2499999999999
 20
241.631782
 30
0.0
 40
1.0
100
AcDbArc
 50
180.0
 51
270.0
  0
ARC
  5
647A0
330
1A
100
AcDbEntity
  8
CASE
100
AcDbCircle
 10
108.2499999999999
 20
242.6317819999999
 30
0.0
 40
1.0
100
AcDbArc
 50
90.0
 51
180.0
  0
LINE
  5
647A1
330
1A
100
AcDbEntity
  8
CASE
100
AcDbLine
 10
115.7499999999999
 20
241.631782
 30
0.0
 11
115.7499999999999
 21
242.6317819999999
 31
0.0
  0
ARC
  5
647A2
330
1A
100
AcDbEntity
  8
CASE
100
AcDbCircle
 10
114.7499999999999
 20
241.631782
 30
0.0
 40
1.0
100
AcDbArc
 50
270.0
 51
0.0
  0
ARC
  5
647A3
330
1A
100
AcDbEntity
  8
CASE
100
AcDbCircle
 10
114.7499999999999
 20
242.6317819999999
 30
0.0
 40
1.0
100
AcDbArc
 50
0.0
 51
90.0
  0
LINE
  5
647A9
330
1A
100
AcDbEntity
  8
0
100
AcDbLine
 10
81.99999999999993
 20
227.831782
 30
0.0
 11
82.0
 21
244.831782
 31
0.0
  0
LINE
  5
647AA
330
1A
100
AcDbEntity
  8
0
100
AcDbLine
 10
100.9999999999999
 20
225.831782
 30
0.0
 11
83.99999999999995
 21
225.831782
 31
0.0
  0
LINE
  5
647AB
330
1A
100
AcDbEntity
  8
0
100
AcDbLine
 10
101.0
 20
246.831782
 30
0.0
 11
84.0
 21
246.831782
 31
0.0
  0
LINE
  5
647AC
330
1A
100
AcDbEntity
  8
0
100
AcDbLine
 10
103.0
 20
227.831782
 30
0.0
 11
103.0
 21
244.831782
 31
0.0
  0
LWPOLYLINE
  5
647AD
330
1A
100
AcDbEntity
  8
0
100
AcDbPolyline
 90
       13
 70
     0
 43
0.0
 10
100.0
 20
227.831782
 10
99.0
 20
227.831782
 10
99.0
 20
228.831782
 10
100.0
 20
228.831782
 10
100.0
 20
229.831782
 10
101.0
 20
229.831782
 10
101.0
 20
228.831782
 10
102.0
 20
228.831782
 10
102.0
 20
227.831782
 10
101.0
 20
227.831782
 10
101.0
 20
226.831782
 10
100.0
 20
226.831782
 10
100.0
 20
227.831782
  0
ARC
  5
647AE
330
1A
100
AcDbEntity
  8
0
100
AcDbCircle
 10
101.0
 20
227.831782
 30
0.0
 40
2.0
100
AcDbArc
 50
270.0
 51
0.0
  0
CIRCLE
  5
647AF
330
1A
100
AcDbEntity
  8
0
100
AcDbCircle
 10
100.5
 20
228.331782
 30
0.0
 40
2.25
  0
LWPOLYLINE
  5
647B0
330
1A
100
AcDbEntity
  8
0
100
AcDbPolyline
 90
       13
 70
     0
 43
0.0
 10
100.0
 20
243.831782
 10
99.0
 20
243.831782
 10
99.0
 20
244.831782
 10
100.0
 20
244.831782
 10
100.0
 20
245.831782
 10
101.0
 20
245.831782
 10
101.0
 20
244.831782
 10
102.0
 20
244.831782
 10
102.0
 20
243.831782
 10
101.0
 20
243.831782
 10
101.0
 20
242.831782
 10
100.0
 20
242.831782
 10
100.0
 20
243.831782
  0
CIRCLE
  5
647B1
330
1A
100
AcDbEntity
  8
0
100
AcDbCircle
 10
100.5
 20
244.331782
 30
0.0
 40
2.25
  0
ARC
  5
647B2
330
1A
100
AcDbEntity
  8
0
100
AcDbCircle
 10
101.0
 20
244.831782
 30
0.0
 40
2.0
100
AcDbArc
 50
0.0
 51
90.0
  0
CIRCLE
  5
647B3
330
1A
100
AcDbEntity
  8
0
100
AcDbCircle
 10
84.49999999999993
 20
228.331782
 30
0.0
 40
2.25
  0
ARC
  5
647B4
330
1A
100
AcDbEntity
  8
0
100
AcDbCircle
 10
83.99999999999995
 20
227.831782
 30
0.0
 40
2.0
100
AcDbArc
 50
180.0
 51
270.0
  0
LWPOLYLINE
  5
647B5
330
1A
100
AcDbEntity
  8
0
100
AcDbPolyline
 90
       13
 70
     0
 43
0.0
 10
83.99999999999995
 20
227.831782
 10
82.99999999999995
 20
227.831782
 10
82.99999999999995
 20
228.831782
 10
83.99999999999995
 20
228.831782
 10
83.99999999999995
 20
229.831782
 10
84.99999999999994
 20
229.831782
 10
84.99999999999994
 20
228.831782
 10
85.99999999999994
 20
228.831782
 10
85.99999999999994
 20
227.831782
 10
84.99999999999994
 20
227.831782
 10
84.99999999999994
 20
226.831782
 10
83.99999999999995
 20
226.831782
 10
83.99999999999995
 20
227.831782
  0
CIRCLE
  5
647B6
330
1A
100
AcDbEntity
  8
0
100
AcDbCircle
 10
84.50000000000001
 20
244.331782
 30
0.0
 40
2.25
  0
LWPOLYLINE
  5
647B7
330
1A
100
AcDbEntity
  8
0
100
AcDbPolyline
 90
       13
 70
     0
 43
0.0
 10
84.0
 20
243.831782
 10
83.0
 20
243.831782
 10
83.0
 20
244.831782
 10
84.0
 20
244.831782
 10
84.0
 20
245.831782
 10
85.0
 20
245.831782
 10
85.0
 20
244.831782
 10
86.0
 20
244.831782
 10
86.0
 20
243.831782
 10
85.0
 20
243.831782
 10
85.0
 20
242.831782
 10
84.0
 20
242.831782
 10
84.0
 20
243.831782
  0
ARC
  5
647B8
330
1A
100
AcDbEntity
  8
0
100
AcDbCircle
 10
84.0
 20
244.831782
 30
0.0
 40
2.0
100
AcDbArc
 50
90.0
 51
180.0
  0
LWPOLYLINE
  5
647B9
330
1A
100
AcDbEntity
  8
0
100
AcDbPolyline
 90
       13
 70
     0
 43
0.0
 10
107.4999997648114
 20
234.8817823289512
 10
107.4999997648114
 20
235.8817823289512
 10
106.4999997648114
 20
235.8817823289512
 10
106.4999997648114
 20
234.8817823289512
 10
105.4999997648114
 20
234.8817823289512
 10
105.4999997648114
 20
233.8817823289512
 10
106.4999997648114
 20
233.8817823289512
 10
106.4999997648114
 20
232.8817823289512
 10
107.4999997648114
 20
232.8817823289512
 10
107.4999997648114
 20
233.8817823289512
 10
108.4999997648114
 20
233.8817823289512
 10
108.4999997648114
 20
234.8817823289512
 10
107.4999997648114
 20
234.8817823289512
  0
CIRCLE
  5
647BA
330
1A
100
AcDbEntity
  8
0
100
AcDbCircle
 10
106.9999997648114
 20
234.3817823289512
 30
0.0
 40
2.25
  0
CIRCLE
  5
647BB
330
1A
100
AcDbEntity
  8
SUNPOU
100
AcDbCircle
 10
89.50000000000001
 20
236.331782
 30
0.0
 40
0.75
  0
CIRCLE
  5
647BC
330
1A
100
AcDbEntity
  8
0
100
AcDbCircle
 10
92.5
 20
236.331782
 30
0.0
 40
8.5
  0
CIRCLE
  5
647BD
330
1A
100
AcDbEntity
  8
0
100
AcDbCircle
 10
92.5
 20
236.331782
 30
0.0
 40
6.5
  0
CIRCLE
  5
647BE
330
1A
100
AcDbEntity
  8
0
100
AcDbCircle
 10
92.5
 20
236.331782
 30
0.0
 40
5.0
  0
LINE
  5
647BF
330
1A
100
AcDbEntity
  8
0
100
AcDbLine
 10
92.0
 20
229.8510413015921
 30
0.0
 11
92.0
 21
230.831782
 31
0.0
  0
LINE
  5
647C0
330
1A
100
AcDbEntity
  8
0
100
AcDbLine
 10
93.0
 20
230.831782
 30
0.0
 11
93.0
 21
229.8510413015921
 31
0.0
  0
LINE
  5
647C1
330
1A
100
AcDbEntity
  8
0
100
AcDbLine
 10
92.0
 20
230.831782
 30
0.0
 11
93.0
 21
230.831782
 31
0.0
  0
CIRCLE
  5
647C2
330
1A
100
AcDbEntity
  8
SUNPOU
100
AcDbCircle
 10
94.0
 20
233.7337057886467
 30
0.0
 40
0.75
  0
CIRCLE
  5
647C3
330
1A
100
AcDbEntity
  8
SUNPOU
100
AcDbCircle
 10
91.0
 20
233.7337057886467
 30
0.0
 40
0.75
  0
CIRCLE
  5
647C4
330
1A
100
AcDbEntity
  8
SUNPOU
100
AcDbCircle
 10
95.5
 20
236.331782
 30
0.0
 40
0.75
  0
CIRCLE
  5
647C5
330
1A
100
AcDbEntity
  8
SUNPOU
100
AcDbCircle
 10
94.0
 20
238.9298582113533
 30
0.0
 40
0.75
  0
CIRCLE
  5
647C6
330
1A
100
AcDbEntity
  8
SUNPOU
100
AcDbCircle
 10
91.0
 20
238.9298582113533
 30
0.0
 40
0.75
  0
CIRCLE
  5
647C7
330
1A
100
AcDbEntity
  8
SUNPOU
100
AcDbCircle
 10
92.5
 20
236.331782
 30
0.0
 40
0.75
  0
LINE
  5
647C8
330
1A
100
AcDbEntity
  8
PARTS
100
AcDbLine
 10
75.99999999999994
 20
238.881782
 30
0.0
 11
71.99999999999994
 21
238.881782
 31
0.0
  0
LINE
  5
647C9
330
1A
100
AcDbEntity
  8
PARTS
100
AcDbLine
 10
69.99999999999994
 20
243.381782
 30
0.0
 11
77.99999999999994
 21
243.381782
 31
0.0
  0
LINE
  5
647CA
330
1A
100
AcDbEntity
  8
PARTS
100
AcDbLine
 10
69.99999999999994
 20
232.381782
 30
0.0
 11
77.99999999999994
 21
232.381782
 31
0.0
  0
CIRCLE
  5
647CB
330
1A
100
AcDbEntity
  8
PARTS
100
AcDbCircle
 10
73.99999999999995
 20
236.881782
 30
0.0
 40
1.75
  0
CIRCLE
  5
647CC
330
1A
100
AcDbEntity
  8
PARTS
100
AcDbCircle
 10
73.99999999999995
 20
236.881782
 30
0.0
 40
3.25
  0
LINE
  5
647CD
330
1A
100
AcDbEntity
  8
PARTS
100
AcDbLine
 10
78.49999999999994
 20
236.881782
 30
0.0
 11
78.49999999999994
 21
242.881782
 31
0.0
  0
ARC
  5
647CE
330
1A
100
AcDbEntity
  8
PARTS
100
AcDbCircle
 10
78.99999999999995
 20
242.881782
 30
0.0
 40
0.5
100
AcDbArc
 50
104.4775121859307
 51
180.0
  0
LINE
  5
647CF
330
1A
100
AcDbEntity
  8
PARTS
100
AcDbLine
 10
78.49999999999994
 20
238.881782
 30
0.0
 11
78.99999999999995
 21
238.881782
 31
0.0
  0
LINE
  5
647D0
330
1A
100
AcDbEntity
  8
PARTS
100
AcDbLine
 10
75.99999999999994
 20
239.4435196914899
 30
0.0
 11
75.99999999999988
 21
238.881782
 31
0.0
  0
LINE
  5
647D1
330
1A
100
AcDbEntity
  8
PARTS
100
AcDbLine
 10
78.49999999999994
 20
232.881782
 30
0.0
 11
78.49999999999994
 21
242.881782
 31
0.0
  0
ARC
  5
647D2
330
1A
100
AcDbEntity
  8
PARTS
100
AcDbCircle
 10
77.99999999999994
 20
242.881782
 30
0.0
 40
0.5
100
AcDbArc
 50
0.0
 51
90.0
  0
ARC
  5
647D3
330
1A
100
AcDbEntity
  8
PARTS
100
AcDbCircle
 10
77.99999999999994
 20
232.881782
 30
0.0
 40
0.5
100
AcDbArc
 50
270.0
 51
0.0
  0
CIRCLE
  5
647D4
330
1A
100
AcDbEntity
  8
PARTS
100
AcDbCircle
 10
73.99999999999995
 20
236.881782
 30
0.0
 40
1.05
  0
LINE
  5
647D5
330
1A
100
AcDbEntity
  8
PARTS
100
AcDbLine
 10
69.49999999999994
 20
238.881782
 30
0.0
 11
68.99999999999988
 21
238.881782
 31
0.0
  0
ARC
  5
647D6
330
1A
100
AcDbEntity
  8
PARTS
100
AcDbCircle
 10
68.99999999999995
 20
242.881782
 30
0.0
 40
0.5
100
AcDbArc
 50
0.0
 51
75.52248781406934
  0
LINE
  5
647D7
330
1A
100
AcDbEntity
  8
PARTS
100
AcDbLine
 10
71.99999999999994
 20
239.4435196914899
 30
0.0
 11
71.99999999999994
 21
238.881782
 31
0.0
  0
LINE
  5
647D8
330
1A
100
AcDbEntity
  8
PARTS
100
AcDbLine
 10
69.49999999999994
 20
232.881782
 30
0.0
 11
69.49999999999994
 21
242.881782
 31
0.0
  0
ARC
  5
647D9
330
1A
100
AcDbEntity
  8
PARTS
100
AcDbCircle
 10
69.99999999999994
 20
242.881782
 30
0.0
 40
0.5
100
AcDbArc
 50
90.0
 51
180.0
  0
ARC
  5
647DA
330
1A
100
AcDbEntity
  8
PARTS
100
AcDbCircle
 10
69.99999999999994
 20
232.881782
 30
0.0
 40
0.5
100
AcDbArc
 50
180.0
 51
270.0
  0
LINE
  5
647DB
330
1A
100
AcDbEntity
  8
PARTS
100
AcDbLine
 10
115.2499999999999
 20
242.1317819999999
 30
0.0
 11
115.2499999999999
 21
243.381782
 31
0.0
  0
LINE
  5
647DC
330
1A
100
AcDbEntity
  8
PARTS
100
AcDbLine
 10
113.9999999999999
 20
240.8817819999999
 30
0.0
 11
108.9999999999999
 21
240.8817819999999
 31
0.0
  0
LINE
  5
647DD
330
1A
100
AcDbEntity
  8
PARTS
100
AcDbLine
 10
115.2499999999999
 20
243.081782
 30
0.0
 11
115.6430285549745
 21
243.081782
 31
0.0
  0
LINE
  5
647DE
330
1A
100
AcDbEntity
  8
PARTS
100
AcDbLine
 10
115.4114378277661
 20
243.3817819999999
 30
0.0
 11
107.5885621722337
 21
243.381782
 31
0.0
  0
LINE
  5
647DF
330
1A
100
AcDbEntity
  8
PARTS
100
AcDbLine
 10
107.3569714450253
 20
243.081782
 30
0.0
 11
107.7499999999999
 21
243.081782
 31
0.0
  0
LINE
  5
647E0
330
1A
100
AcDbEntity
  8
PARTS
100
AcDbLine
 10
114.4999999999999
 20
243.081782
 30
0.0
 11
114.4999999999999
 21
243.631782
 31
0.0
  0
LINE
  5
647E1
330
1A
100
AcDbEntity
  8
PARTS
100
AcDbLine
 10
108.4999999999999
 20
243.081782
 30
0.0
 11
108.4999999999999
 21
243.631782
 31
0.0
  0
LINE
  5
647E2
330
1A
100
AcDbEntity
  8
PARTS
100
AcDbLine
 10
115.2499999999999
 20
242.1317819999999
 30
0.0
 11
113.9999999999999
 21
240.8817819999999
 31
0.0
  0
LINE
  5
647E3
330
1A
100
AcDbEntity
  8
PARTS
100
AcDbLine
 10
114.9499999999999
 20
242.2560460687118
 30
0.0
 11
113.8757359312879
 21
241.181782
 31
0.0
  0
LINE
  5
647E4
330
1A
100
AcDbEntity
  8
PARTS
100
AcDbLine
 10
114.9499999999999
 20
242.2560460687118
 30
0.0
 11
114.9499999999999
 21
243.381782
 31
0.0
  0
LINE
  5
647E5
330
1A
100
AcDbEntity
  8
PARTS
100
AcDbLine
 10
114.9499999999999
 20
243.081782
 30
0.0
 11
108.0499999999999
 21
243.081782
 31
0.0
  0
LINE
  5
647E6
330
1A
100
AcDbEntity
  8
PARTS
100
AcDbLine
 10
113.8757359312879
 20
241.181782
 30
0.0
 11
109.1242640687119
 21
241.181782
 31
0.0
  0
LINE
  5
647E7
330
1A
100
AcDbEntity
  8
PARTS
100
AcDbLine
 10
107.7499999999999
 20
242.131782
 30
0.0
 11
107.7499999999999
 21
243.381782
 31
0.0
  0
LINE
  5
647E8
330
1A
100
AcDbEntity
  8
PARTS
100
AcDbLine
 10
107.7499999999999
 20
242.131782
 30
0.0
 11
108.9999999999999
 21
240.8817819999999
 31
0.0
  0
LINE
  5
647E9
330
1A
100
AcDbEntity
  8
PARTS
100
AcDbLine
 10
108.05
 20
242.2560460687119
 30
0.0
 11
109.1242640687119
 21
241.181782
 31
0.0
  0
LINE
  5
647EA
330
1A
100
AcDbEntity
  8
PARTS
100
AcDbLine
 10
108.05
 20
242.2560460687119
 30
0.0
 11
108.0499999999999
 21
243.381782
 31
0.0
  0
LINE
  5
647EB
330
1A
100
AcDbEntity
  8
PARTS
100
AcDbLine
 10
111.4999999999999
 20
241.881782
 30
0.0
 11
111.4999999999999
 21
242.381782
 31
0.0
  0
LINE
  5
647EC
330
1A
100
AcDbEntity
  8
PARTS
100
AcDbLine
 10
113.5757359312879
 20
241.181782
 30
0.0
 11
113.5757359312879
 21
240.6317819999999
 31
0.0
  0
LINE
  5
647ED
330
1A
100
AcDbEntity
  8
PARTS
100
AcDbLine
 10
109.4242640687119
 20
241.181782
 30
0.0
 11
109.4242640687119
 21
240.6317819999999
 31
0.0
  0
LINE
  5
647EE
330
1A
100
AcDbEntity
  8
PARTS
100
AcDbLine
 10
111.6999999999999
 20
242.131782
 30
0.0
 11
111.6999999999999
 21
242.531782
 31
0.0
  0
LINE
  5
647EF
330
1A
100
AcDbEntity
  8
PARTS
100
AcDbLine
 10
111.6999999999999
 20
242.531782
 30
0.0
 11
111.2999999999999
 21
242.531782
 31
0.0
  0
LINE
  5
647F0
330
1A
100
AcDbEntity
  8
PARTS
100
AcDbLine
 10
111.2999999999999
 20
242.531782
 30
0.0
 11
111.2999999999999
 21
242.131782
 31
0.0
  0
LINE
  5
647F1
330
1A
100
AcDbEntity
  8
PARTS
100
AcDbLine
 10
109.7499999999999
 20
242.131782
 30
0.0
 11
113.2499999999999
 21
242.131782
 31
0.0
  0
LINE
  5
647F2
330
1A
100
AcDbEntity
  8
PARTS
100
AcDbLine
 10
111.0499999999999
 20
242.131782
 30
0.0
 11
111.0499999999999
 21
242.531782
 31
0.0
  0
LINE
  5
647F3
330
1A
100
AcDbEntity
  8
PARTS
100
AcDbLine
 10
111.0499999999999
 20
242.531782
 30
0.0
 11
110.6499999999999
 21
242.531782
 31
0.0
  0
LINE
  5
647F4
330
1A
100
AcDbEntity
  8
PARTS
100
AcDbLine
 10
110.6499999999999
 20
242.531782
 30
0.0
 11
110.6499999999999
 21
242.131782
 31
0.0
  0
LINE
  5
647F5
330
1A
100
AcDbEntity
  8
PARTS
100
AcDbLine
 10
110.3999999999999
 20
242.131782
 30
0.0
 11
110.3999999999999
 21
242.531782
 31
0.0
  0
LINE
  5
647F6
330
1A
100
AcDbEntity
  8
PARTS
100
AcDbLine
 10
110.3999999999999
 20
242.531782
 30
0.0
 11
109.9999999999999
 21
242.531782
 31
0.0
  0
LINE
  5
647F7
330
1A
100
AcDbEntity
  8
PARTS
100
AcDbLine
 10
109.9999999999999
 20
242.531782
 30
0.0
 11
109.9999999999999
 21
242.131782
 31
0.0
  0
LINE
  5
647F8
330
1A
100
AcDbEntity
  8
PARTS
100
AcDbLine
 10
109.7499999999999
 20
242.131782
 30
0.0
 11
109.7499999999999
 21
243.081782
 31
0.0
  0
LINE
  5
647F9
330
1A
100
AcDbEntity
  8
PARTS
100
AcDbLine
 10
112.9999999999999
 20
242.131782
 30
0.0
 11
112.9999999999999
 21
242.531782
 31
0.0
  0
LINE
  5
647FA
330
1A
100
AcDbEntity
  8
PARTS
100
AcDbLine
 10
112.9999999999999
 20
242.531782
 30
0.0
 11
112.5999999999999
 21
242.531782
 31
0.0
  0
LINE
  5
647FB
330
1A
100
AcDbEntity
  8
PARTS
100
AcDbLine
 10
112.5999999999999
 20
242.531782
 30
0.0
 11
112.5999999999999
 21
242.131782
 31
0.0
  0
LINE
  5
647FC
330
1A
100
AcDbEntity
  8
PARTS
100
AcDbLine
 10
112.3499999999999
 20
242.131782
 30
0.0
 11
112.3499999999999
 21
242.531782
 31
0.0
  0
LINE
  5
647FD
330
1A
100
AcDbEntity
  8
PARTS
100
AcDbLine
 10
112.3499999999999
 20
242.531782
 30
0.0
 11
111.95
 21
242.531782
 31
0.0
  0
LINE
  5
647FE
330
1A
100
AcDbEntity
  8
PARTS
100
AcDbLine
 10
111.95
 20
242.531782
 30
0.0
 11
111.95
 21
242.131782
 31
0.0
  0
LINE
  5
647FF
330
1A
100
AcDbEntity
  8
PARTS
100
AcDbLine
 10
113.2499999999999
 20
242.131782
 30
0.0
 11
113.25
 21
243.081782
 31
0.0
  0
ELLIPSE
  5
64833
330
1A
100
AcDbEntity
  8
SUNPOU
100
AcDbEllipse
 10
178.7753939999998
 20
189.6297408504331
 30
0.0
 11
-2.296666648999985
 21
0.0000000000000007
 31
0.0
210
0.0
220
0.0
230
1.0
 40
0.5962264589045852
 41
3.955871202650801
 42
5.589385714591421
  0
ELLIPSE
  5
64835
330
1A
100
AcDbEntity
  8
SUNPOU
100
AcDbEllipse
 10
194.7753939999998
 20
189.6297408504331
 30
0.0
 11
-2.296666648999985
 21
0.0000000000000007
 31
0.0
210
0.0
220
0.0
230
1.0
 40
0.5962264589045852
 41
4.188991722726851
 42
5.116386901343395
  0
LINE
  5
64838
330
1A
100
AcDbEntity
  8
0
100
AcDbLine
 10
178.275394
 20
200.1964076210507
 30
0.0
 11
195.275394
 21
200.1964076210507
 31
0.0
  0
LINE
  5
64839
330
1A
100
AcDbEntity
  8
0
100
AcDbLine
 10
178.275394
 20
190.966229730639
 30
0.0
 11
178.275394
 21
200.1964076210507
 31
0.0
  0
LINE
  5
6483B
330
1A
100
AcDbEntity
  8
0
100
AcDbLine
 10
195.275394
 20
190.9662297306389
 30
0.0
 11
195.275394
 21
200.1964076210507
 31
0.0
  0
ARC
  5
64869
330
1A
100
AcDbEntity
  8
0
100
AcDbCircle
 10
95.77999853131226
 20
191.4480939312223
 30
0.0
 40
0.1
100
AcDbArc
 50
87.99999999999961
 51
92.0000000000004
  0
ELLIPSE
  5
6486A
330
1A
100
AcDbEntity
  8
SUNPOU
100
AcDbEllipse
 10
84.49999953131214
 20
189.6297408504331
 30
0.0
 11
-2.296666648999985
 21
0.0000000000000007
 31
0.0
210
0.0
220
0.0
230
1.0
 40
0.5962264589045852
 41
4.038805493934478
 42
5.385972466834901
  0
ELLIPSE
  5
6486C
330
1A
100
AcDbEntity
  8
SUNPOU
100
AcDbEllipse
 10
100.4999995313121
 20
189.6297408504331
 30
0.0
 11
-2.296666648999985
 21
0.0000000000000007
 31
0.0
210
0.0
220
0.0
230
1.0
 40
0.5962264589045852
 41
4.038805493934478
 42
5.385972466834901
  0
LINE
  5
6486F
330
1A
100
AcDbEntity
  8
0
100
AcDbLine
 10
83.99999953131226
 20
200.1964076210507
 30
0.0
 11
100.9999995313122
 21
200.1964076210507
 31
0.0
  0
LINE
  5
64870
330
1A
100
AcDbEntity
  8
0
100
AcDbLine
 10
83.99999953131226
 20
190.966229730639
 30
0.0
 11
83.99999953131226
 21
200.1964076210507
 31
0.0
  0
LINE
  5
64872
330
1A
100
AcDbEntity
  8
0
100
AcDbLine
 10
100.9999995313122
 20
190.9662297306389
 30
0.0
 11
100.9999995313122
 21
200.1964076210507
 31
0.0
  0
TEXT
  5
64893
330
1A
100
AcDbEntity
  8
0
100
AcDbText
 10
234.0
 20
22.0
 30
0.0
 40
2.0
  1
20.10.29
 41
0.8
100
AcDbText
  0
TEXT
  5
64894
330
1A
100
AcDbEntity
  8
0
100
AcDbText
 10
247.5
 20
21.5
 30
0.0
 40
3.0
  1
大野
100
AcDbText
  0
ARC
  5
648B2
330
1A
100
AcDbEntity
  8
CASE
 62
   252
100
AcDbCircle
 10
67.24999999999991
 20
156.5
 30
0.0
 40
1.25
100
AcDbArc
 50
90.0
 51
180.0
  0
ARC
  5
648B3
330
1A
100
AcDbEntity
  8
CASE
 62
   252
100
AcDbCircle
 10
67.24999999999991
 20
125.0
 30
0.0
 40
1.25
100
AcDbArc
 50
180.0
 51
270.0
  0
ARC
  5
648B4
330
1A
100
AcDbEntity
  8
CASE
 62
   252
100
AcDbCircle
 10
117.7499999999999
 20
156.5
 30
0.0
 40
1.25
100
AcDbArc
 50
0.0
 51
90.0
  0
ARC
  5
648B5
330
1A
100
AcDbEntity
  8
CASE
 62
   252
100
AcDbCircle
 10
117.7499999999999
 20
125.0
 30
0.0
 40
1.25
100
AcDbArc
 50
270.0
 51
0.0
  0
LINE
  5
648B6
330
1A
100
AcDbEntity
  8
CASE
 62
   252
100
AcDbLine
 10
65.99999999999991
 20
156.5
 30
0.0
 11
65.99999999999991
 21
125.0
 31
0.0
  0
LINE
  5
648B7
330
1A
100
AcDbEntity
  8
CASE
 62
   252
100
AcDbLine
 10
67.24999999999991
 20
123.75
 30
0.0
 11
117.7499999999999
 21
123.75
 31
0.0
  0
LINE
  5
648B8
330
1A
100
AcDbEntity
  8
CASE
 62
   252
100
AcDbLine
 10
118.9999999999999
 20
125.0
 30
0.0
 11
118.9999999999999
 21
156.5
 31
0.0
  0
LINE
  5
648B9
330
1A
100
AcDbEntity
  8
CASE
 62
   252
100
AcDbLine
 10
117.7499999999999
 20
157.75
 30
0.0
 11
67.24999999999991
 21
157.75
 31
0.0
  0
TEXT
  5
648F9
330
1A
100
AcDbEntity
  8
CSLAYER1
 62
     7
100
AcDbText
 10
241.257855
 20
242.197853
 30
0.0
 40
4.0
  1
TI-801はシリコンカバー標準付属。カバー色：ライトグレー
 11
241.257855
 21
242.197853
 31
0.0
100
AcDbText
 73
     1
  0
TEXT
  5
648FA
330
1A
100
AcDbEntity
  8
CSLAYER1
 62
     7
100
AcDbText
 10
241.257855
 20
234.697853
 30
0.0
 40
4.0
  1
(本図はカバー装着状態の外形図)
 11
241.257855
 21
234.697853
 31
0.0
100
AcDbText
 73
     1
  0
TEXT
  5
648FB
330
1A
100
AcDbEntity
  8
CSLAYER1
 62
     7
100
AcDbText
 10
241.257855
 20
227.1978530000001
 30
0.0
 40
4.0
  1
カバー非装着状態時のケース外形：W76×H35×D135+12
 11
241.257855
 21
227.1978530000001
 31
0.0
100
AcDbText
 73
     1
  0
VIEWPORT
  5
22
102
{ACAD_XDICTIONARY
360
6496E
102
}
330
17
100
AcDbEntity
 67
     1
  8
0
100
AcDbViewport
 10
261.5176991150442
 20
154.7242978687078
 30
0.0
 40
523.0353982300885
 41
309.4485957374157
 68
     1
 69
     1
 12
261.5176991150442
 22
154.7242978687078
 13
0.0
 23
0.0
 14
1.0
 24
1.0
 15
10.0
 25
10.0
 16
0.0
 26
0.0
 36
1.0
 17
0.0
 27
0.0
 37
0.0
 42
50.0
 43
0.0
 44
0.0
 45
309.4485957374157
 50
0.0
 51
0.0
 72
   100
 90
    32768
  1

281
     0
 71
     1
 74
     0
110
0.0
120
0.0
130
0.0
111
1.0
121
0.0
131
0.0
112
0.0
122
1.0
132
0.0
 79
     0
146
0.0
  0
ENDSEC
  0
SECTION
  2
OBJECTS
  0
DICTIONARY
  5
C
330
0
100
AcDbDictionary
281
     1
  3
ACAD_COLOR
350
A8AE
  3
ACAD_GROUP
350
D
  3
ACAD_LAYOUT
350
A787
  3
ACAD_MATERIAL
350
A8AD
  3
ACAD_MLINESTYLE
350
E
  3
ACAD_PLOTSETTINGS
350
A788
  3
ACAD_PLOTSTYLENAME
350
A785
  3
AcadDim
350
36605
  3
ACDBHEADERROUNDTRIPXREC
350
6496B
  3
ACDBVARIABLEDICTIONARY
350
A1A6
  3
CONTENTDICTIONARY
350
5E99
  0
DICTIONARY
  5
B207
330
2
100
AcDbDictionary
280
     1
281
     1
  3
ACAD_LAYERSTATES
360
B208
  0
DICTIONARY
  5
1D15C
330
1D15B
100
AcDbDictionary
280
     1
281
     1
  3
ACAD_XREC_ROUNDTRIP
360
1D15D
  0
DICTIONARY
  5
1D15F
330
1D15E
100
AcDbDictionary
280
     1
281
     1
  3
ACAD_XREC_ROUNDTRIP
360
1D160
  0
DICTIONARY
  5
1D162
330
1D161
100
AcDbDictionary
280
     1
281
     1
  3
ACAD_XREC_ROUNDTRIP
360
1D163
  0
DICTIONARY
  5
1D165
330
1D164
100
AcDbDictionary
280
     1
281
     1
  3
ACAD_XREC_ROUNDTRIP
360
1D166
  0
DICTIONARY
  5
47899
330
47898
100
AcDbDictionary
280
     1
281
     1
  3
ADSK_XREC_LAYER_RECONCILED
360
4789A
  0
DICTIONARY
  5
36592
330
1A
100
AcDbDictionary
280
     1
281
     1
  3
ACAD_SORTENTS
360
36593
  0
DICTIONARY
  5
6496E
330
22
100
AcDbDictionary
280
     1
281
     1
  3
ACAD_XREC_ROUNDTRIP
360
6496F
  0
DICTIONARY
  5
A8AE
102
{ACAD_REACTORS
330
C
102
}
330
C
100
AcDbDictionary
281
     1
  0
DICTIONARY
  5
D
102
{ACAD_REACTORS
330
C
102
}
330
C
100
AcDbDictionary
281
     1
  3
*A1
350
94FD
  3
*A10
350
45FE7
  3
*A100
350
256B9
  3
*A101
350
465A8
  3
*A102
350
55E72
  3
*A103
350
1DEEB
  3
*A104
350
258A1
  3
*A105
350
57621
  3
*A106
350
34E3E
  3
*A107
350
4718F
  3
*A108
350
53B65
  3
*A109
350
45FF1
  3
*A11
350
53DBB
  3
*A110
350
259FB
  3
*A111
350
37A85
  3
*A112
350
58001
  3
*A113
350
45FE5
  3
*A114
350
4659D
  3
*A115
350
568A5
  3
*A116
350
2F10E
  3
*A117
350
1DFFE
  3
*A118
350
53B6C
  3
*A119
350
53B81
  3
*A12
350
1B28F
  3
*A120
350
1C3A8
  3
*A121
350
4692D
  3
*A122
350
3185E
  3
*A123
350
465AB
  3
*A124
350
47186
  3
*A125
350
45375
  3
*A126
350
565D0
  3
*A127
350
5B760
  3
*A128
350
2F10B
  3
*A129
350
55E38
  3
*A13
350
3516F
  3
*A130
350
5B744
  3
*A131
350
25560
  3
*A132
350
26055
  3
*A133
350
1DB50
  3
*A134
350
381C5
  3
*A135
350
359FC
  3
*A136
350
1B430
  3
*A137
350
1AF16
  3
*A138
350
1DEE0
  3
*A139
350
5BE42
  3
*A14
350
5C7C6
  3
*A140
350
56B51
  3
*A141
350
365D3
  3
*A142
350
251AE
  3
*A143
350
5815A
  3
*A144
350
46DEA
  3
*A145
350
1DEE6
  3
*A146
350
53B7D
  3
*A147
350
53B77
  3
*A148
350
45FF2
  3
*A149
350
5817D
  3
*A15
350
465A0
  3
*A150
350
5817E
  3
*A151
350
46925
  3
*A152
350
56B86
  3
*A153
350
34E3D
  3
*A154
350
373D2
  3
*A155
350
5BCFD
  3
*A156
350
4692C
  3
*A157
350
1DC4C
  3
*A158
350
25781
  3
*A159
350
381C6
  3
*A16
350
25549
  3
*A160
350
1DB1A
  3
*A161
350
465A3
  3
*A162
350
1212D
  3
*A163
350
56ADC
  3
*A164
350
266F1
  3
*A165
350
1DFF2
  3
*A166
350
1AF15
  3
*A167
350
5819D
  3
*A168
350
56D1F
  3
*A169
350
57FF7
  3
*A17
350
5BEEA
  3
*A170
350
46E5A
  3
*A171
350
5819E
  3
*A172
350
582BD
  3
*A173
350
582EE
  3
*A174
350
14F9C
  3
*A175
350
41CCE
  3
*A176
350
25148
  3
*A177
350
53DB9
  3
*A178
350
1DC4D
  3
*A179
350
5C1E2
  3
*A18
350
359FD
  3
*A180
350
57FC1
  3
*A181
350
46DE1
  3
*A182
350
1DB97
  3
*A183
350
56B4A
  3
*A184
350
37636
  3
*A185
350
2F115
  3
*A186
350
381CA
  3
*A187
350
45548
  3
*A188
350
45B4A
  3
*A189
350
1DED9
  3
*A19
350
46FFF
  3
*A190
350
5C31A
  3
*A191
350
1DEE5
  3
*A192
350
45B34
  3
*A193
350
41CD2
  3
*A194
350
1DA19
  3
*A195
350
37A86
  3
*A196
350
5B737
  3
*A197
350
5B745
  3
*A198
350
46929
  3
*A199
350
57DE7
  3
*A2
350
56D1D
  3
*A20
350
5C7C7
  3
*A200
350
57DE0
  3
*A201
350
57F58
  3
*A202
350
57DE9
  3
*A203
350
1B15C
  3
*A204
350
46930
  3
*A205
350
1DC50
  3
*A206
350
57DDC
  3
*A207
350
1AE40
  3
*A208
350
1B162
  3
*A209
350
5BD4C
  3
*A21
350
36F09
  3
*A210
350
B7CA
  3
*A211
350
1D82E
  3
*A212
350
1DC4A
  3
*A213
350
55A2C
  3
*A214
350
53B5C
  3
*A215
350
46181
  3
*A216
350
1DEE4
  3
*A217
350
41CD4
  3
*A218
350
5C971
  3
*A219
350
54EF6
  3
*A22
350
1DEEC
  3
*A220
350
53B74
  3
*A221
350
5C972
  3
*A222
350
5BD4D
  3
*A223
350
56D1B
  3
*A224
350
5C31B
  3
*A225
350
5CA1D
  3
*A226
350
41CDB
  3
*A227
350
5CB29
  3
*A228
350
55E6C
  3
*A229
350
45AAA
  3
*A23
350
5C7C8
  3
*A230
350
1DEE1
  3
*A231
350
5B746
  3
*A232
350
46E4A
  3
*A233
350
53B62
  3
*A234
350
1B41A
  3
*A235
350
5C31C
  3
*A236
350
1DB64
  3
*A237
350
1DEE2
  3
*A238
350
53B7F
  3
*A239
350
53B78
  3
*A24
350
456CB
  3
*A240
350
55078
  3
*A241
350
54F50
  3
*A242
350
1DB9C
  3
*A243
350
566AF
  3
*A244
350
54EAE
  3
*A245
350
3761F
  3
*A246
350
45FED
  3
*A247
350
57DE1
  3
*A248
350
5B747
  3
*A249
350
34CB5
  3
*A25
350
45B9E
  3
*A250
350
56C28
  3
*A251
350
3739F
  3
*A252
350
25F11
  3
*A253
350
4550E
  3
*A254
350
41CD6
  3
*A255
350
45500
  3
*A256
350
55DA4
  3
*A257
350
25701
  3
*A258
350
1B3B0
  3
*A259
350
1DFA8
  3
*A26
350
5C7C9
  3
*A260
350
57FEC
  3
*A261
350
55DAA
  3
*A262
350
45516
  3
*A263
350
56C34
  3
*A264
350
2506A
  3
*A265
350
56B05
  3
*A266
350
45ABC
  3
*A267
350
45BD9
  3
*A268
350
471C3
  3
*A269
350
59B0F
  3
*A27
350
5C7CA
  3
*A270
350
1B255
  3
*A271
350
59B10
  3
*A272
350
46921
  3
*A273
350
18010
  3
*A274
350
57DE2
  3
*A275
350
5B808
  3
*A276
350
1D88C
  3
*A277
350
1DB9D
  3
*A278
350
1DEDE
  3
*A279
350
2F10F
  3
*A28
350
5B742
  3
*A280
350
41CE5
  3
*A281
350
34E2D
  3
*A282
350
46926
  3
*A283
350
46928
  3
*A284
350
1DB6D
  3
*A285
350
1ADE0
  3
*A286
350
566DB
  3
*A287
350
25266
  3
*A288
350
59F3C
  3
*A289
350
53B5F
  3
*A29
350
5BEEB
  3
*A290
350
37A84
  3
*A291
350
1ADE4
  3
*A292
350
5BD76
  3
*A293
350
2468E
  3
*A294
350
1DB70
  3
*A295
350
41CDC
  3
*A296
350
34C8B
  3
*A297
350
5B748
  3
*A298
350
36E32
  3
*A299
350
381C7
  3
*A3
350
5C7C1
  3
*A30
350
5C7CB
  3
*A300
350
37649
  3
*A301
350
5C31D
  3
*A302
350
55E37
  3
*A303
350
2F109
  3
*A304
350
45679
  3
*A305
350
54EBA
  3
*A306
350
31890
  3
*A307
350
35A01
  3
*A308
350
53B7E
  3
*A309
350
1DB6A
  3
*A31
350
5C7DB
  3
*A310
350
266F0
  3
*A311
350
1DEE9
  3
*A312
350
5C31E
  3
*A313
350
55DB3
  3
*A314
350
5B749
  3
*A315
350
1DEEA
  3
*A316
350
36154
  3
*A317
350
2F114
  3
*A318
350
56239
  3
*A319
350
5BD97
  3
*A32
350
5B736
  3
*A320
350
1D95B
  3
*A321
350
25782
  3
*A322
350
25F4D
  3
*A323
350
5C31F
  3
*A324
350
5B72F
  3
*A325
350
26056
  3
*A326
350
57DDE
  3
*A327
350
381C8
  3
*A328
350
45FE3
  3
*A329
350
53B5A
  3
*A33
350
565D1
  3
*A330
350
5B730
  3
*A331
350
57DE4
  3
*A332
350
5BD9E
  3
*A333
350
350B6
  3
*A334
350
45FEF
  3
*A335
350
565F8
  3
*A336
350
1DEE3
  3
*A337
350
1DC4F
  3
*A338
350
53B6B
  3
*A339
350
465AE
  3
*A34
350
41CDA
  3
*A340
350
1DA29
  3
*A341
350
365D5
  3
*A342
350
45FE9
  3
*A343
350
34CBC
  3
*A344
350
46E3E
  3
*A345
350
59F56
  3
*A346
350
1D874
  3
*A347
350
5BDCF
  3
*A348
350
1DED3
  3
*A349
350
5B73C
  3
*A35
350
25691
  3
*A350
350
5B74A
  3
*A351
350
56238
  3
*A352
350
5B734
  3
*A353
350
41CD8
  3
*A354
350
53B66
  3
*A355
350
41CCC
  3
*A356
350
4692B
  3
*A357
350
1D873
  3
*A358
350
259A9
  3
*A359
350
53DB7
  3
*A36
350
53B6D
  3
*A360
350
5B738
  3
*A361
350
56C37
  3
*A362
350
55FAC
  3
*A363
350
465A6
  3
*A364
350
45549
  3
*A365
350
4611D
  3
*A366
350
2552D
  3
*A367
350
57DE6
  3
*A368
350
5C320
  3
*A369
350
53DB8
  3
*A37
350
5C800
  3
*A370
350
53B5B
  3
*A371
350
5510B
  3
*A372
350
1B290
  3
*A373
350
46F31
  3
*A374
350
36220
  3
*A375
350
53B69
  3
*A376
350
365FC
  3
*A377
350
54F70
  3
*A378
350
45FE6
  3
*A379
350
1DED7
  3
*A38
350
1DEDD
  3
*A380
350
54FA3
  3
*A381
350
53B7C
  3
*A382
350
45AC5
  3
*A383
350
57DEA
  3
*A384
350
2674B
  3
*A385
350
5B73B
  3
*A386
350
56C3C
  3
*A387
350
1DB5A
  3
*A388
350
1D991
  3
*A389
350
46920
  3
*A39
350
5C809
  3
*A390
350
5B75A
  3
*A391
350
1DC4B
  3
*A392
350
4692E
  3
*A393
350
1DFD7
  3
*A394
350
375D4
  3
*A395
350
54FD3
  3
*A396
350
5B75B
  3
*A397
350
1B431
  3
*A398
350
56C3D
  3
*A399
350
53B68
  3
*A4
350
1ADDB
  3
*A40
350
56D2D
  3
*A400
350
5B74B
  3
*A401
350
5BEE5
  3
*A402
350
5BDD6
  3
*A403
350
46922
  3
*A404
350
1D97B
  3
*A405
350
5506D
  3
*A406
350
1E00A
  3
*A407
350
41CE2
  3
*A408
350
1DFFD
  3
*A409
350
1B19A
  3
*A41
350
41CE3
  3
*A410
350
46923
  3
*A411
350
2468F
  3
*A412
350
57FD3
  3
*A413
350
1B28E
  3
*A414
350
457F9
  3
*A415
350
37A83
  3
*A416
350
2F10A
  3
*A417
350
1B251
  3
*A418
350
565A9
  3
*A419
350
41CE1
  3
*A42
350
1DED1
  3
*A420
350
3761E
  3
*A421
350
461F8
  3
*A422
350
5B80B
  3
*A423
350
37541
  3
*A424
350
45FEB
  3
*A425
350
4692A
  3
*A426
350
36A7A
  3
*A427
350
31536
  3
*A428
350
5BDDB
  3
*A429
350
1DFAD
  3
*A43
350
25684
  3
*A430
350
41CCD
  3
*A431
350
36A57
  3
*A432
350
5B74C
  3
*A433
350
5DEAC
  3
*A434
350
5B73E
  3
*A435
350
4659F
  3
*A436
350
5DEAD
  3
*A437
350
5DEAE
  3
*A438
350
5DEAF
  3
*A439
350
5DEB0
  3
*A44
350
5B743
  3
*A440
350
5DEB1
  3
*A441
350
5BDE0
  3
*A442
350
2F110
  3
*A443
350
5DEB2
  3
*A444
350
41CEA
  3
*A445
350
25A71
  3
*A446
350
5C360
  3
*A447
350
2554A
  3
*A448
350
365D2
  3
*A449
350
5DEB3
  3
*A45
350
461F7
  3
*A450
350
5B74D
  3
*A451
350
5DEB4
  3
*A452
350
5DEB5
  3
*A453
350
5DEB6
  3
*A454
350
5DEB7
  3
*A455
350
41CE8
  3
*A456
350
41CDE
  3
*A457
350
5C361
  3
*A458
350
5DEB8
  3
*A459
350
53B61
  3
*A46
350
56D1E
  3
*A460
350
2555C
  3
*A461
350
5DEB9
  3
*A462
350
5DEBA
  3
*A463
350
5DEBB
  3
*A464
350
5DEBC
  3
*A465
350
3188B
  3
*A466
350
36E24
  3
*A467
350
5DEBD
  3
*A468
350
5C388
  3
*A469
350
5DEBE
  3
*A47
350
5BCF8
  3
*A470
350
565CF
  3
*A471
350
5DEBF
  3
*A472
350
55A2B
  3
*A473
350
5DEC0
  3
*A474
350
25F40
  3
*A475
350
5DEC1
  3
*A476
350
5DEC2
  3
*A477
350
5DEC3
  3
*A478
350
5DEC4
  3
*A479
350
53B6E
  3
*A48
350
5814D
  3
*A480
350
5DEC5
  3
*A481
350
5DEC6
  3
*A482
350
470BC
  3
*A483
350
53B79
  3
*A484
350
53B60
  3
*A485
350
31872
  3
*A486
350
5DEC7
  3
*A487
350
5DEC8
  3
*A488
350
56365
  3
*A489
350
5DEC9
  3
*A49
350
55E73
  3
*A490
350
41CCF
  3
*A491
350
5DECA
  3
*A492
350
5DECB
  3
*A493
350
5DECC
  3
*A494
350
5DECD
  3
*A495
350
5DECE
  3
*A496
350
459B8
  3
*A497
350
1D98C
  3
*A498
350
5DECF
  3
*A499
350
5B731
  3
*A5
350
5BA7C
  3
*A50
350
465A2
  3
*A500
350
57FCA
  3
*A501
350
37F14
  3
*A502
350
5DED0
  3
*A503
350
41CD0
  3
*A504
350
457D9
  3
*A505
350
5DED1
  3
*A506
350
5DED2
  3
*A507
350
5DED3
  3
*A508
350
5BED7
  3
*A509
350
2555F
  3
*A51
350
2F10C
  3
*A510
350
5DED4
  3
*A511
350
5BDF6
  3
*A512
350
5C38F
  3
*A513
350
5DED5
  3
*A514
350
5DED6
  3
*A515
350
5DED7
  3
*A516
350
5DED8
  3
*A517
350
56AE2
  3
*A518
350
53DB6
  3
*A519
350
5DED9
  3
*A52
350
4514C
  3
*A520
350
5DEDA
  3
*A521
350
B7B9
  3
*A522
350
1DFAF
  3
*A523
350
55E69
  3
*A524
350
5DEDB
  3
*A525
350
4691F
  3
*A526
350
5DEDC
  3
*A527
350
5DEDD
  3
*A528
350
5DEDE
  3
*A529
350
5DEDF
  3
*A53
350
4536D
  3
*A530
350
5DEE0
  3
*A531
350
5DEE1
  3
*A532
350
56039
  3
*A533
350
57DE8
  3
*A534
350
5C3F1
  3
*A535
350
5B74E
  3
*A536
350
5E640
  3
*A537
350
5E641
  3
*A538
350
53B5E
  3
*A539
350
565B1
  3
*A54
350
37A82
  3
*A540
350
5E642
  3
*A541
350
5E643
  3
*A542
350
5E644
  3
*A543
350
5E645
  3
*A544
350
5E646
  3
*A545
350
5C4BC
  3
*A546
350
2F111
  3
*A547
350
5E647
  3
*A548
350
1DED8
  3
*A549
350
57FED
  3
*A55
350
465A9
  3
*A550
350
5E648
  3
*A551
350
5BDFC
  3
*A552
350
2556C
  3
*A553
350
5E649
  3
*A554
350
5E64A
  3
*A555
350
5E64B
  3
*A556
350
1B406
  3
*A557
350
41CE0
  3
*A558
350
465A1
  3
*A559
350
1805C
  3
*A56
350
53B72
  3
*A560
350
5E64C
  3
*A561
350
5E64D
  3
*A562
350
5E7F0
  3
*A563
350
5E7F1
  3
*A564
350
1DED4
  3
*A565
350
2F10D
  3
*A566
350
5E7F2
  3
*A567
350
5E7F3
  3
*A568
350
41CE6
  3
*A569
350
5B74F
  3
*A57
350
25A6F
  3
*A570
350
5E7F4
  3
*A571
350
57FA2
  3
*A572
350
5E971
  3
*A573
350
5E972
  3
*A574
350
5E973
  3
*A575
350
266ED
  3
*A576
350
5E974
  3
*A577
350
5E975
  3
*A578
350
5BE02
  3
*A579
350
45A4C
  3
*A58
350
1DEDF
  3
*A580
350
1DEDC
  3
*A581
350
5EE3E
  3
*A582
350
5EE3F
  3
*A583
350
2F113
  3
*A584
350
5EE40
  3
*A585
350
5B750
  3
*A586
350
4692F
  3
*A587
350
1ACB0
  3
*A588
350
25A72
  3
*A589
350
41CE4
  3
*A59
350
266EE
  3
*A590
350
5B73F
  3
*A591
350
46927
  3
*A592
350
2F116
  3
*A593
350
5BE08
  3
*A594
350
25783
  3
*A595
350
56C46
  3
*A596
350
37606
  3
*A597
350
45A5A
  3
*A598
350
2566C
  3
*A599
350
1DED6
  3
*A6
350
5C7C2
  3
*A60
350
5BCF9
  3
*A600
350
1D92F
  3
*A601
350
254DA
  3
*A602
350
5B751
  3
*A603
350
569ED
  3
*A604
350
25780
  3
*A605
350
1212C
  3
*A606
350
4659E
  3
*A607
350
45FEC
  3
*A608
350
47185
  3
*A609
350
53DBA
  3
*A61
350
35FE6
  3
*A610
350
461F6
  3
*A611
350
5B72A
  3
*A612
350
5B75E
  3
*A613
350
53B71
  3
*A614
350
45FE4
  3
*A615
350
2F117
  3
*A616
350
5B72B
  3
*A617
350
53DBC
  3
*A618
350
5B72C
  3
*A619
350
56C47
  3
*A62
350
53DB4
  3
*A620
350
34E2E
  3
*A621
350
5B72D
  3
*A622
350
5B72E
  3
*A623
350
580D4
  3
*A624
350
53DB5
  3
*A625
350
359FF
  3
*A626
350
5F6EC
  3
*A627
350
1DEDB
  3
*A628
350
41CDF
  3
*A629
350
5B732
  3
*A63
350
56B37
  3
*A630
350
1DC51
  3
*A631
350
5BEDE
  3
*A632
350
47000
  3
*A633
350
46176
  3
*A634
350
5C4BD
  3
*A635
350
57DDF
  3
*A636
350
465AC
  3
*A637
350
5B752
  3
*A638
350
5B753
  3
*A639
350
5B754
  3
*A64
350
53B80
  3
*A640
350
1DB77
  3
*A641
350
46ED5
  3
*A642
350
53B75
  3
*A643
350
5B755
  3
*A644
350
1DB76
  3
*A645
350
5B733
  3
*A646
350
25671
  3
*A647
350
36E3A
  3
*A648
350
5BE19
  3
*A649
350
2F112
  3
*A65
350
41CD3
  3
*A650
350
1D88B
  3
*A651
350
5B756
  3
*A652
350
57DDD
  3
*A653
350
37A87
  3
*A654
350
45FEE
  3
*A655
350
5B757
  3
*A656
350
5C4BE
  3
*A657
350
365D4
  3
*A658
350
45BD1
  3
*A659
350
5B758
  3
*A66
350
5613E
  3
*A660
350
5B759
  3
*A661
350
359FE
  3
*A662
350
465AA
  3
*A663
350
45188
  3
*A664
350
53B63
  3
*A665
350
5B75C
  3
*A666
350
3188F
  3
*A667
350
12398
  3
*A668
350
5C4BF
  3
*A669
350
25F63
  3
*A67
350
47187
  3
*A670
350
1B1C2
  3
*A671
350
256BB
  3
*A672
350
41CE9
  3
*A673
350
56B43
  3
*A674
350
1DFF1
  3
*A675
350
5BE1A
  3
*A676
350
4516A
  3
*A677
350
2548F
  3
*A678
350
36E5E
  3
*A679
350
1C759
  3
*A68
350
5B75D
  3
*A680
350
36A30
  3
*A681
350
37534
  3
*A682
350
56C48
  3
*A683
350
57CD1
  3
*A684
350
45C12
  3
*A685
350
57FEE
  3
*A686
350
53B6A
  3
*A687
350
45FE2
  3
*A688
350
5B739
  3
*A689
350
4408E
  3
*A69
350
457D8
  3
*A690
350
381C9
  3
*A691
350
41CDD
  3
*A692
350
41CE7
  3
*A693
350
53B7B
  3
*A694
350
46924
  3
*A695
350
1DED2
  3
*A696
350
60051
  3
*A697
350
1B423
  3
*A698
350
1DED5
  3
*A699
350
1B291
  3
*A7
350
5C7C3
  3
*A70
350
57617
  3
*A700
350
57DE5
  3
*A701
350
41CD9
  3
*A702
350
5BE1B
  3
*A703
350
5BE1E
  3
*A704
350
5BE21
  3
*A705
350
56D2C
  3
*A706
350
56C49
  3
*A707
350
53B7A
  3
*A708
350
3771C
  3
*A709
350
5BE32
  3
*A71
350
25A70
  3
*A710
350
5BE37
  3
*A711
350
5B73A
  3
*A712
350
5C4CE
  3
*A713
350
18049
  3
*A714
350
45B9C
  3
*A715
350
266EF
  3
*A716
350
53B70
  3
*A717
350
41CD1
  3
*A718
350
5B8A3
  3
*A719
350
37536
  3
*A72
350
2674A
  3
*A720
350
5BE38
  3
*A721
350
46E59
  3
*A722
350
3144B
  3
*A723
350
37F15
  3
*A724
350
5BE3D
  3
*A725
350
465A4
  3
*A726
350
45FF0
  3
*A727
350
5B735
  3
*A728
350
5BEDF
  3
*A729
350
46FFE
  3
*A73
350
45A89
  3
*A730
350
123AC
  3
*A731
350
56C4C
  3
*A732
350
56C4F
  3
*A733
350
56580
  3
*A734
350
5C4D6
  3
*A735
350
31877
  3
*A736
350
2F118
  3
*A737
350
471A7
  3
*A738
350
53B73
  3
*A739
350
5B948
  3
*A74
350
58159
  3
*A740
350
5BEE2
  3
*A741
350
41CD7
  3
*A742
350
45FE8
  3
*A743
350
1DC4E
  3
*A744
350
1D97A
  3
*A745
350
26057
  3
*A746
350
465A7
  3
*A747
350
1B252
  3
*A748
350
1E009
  3
*A749
350
1DEED
  3
*A75
350
53B64
  3
*A750
350
56D1A
  3
*A751
350
5B73D
  3
*A752
350
5B740
  3
*A753
350
5B75F
  3
*A754
350
56D1C
  3
*A755
350
53B76
  3
*A756
350
5C4DC
  3
*A757
350
5C4E2
  3
*A758
350
5C4E8
  3
*A759
350
41CD5
  3
*A76
350
1B2FE
  3
*A760
350
36F16
  3
*A761
350
465AD
  3
*A762
350
5C4EE
  3
*A763
350
58148
  3
*A764
350
35A00
  3
*A765
350
46933
  3
*A766
350
254CF
  3
*A767
350
1B058
  3
*A768
350
53B5D
  3
*A769
350
2468D
  3
*A77
350
5BEF0
  3
*A770
350
5B741
  3
*A771
350
5C4F5
  3
*A772
350
36157
  3
*A773
350
37F2D
  3
*A774
350
5C4FB
  3
*A775
350
1DAF2
  3
*A78
350
1ACA9
  3
*A79
350
1AE3C
  3
*A8
350
5C7C4
  3
*A80
350
26290
  3
*A81
350
1B1C9
  3
*A82
350
47188
  3
*A83
350
53B67
  3
*A84
350
47189
  3
*A85
350
465A5
  3
*A86
350
54EAF
  3
*A87
350
36151
  3
*A88
350
2515F
  3
*A89
350
5BF01
  3
*A9
350
5C7C5
  3
*A90
350
1ADB6
  3
*A91
350
568E1
  3
*A92
350
46EAB
  3
*A93
350
1801E
  3
*A94
350
1DEDA
  3
*A95
350
4718A
  3
*A96
350
1B231
  3
*A97
350
45742
  3
*A98
350
1DF6F
  3
*A99
350
53B6F
  0
DICTIONARY
  5
A787
102
{ACAD_REACTORS
330
C
102
}
330
C
100
AcDbDictionary
281
     1
  3
Model
350
A789
  3
ﾚｲｱｳﾄ1
350
A78A
  0
DICTIONARY
  5
A8AD
102
{ACAD_REACTORS
330
C
102
}
330
C
100
AcDbDictionary
281
     1
  3
Global
350
1D170
  0
DICTIONARY
  5
E
102
{ACAD_REACTORS
330
C
102
}
330
C
100
AcDbDictionary
281
     1
  3
STANDARD
350
13
  0
DICTIONARY
  5
A788
102
{ACAD_REACTORS
330
C
102
}
330
C
100
AcDbDictionary
281
     1
  0
ACDBDICTIONARYWDFLT
  5
A785
102
{ACAD_REACTORS
330
C
102
}
330
C
100
AcDbDictionary
281
     1
  3
Normal
350
A786
100
AcDbDictionaryWithDefault
340
A786
  0
XRECORD
  5
36605
102
{ACAD_REACTORS
330
C
102
}
330
C
100
AcDbXrecord
280
     1
 90
   990106
  3

 60
     0
 61
     0
 62
     1
 63
     3
 64
     0
 65
     0
 66
     0
 67
     3
 68
     1
 69
     0
 70
     0
 71
     0
 72
     0
 40
0.0
170
     0
340
6490B
  0
DICTIONARY
  5
6496B
102
{ACAD_REACTORS
330
C
102
}
330
C
100
AcDbDictionary
281
     1
  3
COLORDICT
350
6496D
  3
MATERIALDICT
350
6496C
  0
DICTIONARY
  5
A1A6
102
{ACAD_REACTORS
330
C
102
}
330
C
100
AcDbDictionary
281
     1
  3
DIMASSOC
350
A78F
  3
PROJECTNAME
350
64969
  3
SORTENTS
350
A1A7
  0
DICTIONARY
  5
5E99
102
{ACAD_REACTORS
330
C
102
}
330
C
100
AcDbDictionary
281
     1
  0
DICTIONARY
  5
B208
102
{ACAD_REACTORS
330
B207
102
}
330
B207
100
AcDbDictionary
281
     1
  0
XRECORD
  5
1D15D
102
{ACAD_REACTORS
330
1D15C
102
}
330
1D15C
100
AcDbXrecord
280
     1
102
MATERIAL
340
1D170
  0
XRECORD
  5
1D160
102
{ACAD_REACTORS
330
1D15F
102
}
330
1D15F
100
AcDbXrecord
280
     1
102
MATERIAL
340
1D170
  0
XRECORD
  5
1D163
102
{ACAD_REACTORS
330
1D162
102
}
330
1D162
100
AcDbXrecord
280
     1
102
MATERIAL
340
1D170
  0
XRECORD
  5
1D166
102
{ACAD_REACTORS
330
1D165
102
}
330
1D165
100
AcDbXrecord
280
     1
102
MATERIAL
340
1D170
  0
XRECORD
  5
4789A
102
{ACAD_REACTORS
330
47899
102
}
330
47899
100
AcDbXrecord
280
     1
290
     1
  0
SORTENTSTABLE
  5
36593
102
{ACAD_REACTORS
330
36592
102
}
330
36592
100
AcDbSortentsTable
330
1A
331
A955
  5
46962
331
8C1
  5
4694E
331
7C8
  5
46944
331
DB
  5
45D2A
331
797
  5
4693D
331
8C4
  5
4694F
331
7C5
  5
46941
331
A958
  5
46965
331
222A
  5
46952
331
78C
  5
46175
331
DE
  5
45D2D
331
7CB
  5
46947
331
89E1
  5
46957
331
5F720
  5
5F845
331
941F
  5
4695C
331
8980
  5
46954
331
79A
  5
46940
331
F2
  5
45F09
331
89E4
  5
4695A
331
7CE
  5
4694A
331
E1
  5
45D30
331
78F
  5
46187
331
F5
  5
46171
331
D6
  5
2F11D
331
7D1
  5
4694D
331
E4
  5
45E50
331
792
  5
46939
331
EA
  5
45E55
331
CB
  5
A9CF
331
A953
  5
46960
331
D9
  5
428F1
331
A9CF
  5
46968
331
E7
  5
45E53
331
795
  5
4693B
331
ED
  5
45E56
331
A956
  5
46963
331
DC
  5
45D2B
331
7C9
  5
46945
331
798
  5
4693E
331
A8B3
  5
4695E
331
F0
  5
45F07
331
A959
  5
46966
331
7C6
  5
46942
331
8C5
  5
46950
331
89E2
  5
46958
331
78D
  5
46185
331
DF
  5
45D2E
331
7CC
  5
46948
331
9420
  5
4695D
331
D4
  5
2F119
331
F3
  5
46139
331
89DF
  5
46955
331
57FA6
  5
5C7E9
331
89E5
  5
4695B
331
7CF
  5
4694B
331
E2
  5
45D82
331
790
  5
46937
331
C9
  5
A95A
331
D7
  5
2F120
331
E5
  5
45E51
331
A954
  5
46961
331
DA
  5
428F3
331
796
  5
4693C
331
EE
  5
45E57
331
A957
  5
46964
331
89E0
  5
46956
331
DD
  5
45D2C
331
78B
  5
46174
331
7CA
  5
46946
331
799
  5
4693F
331
F1
  5
45F08
331
A95A
  5
46967
331
7C7
  5
46943
331
8C6
  5
46951
331
89E3
  5
46959
331
78E
  5
46186
331
FF
  5
46173
331
E0
  5
45D2F
331
7CD
  5
46949
331
D5
  5
2F11B
331
57FA7
  5
5C7EA
331
7D0
  5
4694C
331
E3
  5
45E4F
331
791
  5
46938
331
5F71F
  5
5F844
331
E9
  5
45E54
331
D8
  5
2F9B3
331
E6
  5
45E52
331
794
  5
4693A
  0
XRECORD
  5
6496F
102
{ACAD_REACTORS
330
6496E
102
}
330
6496E
100
AcDbXrecord
280
     1
102
SHADEPLOT
 70
     0
  0
GROUP
  5
94FD
102
{ACAD_REACTORS
330
D
102
}
330
D
100
AcDbGroup
300

 70
     1
 71
     1
  0
GROUP
  5
45FE7
102
{ACAD_REACTORS
330
D
102
}
330
D
100
AcDbGroup
300

 70
     1
 71
     1
  0
GROUP
  5
256B9
102
{ACAD_REACTORS
330
D
102
}
330
D
100
AcDbGroup
300

 70
     1
 71
     1
  0
GROUP
  5
465A8
102
{ACAD_REACTORS
330
D
102
}
330
D
100
AcDbGroup
300

 70
     1
 71
     1
  0
GROUP
  5
55E72
102
{ACAD_REACTORS
330
D
102
}
330
D
100
AcDbGroup
300

 70
     1
 71
     1
  0
GROUP
  5
1DEEB
102
{ACAD_REACTORS
330
D
102
}
330
D
100
AcDbGroup
300

 70
     1
 71
     1
  0
GROUP
  5
258A1
102
{ACAD_REACTORS
330
D
102
}
330
D
100
AcDbGroup
300

 70
     1
 71
     1
  0
GROUP
  5
57621
102
{ACAD_REACTORS
330
D
102
}
330
D
100
AcDbGroup
300

 70
     1
 71
     1
  0
GROUP
  5
34E3E
102
{ACAD_REACTORS
330
D
102
}
330
D
100
AcDbGroup
300

 70
     1
 71
     1
  0
GROUP
  5
4718F
102
{ACAD_REACTORS
330
D
102
}
330
D
100
AcDbGroup
300

 70
     1
 71
     1
  0
GROUP
  5
53B65
102
{ACAD_REACTORS
330
D
102
}
330
D
100
AcDbGroup
300

 70
     1
 71
     1
  0
GROUP
  5
45FF1
102
{ACAD_REACTORS
330
D
102
}
330
D
100
AcDbGroup
300

 70
     1
 71
     1
  0
GROUP
  5
53DBB
102
{ACAD_REACTORS
330
D
102
}
330
D
100
AcDbGroup
300

 70
     1
 71
     1
  0
GROUP
  5
259FB
102
{ACAD_REACTORS
330
D
102
}
330
D
100
AcDbGroup
300

 70
     1
 71
     1
  0
GROUP
  5
37A85
102
{ACAD_REACTORS
330
D
102
}
330
D
100
AcDbGroup
300

 70
     1
 71
     1
  0
GROUP
  5
58001
102
{ACAD_REACTORS
330
D
102
}
330
D
100
AcDbGroup
300

 70
     1
 71
     1
  0
GROUP
  5
45FE5
102
{ACAD_REACTORS
330
D
102
}
330
D
100
AcDbGroup
300

 70
     1
 71
     1
  0
GROUP
  5
4659D
102
{ACAD_REACTORS
330
D
102
}
330
D
100
AcDbGroup
300

 70
     1
 71
     1
  0
GROUP
  5
568A5
102
{ACAD_REACTORS
330
D
102
}
330
D
100
AcDbGroup
300

 70
     1
 71
     1
  0
GROUP
  5
2F10E
102
{ACAD_REACTORS
330
D
102
}
330
D
100
AcDbGroup
300

 70
     1
 71
     1
  0
GROUP
  5
1DFFE
102
{ACAD_REACTORS
330
D
102
}
330
D
100
AcDbGroup
300

 70
     1
 71
     1
  0
GROUP
  5
53B6C
102
{ACAD_REACTORS
330
D
102
}
330
D
100
AcDbGroup
300

 70
     1
 71
     1
  0
GROUP
  5
53B81
102
{ACAD_REACTORS
330
D
102
}
330
D
100
AcDbGroup
300

 70
     1
 71
     1
  0
GROUP
  5
1B28F
102
{ACAD_REACTORS
330
D
102
}
330
D
100
AcDbGroup
300

 70
     1
 71
     1
  0
GROUP
  5
1C3A8
102
{ACAD_REACTORS
330
D
102
}
330
D
100
AcDbGroup
300

 70
     1
 71
     1
  0
GROUP
  5
4692D
102
{ACAD_REACTORS
330
D
102
}
330
D
100
AcDbGroup
300

 70
     1
 71
     1
  0
GROUP
  5
3185E
102
{ACAD_REACTORS
330
D
102
}
330
D
100
AcDbGroup
300

 70
     1
 71
     1
  0
GROUP
  5
465AB
102
{ACAD_REACTORS
330
D
102
}
330
D
100
AcDbGroup
300

 70
     1
 71
     1
  0
GROUP
  5
47186
102
{ACAD_REACTORS
330
D
102
}
330
D
100
AcDbGroup
300

 70
     1
 71
     1
  0
GROUP
  5
45375
102
{ACAD_REACTORS
330
D
102
}
330
D
100
AcDbGroup
300

 70
     1
 71
     1
  0
GROUP
  5
565D0
102
{ACAD_REACTORS
330
D
102
}
330
D
100
AcDbGroup
300

 70
     1
 71
     1
  0
GROUP
  5
5B760
102
{ACAD_REACTORS
330
D
102
}
330
D
100
AcDbGroup
300

 70
     1
 71
     1
  0
GROUP
  5
2F10B
102
{ACAD_REACTORS
330
D
102
}
330
D
100
AcDbGroup
300

 70
     1
 71
     1
  0
GROUP
  5
55E38
102
{ACAD_REACTORS
330
D
102
}
330
D
100
AcDbGroup
300

 70
     1
 71
     1
  0
GROUP
  5
3516F
102
{ACAD_REACTORS
330
D
102
}
330
D
100
AcDbGroup
300

 70
     1
 71
     1
  0
GROUP
  5
5B744
102
{ACAD_REACTORS
330
D
102
}
330
D
100
AcDbGroup
300

 70
     1
 71
     1
  0
GROUP
  5
25560
102
{ACAD_REACTORS
330
D
102
}
330
D
100
AcDbGroup
300

 70
     1
 71
     1
  0
GROUP
  5
26055
102
{ACAD_REACTORS
330
D
102
}
330
D
100
AcDbGroup
300

 70
     1
 71
     1
  0
GROUP
  5
1DB50
102
{ACAD_REACTORS
330
D
102
}
330
D
100
AcDbGroup
300

 70
     1
 71
     1
  0
GROUP
  5
381C5
102
{ACAD_REACTORS
330
D
102
}
330
D
100
AcDbGroup
300

 70
     1
 71
     1
  0
GROUP
  5
359FC
102
{ACAD_REACTORS
330
D
102
}
330
D
100
AcDbGroup
300

 70
     1
 71
     1
  0
GROUP
  5
1B430
102
{ACAD_REACTORS
330
D
102
}
330
D
100
AcDbGroup
300

 70
     1
 71
     1
  0
GROUP
  5
1AF16
102
{ACAD_REACTORS
330
D
102
}
330
D
100
AcDbGroup
300

 70
     1
 71
     1
  0
GROUP
  5
1DEE0
102
{ACAD_REACTORS
330
D
102
}
330
D
100
AcDbGroup
300

 70
     1
 71
     1
  0
GROUP
  5
5BE42
102
{ACAD_REACTORS
330
D
102
}
330
D
100
AcDbGroup
300

 70
     1
 71
     1
  0
GROUP
  5
5C7C6
102
{ACAD_REACTORS
330
D
102
}
330
D
100
AcDbGroup
300

 70
     1
 71
     1
  0
GROUP
  5
56B51
102
{ACAD_REACTORS
330
D
102
}
330
D
100
AcDbGroup
300

 70
     1
 71
     1
  0
GROUP
  5
365D3
102
{ACAD_REACTORS
330
D
102
}
330
D
100
AcDbGroup
300

 70
     1
 71
     1
  0
GROUP
  5
251AE
102
{ACAD_REACTORS
330
D
102
}
330
D
100
AcDbGroup
300

 70
     1
 71
     1
  0
GROUP
  5
5815A
102
{ACAD_REACTORS
330
D
102
}
330
D
100
AcDbGroup
300

 70
     1
 71
     1
  0
GROUP
  5
46DEA
102
{ACAD_REACTORS
330
D
102
}
330
D
100
AcDbGroup
300

 70
     1
 71
     1
  0
GROUP
  5
1DEE6
102
{ACAD_REACTORS
330
D
102
}
330
D
100
AcDbGroup
300

 70
     1
 71
     1
  0
GROUP
  5
53B7D
102
{ACAD_REACTORS
330
D
102
}
330
D
100
AcDbGroup
300

 70
     1
 71
     1
  0
GROUP
  5
53B77
102
{ACAD_REACTORS
330
D
102
}
330
D
100
AcDbGroup
300

 70
     1
 71
     1
  0
GROUP
  5
45FF2
102
{ACAD_REACTORS
330
D
102
}
330
D
100
AcDbGroup
300

 70
     1
 71
     1
  0
GROUP
  5
5817D
102
{ACAD_REACTORS
330
D
102
}
330
D
100
AcDbGroup
300

 70
     1
 71
     1
  0
GROUP
  5
465A0
102
{ACAD_REACTORS
330
D
102
}
330
D
100
AcDbGroup
300

 70
     1
 71
     1
  0
GROUP
  5
5817E
102
{ACAD_REACTORS
330
D
102
}
330
D
100
AcDbGroup
300

 70
     1
 71
     1
  0
GROUP
  5
46925
102
{ACAD_REACTORS
330
D
102
}
330
D
100
AcDbGroup
300

 70
     1
 71
     1
  0
GROUP
  5
56B86
102
{ACAD_REACTORS
330
D
102
}
330
D
100
AcDbGroup
300

 70
     1
 71
     1
  0
GROUP
  5
34E3D
102
{ACAD_REACTORS
330
D
102
}
330
D
100
AcDbGroup
300

 70
     1
 71
     1
  0
GROUP
  5
373D2
102
{ACAD_REACTORS
330
D
102
}
330
D
100
AcDbGroup
300

 70
     1
 71
     1
  0
GROUP
  5
5BCFD
102
{ACAD_REACTORS
330
D
102
}
330
D
100
AcDbGroup
300

 70
     1
 71
     1
  0
GROUP
  5
4692C
102
{ACAD_REACTORS
330
D
102
}
330
D
100
AcDbGroup
300

 70
     1
 71
     1
  0
GROUP
  5
1DC4C
102
{ACAD_REACTORS
330
D
102
}
330
D
100
AcDbGroup
300

 70
     1
 71
     1
  0
GROUP
  5
25781
102
{ACAD_REACTORS
330
D
102
}
330
D
100
AcDbGroup
300

 70
     1
 71
     1
  0
GROUP
  5
381C6
102
{ACAD_REACTORS
330
D
102
}
330
D
100
AcDbGroup
300

 70
     1
 71
     1
  0
GROUP
  5
25549
102
{ACAD_REACTORS
330
D
102
}
330
D
100
AcDbGroup
300

 70
     1
 71
     1
  0
GROUP
  5
1DB1A
102
{ACAD_REACTORS
330
D
102
}
330
D
100
AcDbGroup
300

 70
     1
 71
     1
  0
GROUP
  5
465A3
102
{ACAD_REACTORS
330
D
102
}
330
D
100
AcDbGroup
300

 70
     1
 71
     1
  0
GROUP
  5
1212D
102
{ACAD_REACTORS
330
D
102
}
330
D
100
AcDbGroup
300

 70
     1
 71
     1
  0
GROUP
  5
56ADC
102
{ACAD_REACTORS
330
D
102
}
330
D
100
AcDbGroup
300

 70
     1
 71
     1
  0
GROUP
  5
266F1
102
{ACAD_REACTORS
330
D
102
}
330
D
100
AcDbGroup
300

 70
     1
 71
     1
  0
GROUP
  5
1DFF2
102
{ACAD_REACTORS
330
D
102
}
330
D
100
AcDbGroup
300

 70
     1
 71
     1
  0
GROUP
  5
1AF15
102
{ACAD_REACTORS
330
D
102
}
330
D
100
AcDbGroup
300

 70
     1
 71
     1
  0
GROUP
  5
5819D
102
{ACAD_REACTORS
330
D
102
}
330
D
100
AcDbGroup
300

 70
     1
 71
     1
  0
GROUP
  5
56D1F
102
{ACAD_REACTORS
330
D
102
}
330
D
100
AcDbGroup
300

 70
     1
 71
     1
  0
GROUP
  5
57FF7
102
{ACAD_REACTORS
330
D
102
}
330
D
100
AcDbGroup
300

 70
     1
 71
     1
  0
GROUP
  5
5BEEA
102
{ACAD_REACTORS
330
D
102
}
330
D
100
AcDbGroup
300

 70
     1
 71
     1
  0
GROUP
  5
46E5A
102
{ACAD_REACTORS
330
D
102
}
330
D
100
AcDbGroup
300

 70
     1
 71
     1
  0
GROUP
  5
5819E
102
{ACAD_REACTORS
330
D
102
}
330
D
100
AcDbGroup
300

 70
     1
 71
     1
  0
GROUP
  5
582BD
102
{ACAD_REACTORS
330
D
102
}
330
D
100
AcDbGroup
300

 70
     1
 71
     1
  0
GROUP
  5
582EE
102
{ACAD_REACTORS
330
D
102
}
330
D
100
AcDbGroup
300

 70
     1
 71
     1
  0
GROUP
  5
14F9C
102
{ACAD_REACTORS
330
D
102
}
330
D
100
AcDbGroup
300

 70
     1
 71
     1
  0
GROUP
  5
41CCE
102
{ACAD_REACTORS
330
D
102
}
330
D
100
AcDbGroup
300

 70
     1
 71
     1
  0
GROUP
  5
25148
102
{ACAD_REACTORS
330
D
102
}
330
D
100
AcDbGroup
300

 70
     1
 71
     1
  0
GROUP
  5
53DB9
102
{ACAD_REACTORS
330
D
102
}
330
D
100
AcDbGroup
300

 70
     1
 71
     1
  0
GROUP
  5
1DC4D
102
{ACAD_REACTORS
330
D
102
}
330
D
100
AcDbGroup
300

 70
     1
 71
     1
  0
GROUP
  5
5C1E2
102
{ACAD_REACTORS
330
D
102
}
330
D
100
AcDbGroup
300

 70
     1
 71
     1
  0
GROUP
  5
359FD
102
{ACAD_REACTORS
330
D
102
}
330
D
100
AcDbGroup
300

 70
     1
 71
     1
  0
GROUP
  5
57FC1
102
{ACAD_REACTORS
330
D
102
}
330
D
100
AcDbGroup
300

 70
     1
 71
     1
  0
GROUP
  5
46DE1
102
{ACAD_REACTORS
330
D
102
}
330
D
100
AcDbGroup
300

 70
     1
 71
     1
  0
GROUP
  5
1DB97
102
{ACAD_REACTORS
330
D
102
}
330
D
100
AcDbGroup
300

 70
     1
 71
     1
  0
GROUP
  5
56B4A
102
{ACAD_REACTORS
330
D
102
}
330
D
100
AcDbGroup
300

 70
     1
 71
     1
  0
GROUP
  5
37636
102
{ACAD_REACTORS
330
D
102
}
330
D
100
AcDbGroup
300

 70
     1
 71
     1
  0
GROUP
  5
2F115
102
{ACAD_REACTORS
330
D
102
}
330
D
100
AcDbGroup
300

 70
     1
 71
     1
  0
GROUP
  5
381CA
102
{ACAD_REACTORS
330
D
102
}
330
D
100
AcDbGroup
300

 70
     1
 71
     1
  0
GROUP
  5
45548
102
{ACAD_REACTORS
330
D
102
}
330
D
100
AcDbGroup
300

 70
     1
 71
     1
  0
GROUP
  5
45B4A
102
{ACAD_REACTORS
330
D
102
}
330
D
100
AcDbGroup
300

 70
     1
 71
     1
  0
GROUP
  5
1DED9
102
{ACAD_REACTORS
330
D
102
}
330
D
100
AcDbGroup
300

 70
     1
 71
     1
  0
GROUP
  5
46FFF
102
{ACAD_REACTORS
330
D
102
}
330
D
100
AcDbGroup
300

 70
     1
 71
     1
  0
GROUP
  5
5C31A
102
{ACAD_REACTORS
330
D
102
}
330
D
100
AcDbGroup
300

 70
     1
 71
     1
  0
GROUP
  5
1DEE5
102
{ACAD_REACTORS
330
D
102
}
330
D
100
AcDbGroup
300

 70
     1
 71
     1
  0
GROUP
  5
45B34
102
{ACAD_REACTORS
330
D
102
}
330
D
100
AcDbGroup
300

 70
     1
 71
     1
  0
GROUP
  5
41CD2
102
{ACAD_REACTORS
330
D
102
}
330
D
100
AcDbGroup
300

 70
     1
 71
     1
  0
GROUP
  5
1DA19
102
{ACAD_REACTORS
330
D
102
}
330
D
100
AcDbGroup
300

 70
     1
 71
     1
  0
GROUP
  5
37A86
102
{ACAD_REACTORS
330
D
102
}
330
D
100
AcDbGroup
300

 70
     1
 71
     1
  0
GROUP
  5
5B737
102
{ACAD_REACTORS
330
D
102
}
330
D
100
AcDbGroup
300

 70
     1
 71
     1
  0
GROUP
  5
5B745
102
{ACAD_REACTORS
330
D
102
}
330
D
100
AcDbGroup
300

 70
     1
 71
     1
  0
GROUP
  5
46929
102
{ACAD_REACTORS
330
D
102
}
330
D
100
AcDbGroup
300

 70
     1
 71
     1
  0
GROUP
  5
57DE7
102
{ACAD_REACTORS
330
D
102
}
330
D
100
AcDbGroup
300

 70
     1
 71
     1
  0
GROUP
  5
56D1D
102
{ACAD_REACTORS
330
D
102
}
330
D
100
AcDbGroup
300

 70
     1
 71
     1
  0
GROUP
  5
5C7C7
102
{ACAD_REACTORS
330
D
102
}
330
D
100
AcDbGroup
300

 70
     1
 71
     1
  0
GROUP
  5
57DE0
102
{ACAD_REACTORS
330
D
102
}
330
D
100
AcDbGroup
300

 70
     1
 71
     1
  0
GROUP
  5
57F58
102
{ACAD_REACTORS
330
D
102
}
330
D
100
AcDbGroup
300

 70
     1
 71
     1
  0
GROUP
  5
57DE9
102
{ACAD_REACTORS
330
D
102
}
330
D
100
AcDbGroup
300

 70
     1
 71
     1
  0
GROUP
  5
1B15C
102
{ACAD_REACTORS
330
D
102
}
330
D
100
AcDbGroup
300

 70
     1
 71
     1
  0
GROUP
  5
46930
102
{ACAD_REACTORS
330
D
102
}
330
D
100
AcDbGroup
300

 70
     1
 71
     1
  0
GROUP
  5
1DC50
102
{ACAD_REACTORS
330
D
102
}
330
D
100
AcDbGroup
300

 70
     1
 71
     1
  0
GROUP
  5
57DDC
102
{ACAD_REACTORS
330
D
102
}
330
D
100
AcDbGroup
300

 70
     1
 71
     1
  0
GROUP
  5
1AE40
102
{ACAD_REACTORS
330
D
102
}
330
D
100
AcDbGroup
300

 70
     1
 71
     1
  0
GROUP
  5
1B162
102
{ACAD_REACTORS
330
D
102
}
330
D
100
AcDbGroup
300

 70
     1
 71
     1
  0
GROUP
  5
5BD4C
102
{ACAD_REACTORS
330
D
102
}
330
D
100
AcDbGroup
300

 70
     1
 71
     1
  0
GROUP
  5
36F09
102
{ACAD_REACTORS
330
D
102
}
330
D
100
AcDbGroup
300

 70
     1
 71
     1
  0
GROUP
  5
B7CA
102
{ACAD_REACTORS
330
D
102
}
330
D
100
AcDbGroup
300

 70
     1
 71
     1
  0
GROUP
  5
1D82E
102
{ACAD_REACTORS
330
D
102
}
330
D
100
AcDbGroup
300

 70
     1
 71
     1
  0
GROUP
  5
1DC4A
102
{ACAD_REACTORS
330
D
102
}
330
D
100
AcDbGroup
300

 70
     1
 71
     1
  0
GROUP
  5
55A2C
102
{ACAD_REACTORS
330
D
102
}
330
D
100
AcDbGroup
300

 70
     1
 71
     1
  0
GROUP
  5
53B5C
102
{ACAD_REACTORS
330
D
102
}
330
D
100
AcDbGroup
300

 70
     1
 71
     1
  0
GROUP
  5
46181
102
{ACAD_REACTORS
330
D
102
}
330
D
100
AcDbGroup
300

 70
     1
 71
     1
  0
GROUP
  5
1DEE4
102
{ACAD_REACTORS
330
D
102
}
330
D
100
AcDbGroup
300

 70
     1
 71
     1
  0
GROUP
  5
41CD4
102
{ACAD_REACTORS
330
D
102
}
330
D
100
AcDbGroup
300

 70
     1
 71
     1
  0
GROUP
  5
5C971
102
{ACAD_REACTORS
330
D
102
}
330
D
100
AcDbGroup
300

 70
     1
 71
     1
  0
GROUP
  5
54EF6
102
{ACAD_REACTORS
330
D
102
}
330
D
100
AcDbGroup
300

 70
     1
 71
     1
  0
GROUP
  5
1DEEC
102
{ACAD_REACTORS
330
D
102
}
330
D
100
AcDbGroup
300

 70
     1
 71
     1
  0
GROUP
  5
53B74
102
{ACAD_REACTORS
330
D
102
}
330
D
100
AcDbGroup
300

 70
     1
 71
     1
  0
GROUP
  5
5C972
102
{ACAD_REACTORS
330
D
102
}
330
D
100
AcDbGroup
300

 70
     1
 71
     1
  0
GROUP
  5
5BD4D
102
{ACAD_REACTORS
330
D
102
}
330
D
100
AcDbGroup
300

 70
     1
 71
     1
  0
GROUP
  5
56D1B
102
{ACAD_REACTORS
330
D
102
}
330
D
100
AcDbGroup
300

 70
     1
 71
     1
  0
GROUP
  5
5C31B
102
{ACAD_REACTORS
330
D
102
}
330
D
100
AcDbGroup
300

 70
     1
 71
     1
  0
GROUP
  5
5CA1D
102
{ACAD_REACTORS
330
D
102
}
330
D
100
AcDbGroup
300

 70
     1
 71
     1
  0
GROUP
  5
41CDB
102
{ACAD_REACTORS
330
D
102
}
330
D
100
AcDbGroup
300

 70
     1
 71
     1
  0
GROUP
  5
5CB29
102
{ACAD_REACTORS
330
D
102
}
330
D
100
AcDbGroup
300

 70
     1
 71
     1
  0
GROUP
  5
55E6C
102
{ACAD_REACTORS
330
D
102
}
330
D
100
AcDbGroup
300

 70
     1
 71
     1
  0
GROUP
  5
45AAA
102
{ACAD_REACTORS
330
D
102
}
330
D
100
AcDbGroup
300

 70
     1
 71
     1
  0
GROUP
  5
5C7C8
102
{ACAD_REACTORS
330
D
102
}
330
D
100
AcDbGroup
300

 70
     1
 71
     1
  0
GROUP
  5
1DEE1
102
{ACAD_REACTORS
330
D
102
}
330
D
100
AcDbGroup
300

 70
     1
 71
     1
  0
GROUP
  5
5B746
102
{ACAD_REACTORS
330
D
102
}
330
D
100
AcDbGroup
300

 70
     1
 71
     1
  0
GROUP
  5
46E4A
102
{ACAD_REACTORS
330
D
102
}
330
D
100
AcDbGroup
300

 70
     1
 71
     1
  0
GROUP
  5
53B62
102
{ACAD_REACTORS
330
D
102
}
330
D
100
AcDbGroup
300

 70
     1
 71
     1
  0
GROUP
  5
1B41A
102
{ACAD_REACTORS
330
D
102
}
330
D
100
AcDbGroup
300

 70
     1
 71
     1
  0
GROUP
  5
5C31C
102
{ACAD_REACTORS
330
D
102
}
330
D
100
AcDbGroup
300

 70
     1
 71
     1
  0
GROUP
  5
1DB64
102
{ACAD_REACTORS
330
D
102
}
330
D
100
AcDbGroup
300

 70
     1
 71
     1
  0
GROUP
  5
1DEE2
102
{ACAD_REACTORS
330
D
102
}
330
D
100
AcDbGroup
300

 70
     1
 71
     1
  0
GROUP
  5
53B7F
102
{ACAD_REACTORS
330
D
102
}
330
D
100
AcDbGroup
300

 70
     1
 71
     1
  0
GROUP
  5
53B78
102
{ACAD_REACTORS
330
D
102
}
330
D
100
AcDbGroup
300

 70
     1
 71
     1
  0
GROUP
  5
456CB
102
{ACAD_REACTORS
330
D
102
}
330
D
100
AcDbGroup
300

 70
     1
 71
     1
  0
GROUP
  5
55078
102
{ACAD_REACTORS
330
D
102
}
330
D
100
AcDbGroup
300

 70
     1
 71
     1
  0
GROUP
  5
54F50
102
{ACAD_REACTORS
330
D
102
}
330
D
100
AcDbGroup
300

 70
     1
 71
     1
  0
GROUP
  5
1DB9C
102
{ACAD_REACTORS
330
D
102
}
330
D
100
AcDbGroup
300

 70
     1
 71
     1
  0
GROUP
  5
566AF
102
{ACAD_REACTORS
330
D
102
}
330
D
100
AcDbGroup
300

 70
     1
 71
     1
  0
GROUP
  5
54EAE
102
{ACAD_REACTORS
330
D
102
}
330
D
100
AcDbGroup
300

 70
     1
 71
     1
  0
GROUP
  5
3761F
102
{ACAD_REACTORS
330
D
102
}
330
D
100
AcDbGroup
300

 70
     1
 71
     1
  0
GROUP
  5
45FED
102
{ACAD_REACTORS
330
D
102
}
330
D
100
AcDbGroup
300

 70
     1
 71
     1
  0
GROUP
  5
57DE1
102
{ACAD_REACTORS
330
D
102
}
330
D
100
AcDbGroup
300

 70
     1
 71
     1
  0
GROUP
  5
5B747
102
{ACAD_REACTORS
330
D
102
}
330
D
100
AcDbGroup
300

 70
     1
 71
     1
  0
GROUP
  5
34CB5
102
{ACAD_REACTORS
330
D
102
}
330
D
100
AcDbGroup
300

 70
     1
 71
     1
  0
GROUP
  5
45B9E
102
{ACAD_REACTORS
330
D
102
}
330
D
100
AcDbGroup
300

 70
     1
 71
     1
  0
GROUP
  5
56C28
102
{ACAD_REACTORS
330
D
102
}
330
D
100
AcDbGroup
300

 70
     1
 71
     1
  0
GROUP
  5
3739F
102
{ACAD_REACTORS
330
D
102
}
330
D
100
AcDbGroup
300

 70
     1
 71
     1
  0
GROUP
  5
25F11
102
{ACAD_REACTORS
330
D
102
}
330
D
100
AcDbGroup
300

 70
     1
 71
     1
  0
GROUP
  5
4550E
102
{ACAD_REACTORS
330
D
102
}
330
D
100
AcDbGroup
300

 70
     1
 71
     1
  0
GROUP
  5
41CD6
102
{ACAD_REACTORS
330
D
102
}
330
D
100
AcDbGroup
300

 70
     1
 71
     1
  0
GROUP
  5
45500
102
{ACAD_REACTORS
330
D
102
}
330
D
100
AcDbGroup
300

 70
     1
 71
     1
  0
GROUP
  5
55DA4
102
{ACAD_REACTORS
330
D
102
}
330
D
100
AcDbGroup
300

 70
     1
 71
     1
  0
GROUP
  5
25701
102
{ACAD_REACTORS
330
D
102
}
330
D
100
AcDbGroup
300

 70
     1
 71
     1
  0
GROUP
  5
1B3B0
102
{ACAD_REACTORS
330
D
102
}
330
D
100
AcDbGroup
300

 70
     1
 71
     1
  0
GROUP
  5
1DFA8
102
{ACAD_REACTORS
330
D
102
}
330
D
100
AcDbGroup
300

 70
     1
 71
     1
  0
GROUP
  5
5C7C9
102
{ACAD_REACTORS
330
D
102
}
330
D
100
AcDbGroup
300

 70
     1
 71
     1
  0
GROUP
  5
57FEC
102
{ACAD_REACTORS
330
D
102
}
330
D
100
AcDbGroup
300

 70
     1
 71
     1
  0
GROUP
  5
55DAA
102
{ACAD_REACTORS
330
D
102
}
330
D
100
AcDbGroup
300

 70
     1
 71
     1
  0
GROUP
  5
45516
102
{ACAD_REACTORS
330
D
102
}
330
D
100
AcDbGroup
300

 70
     1
 71
     1
  0
GROUP
  5
56C34
102
{ACAD_REACTORS
330
D
102
}
330
D
100
AcDbGroup
300

 70
     1
 71
     1
  0
GROUP
  5
2506A
102
{ACAD_REACTORS
330
D
102
}
330
D
100
AcDbGroup
300

 70
     1
 71
     1
  0
GROUP
  5
56B05
102
{ACAD_REACTORS
330
D
102
}
330
D
100
AcDbGroup
300

 70
     1
 71
     1
  0
GROUP
  5
45ABC
102
{ACAD_REACTORS
330
D
102
}
330
D
100
AcDbGroup
300

 70
     1
 71
     1
  0
GROUP
  5
45BD9
102
{ACAD_REACTORS
330
D
102
}
330
D
100
AcDbGroup
300

 70
     1
 71
     1
  0
GROUP
  5
471C3
102
{ACAD_REACTORS
330
D
102
}
330
D
100
AcDbGroup
300

 70
     1
 71
     1
  0
GROUP
  5
59B0F
102
{ACAD_REACTORS
330
D
102
}
330
D
100
AcDbGroup
300

 70
     1
 71
     1
  0
GROUP
  5
5C7CA
102
{ACAD_REACTORS
330
D
102
}
330
D
100
AcDbGroup
300

 70
     1
 71
     1
  0
GROUP
  5
1B255
102
{ACAD_REACTORS
330
D
102
}
330
D
100
AcDbGroup
300

 70
     1
 71
     1
  0
GROUP
  5
59B10
102
{ACAD_REACTORS
330
D
102
}
330
D
100
AcDbGroup
300

 70
     1
 71
     1
  0
GROUP
  5
46921
102
{ACAD_REACTORS
330
D
102
}
330
D
100
AcDbGroup
300

 70
     1
 71
     1
  0
GROUP
  5
18010
102
{ACAD_REACTORS
330
D
102
}
330
D
100
AcDbGroup
300

 70
     1
 71
     1
  0
GROUP
  5
57DE2
102
{ACAD_REACTORS
330
D
102
}
330
D
100
AcDbGroup
300

 70
     1
 71
     1
  0
GROUP
  5
5B808
102
{ACAD_REACTORS
330
D
102
}
330
D
100
AcDbGroup
300

 70
     1
 71
     1
  0
GROUP
  5
1D88C
102
{ACAD_REACTORS
330
D
102
}
330
D
100
AcDbGroup
300

 70
     1
 71
     1
  0
GROUP
  5
1DB9D
102
{ACAD_REACTORS
330
D
102
}
330
D
100
AcDbGroup
300

 70
     1
 71
     1
  0
GROUP
  5
1DEDE
102
{ACAD_REACTORS
330
D
102
}
330
D
100
AcDbGroup
300

 70
     1
 71
     1
  0
GROUP
  5
2F10F
102
{ACAD_REACTORS
330
D
102
}
330
D
100
AcDbGroup
300

 70
     1
 71
     1
  0
GROUP
  5
5B742
102
{ACAD_REACTORS
330
D
102
}
330
D
100
AcDbGroup
300

 70
     1
 71
     1
  0
GROUP
  5
41CE5
102
{ACAD_REACTORS
330
D
102
}
330
D
100
AcDbGroup
300

 70
     1
 71
     1
  0
GROUP
  5
34E2D
102
{ACAD_REACTORS
330
D
102
}
330
D
100
AcDbGroup
300

 70
     1
 71
     1
  0
GROUP
  5
46926
102
{ACAD_REACTORS
330
D
102
}
330
D
100
AcDbGroup
300

 70
     1
 71
     1
  0
GROUP
  5
46928
102
{ACAD_REACTORS
330
D
102
}
330
D
100
AcDbGroup
300

 70
     1
 71
     1
  0
GROUP
  5
1DB6D
102
{ACAD_REACTORS
330
D
102
}
330
D
100
AcDbGroup
300

 70
     1
 71
     1
  0
GROUP
  5
1ADE0
102
{ACAD_REACTORS
330
D
102
}
330
D
100
AcDbGroup
300

 70
     1
 71
     1
  0
GROUP
  5
566DB
102
{ACAD_REACTORS
330
D
102
}
330
D
100
AcDbGroup
300

 70
     1
 71
     1
  0
GROUP
  5
25266
102
{ACAD_REACTORS
330
D
102
}
330
D
100
AcDbGroup
300

 70
     1
 71
     1
  0
GROUP
  5
59F3C
102
{ACAD_REACTORS
330
D
102
}
330
D
100
AcDbGroup
300

 70
     1
 71
     1
  0
GROUP
  5
53B5F
102
{ACAD_REACTORS
330
D
102
}
330
D
100
AcDbGroup
300

 70
     1
 71
     1
  0
GROUP
  5
5BEEB
102
{ACAD_REACTORS
330
D
102
}
330
D
100
AcDbGroup
300

 70
     1
 71
     1
  0
GROUP
  5
37A84
102
{ACAD_REACTORS
330
D
102
}
330
D
100
AcDbGroup
300

 70
     1
 71
     1
  0
GROUP
  5
1ADE4
102
{ACAD_REACTORS
330
D
102
}
330
D
100
AcDbGroup
300

 70
     1
 71
     1
  0
GROUP
  5
5BD76
102
{ACAD_REACTORS
330
D
102
}
330
D
100
AcDbGroup
300

 70
     1
 71
     1
  0
GROUP
  5
2468E
102
{ACAD_REACTORS
330
D
102
}
330
D
100
AcDbGroup
300

 70
     1
 71
     1
  0
GROUP
  5
1DB70
102
{ACAD_REACTORS
330
D
102
}
330
D
100
AcDbGroup
300

 70
     1
 71
     1
  0
GROUP
  5
41CDC
102
{ACAD_REACTORS
330
D
102
}
330
D
100
AcDbGroup
300

 70
     1
 71
     1
  0
GROUP
  5
34C8B
102
{ACAD_REACTORS
330
D
102
}
330
D
100
AcDbGroup
300

 70
     1
 71
     1
  0
GROUP
  5
5B748
102
{ACAD_REACTORS
330
D
102
}
330
D
100
AcDbGroup
300

 70
     1
 71
     1
  0
GROUP
  5
36E32
102
{ACAD_REACTORS
330
D
102
}
330
D
100
AcDbGroup
300

 70
     1
 71
     1
  0
GROUP
  5
381C7
102
{ACAD_REACTORS
330
D
102
}
330
D
100
AcDbGroup
300

 70
     1
 71
     1
  0
GROUP
  5
5C7C1
102
{ACAD_REACTORS
330
D
102
}
330
D
100
AcDbGroup
300

 70
     1
 71
     1
  0
GROUP
  5
5C7CB
102
{ACAD_REACTORS
330
D
102
}
330
D
100
AcDbGroup
300

 70
     1
 71
     1
  0
GROUP
  5
37649
102
{ACAD_REACTORS
330
D
102
}
330
D
100
AcDbGroup
300

 70
     1
 71
     1
  0
GROUP
  5
5C31D
102
{ACAD_REACTORS
330
D
102
}
330
D
100
AcDbGroup
300

 70
     1
 71
     1
  0
GROUP
  5
55E37
102
{ACAD_REACTORS
330
D
102
}
330
D
100
AcDbGroup
300

 70
     1
 71
     1
  0
GROUP
  5
2F109
102
{ACAD_REACTORS
330
D
102
}
330
D
100
AcDbGroup
300

 70
     1
 71
     1
  0
GROUP
  5
45679
102
{ACAD_REACTORS
330
D
102
}
330
D
100
AcDbGroup
300

 70
     1
 71
     1
  0
GROUP
  5
54EBA
102
{ACAD_REACTORS
330
D
102
}
330
D
100
AcDbGroup
300

 70
     1
 71
     1
  0
GROUP
  5
31890
102
{ACAD_REACTORS
330
D
102
}
330
D
100
AcDbGroup
300

 70
     1
 71
     1
  0
GROUP
  5
35A01
102
{ACAD_REACTORS
330
D
102
}
330
D
100
AcDbGroup
300

 70
     1
 71
     1
  0
GROUP
  5
53B7E
102
{ACAD_REACTORS
330
D
102
}
330
D
100
AcDbGroup
300

 70
     1
 71
     1
  0
GROUP
  5
1DB6A
102
{ACAD_REACTORS
330
D
102
}
330
D
100
AcDbGroup
300

 70
     1
 71
     1
  0
GROUP
  5
5C7DB
102
{ACAD_REACTORS
330
D
102
}
330
D
100
AcDbGroup
300

 70
     1
 71
     1
  0
GROUP
  5
266F0
102
{ACAD_REACTORS
330
D
102
}
330
D
100
AcDbGroup
300

 70
     1
 71
     1
  0
GROUP
  5
1DEE9
102
{ACAD_REACTORS
330
D
102
}
330
D
100
AcDbGroup
300

 70
     1
 71
     1
  0
GROUP
  5
5C31E
102
{ACAD_REACTORS
330
D
102
}
330
D
100
AcDbGroup
300

 70
     1
 71
     1
  0
GROUP
  5
55DB3
102
{ACAD_REACTORS
330
D
102
}
330
D
100
AcDbGroup
300

 70
     1
 71
     1
  0
GROUP
  5
5B749
102
{ACAD_REACTORS
330
D
102
}
330
D
100
AcDbGroup
300

 70
     1
 71
     1
  0
GROUP
  5
1DEEA
102
{ACAD_REACTORS
330
D
102
}
330
D
100
AcDbGroup
300

 70
     1
 71
     1
  0
GROUP
  5
36154
102
{ACAD_REACTORS
330
D
102
}
330
D
100
AcDbGroup
300

 70
     1
 71
     1
  0
GROUP
  5
2F114
102
{ACAD_REACTORS
330
D
102
}
330
D
100
AcDbGroup
300

 70
     1
 71
     1
  0
GROUP
  5
56239
102
{ACAD_REACTORS
330
D
102
}
330
D
100
AcDbGroup
300

 70
     1
 71
     1
  0
GROUP
  5
5BD97
102
{ACAD_REACTORS
330
D
102
}
330
D
100
AcDbGroup
300

 70
     1
 71
     1
  0
GROUP
  5
5B736
102
{ACAD_REACTORS
330
D
102
}
330
D
100
AcDbGroup
300

 70
     1
 71
     1
  0
GROUP
  5
1D95B
102
{ACAD_REACTORS
330
D
102
}
330
D
100
AcDbGroup
300

 70
     1
 71
     1
  0
GROUP
  5
25782
102
{ACAD_REACTORS
330
D
102
}
330
D
100
AcDbGroup
300

 70
     1
 71
     1
  0
GROUP
  5
25F4D
102
{ACAD_REACTORS
330
D
102
}
330
D
100
AcDbGroup
300

 70
     1
 71
     1
  0
GROUP
  5
5C31F
102
{ACAD_REACTORS
330
D
102
}
330
D
100
AcDbGroup
300

 70
     1
 71
     1
  0
GROUP
  5
5B72F
102
{ACAD_REACTORS
330
D
102
}
330
D
100
AcDbGroup
300

 70
     1
 71
     1
  0
GROUP
  5
26056
102
{ACAD_REACTORS
330
D
102
}
330
D
100
AcDbGroup
300

 70
     1
 71
     1
  0
GROUP
  5
57DDE
102
{ACAD_REACTORS
330
D
102
}
330
D
100
AcDbGroup
300

 70
     1
 71
     1
  0
GROUP
  5
381C8
102
{ACAD_REACTORS
330
D
102
}
330
D
100
AcDbGroup
300

 70
     1
 71
     1
  0
GROUP
  5
45FE3
102
{ACAD_REACTORS
330
D
102
}
330
D
100
AcDbGroup
300

 70
     1
 71
     1
  0
GROUP
  5
53B5A
102
{ACAD_REACTORS
330
D
102
}
330
D
100
AcDbGroup
300

 70
     1
 71
     1
  0
GROUP
  5
565D1
102
{ACAD_REACTORS
330
D
102
}
330
D
100
AcDbGroup
300

 70
     1
 71
     1
  0
GROUP
  5
5B730
102
{ACAD_REACTORS
330
D
102
}
330
D
100
AcDbGroup
300

 70
     1
 71
     1
  0
GROUP
  5
57DE4
102
{ACAD_REACTORS
330
D
102
}
330
D
100
AcDbGroup
300

 70
     1
 71
     1
  0
GROUP
  5
5BD9E
102
{ACAD_REACTORS
330
D
102
}
330
D
100
AcDbGroup
300

 70
     1
 71
     1
  0
GROUP
  5
350B6
102
{ACAD_REACTORS
330
D
102
}
330
D
100
AcDbGroup
300

 70
     1
 71
     1
  0
GROUP
  5
45FEF
102
{ACAD_REACTORS
330
D
102
}
330
D
100
AcDbGroup
300

 70
     1
 71
     1
  0
GROUP
  5
565F8
102
{ACAD_REACTORS
330
D
102
}
330
D
100
AcDbGroup
300

 70
     1
 71
     1
  0
GROUP
  5
1DEE3
102
{ACAD_REACTORS
330
D
102
}
330
D
100
AcDbGroup
300

 70
     1
 71
     1
  0
GROUP
  5
1DC4F
102
{ACAD_REACTORS
330
D
102
}
330
D
100
AcDbGroup
300

 70
     1
 71
     1
  0
GROUP
  5
53B6B
102
{ACAD_REACTORS
330
D
102
}
330
D
100
AcDbGroup
300

 70
     1
 71
     1
  0
GROUP
  5
465AE
102
{ACAD_REACTORS
330
D
102
}
330
D
100
AcDbGroup
300

 70
     1
 71
     1
  0
GROUP
  5
41CDA
102
{ACAD_REACTORS
330
D
102
}
330
D
100
AcDbGroup
300

 70
     1
 71
     1
  0
GROUP
  5
1DA29
102
{ACAD_REACTORS
330
D
102
}
330
D
100
AcDbGroup
300

 70
     1
 71
     1
  0
GROUP
  5
365D5
102
{ACAD_REACTORS
330
D
102
}
330
D
100
AcDbGroup
300

 70
     1
 71
     1
  0
GROUP
  5
45FE9
102
{ACAD_REACTORS
330
D
102
}
330
D
100
AcDbGroup
300

 70
     1
 71
     1
  0
GROUP
  5
34CBC
102
{ACAD_REACTORS
330
D
102
}
330
D
100
AcDbGroup
300

 70
     1
 71
     1
  0
GROUP
  5
46E3E
102
{ACAD_REACTORS
330
D
102
}
330
D
100
AcDbGroup
300

 70
     1
 71
     1
  0
GROUP
  5
59F56
102
{ACAD_REACTORS
330
D
102
}
330
D
100
AcDbGroup
300

 70
     1
 71
     1
  0
GROUP
  5
1D874
102
{ACAD_REACTORS
330
D
102
}
330
D
100
AcDbGroup
300

 70
     1
 71
     1
  0
GROUP
  5
5BDCF
102
{ACAD_REACTORS
330
D
102
}
330
D
100
AcDbGroup
300

 70
     1
 71
     1
  0
GROUP
  5
1DED3
102
{ACAD_REACTORS
330
D
102
}
330
D
100
AcDbGroup
300

 70
     1
 71
     1
  0
GROUP
  5
5B73C
102
{ACAD_REACTORS
330
D
102
}
330
D
100
AcDbGroup
300

 70
     1
 71
     1
  0
GROUP
  5
25691
102
{ACAD_REACTORS
330
D
102
}
330
D
100
AcDbGroup
300

 70
     1
 71
     1
  0
GROUP
  5
5B74A
102
{ACAD_REACTORS
330
D
102
}
330
D
100
AcDbGroup
300

 70
     1
 71
     1
  0
GROUP
  5
56238
102
{ACAD_REACTORS
330
D
102
}
330
D
100
AcDbGroup
300

 70
     1
 71
     1
  0
GROUP
  5
5B734
102
{ACAD_REACTORS
330
D
102
}
330
D
100
AcDbGroup
300

 70
     1
 71
     1
  0
GROUP
  5
41CD8
102
{ACAD_REACTORS
330
D
102
}
330
D
100
AcDbGroup
300

 70
     1
 71
     1
  0
GROUP
  5
53B66
102
{ACAD_REACTORS
330
D
102
}
330
D
100
AcDbGroup
300

 70
     1
 71
     1
  0
GROUP
  5
41CCC
102
{ACAD_REACTORS
330
D
102
}
330
D
100
AcDbGroup
300

 70
     1
 71
     1
  0
GROUP
  5
4692B
102
{ACAD_REACTORS
330
D
102
}
330
D
100
AcDbGroup
300

 70
     1
 71
     1
  0
GROUP
  5
1D873
102
{ACAD_REACTORS
330
D
102
}
330
D
100
AcDbGroup
300

 70
     1
 71
     1
  0
GROUP
  5
259A9
102
{ACAD_REACTORS
330
D
102
}
330
D
100
AcDbGroup
300

 70
     1
 71
     1
  0
GROUP
  5
53DB7
102
{ACAD_REACTORS
330
D
102
}
330
D
100
AcDbGroup
300

 70
     1
 71
     1
  0
GROUP
  5
53B6D
102
{ACAD_REACTORS
330
D
102
}
330
D
100
AcDbGroup
300

 70
     1
 71
     1
  0
GROUP
  5
5B738
102
{ACAD_REACTORS
330
D
102
}
330
D
100
AcDbGroup
300

 70
     1
 71
     1
  0
GROUP
  5
56C37
102
{ACAD_REACTORS
330
D
102
}
330
D
100
AcDbGroup
300

 70
     1
 71
     1
  0
GROUP
  5
55FAC
102
{ACAD_REACTORS
330
D
102
}
330
D
100
AcDbGroup
300

 70
     1
 71
     1
  0
GROUP
  5
465A6
102
{ACAD_REACTORS
330
D
102
}
330
D
100
AcDbGroup
300

 70
     1
 71
     1
  0
GROUP
  5
45549
102
{ACAD_REACTORS
330
D
102
}
330
D
100
AcDbGroup
300

 70
     1
 71
     1
  0
GROUP
  5
4611D
102
{ACAD_REACTORS
330
D
102
}
330
D
100
AcDbGroup
300

 70
     1
 71
     1
  0
GROUP
  5
2552D
102
{ACAD_REACTORS
330
D
102
}
330
D
100
AcDbGroup
300

 70
     1
 71
     1
  0
GROUP
  5
57DE6
102
{ACAD_REACTORS
330
D
102
}
330
D
100
AcDbGroup
300

 70
     1
 71
     1
  0
GROUP
  5
5C320
102
{ACAD_REACTORS
330
D
102
}
330
D
100
AcDbGroup
300

 70
     1
 71
     1
  0
GROUP
  5
53DB8
102
{ACAD_REACTORS
330
D
102
}
330
D
100
AcDbGroup
300

 70
     1
 71
     1
  0
GROUP
  5
5C800
102
{ACAD_REACTORS
330
D
102
}
330
D
100
AcDbGroup
300

 70
     1
 71
     1
  0
GROUP
  5
53B5B
102
{ACAD_REACTORS
330
D
102
}
330
D
100
AcDbGroup
300

 70
     1
 71
     1
  0
GROUP
  5
5510B
102
{ACAD_REACTORS
330
D
102
}
330
D
100
AcDbGroup
300

 70
     1
 71
     1
  0
GROUP
  5
1B290
102
{ACAD_REACTORS
330
D
102
}
330
D
100
AcDbGroup
300

 70
     1
 71
     1
  0
GROUP
  5
46F31
102
{ACAD_REACTORS
330
D
102
}
330
D
100
AcDbGroup
300

 70
     1
 71
     1
  0
GROUP
  5
36220
102
{ACAD_REACTORS
330
D
102
}
330
D
100
AcDbGroup
300

 70
     1
 71
     1
  0
GROUP
  5
53B69
102
{ACAD_REACTORS
330
D
102
}
330
D
100
AcDbGroup
300

 70
     1
 71
     1
  0
GROUP
  5
365FC
102
{ACAD_REACTORS
330
D
102
}
330
D
100
AcDbGroup
300

 70
     1
 71
     1
  0
GROUP
  5
54F70
102
{ACAD_REACTORS
330
D
102
}
330
D
100
AcDbGroup
300

 70
     1
 71
     1
  0
GROUP
  5
45FE6
102
{ACAD_REACTORS
330
D
102
}
330
D
100
AcDbGroup
300

 70
     1
 71
     1
  0
GROUP
  5
1DED7
102
{ACAD_REACTORS
330
D
102
}
330
D
100
AcDbGroup
300

 70
     1
 71
     1
  0
GROUP
  5
1DEDD
102
{ACAD_REACTORS
330
D
102
}
330
D
100
AcDbGroup
300

 70
     1
 71
     1
  0
GROUP
  5
54FA3
102
{ACAD_REACTORS
330
D
102
}
330
D
100
AcDbGroup
300

 70
     1
 71
     1
  0
GROUP
  5
53B7C
102
{ACAD_REACTORS
330
D
102
}
330
D
100
AcDbGroup
300

 70
     1
 71
     1
  0
GROUP
  5
45AC5
102
{ACAD_REACTORS
330
D
102
}
330
D
100
AcDbGroup
300

 70
     1
 71
     1
  0
GROUP
  5
57DEA
102
{ACAD_REACTORS
330
D
102
}
330
D
100
AcDbGroup
300

 70
     1
 71
     1
  0
GROUP
  5
2674B
102
{ACAD_REACTORS
330
D
102
}
330
D
100
AcDbGroup
300

 70
     1
 71
     1
  0
GROUP
  5
5B73B
102
{ACAD_REACTORS
330
D
102
}
330
D
100
AcDbGroup
300

 70
     1
 71
     1
  0
GROUP
  5
56C3C
102
{ACAD_REACTORS
330
D
102
}
330
D
100
AcDbGroup
300

 70
     1
 71
     1
  0
GROUP
  5
1DB5A
102
{ACAD_REACTORS
330
D
102
}
330
D
100
AcDbGroup
300

 70
     1
 71
     1
  0
GROUP
  5
1D991
102
{ACAD_REACTORS
330
D
102
}
330
D
100
AcDbGroup
300

 70
     1
 71
     1
  0
GROUP
  5
46920
102
{ACAD_REACTORS
330
D
102
}
330
D
100
AcDbGroup
300

 70
     1
 71
     1
  0
GROUP
  5
5C809
102
{ACAD_REACTORS
330
D
102
}
330
D
100
AcDbGroup
300

 70
     1
 71
     1
  0
GROUP
  5
5B75A
102
{ACAD_REACTORS
330
D
102
}
330
D
100
AcDbGroup
300

 70
     1
 71
     1
  0
GROUP
  5
1DC4B
102
{ACAD_REACTORS
330
D
102
}
330
D
100
AcDbGroup
300

 70
     1
 71
     1
  0
GROUP
  5
4692E
102
{ACAD_REACTORS
330
D
102
}
330
D
100
AcDbGroup
300

 70
     1
 71
     1
  0
GROUP
  5
1DFD7
102
{ACAD_REACTORS
330
D
102
}
330
D
100
AcDbGroup
300

 70
     1
 71
     1
  0
GROUP
  5
375D4
102
{ACAD_REACTORS
330
D
102
}
330
D
100
AcDbGroup
300

 70
     1
 71
     1
  0
GROUP
  5
54FD3
102
{ACAD_REACTORS
330
D
102
}
330
D
100
AcDbGroup
300

 70
     1
 71
     1
  0
GROUP
  5
5B75B
102
{ACAD_REACTORS
330
D
102
}
330
D
100
AcDbGroup
300

 70
     1
 71
     1
  0
GROUP
  5
1B431
102
{ACAD_REACTORS
330
D
102
}
330
D
100
AcDbGroup
300

 70
     1
 71
     1
  0
GROUP
  5
56C3D
102
{ACAD_REACTORS
330
D
102
}
330
D
100
AcDbGroup
300

 70
     1
 71
     1
  0
GROUP
  5
53B68
102
{ACAD_REACTORS
330
D
102
}
330
D
100
AcDbGroup
300

 70
     1
 71
     1
  0
GROUP
  5
1ADDB
102
{ACAD_REACTORS
330
D
102
}
330
D
100
AcDbGroup
300

 70
     1
 71
     1
  0
GROUP
  5
56D2D
102
{ACAD_REACTORS
330
D
102
}
330
D
100
AcDbGroup
300

 70
     1
 71
     1
  0
GROUP
  5
5B74B
102
{ACAD_REACTORS
330
D
102
}
330
D
100
AcDbGroup
300

 70
     1
 71
     1
  0
GROUP
  5
5BEE5
102
{ACAD_REACTORS
330
D
102
}
330
D
100
AcDbGroup
300

 70
     1
 71
     1
  0
GROUP
  5
5BDD6
102
{ACAD_REACTORS
330
D
102
}
330
D
100
AcDbGroup
300

 70
     1
 71
     1
  0
GROUP
  5
46922
102
{ACAD_REACTORS
330
D
102
}
330
D
100
AcDbGroup
300

 70
     1
 71
     1
  0
GROUP
  5
1D97B
102
{ACAD_REACTORS
330
D
102
}
330
D
100
AcDbGroup
300

 70
     1
 71
     1
  0
GROUP
  5
5506D
102
{ACAD_REACTORS
330
D
102
}
330
D
100
AcDbGroup
300

 70
     1
 71
     1
  0
GROUP
  5
1E00A
102
{ACAD_REACTORS
330
D
102
}
330
D
100
AcDbGroup
300

 70
     1
 71
     1
  0
GROUP
  5
41CE2
102
{ACAD_REACTORS
330
D
102
}
330
D
100
AcDbGroup
300

 70
     1
 71
     1
  0
GROUP
  5
1DFFD
102
{ACAD_REACTORS
330
D
102
}
330
D
100
AcDbGroup
300

 70
     1
 71
     1
  0
GROUP
  5
1B19A
102
{ACAD_REACTORS
330
D
102
}
330
D
100
AcDbGroup
300

 70
     1
 71
     1
  0
GROUP
  5
41CE3
102
{ACAD_REACTORS
330
D
102
}
330
D
100
AcDbGroup
300

 70
     1
 71
     1
  0
GROUP
  5
46923
102
{ACAD_REACTORS
330
D
102
}
330
D
100
AcDbGroup
300

 70
     1
 71
     1
  0
GROUP
  5
2468F
102
{ACAD_REACTORS
330
D
102
}
330
D
100
AcDbGroup
300

 70
     1
 71
     1
  0
GROUP
  5
57FD3
102
{ACAD_REACTORS
330
D
102
}
330
D
100
AcDbGroup
300

 70
     1
 71
     1
  0
GROUP
  5
1B28E
102
{ACAD_REACTORS
330
D
102
}
330
D
100
AcDbGroup
300

 70
     1
 71
     1
  0
GROUP
  5
457F9
102
{ACAD_REACTORS
330
D
102
}
330
D
100
AcDbGroup
300

 70
     1
 71
     1
  0
GROUP
  5
37A83
102
{ACAD_REACTORS
330
D
102
}
330
D
100
AcDbGroup
300

 70
     1
 71
     1
  0
GROUP
  5
2F10A
102
{ACAD_REACTORS
330
D
102
}
330
D
100
AcDbGroup
300

 70
     1
 71
     1
  0
GROUP
  5
1B251
102
{ACAD_REACTORS
330
D
102
}
330
D
100
AcDbGroup
300

 70
     1
 71
     1
  0
GROUP
  5
565A9
102
{ACAD_REACTORS
330
D
102
}
330
D
100
AcDbGroup
300

 70
     1
 71
     1
  0
GROUP
  5
41CE1
102
{ACAD_REACTORS
330
D
102
}
330
D
100
AcDbGroup
300

 70
     1
 71
     1
  0
GROUP
  5
1DED1
102
{ACAD_REACTORS
330
D
102
}
330
D
100
AcDbGroup
300

 70
     1
 71
     1
  0
GROUP
  5
3761E
102
{ACAD_REACTORS
330
D
102
}
330
D
100
AcDbGroup
300

 70
     1
 71
     1
  0
GROUP
  5
461F8
102
{ACAD_REACTORS
330
D
102
}
330
D
100
AcDbGroup
300

 70
     1
 71
     1
  0
GROUP
  5
5B80B
102
{ACAD_REACTORS
330
D
102
}
330
D
100
AcDbGroup
300

 70
     1
 71
     1
  0
GROUP
  5
37541
102
{ACAD_REACTORS
330
D
102
}
330
D
100
AcDbGroup
300

 70
     1
 71
     1
  0
GROUP
  5
45FEB
102
{ACAD_REACTORS
330
D
102
}
330
D
100
AcDbGroup
300

 70
     1
 71
     1
  0
GROUP
  5
4692A
102
{ACAD_REACTORS
330
D
102
}
330
D
100
AcDbGroup
300

 70
     1
 71
     1
  0
GROUP
  5
36A7A
102
{ACAD_REACTORS
330
D
102
}
330
D
100
AcDbGroup
300

 70
     1
 71
     1
  0
GROUP
  5
31536
102
{ACAD_REACTORS
330
D
102
}
330
D
100
AcDbGroup
300

 70
     1
 71
     1
  0
GROUP
  5
5BDDB
102
{ACAD_REACTORS
330
D
102
}
330
D
100
AcDbGroup
300

 70
     1
 71
     1
  0
GROUP
  5
1DFAD
102
{ACAD_REACTORS
330
D
102
}
330
D
100
AcDbGroup
300

 70
     1
 71
     1
  0
GROUP
  5
25684
102
{ACAD_REACTORS
330
D
102
}
330
D
100
AcDbGroup
300

 70
     1
 71
     1
  0
GROUP
  5
41CCD
102
{ACAD_REACTORS
330
D
102
}
330
D
100
AcDbGroup
300

 70
     1
 71
     1
  0
GROUP
  5
36A57
102
{ACAD_REACTORS
330
D
102
}
330
D
100
AcDbGroup
300

 70
     1
 71
     1
  0
GROUP
  5
5B74C
102
{ACAD_REACTORS
330
D
102
}
330
D
100
AcDbGroup
300

 70
     1
 71
     1
  0
GROUP
  5
5DEAC
102
{ACAD_REACTORS
330
D
102
}
330
D
100
AcDbGroup
300

 70
     1
 71
     1
  0
GROUP
  5
5B73E
102
{ACAD_REACTORS
330
D
102
}
330
D
100
AcDbGroup
300

 70
     1
 71
     1
  0
GROUP
  5
4659F
102
{ACAD_REACTORS
330
D
102
}
330
D
100
AcDbGroup
300

 70
     1
 71
     1
  0
GROUP
  5
5DEAD
102
{ACAD_REACTORS
330
D
102
}
330
D
100
AcDbGroup
300

 70
     1
 71
     1
  0
GROUP
  5
5DEAE
102
{ACAD_REACTORS
330
D
102
}
330
D
100
AcDbGroup
300

 70
     1
 71
     1
  0
GROUP
  5
5DEAF
102
{ACAD_REACTORS
330
D
102
}
330
D
100
AcDbGroup
300

 70
     1
 71
     1
  0
GROUP
  5
5DEB0
102
{ACAD_REACTORS
330
D
102
}
330
D
100
AcDbGroup
300

 70
     1
 71
     1
  0
GROUP
  5
5B743
102
{ACAD_REACTORS
330
D
102
}
330
D
100
AcDbGroup
300

 70
     1
 71
     1
  0
GROUP
  5
5DEB1
102
{ACAD_REACTORS
330
D
102
}
330
D
100
AcDbGroup
300

 70
     1
 71
     1
  0
GROUP
  5
5BDE0
102
{ACAD_REACTORS
330
D
102
}
330
D
100
AcDbGroup
300

 70
     1
 71
     1
  0
GROUP
  5
2F110
102
{ACAD_REACTORS
330
D
102
}
330
D
100
AcDbGroup
300

 70
     1
 71
     1
  0
GROUP
  5
5DEB2
102
{ACAD_REACTORS
330
D
102
}
330
D
100
AcDbGroup
300

 70
     1
 71
     1
  0
GROUP
  5
41CEA
102
{ACAD_REACTORS
330
D
102
}
330
D
100
AcDbGroup
300

 70
     1
 71
     1
  0
GROUP
  5
25A71
102
{ACAD_REACTORS
330
D
102
}
330
D
100
AcDbGroup
300

 70
     1
 71
     1
  0
GROUP
  5
5C360
102
{ACAD_REACTORS
330
D
102
}
330
D
100
AcDbGroup
300

 70
     1
 71
     1
  0
GROUP
  5
2554A
102
{ACAD_REACTORS
330
D
102
}
330
D
100
AcDbGroup
300

 70
     1
 71
     1
  0
GROUP
  5
365D2
102
{ACAD_REACTORS
330
D
102
}
330
D
100
AcDbGroup
300

 70
     1
 71
     1
  0
GROUP
  5
5DEB3
102
{ACAD_REACTORS
330
D
102
}
330
D
100
AcDbGroup
300

 70
     1
 71
     1
  0
GROUP
  5
461F7
102
{ACAD_REACTORS
330
D
102
}
330
D
100
AcDbGroup
300

 70
     1
 71
     1
  0
GROUP
  5
5B74D
102
{ACAD_REACTORS
330
D
102
}
330
D
100
AcDbGroup
300

 70
     1
 71
     1
  0
GROUP
  5
5DEB4
102
{ACAD_REACTORS
330
D
102
}
330
D
100
AcDbGroup
300

 70
     1
 71
     1
  0
GROUP
  5
5DEB5
102
{ACAD_REACTORS
330
D
102
}
330
D
100
AcDbGroup
300

 70
     1
 71
     1
  0
GROUP
  5
5DEB6
102
{ACAD_REACTORS
330
D
102
}
330
D
100
AcDbGroup
300

 70
     1
 71
     1
  0
GROUP
  5
5DEB7
102
{ACAD_REACTORS
330
D
102
}
330
D
100
AcDbGroup
300

 70
     1
 71
     1
  0
GROUP
  5
41CE8
102
{ACAD_REACTORS
330
D
102
}
330
D
100
AcDbGroup
300

 70
     1
 71
     1
  0
GROUP
  5
41CDE
102
{ACAD_REACTORS
330
D
102
}
330
D
100
AcDbGroup
300

 70
     1
 71
     1
  0
GROUP
  5
5C361
102
{ACAD_REACTORS
330
D
102
}
330
D
100
AcDbGroup
300

 70
     1
 71
     1
  0
GROUP
  5
5DEB8
102
{ACAD_REACTORS
330
D
102
}
330
D
100
AcDbGroup
300

 70
     1
 71
     1
  0
GROUP
  5
53B61
102
{ACAD_REACTORS
330
D
102
}
330
D
100
AcDbGroup
300

 70
     1
 71
     1
  0
GROUP
  5
56D1E
102
{ACAD_REACTORS
330
D
102
}
330
D
100
AcDbGroup
300

 70
     1
 71
     1
  0
GROUP
  5
2555C
102
{ACAD_REACTORS
330
D
102
}
330
D
100
AcDbGroup
300

 70
     1
 71
     1
  0
GROUP
  5
5DEB9
102
{ACAD_REACTORS
330
D
102
}
330
D
100
AcDbGroup
300

 70
     1
 71
     1
  0
GROUP
  5
5DEBA
102
{ACAD_REACTORS
330
D
102
}
330
D
100
AcDbGroup
300

 70
     1
 71
     1
  0
GROUP
  5
5DEBB
102
{ACAD_REACTORS
330
D
102
}
330
D
100
AcDbGroup
300

 70
     1
 71
     1
  0
GROUP
  5
5DEBC
102
{ACAD_REACTORS
330
D
102
}
330
D
100
AcDbGroup
300

 70
     1
 71
     1
  0
GROUP
  5
3188B
102
{ACAD_REACTORS
330
D
102
}
330
D
100
AcDbGroup
300

 70
     1
 71
     1
  0
GROUP
  5
36E24
102
{ACAD_REACTORS
330
D
102
}
330
D
100
AcDbGroup
300

 70
     1
 71
     1
  0
GROUP
  5
5DEBD
102
{ACAD_REACTORS
330
D
102
}
330
D
100
AcDbGroup
300

 70
     1
 71
     1
  0
GROUP
  5
5C388
102
{ACAD_REACTORS
330
D
102
}
330
D
100
AcDbGroup
300

 70
     1
 71
     1
  0
GROUP
  5
5DEBE
102
{ACAD_REACTORS
330
D
102
}
330
D
100
AcDbGroup
300

 70
     1
 71
     1
  0
GROUP
  5
5BCF8
102
{ACAD_REACTORS
330
D
102
}
330
D
100
AcDbGroup
300

 70
     1
 71
     1
  0
GROUP
  5
565CF
102
{ACAD_REACTORS
330
D
102
}
330
D
100
AcDbGroup
300

 70
     1
 71
     1
  0
GROUP
  5
5DEBF
102
{ACAD_REACTORS
330
D
102
}
330
D
100
AcDbGroup
300

 70
     1
 71
     1
  0
GROUP
  5
55A2B
102
{ACAD_REACTORS
330
D
102
}
330
D
100
AcDbGroup
300

 70
     1
 71
     1
  0
GROUP
  5
5DEC0
102
{ACAD_REACTORS
330
D
102
}
330
D
100
AcDbGroup
300

 70
     1
 71
     1
  0
GROUP
  5
25F40
102
{ACAD_REACTORS
330
D
102
}
330
D
100
AcDbGroup
300

 70
     1
 71
     1
  0
GROUP
  5
5DEC1
102
{ACAD_REACTORS
330
D
102
}
330
D
100
AcDbGroup
300

 70
     1
 71
     1
  0
GROUP
  5
5DEC2
102
{ACAD_REACTORS
330
D
102
}
330
D
100
AcDbGroup
300

 70
     1
 71
     1
  0
GROUP
  5
5DEC3
102
{ACAD_REACTORS
330
D
102
}
330
D
100
AcDbGroup
300

 70
     1
 71
     1
  0
GROUP
  5
5DEC4
102
{ACAD_REACTORS
330
D
102
}
330
D
100
AcDbGroup
300

 70
     1
 71
     1
  0
GROUP
  5
53B6E
102
{ACAD_REACTORS
330
D
102
}
330
D
100
AcDbGroup
300

 70
     1
 71
     1
  0
GROUP
  5
5814D
102
{ACAD_REACTORS
330
D
102
}
330
D
100
AcDbGroup
300

 70
     1
 71
     1
  0
GROUP
  5
5DEC5
102
{ACAD_REACTORS
330
D
102
}
330
D
100
AcDbGroup
300

 70
     1
 71
     1
  0
GROUP
  5
5DEC6
102
{ACAD_REACTORS
330
D
102
}
330
D
100
AcDbGroup
300

 70
     1
 71
     1
  0
GROUP
  5
470BC
102
{ACAD_REACTORS
330
D
102
}
330
D
100
AcDbGroup
300

 70
     1
 71
     1
  0
GROUP
  5
53B79
102
{ACAD_REACTORS
330
D
102
}
330
D
100
AcDbGroup
300

 70
     1
 71
     1
  0
GROUP
  5
53B60
102
{ACAD_REACTORS
330
D
102
}
330
D
100
AcDbGroup
300

 70
     1
 71
     1
  0
GROUP
  5
31872
102
{ACAD_REACTORS
330
D
102
}
330
D
100
AcDbGroup
300

 70
     1
 71
     1
  0
GROUP
  5
5DEC7
102
{ACAD_REACTORS
330
D
102
}
330
D
100
AcDbGroup
300

 70
     1
 71
     1
  0
GROUP
  5
5DEC8
102
{ACAD_REACTORS
330
D
102
}
330
D
100
AcDbGroup
300

 70
     1
 71
     1
  0
GROUP
  5
56365
102
{ACAD_REACTORS
330
D
102
}
330
D
100
AcDbGroup
300

 70
     1
 71
     1
  0
GROUP
  5
5DEC9
102
{ACAD_REACTORS
330
D
102
}
330
D
100
AcDbGroup
300

 70
     1
 71
     1
  0
GROUP
  5
55E73
102
{ACAD_REACTORS
330
D
102
}
330
D
100
AcDbGroup
300

 70
     1
 71
     1
  0
GROUP
  5
41CCF
102
{ACAD_REACTORS
330
D
102
}
330
D
100
AcDbGroup
300

 70
     1
 71
     1
  0
GROUP
  5
5DECA
102
{ACAD_REACTORS
330
D
102
}
330
D
100
AcDbGroup
300

 70
     1
 71
     1
  0
GROUP
  5
5DECB
102
{ACAD_REACTORS
330
D
102
}
330
D
100
AcDbGroup
300

 70
     1
 71
     1
  0
GROUP
  5
5DECC
102
{ACAD_REACTORS
330
D
102
}
330
D
100
AcDbGroup
300

 70
     1
 71
     1
  0
GROUP
  5
5DECD
102
{ACAD_REACTORS
330
D
102
}
330
D
100
AcDbGroup
300

 70
     1
 71
     1
  0
GROUP
  5
5DECE
102
{ACAD_REACTORS
330
D
102
}
330
D
100
AcDbGroup
300

 70
     1
 71
     1
  0
GROUP
  5
459B8
102
{ACAD_REACTORS
330
D
102
}
330
D
100
AcDbGroup
300

 70
     1
 71
     1
  0
GROUP
  5
1D98C
102
{ACAD_REACTORS
330
D
102
}
330
D
100
AcDbGroup
300

 70
     1
 71
     1
  0
GROUP
  5
5DECF
102
{ACAD_REACTORS
330
D
102
}
330
D
100
AcDbGroup
300

 70
     1
 71
     1
  0
GROUP
  5
5B731
102
{ACAD_REACTORS
330
D
102
}
330
D
100
AcDbGroup
300

 70
     1
 71
     1
  0
GROUP
  5
5BA7C
102
{ACAD_REACTORS
330
D
102
}
330
D
100
AcDbGroup
300

 70
     1
 71
     1
  0
GROUP
  5
465A2
102
{ACAD_REACTORS
330
D
102
}
330
D
100
AcDbGroup
300

 70
     1
 71
     1
  0
GROUP
  5
57FCA
102
{ACAD_REACTORS
330
D
102
}
330
D
100
AcDbGroup
300

 70
     1
 71
     1
  0
GROUP
  5
37F14
102
{ACAD_REACTORS
330
D
102
}
330
D
100
AcDbGroup
300

 70
     1
 71
     1
  0
GROUP
  5
5DED0
102
{ACAD_REACTORS
330
D
102
}
330
D
100
AcDbGroup
300

 70
     1
 71
     1
  0
GROUP
  5
41CD0
102
{ACAD_REACTORS
330
D
102
}
330
D
100
AcDbGroup
300

 70
     1
 71
     1
  0
GROUP
  5
457D9
102
{ACAD_REACTORS
330
D
102
}
330
D
100
AcDbGroup
300

 70
     1
 71
     1
  0
GROUP
  5
5DED1
102
{ACAD_REACTORS
330
D
102
}
330
D
100
AcDbGroup
300

 70
     1
 71
     1
  0
GROUP
  5
5DED2
102
{ACAD_REACTORS
330
D
102
}
330
D
100
AcDbGroup
300

 70
     1
 71
     1
  0
GROUP
  5
5DED3
102
{ACAD_REACTORS
330
D
102
}
330
D
100
AcDbGroup
300

 70
     1
 71
     1
  0
GROUP
  5
5BED7
102
{ACAD_REACTORS
330
D
102
}
330
D
100
AcDbGroup
300

 70
     1
 71
     1
  0
GROUP
  5
2555F
102
{ACAD_REACTORS
330
D
102
}
330
D
100
AcDbGroup
300

 70
     1
 71
     1
  0
GROUP
  5
2F10C
102
{ACAD_REACTORS
330
D
102
}
330
D
100
AcDbGroup
300

 70
     1
 71
     1
  0
GROUP
  5
5DED4
102
{ACAD_REACTORS
330
D
102
}
330
D
100
AcDbGroup
300

 70
     1
 71
     1
  0
GROUP
  5
5BDF6
102
{ACAD_REACTORS
330
D
102
}
330
D
100
AcDbGroup
300

 70
     1
 71
     1
  0
GROUP
  5
5C38F
102
{ACAD_REACTORS
330
D
102
}
330
D
100
AcDbGroup
300

 70
     1
 71
     1
  0
GROUP
  5
5DED5
102
{ACAD_REACTORS
330
D
102
}
330
D
100
AcDbGroup
300

 70
     1
 71
     1
  0
GROUP
  5
5DED6
102
{ACAD_REACTORS
330
D
102
}
330
D
100
AcDbGroup
300

 70
     1
 71
     1
  0
GROUP
  5
5DED7
102
{ACAD_REACTORS
330
D
102
}
330
D
100
AcDbGroup
300

 70
     1
 71
     1
  0
GROUP
  5
5DED8
102
{ACAD_REACTORS
330
D
102
}
330
D
100
AcDbGroup
300

 70
     1
 71
     1
  0
GROUP
  5
56AE2
102
{ACAD_REACTORS
330
D
102
}
330
D
100
AcDbGroup
300

 70
     1
 71
     1
  0
GROUP
  5
53DB6
102
{ACAD_REACTORS
330
D
102
}
330
D
100
AcDbGroup
300

 70
     1
 71
     1
  0
GROUP
  5
5DED9
102
{ACAD_REACTORS
330
D
102
}
330
D
100
AcDbGroup
300

 70
     1
 71
     1
  0
GROUP
  5
4514C
102
{ACAD_REACTORS
330
D
102
}
330
D
100
AcDbGroup
300

 70
     1
 71
     1
  0
GROUP
  5
5DEDA
102
{ACAD_REACTORS
330
D
102
}
330
D
100
AcDbGroup
300

 70
     1
 71
     1
  0
GROUP
  5
B7B9
102
{ACAD_REACTORS
330
D
102
}
330
D
100
AcDbGroup
300

 70
     1
 71
     1
  0
GROUP
  5
1DFAF
102
{ACAD_REACTORS
330
D
102
}
330
D
100
AcDbGroup
300

 70
     1
 71
     1
  0
GROUP
  5
55E69
102
{ACAD_REACTORS
330
D
102
}
330
D
100
AcDbGroup
300

 70
     1
 71
     1
  0
GROUP
  5
5DEDB
102
{ACAD_REACTORS
330
D
102
}
330
D
100
AcDbGroup
300

 70
     1
 71
     1
  0
GROUP
  5
4691F
102
{ACAD_REACTORS
330
D
102
}
330
D
100
AcDbGroup
300

 70
     1
 71
     1
  0
GROUP
  5
5DEDC
102
{ACAD_REACTORS
330
D
102
}
330
D
100
AcDbGroup
300

 70
     1
 71
     1
  0
GROUP
  5
5DEDD
102
{ACAD_REACTORS
330
D
102
}
330
D
100
AcDbGroup
300

 70
     1
 71
     1
  0
GROUP
  5
5DEDE
102
{ACAD_REACTORS
330
D
102
}
330
D
100
AcDbGroup
300

 70
     1
 71
     1
  0
GROUP
  5
5DEDF
102
{ACAD_REACTORS
330
D
102
}
330
D
100
AcDbGroup
300

 70
     1
 71
     1
  0
GROUP
  5
4536D
102
{ACAD_REACTORS
330
D
102
}
330
D
100
AcDbGroup
300

 70
     1
 71
     1
  0
GROUP
  5
5DEE0
102
{ACAD_REACTORS
330
D
102
}
330
D
100
AcDbGroup
300

 70
     1
 71
     1
  0
GROUP
  5
5DEE1
102
{ACAD_REACTORS
330
D
102
}
330
D
100
AcDbGroup
300

 70
     1
 71
     1
  0
GROUP
  5
56039
102
{ACAD_REACTORS
330
D
102
}
330
D
100
AcDbGroup
300

 70
     1
 71
     1
  0
GROUP
  5
57DE8
102
{ACAD_REACTORS
330
D
102
}
330
D
100
AcDbGroup
300

 70
     1
 71
     1
  0
GROUP
  5
5C3F1
102
{ACAD_REACTORS
330
D
102
}
330
D
100
AcDbGroup
300

 70
     1
 71
     1
  0
GROUP
  5
5B74E
102
{ACAD_REACTORS
330
D
102
}
330
D
100
AcDbGroup
300

 70
     1
 71
     1
  0
GROUP
  5
5E640
102
{ACAD_REACTORS
330
D
102
}
330
D
100
AcDbGroup
300

 70
     1
 71
     1
  0
GROUP
  5
5E641
102
{ACAD_REACTORS
330
D
102
}
330
D
100
AcDbGroup
300

 70
     1
 71
     1
  0
GROUP
  5
53B5E
102
{ACAD_REACTORS
330
D
102
}
330
D
100
AcDbGroup
300

 70
     1
 71
     1
  0
GROUP
  5
565B1
102
{ACAD_REACTORS
330
D
102
}
330
D
100
AcDbGroup
300

 70
     1
 71
     1
  0
GROUP
  5
37A82
102
{ACAD_REACTORS
330
D
102
}
330
D
100
AcDbGroup
300

 70
     1
 71
     1
  0
GROUP
  5
5E642
102
{ACAD_REACTORS
330
D
102
}
330
D
100
AcDbGroup
300

 70
     1
 71
     1
  0
GROUP
  5
5E643
102
{ACAD_REACTORS
330
D
102
}
330
D
100
AcDbGroup
300

 70
     1
 71
     1
  0
GROUP
  5
5E644
102
{ACAD_REACTORS
330
D
102
}
330
D
100
AcDbGroup
300

 70
     1
 71
     1
  0
GROUP
  5
5E645
102
{ACAD_REACTORS
330
D
102
}
330
D
100
AcDbGroup
300

 70
     1
 71
     1
  0
GROUP
  5
5E646
102
{ACAD_REACTORS
330
D
102
}
330
D
100
AcDbGroup
300

 70
     1
 71
     1
  0
GROUP
  5
5C4BC
102
{ACAD_REACTORS
330
D
102
}
330
D
100
AcDbGroup
300

 70
     1
 71
     1
  0
GROUP
  5
2F111
102
{ACAD_REACTORS
330
D
102
}
330
D
100
AcDbGroup
300

 70
     1
 71
     1
  0
GROUP
  5
5E647
102
{ACAD_REACTORS
330
D
102
}
330
D
100
AcDbGroup
300

 70
     1
 71
     1
  0
GROUP
  5
1DED8
102
{ACAD_REACTORS
330
D
102
}
330
D
100
AcDbGroup
300

 70
     1
 71
     1
  0
GROUP
  5
57FED
102
{ACAD_REACTORS
330
D
102
}
330
D
100
AcDbGroup
300

 70
     1
 71
     1
  0
GROUP
  5
465A9
102
{ACAD_REACTORS
330
D
102
}
330
D
100
AcDbGroup
300

 70
     1
 71
     1
  0
GROUP
  5
5E648
102
{ACAD_REACTORS
330
D
102
}
330
D
100
AcDbGroup
300

 70
     1
 71
     1
  0
GROUP
  5
5BDFC
102
{ACAD_REACTORS
330
D
102
}
330
D
100
AcDbGroup
300

 70
     1
 71
     1
  0
GROUP
  5
2556C
102
{ACAD_REACTORS
330
D
102
}
330
D
100
AcDbGroup
300

 70
     1
 71
     1
  0
GROUP
  5
5E649
102
{ACAD_REACTORS
330
D
102
}
330
D
100
AcDbGroup
300

 70
     1
 71
     1
  0
GROUP
  5
5E64A
102
{ACAD_REACTORS
330
D
102
}
330
D
100
AcDbGroup
300

 70
     1
 71
     1
  0
GROUP
  5
5E64B
102
{ACAD_REACTORS
330
D
102
}
330
D
100
AcDbGroup
300

 70
     1
 71
     1
  0
GROUP
  5
1B406
102
{ACAD_REACTORS
330
D
102
}
330
D
100
AcDbGroup
300

 70
     1
 71
     1
  0
GROUP
  5
41CE0
102
{ACAD_REACTORS
330
D
102
}
330
D
100
AcDbGroup
300

 70
     1
 71
     1
  0
GROUP
  5
465A1
102
{ACAD_REACTORS
330
D
102
}
330
D
100
AcDbGroup
300

 70
     1
 71
     1
  0
GROUP
  5
1805C
102
{ACAD_REACTORS
330
D
102
}
330
D
100
AcDbGroup
300

 70
     1
 71
     1
  0
GROUP
  5
53B72
102
{ACAD_REACTORS
330
D
102
}
330
D
100
AcDbGroup
300

 70
     1
 71
     1
  0
GROUP
  5
5E64C
102
{ACAD_REACTORS
330
D
102
}
330
D
100
AcDbGroup
300

 70
     1
 71
     1
  0
GROUP
  5
5E64D
102
{ACAD_REACTORS
330
D
102
}
330
D
100
AcDbGroup
300

 70
     1
 71
     1
  0
GROUP
  5
5E7F0
102
{ACAD_REACTORS
330
D
102
}
330
D
100
AcDbGroup
300

 70
     1
 71
     1
  0
GROUP
  5
5E7F1
102
{ACAD_REACTORS
330
D
102
}
330
D
100
AcDbGroup
300

 70
     1
 71
     1
  0
GROUP
  5
1DED4
102
{ACAD_REACTORS
330
D
102
}
330
D
100
AcDbGroup
300

 70
     1
 71
     1
  0
GROUP
  5
2F10D
102
{ACAD_REACTORS
330
D
102
}
330
D
100
AcDbGroup
300

 70
     1
 71
     1
  0
GROUP
  5
5E7F2
102
{ACAD_REACTORS
330
D
102
}
330
D
100
AcDbGroup
300

 70
     1
 71
     1
  0
GROUP
  5
5E7F3
102
{ACAD_REACTORS
330
D
102
}
330
D
100
AcDbGroup
300

 70
     1
 71
     1
  0
GROUP
  5
41CE6
102
{ACAD_REACTORS
330
D
102
}
330
D
100
AcDbGroup
300

 70
     1
 71
     1
  0
GROUP
  5
5B74F
102
{ACAD_REACTORS
330
D
102
}
330
D
100
AcDbGroup
300

 70
     1
 71
     1
  0
GROUP
  5
25A6F
102
{ACAD_REACTORS
330
D
102
}
330
D
100
AcDbGroup
300

 70
     1
 71
     1
  0
GROUP
  5
5E7F4
102
{ACAD_REACTORS
330
D
102
}
330
D
100
AcDbGroup
300

 70
     1
 71
     1
  0
GROUP
  5
57FA2
102
{ACAD_REACTORS
330
D
102
}
330
D
100
AcDbGroup
300

 70
     1
 71
     1
  0
GROUP
  5
5E971
102
{ACAD_REACTORS
330
D
102
}
330
D
100
AcDbGroup
300

 70
     1
 71
     1
  0
GROUP
  5
5E972
102
{ACAD_REACTORS
330
D
102
}
330
D
100
AcDbGroup
300

 70
     1
 71
     1
  0
GROUP
  5
5E973
102
{ACAD_REACTORS
330
D
102
}
330
D
100
AcDbGroup
300

 70
     1
 71
     1
  0
GROUP
  5
266ED
102
{ACAD_REACTORS
330
D
102
}
330
D
100
AcDbGroup
300

 70
     1
 71
     1
  0
GROUP
  5
5E974
102
{ACAD_REACTORS
330
D
102
}
330
D
100
AcDbGroup
300

 70
     1
 71
     1
  0
GROUP
  5
5E975
102
{ACAD_REACTORS
330
D
102
}
330
D
100
AcDbGroup
300

 70
     1
 71
     1
  0
GROUP
  5
5BE02
102
{ACAD_REACTORS
330
D
102
}
330
D
100
AcDbGroup
300

 70
     1
 71
     1
  0
GROUP
  5
45A4C
102
{ACAD_REACTORS
330
D
102
}
330
D
100
AcDbGroup
300

 70
     1
 71
     1
  0
GROUP
  5
1DEDF
102
{ACAD_REACTORS
330
D
102
}
330
D
100
AcDbGroup
300

 70
     1
 71
     1
  0
GROUP
  5
1DEDC
102
{ACAD_REACTORS
330
D
102
}
330
D
100
AcDbGroup
300

 70
     1
 71
     1
  0
GROUP
  5
5EE3E
102
{ACAD_REACTORS
330
D
102
}
330
D
100
AcDbGroup
300

 70
     1
 71
     1
  0
GROUP
  5
5EE3F
102
{ACAD_REACTORS
330
D
102
}
330
D
100
AcDbGroup
300

 70
     1
 71
     1
  0
GROUP
  5
2F113
102
{ACAD_REACTORS
330
D
102
}
330
D
100
AcDbGroup
300

 70
     1
 71
     1
  0
GROUP
  5
5EE40
102
{ACAD_REACTORS
330
D
102
}
330
D
100
AcDbGroup
300

 70
     1
 71
     1
  0
GROUP
  5
5B750
102
{ACAD_REACTORS
330
D
102
}
330
D
100
AcDbGroup
300

 70
     1
 71
     1
  0
GROUP
  5
4692F
102
{ACAD_REACTORS
330
D
102
}
330
D
100
AcDbGroup
300

 70
     1
 71
     1
  0
GROUP
  5
1ACB0
102
{ACAD_REACTORS
330
D
102
}
330
D
100
AcDbGroup
300

 70
     1
 71
     1
  0
GROUP
  5
25A72
102
{ACAD_REACTORS
330
D
102
}
330
D
100
AcDbGroup
300

 70
     1
 71
     1
  0
GROUP
  5
41CE4
102
{ACAD_REACTORS
330
D
102
}
330
D
100
AcDbGroup
300

 70
     1
 71
     1
  0
GROUP
  5
266EE
102
{ACAD_REACTORS
330
D
102
}
330
D
100
AcDbGroup
300

 70
     1
 71
     1
  0
GROUP
  5
5B73F
102
{ACAD_REACTORS
330
D
102
}
330
D
100
AcDbGroup
300

 70
     1
 71
     1
  0
GROUP
  5
46927
102
{ACAD_REACTORS
330
D
102
}
330
D
100
AcDbGroup
300

 70
     1
 71
     1
  0
GROUP
  5
2F116
102
{ACAD_REACTORS
330
D
102
}
330
D
100
AcDbGroup
300

 70
     1
 71
     1
  0
GROUP
  5
5BE08
102
{ACAD_REACTORS
330
D
102
}
330
D
100
AcDbGroup
300

 70
     1
 71
     1
  0
GROUP
  5
25783
102
{ACAD_REACTORS
330
D
102
}
330
D
100
AcDbGroup
300

 70
     1
 71
     1
  0
GROUP
  5
56C46
102
{ACAD_REACTORS
330
D
102
}
330
D
100
AcDbGroup
300

 70
     1
 71
     1
  0
GROUP
  5
37606
102
{ACAD_REACTORS
330
D
102
}
330
D
100
AcDbGroup
300

 70
     1
 71
     1
  0
GROUP
  5
45A5A
102
{ACAD_REACTORS
330
D
102
}
330
D
100
AcDbGroup
300

 70
     1
 71
     1
  0
GROUP
  5
2566C
102
{ACAD_REACTORS
330
D
102
}
330
D
100
AcDbGroup
300

 70
     1
 71
     1
  0
GROUP
  5
1DED6
102
{ACAD_REACTORS
330
D
102
}
330
D
100
AcDbGroup
300

 70
     1
 71
     1
  0
GROUP
  5
5C7C2
102
{ACAD_REACTORS
330
D
102
}
330
D
100
AcDbGroup
300

 70
     1
 71
     1
  0
GROUP
  5
5BCF9
102
{ACAD_REACTORS
330
D
102
}
330
D
100
AcDbGroup
300

 70
     1
 71
     1
  0
GROUP
  5
1D92F
102
{ACAD_REACTORS
330
D
102
}
330
D
100
AcDbGroup
300

 70
     1
 71
     1
  0
GROUP
  5
254DA
102
{ACAD_REACTORS
330
D
102
}
330
D
100
AcDbGroup
300

 70
     1
 71
     1
  0
GROUP
  5
5B751
102
{ACAD_REACTORS
330
D
102
}
330
D
100
AcDbGroup
300

 70
     1
 71
     1
  0
GROUP
  5
569ED
102
{ACAD_REACTORS
330
D
102
}
330
D
100
AcDbGroup
300

 70
     1
 71
     1
  0
GROUP
  5
25780
102
{ACAD_REACTORS
330
D
102
}
330
D
100
AcDbGroup
300

 70
     1
 71
     1
  0
GROUP
  5
1212C
102
{ACAD_REACTORS
330
D
102
}
330
D
100
AcDbGroup
300

 70
     1
 71
     1
  0
GROUP
  5
4659E
102
{ACAD_REACTORS
330
D
102
}
330
D
100
AcDbGroup
300

 70
     1
 71
     1
  0
GROUP
  5
45FEC
102
{ACAD_REACTORS
330
D
102
}
330
D
100
AcDbGroup
300

 70
     1
 71
     1
  0
GROUP
  5
47185
102
{ACAD_REACTORS
330
D
102
}
330
D
100
AcDbGroup
300

 70
     1
 71
     1
  0
GROUP
  5
53DBA
102
{ACAD_REACTORS
330
D
102
}
330
D
100
AcDbGroup
300

 70
     1
 71
     1
  0
GROUP
  5
35FE6
102
{ACAD_REACTORS
330
D
102
}
330
D
100
AcDbGroup
300

 70
     1
 71
     1
  0
GROUP
  5
461F6
102
{ACAD_REACTORS
330
D
102
}
330
D
100
AcDbGroup
300

 70
     1
 71
     1
  0
GROUP
  5
5B72A
102
{ACAD_REACTORS
330
D
102
}
330
D
100
AcDbGroup
300

 70
     1
 71
     1
  0
GROUP
  5
5B75E
102
{ACAD_REACTORS
330
D
102
}
330
D
100
AcDbGroup
300

 70
     1
 71
     1
  0
GROUP
  5
53B71
102
{ACAD_REACTORS
330
D
102
}
330
D
100
AcDbGroup
300

 70
     1
 71
     1
  0
GROUP
  5
45FE4
102
{ACAD_REACTORS
330
D
102
}
330
D
100
AcDbGroup
300

 70
     1
 71
     1
  0
GROUP
  5
2F117
102
{ACAD_REACTORS
330
D
102
}
330
D
100
AcDbGroup
300

 70
     1
 71
     1
  0
GROUP
  5
5B72B
102
{ACAD_REACTORS
330
D
102
}
330
D
100
AcDbGroup
300

 70
     1
 71
     1
  0
GROUP
  5
53DBC
102
{ACAD_REACTORS
330
D
102
}
330
D
100
AcDbGroup
300

 70
     1
 71
     1
  0
GROUP
  5
5B72C
102
{ACAD_REACTORS
330
D
102
}
330
D
100
AcDbGroup
300

 70
     1
 71
     1
  0
GROUP
  5
56C47
102
{ACAD_REACTORS
330
D
102
}
330
D
100
AcDbGroup
300

 70
     1
 71
     1
  0
GROUP
  5
53DB4
102
{ACAD_REACTORS
330
D
102
}
330
D
100
AcDbGroup
300

 70
     1
 71
     1
  0
GROUP
  5
34E2E
102
{ACAD_REACTORS
330
D
102
}
330
D
100
AcDbGroup
300

 70
     1
 71
     1
  0
GROUP
  5
5B72D
102
{ACAD_REACTORS
330
D
102
}
330
D
100
AcDbGroup
300

 70
     1
 71
     1
  0
GROUP
  5
5B72E
102
{ACAD_REACTORS
330
D
102
}
330
D
100
AcDbGroup
300

 70
     1
 71
     1
  0
GROUP
  5
580D4
102
{ACAD_REACTORS
330
D
102
}
330
D
100
AcDbGroup
300

 70
     1
 71
     1
  0
GROUP
  5
53DB5
102
{ACAD_REACTORS
330
D
102
}
330
D
100
AcDbGroup
300

 70
     1
 71
     1
  0
GROUP
  5
359FF
102
{ACAD_REACTORS
330
D
102
}
330
D
100
AcDbGroup
300

 70
     1
 71
     1
  0
GROUP
  5
5F6EC
102
{ACAD_REACTORS
330
D
102
}
330
D
100
AcDbGroup
300

 70
     1
 71
     1
  0
GROUP
  5
1DEDB
102
{ACAD_REACTORS
330
D
102
}
330
D
100
AcDbGroup
300

 70
     1
 71
     1
  0
GROUP
  5
41CDF
102
{ACAD_REACTORS
330
D
102
}
330
D
100
AcDbGroup
300

 70
     1
 71
     1
  0
GROUP
  5
5B732
102
{ACAD_REACTORS
330
D
102
}
330
D
100
AcDbGroup
300

 70
     1
 71
     1
  0
GROUP
  5
56B37
102
{ACAD_REACTORS
330
D
102
}
330
D
100
AcDbGroup
300

 70
     1
 71
     1
  0
GROUP
  5
1DC51
102
{ACAD_REACTORS
330
D
102
}
330
D
100
AcDbGroup
300

 70
     1
 71
     1
  0
GROUP
  5
5BEDE
102
{ACAD_REACTORS
330
D
102
}
330
D
100
AcDbGroup
300

 70
     1
 71
     1
  0
GROUP
  5
47000
102
{ACAD_REACTORS
330
D
102
}
330
D
100
AcDbGroup
300

 70
     1
 71
     1
  0
GROUP
  5
46176
102
{ACAD_REACTORS
330
D
102
}
330
D
100
AcDbGroup
300

 70
     1
 71
     1
  0
GROUP
  5
5C4BD
102
{ACAD_REACTORS
330
D
102
}
330
D
100
AcDbGroup
300

 70
     1
 71
     1
  0
GROUP
  5
57DDF
102
{ACAD_REACTORS
330
D
102
}
330
D
100
AcDbGroup
300

 70
     1
 71
     1
  0
GROUP
  5
465AC
102
{ACAD_REACTORS
330
D
102
}
330
D
100
AcDbGroup
300

 70
     1
 71
     1
  0
GROUP
  5
5B752
102
{ACAD_REACTORS
330
D
102
}
330
D
100
AcDbGroup
300

 70
     1
 71
     1
  0
GROUP
  5
5B753
102
{ACAD_REACTORS
330
D
102
}
330
D
100
AcDbGroup
300

 70
     1
 71
     1
  0
GROUP
  5
5B754
102
{ACAD_REACTORS
330
D
102
}
330
D
100
AcDbGroup
300

 70
     1
 71
     1
  0
GROUP
  5
53B80
102
{ACAD_REACTORS
330
D
102
}
330
D
100
AcDbGroup
300

 70
     1
 71
     1
  0
GROUP
  5
1DB77
102
{ACAD_REACTORS
330
D
102
}
330
D
100
AcDbGroup
300

 70
     1
 71
     1
  0
GROUP
  5
46ED5
102
{ACAD_REACTORS
330
D
102
}
330
D
100
AcDbGroup
300

 70
     1
 71
     1
  0
GROUP
  5
53B75
102
{ACAD_REACTORS
330
D
102
}
330
D
100
AcDbGroup
300

 70
     1
 71
     1
  0
GROUP
  5
5B755
102
{ACAD_REACTORS
330
D
102
}
330
D
100
AcDbGroup
300

 70
     1
 71
     1
  0
GROUP
  5
1DB76
102
{ACAD_REACTORS
330
D
102
}
330
D
100
AcDbGroup
300

 70
     1
 71
     1
  0
GROUP
  5
5B733
102
{ACAD_REACTORS
330
D
102
}
330
D
100
AcDbGroup
300

 70
     1
 71
     1
  0
GROUP
  5
25671
102
{ACAD_REACTORS
330
D
102
}
330
D
100
AcDbGroup
300

 70
     1
 71
     1
  0
GROUP
  5
36E3A
102
{ACAD_REACTORS
330
D
102
}
330
D
100
AcDbGroup
300

 70
     1
 71
     1
  0
GROUP
  5
5BE19
102
{ACAD_REACTORS
330
D
102
}
330
D
100
AcDbGroup
300

 70
     1
 71
     1
  0
GROUP
  5
2F112
102
{ACAD_REACTORS
330
D
102
}
330
D
100
AcDbGroup
300

 70
     1
 71
     1
  0
GROUP
  5
41CD3
102
{ACAD_REACTORS
330
D
102
}
330
D
100
AcDbGroup
300

 70
     1
 71
     1
  0
GROUP
  5
1D88B
102
{ACAD_REACTORS
330
D
102
}
330
D
100
AcDbGroup
300

 70
     1
 71
     1
  0
GROUP
  5
5B756
102
{ACAD_REACTORS
330
D
102
}
330
D
100
AcDbGroup
300

 70
     1
 71
     1
  0
GROUP
  5
57DDD
102
{ACAD_REACTORS
330
D
102
}
330
D
100
AcDbGroup
300

 70
     1
 71
     1
  0
GROUP
  5
37A87
102
{ACAD_REACTORS
330
D
102
}
330
D
100
AcDbGroup
300

 70
     1
 71
     1
  0
GROUP
  5
45FEE
102
{ACAD_REACTORS
330
D
102
}
330
D
100
AcDbGroup
300

 70
     1
 71
     1
  0
GROUP
  5
5B757
102
{ACAD_REACTORS
330
D
102
}
330
D
100
AcDbGroup
300

 70
     1
 71
     1
  0
GROUP
  5
5C4BE
102
{ACAD_REACTORS
330
D
102
}
330
D
100
AcDbGroup
300

 70
     1
 71
     1
  0
GROUP
  5
365D4
102
{ACAD_REACTORS
330
D
102
}
330
D
100
AcDbGroup
300

 70
     1
 71
     1
  0
GROUP
  5
45BD1
102
{ACAD_REACTORS
330
D
102
}
330
D
100
AcDbGroup
300

 70
     1
 71
     1
  0
GROUP
  5
5B758
102
{ACAD_REACTORS
330
D
102
}
330
D
100
AcDbGroup
300

 70
     1
 71
     1
  0
GROUP
  5
5613E
102
{ACAD_REACTORS
330
D
102
}
330
D
100
AcDbGroup
300

 70
     1
 71
     1
  0
GROUP
  5
5B759
102
{ACAD_REACTORS
330
D
102
}
330
D
100
AcDbGroup
300

 70
     1
 71
     1
  0
GROUP
  5
359FE
102
{ACAD_REACTORS
330
D
102
}
330
D
100
AcDbGroup
300

 70
     1
 71
     1
  0
GROUP
  5
465AA
102
{ACAD_REACTORS
330
D
102
}
330
D
100
AcDbGroup
300

 70
     1
 71
     1
  0
GROUP
  5
45188
102
{ACAD_REACTORS
330
D
102
}
330
D
100
AcDbGroup
300

 70
     1
 71
     1
  0
GROUP
  5
53B63
102
{ACAD_REACTORS
330
D
102
}
330
D
100
AcDbGroup
300

 70
     1
 71
     1
  0
GROUP
  5
5B75C
102
{ACAD_REACTORS
330
D
102
}
330
D
100
AcDbGroup
300

 70
     1
 71
     1
  0
GROUP
  5
3188F
102
{ACAD_REACTORS
330
D
102
}
330
D
100
AcDbGroup
300

 70
     1
 71
     1
  0
GROUP
  5
12398
102
{ACAD_REACTORS
330
D
102
}
330
D
100
AcDbGroup
300

 70
     1
 71
     1
  0
GROUP
  5
5C4BF
102
{ACAD_REACTORS
330
D
102
}
330
D
100
AcDbGroup
300

 70
     1
 71
     1
  0
GROUP
  5
25F63
102
{ACAD_REACTORS
330
D
102
}
330
D
100
AcDbGroup
300

 70
     1
 71
     1
  0
GROUP
  5
47187
102
{ACAD_REACTORS
330
D
102
}
330
D
100
AcDbGroup
300

 70
     1
 71
     1
  0
GROUP
  5
1B1C2
102
{ACAD_REACTORS
330
D
102
}
330
D
100
AcDbGroup
300

 70
     1
 71
     1
  0
GROUP
  5
256BB
102
{ACAD_REACTORS
330
D
102
}
330
D
100
AcDbGroup
300

 70
     1
 71
     1
  0
GROUP
  5
41CE9
102
{ACAD_REACTORS
330
D
102
}
330
D
100
AcDbGroup
300

 70
     1
 71
     1
  0
GROUP
  5
56B43
102
{ACAD_REACTORS
330
D
102
}
330
D
100
AcDbGroup
300

 70
     1
 71
     1
  0
GROUP
  5
1DFF1
102
{ACAD_REACTORS
330
D
102
}
330
D
100
AcDbGroup
300

 70
     1
 71
     1
  0
GROUP
  5
5BE1A
102
{ACAD_REACTORS
330
D
102
}
330
D
100
AcDbGroup
300

 70
     1
 71
     1
  0
GROUP
  5
4516A
102
{ACAD_REACTORS
330
D
102
}
330
D
100
AcDbGroup
300

 70
     1
 71
     1
  0
GROUP
  5
2548F
102
{ACAD_REACTORS
330
D
102
}
330
D
100
AcDbGroup
300

 70
     1
 71
     1
  0
GROUP
  5
36E5E
102
{ACAD_REACTORS
330
D
102
}
330
D
100
AcDbGroup
300

 70
     1
 71
     1
  0
GROUP
  5
1C759
102
{ACAD_REACTORS
330
D
102
}
330
D
100
AcDbGroup
300

 70
     1
 71
     1
  0
GROUP
  5
5B75D
102
{ACAD_REACTORS
330
D
102
}
330
D
100
AcDbGroup
300

 70
     1
 71
     1
  0
GROUP
  5
36A30
102
{ACAD_REACTORS
330
D
102
}
330
D
100
AcDbGroup
300

 70
     1
 71
     1
  0
GROUP
  5
37534
102
{ACAD_REACTORS
330
D
102
}
330
D
100
AcDbGroup
300

 70
     1
 71
     1
  0
GROUP
  5
56C48
102
{ACAD_REACTORS
330
D
102
}
330
D
100
AcDbGroup
300

 70
     1
 71
     1
  0
GROUP
  5
57CD1
102
{ACAD_REACTORS
330
D
102
}
330
D
100
AcDbGroup
300

 70
     1
 71
     1
  0
GROUP
  5
45C12
102
{ACAD_REACTORS
330
D
102
}
330
D
100
AcDbGroup
300

 70
     1
 71
     1
  0
GROUP
  5
57FEE
102
{ACAD_REACTORS
330
D
102
}
330
D
100
AcDbGroup
300

 70
     1
 71
     1
  0
GROUP
  5
53B6A
102
{ACAD_REACTORS
330
D
102
}
330
D
100
AcDbGroup
300

 70
     1
 71
     1
  0
GROUP
  5
45FE2
102
{ACAD_REACTORS
330
D
102
}
330
D
100
AcDbGroup
300

 70
     1
 71
     1
  0
GROUP
  5
5B739
102
{ACAD_REACTORS
330
D
102
}
330
D
100
AcDbGroup
300

 70
     1
 71
     1
  0
GROUP
  5
4408E
102
{ACAD_REACTORS
330
D
102
}
330
D
100
AcDbGroup
300

 70
     1
 71
     1
  0
GROUP
  5
457D8
102
{ACAD_REACTORS
330
D
102
}
330
D
100
AcDbGroup
300

 70
     1
 71
     1
  0
GROUP
  5
381C9
102
{ACAD_REACTORS
330
D
102
}
330
D
100
AcDbGroup
300

 70
     1
 71
     1
  0
GROUP
  5
41CDD
102
{ACAD_REACTORS
330
D
102
}
330
D
100
AcDbGroup
300

 70
     1
 71
     1
  0
GROUP
  5
41CE7
102
{ACAD_REACTORS
330
D
102
}
330
D
100
AcDbGroup
300

 70
     1
 71
     1
  0
GROUP
  5
53B7B
102
{ACAD_REACTORS
330
D
102
}
330
D
100
AcDbGroup
300

 70
     1
 71
     1
  0
GROUP
  5
46924
102
{ACAD_REACTORS
330
D
102
}
330
D
100
AcDbGroup
300

 70
     1
 71
     1
  0
GROUP
  5
1DED2
102
{ACAD_REACTORS
330
D
102
}
330
D
100
AcDbGroup
300

 70
     1
 71
     1
  0
GROUP
  5
60051
102
{ACAD_REACTORS
330
D
102
}
330
D
100
AcDbGroup
300

 70
     1
 71
     1
  0
GROUP
  5
1B423
102
{ACAD_REACTORS
330
D
102
}
330
D
100
AcDbGroup
300

 70
     1
 71
     1
  0
GROUP
  5
1DED5
102
{ACAD_REACTORS
330
D
102
}
330
D
100
AcDbGroup
300

 70
     1
 71
     1
  0
GROUP
  5
1B291
102
{ACAD_REACTORS
330
D
102
}
330
D
100
AcDbGroup
300

 70
     1
 71
     1
  0
GROUP
  5
5C7C3
102
{ACAD_REACTORS
330
D
102
}
330
D
100
AcDbGroup
300

 70
     1
 71
     1
  0
GROUP
  5
57617
102
{ACAD_REACTORS
330
D
102
}
330
D
100
AcDbGroup
300

 70
     1
 71
     1
  0
GROUP
  5
57DE5
102
{ACAD_REACTORS
330
D
102
}
330
D
100
AcDbGroup
300

 70
     1
 71
     1
  0
GROUP
  5
41CD9
102
{ACAD_REACTORS
330
D
102
}
330
D
100
AcDbGroup
300

 70
     1
 71
     1
  0
GROUP
  5
5BE1B
102
{ACAD_REACTORS
330
D
102
}
330
D
100
AcDbGroup
300

 70
     1
 71
     1
  0
GROUP
  5
5BE1E
102
{ACAD_REACTORS
330
D
102
}
330
D
100
AcDbGroup
300

 70
     1
 71
     1
  0
GROUP
  5
5BE21
102
{ACAD_REACTORS
330
D
102
}
330
D
100
AcDbGroup
300

 70
     1
 71
     1
  0
GROUP
  5
56D2C
102
{ACAD_REACTORS
330
D
102
}
330
D
100
AcDbGroup
300

 70
     1
 71
     1
  0
GROUP
  5
56C49
102
{ACAD_REACTORS
330
D
102
}
330
D
100
AcDbGroup
300

 70
     1
 71
     1
  0
GROUP
  5
53B7A
102
{ACAD_REACTORS
330
D
102
}
330
D
100
AcDbGroup
300

 70
     1
 71
     1
  0
GROUP
  5
3771C
102
{ACAD_REACTORS
330
D
102
}
330
D
100
AcDbGroup
300

 70
     1
 71
     1
  0
GROUP
  5
5BE32
102
{ACAD_REACTORS
330
D
102
}
330
D
100
AcDbGroup
300

 70
     1
 71
     1
  0
GROUP
  5
25A70
102
{ACAD_REACTORS
330
D
102
}
330
D
100
AcDbGroup
300

 70
     1
 71
     1
  0
GROUP
  5
5BE37
102
{ACAD_REACTORS
330
D
102
}
330
D
100
AcDbGroup
300

 70
     1
 71
     1
  0
GROUP
  5
5B73A
102
{ACAD_REACTORS
330
D
102
}
330
D
100
AcDbGroup
300

 70
     1
 71
     1
  0
GROUP
  5
5C4CE
102
{ACAD_REACTORS
330
D
102
}
330
D
100
AcDbGroup
300

 70
     1
 71
     1
  0
GROUP
  5
18049
102
{ACAD_REACTORS
330
D
102
}
330
D
100
AcDbGroup
300

 70
     1
 71
     1
  0
GROUP
  5
45B9C
102
{ACAD_REACTORS
330
D
102
}
330
D
100
AcDbGroup
300

 70
     1
 71
     1
  0
GROUP
  5
266EF
102
{ACAD_REACTORS
330
D
102
}
330
D
100
AcDbGroup
300

 70
     1
 71
     1
  0
GROUP
  5
53B70
102
{ACAD_REACTORS
330
D
102
}
330
D
100
AcDbGroup
300

 70
     1
 71
     1
  0
GROUP
  5
41CD1
102
{ACAD_REACTORS
330
D
102
}
330
D
100
AcDbGroup
300

 70
     1
 71
     1
  0
GROUP
  5
5B8A3
102
{ACAD_REACTORS
330
D
102
}
330
D
100
AcDbGroup
300

 70
     1
 71
     1
  0
GROUP
  5
37536
102
{ACAD_REACTORS
330
D
102
}
330
D
100
AcDbGroup
300

 70
     1
 71
     1
  0
GROUP
  5
2674A
102
{ACAD_REACTORS
330
D
102
}
330
D
100
AcDbGroup
300

 70
     1
 71
     1
  0
GROUP
  5
5BE38
102
{ACAD_REACTORS
330
D
102
}
330
D
100
AcDbGroup
300

 70
     1
 71
     1
  0
GROUP
  5
46E59
102
{ACAD_REACTORS
330
D
102
}
330
D
100
AcDbGroup
300

 70
     1
 71
     1
  0
GROUP
  5
3144B
102
{ACAD_REACTORS
330
D
102
}
330
D
100
AcDbGroup
300

 70
     1
 71
     1
  0
GROUP
  5
37F15
102
{ACAD_REACTORS
330
D
102
}
330
D
100
AcDbGroup
300

 70
     1
 71
     1
  0
GROUP
  5
5BE3D
102
{ACAD_REACTORS
330
D
102
}
330
D
100
AcDbGroup
300

 70
     1
 71
     1
  0
GROUP
  5
465A4
102
{ACAD_REACTORS
330
D
102
}
330
D
100
AcDbGroup
300

 70
     1
 71
     1
  0
GROUP
  5
45FF0
102
{ACAD_REACTORS
330
D
102
}
330
D
100
AcDbGroup
300

 70
     1
 71
     1
  0
GROUP
  5
5B735
102
{ACAD_REACTORS
330
D
102
}
330
D
100
AcDbGroup
300

 70
     1
 71
     1
  0
GROUP
  5
5BEDF
102
{ACAD_REACTORS
330
D
102
}
330
D
100
AcDbGroup
300

 70
     1
 71
     1
  0
GROUP
  5
46FFE
102
{ACAD_REACTORS
330
D
102
}
330
D
100
AcDbGroup
300

 70
     1
 71
     1
  0
GROUP
  5
45A89
102
{ACAD_REACTORS
330
D
102
}
330
D
100
AcDbGroup
300

 70
     1
 71
     1
  0
GROUP
  5
123AC
102
{ACAD_REACTORS
330
D
102
}
330
D
100
AcDbGroup
300

 70
     1
 71
     1
  0
GROUP
  5
56C4C
102
{ACAD_REACTORS
330
D
102
}
330
D
100
AcDbGroup
300

 70
     1
 71
     1
  0
GROUP
  5
56C4F
102
{ACAD_REACTORS
330
D
102
}
330
D
100
AcDbGroup
300

 70
     1
 71
     1
  0
GROUP
  5
56580
102
{ACAD_REACTORS
330
D
102
}
330
D
100
AcDbGroup
300

 70
     1
 71
     1
  0
GROUP
  5
5C4D6
102
{ACAD_REACTORS
330
D
102
}
330
D
100
AcDbGroup
300

 70
     1
 71
     1
  0
GROUP
  5
31877
102
{ACAD_REACTORS
330
D
102
}
330
D
100
AcDbGroup
300

 70
     1
 71
     1
  0
GROUP
  5
2F118
102
{ACAD_REACTORS
330
D
102
}
330
D
100
AcDbGroup
300

 70
     1
 71
     1
  0
GROUP
  5
471A7
102
{ACAD_REACTORS
330
D
102
}
330
D
100
AcDbGroup
300

 70
     1
 71
     1
  0
GROUP
  5
53B73
102
{ACAD_REACTORS
330
D
102
}
330
D
100
AcDbGroup
300

 70
     1
 71
     1
  0
GROUP
  5
5B948
102
{ACAD_REACTORS
330
D
102
}
330
D
100
AcDbGroup
300

 70
     1
 71
     1
  0
GROUP
  5
58159
102
{ACAD_REACTORS
330
D
102
}
330
D
100
AcDbGroup
300

 70
     1
 71
     1
  0
GROUP
  5
5BEE2
102
{ACAD_REACTORS
330
D
102
}
330
D
100
AcDbGroup
300

 70
     1
 71
     1
  0
GROUP
  5
41CD7
102
{ACAD_REACTORS
330
D
102
}
330
D
100
AcDbGroup
300

 70
     1
 71
     1
  0
GROUP
  5
45FE8
102
{ACAD_REACTORS
330
D
102
}
330
D
100
AcDbGroup
300

 70
     1
 71
     1
  0
GROUP
  5
1DC4E
102
{ACAD_REACTORS
330
D
102
}
330
D
100
AcDbGroup
300

 70
     1
 71
     1
  0
GROUP
  5
1D97A
102
{ACAD_REACTORS
330
D
102
}
330
D
100
AcDbGroup
300

 70
     1
 71
     1
  0
GROUP
  5
26057
102
{ACAD_REACTORS
330
D
102
}
330
D
100
AcDbGroup
300

 70
     1
 71
     1
  0
GROUP
  5
465A7
102
{ACAD_REACTORS
330
D
102
}
330
D
100
AcDbGroup
300

 70
     1
 71
     1
  0
GROUP
  5
1B252
102
{ACAD_REACTORS
330
D
102
}
330
D
100
AcDbGroup
300

 70
     1
 71
     1
  0
GROUP
  5
1E009
102
{ACAD_REACTORS
330
D
102
}
330
D
100
AcDbGroup
300

 70
     1
 71
     1
  0
GROUP
  5
1DEED
102
{ACAD_REACTORS
330
D
102
}
330
D
100
AcDbGroup
300

 70
     1
 71
     1
  0
GROUP
  5
53B64
102
{ACAD_REACTORS
330
D
102
}
330
D
100
AcDbGroup
300

 70
     1
 71
     1
  0
GROUP
  5
56D1A
102
{ACAD_REACTORS
330
D
102
}
330
D
100
AcDbGroup
300

 70
     1
 71
     1
  0
GROUP
  5
5B73D
102
{ACAD_REACTORS
330
D
102
}
330
D
100
AcDbGroup
300

 70
     1
 71
     1
  0
GROUP
  5
5B740
102
{ACAD_REACTORS
330
D
102
}
330
D
100
AcDbGroup
300

 70
     1
 71
     1
  0
GROUP
  5
5B75F
102
{ACAD_REACTORS
330
D
102
}
330
D
100
AcDbGroup
300

 70
     1
 71
     1
  0
GROUP
  5
56D1C
102
{ACAD_REACTORS
330
D
102
}
330
D
100
AcDbGroup
300

 70
     1
 71
     1
  0
GROUP
  5
53B76
102
{ACAD_REACTORS
330
D
102
}
330
D
100
AcDbGroup
300

 70
     1
 71
     1
  0
GROUP
  5
5C4DC
102
{ACAD_REACTORS
330
D
102
}
330
D
100
AcDbGroup
300

 70
     1
 71
     1
  0
GROUP
  5
5C4E2
102
{ACAD_REACTORS
330
D
102
}
330
D
100
AcDbGroup
300

 70
     1
 71
     1
  0
GROUP
  5
5C4E8
102
{ACAD_REACTORS
330
D
102
}
330
D
100
AcDbGroup
300

 70
     1
 71
     1
  0
GROUP
  5
41CD5
102
{ACAD_REACTORS
330
D
102
}
330
D
100
AcDbGroup
300

 70
     1
 71
     1
  0
GROUP
  5
1B2FE
102
{ACAD_REACTORS
330
D
102
}
330
D
100
AcDbGroup
300

 70
     1
 71
     1
  0
GROUP
  5
36F16
102
{ACAD_REACTORS
330
D
102
}
330
D
100
AcDbGroup
300

 70
     1
 71
     1
  0
GROUP
  5
465AD
102
{ACAD_REACTORS
330
D
102
}
330
D
100
AcDbGroup
300

 70
     1
 71
     1
  0
GROUP
  5
5C4EE
102
{ACAD_REACTORS
330
D
102
}
330
D
100
AcDbGroup
300

 70
     1
 71
     1
  0
GROUP
  5
58148
102
{ACAD_REACTORS
330
D
102
}
330
D
100
AcDbGroup
300

 70
     1
 71
     1
  0
GROUP
  5
35A00
102
{ACAD_REACTORS
330
D
102
}
330
D
100
AcDbGroup
300

 70
     1
 71
     1
  0
GROUP
  5
46933
102
{ACAD_REACTORS
330
D
102
}
330
D
100
AcDbGroup
300

 70
     1
 71
     1
  0
GROUP
  5
254CF
102
{ACAD_REACTORS
330
D
102
}
330
D
100
AcDbGroup
300

 70
     1
 71
     1
  0
GROUP
  5
1B058
102
{ACAD_REACTORS
330
D
102
}
330
D
100
AcDbGroup
300

 70
     1
 71
     1
  0
GROUP
  5
53B5D
102
{ACAD_REACTORS
330
D
102
}
330
D
100
AcDbGroup
300

 70
     1
 71
     1
  0
GROUP
  5
2468D
102
{ACAD_REACTORS
330
D
102
}
330
D
100
AcDbGroup
300

 70
     1
 71
     1
  0
GROUP
  5
5BEF0
102
{ACAD_REACTORS
330
D
102
}
330
D
100
AcDbGroup
300

 70
     1
 71
     1
  0
GROUP
  5
5B741
102
{ACAD_REACTORS
330
D
102
}
330
D
100
AcDbGroup
300

 70
     1
 71
     1
  0
GROUP
  5
5C4F5
102
{ACAD_REACTORS
330
D
102
}
330
D
100
AcDbGroup
300

 70
     1
 71
     1
  0
GROUP
  5
36157
102
{ACAD_REACTORS
330
D
102
}
330
D
100
AcDbGroup
300

 70
     1
 71
     1
  0
GROUP
  5
37F2D
102
{ACAD_REACTORS
330
D
102
}
330
D
100
AcDbGroup
300

 70
     1
 71
     1
  0
GROUP
  5
5C4FB
102
{ACAD_REACTORS
330
D
102
}
330
D
100
AcDbGroup
300

 70
     1
 71
     1
  0
GROUP
  5
1DAF2
102
{ACAD_REACTORS
330
D
102
}
330
D
100
AcDbGroup
300

 70
     1
 71
     1
  0
GROUP
  5
1ACA9
102
{ACAD_REACTORS
330
D
102
}
330
D
100
AcDbGroup
300

 70
     1
 71
     1
  0
GROUP
  5
1AE3C
102
{ACAD_REACTORS
330
D
102
}
330
D
100
AcDbGroup
300

 70
     1
 71
     1
  0
GROUP
  5
5C7C4
102
{ACAD_REACTORS
330
D
102
}
330
D
100
AcDbGroup
300

 70
     1
 71
     1
  0
GROUP
  5
26290
102
{ACAD_REACTORS
330
D
102
}
330
D
100
AcDbGroup
300

 70
     1
 71
     1
  0
GROUP
  5
1B1C9
102
{ACAD_REACTORS
330
D
102
}
330
D
100
AcDbGroup
300

 70
     1
 71
     1
  0
GROUP
  5
47188
102
{ACAD_REACTORS
330
D
102
}
330
D
100
AcDbGroup
300

 70
     1
 71
     1
  0
GROUP
  5
53B67
102
{ACAD_REACTORS
330
D
102
}
330
D
100
AcDbGroup
300

 70
     1
 71
     1
  0
GROUP
  5
47189
102
{ACAD_REACTORS
330
D
102
}
330
D
100
AcDbGroup
300

 70
     1
 71
     1
  0
GROUP
  5
465A5
102
{ACAD_REACTORS
330
D
102
}
330
D
100
AcDbGroup
300

 70
     1
 71
     1
  0
GROUP
  5
54EAF
102
{ACAD_REACTORS
330
D
102
}
330
D
100
AcDbGroup
300

 70
     1
 71
     1
  0
GROUP
  5
36151
102
{ACAD_REACTORS
330
D
102
}
330
D
100
AcDbGroup
300

 70
     1
 71
     1
  0
GROUP
  5
2515F
102
{ACAD_REACTORS
330
D
102
}
330
D
100
AcDbGroup
300

 70
     1
 71
     1
  0
GROUP
  5
5BF01
102
{ACAD_REACTORS
330
D
102
}
330
D
100
AcDbGroup
300

 70
     1
 71
     1
  0
GROUP
  5
5C7C5
102
{ACAD_REACTORS
330
D
102
}
330
D
100
AcDbGroup
300

 70
     1
 71
     1
  0
GROUP
  5
1ADB6
102
{ACAD_REACTORS
330
D
102
}
330
D
100
AcDbGroup
300

 70
     1
 71
     1
  0
GROUP
  5
568E1
102
{ACAD_REACTORS
330
D
102
}
330
D
100
AcDbGroup
300

 70
     1
 71
     1
  0
GROUP
  5
46EAB
102
{ACAD_REACTORS
330
D
102
}
330
D
100
AcDbGroup
300

 70
     1
 71
     1
  0
GROUP
  5
1801E
102
{ACAD_REACTORS
330
D
102
}
330
D
100
AcDbGroup
300

 70
     1
 71
     1
  0
GROUP
  5
1DEDA
102
{ACAD_REACTORS
330
D
102
}
330
D
100
AcDbGroup
300

 70
     1
 71
     1
  0
GROUP
  5
4718A
102
{ACAD_REACTORS
330
D
102
}
330
D
100
AcDbGroup
300

 70
     1
 71
     1
  0
GROUP
  5
1B231
102
{ACAD_REACTORS
330
D
102
}
330
D
100
AcDbGroup
300

 70
     1
 71
     1
  0
GROUP
  5
45742
102
{ACAD_REACTORS
330
D
102
}
330
D
100
AcDbGroup
300

 70
     1
 71
     1
  0
GROUP
  5
1DF6F
102
{ACAD_REACTORS
330
D
102
}
330
D
100
AcDbGroup
300

 70
     1
 71
     1
  0
GROUP
  5
53B6F
102
{ACAD_REACTORS
330
D
102
}
330
D
100
AcDbGroup
300

 70
     1
 71
     1
  0
LAYOUT
  5
A789
102
{ACAD_XDICTIONARY
360
64970
102
}
102
{ACAD_REACTORS
330
A787
102
}
330
A787
100
AcDbPlotSettings
  1

  2
A3pdf横ｶﾗｰ.pc3
  4
User-1
  6

 40
3.174999952316284
 41
3.174999952316284
 42
3.17498779296875
 43
3.17498779296875
 44
420.1583251953125
 45
297.0530090332031
 46
0.0
 47
0.0
 48
0.0
 49
0.0
140
0.0
141
0.0
142
1.0
143
1.0
 70
 11952
 72
     1
 73
     0
 74
     2
  7
tmi_penstyle.ctb
 75
    16
147
1.0
148
0.0
149
0.0
100
AcDbLayout
  1
Model
 70
     1
 71
     0
 10
0.0
 20
0.0
 11
12.0
 21
9.0
 12
0.0
 22
0.0
 32
0.0
 14
0.0
 24
0.0
 34
0.0
 15
0.0
 25
0.0
 35
0.0
146
0.0
 13
0.0
 23
0.0
 33
0.0
 16
1.0
 26
0.0
 36
0.0
 17
0.0
 27
1.0
 37
0.0
 76
     0
330
1A
  0
LAYOUT
  5
A78A
102
{ACAD_XDICTIONARY
360
64972
102
}
102
{ACAD_REACTORS
330
A787
102
}
330
A787
100
AcDbPlotSettings
  1

  2
EPSON LP-8300 (TMINETWORK)
  4

  6

 40
0.0
 41
0.0
 42
0.0
 43
0.0
 44
0.0
 45
0.0
 46
0.0
 47
0.0
 48
0.0
 49
0.0
140
0.0
141
0.0
142
1.0
143
1.0
 70
   688
 72
     0
 73
     0
 74
     5
  7
tmi_penstyle.ctb
 75
    16
147
1.0
148
0.0
149
0.0
100
AcDbLayout
  1
ﾚｲｱｳﾄ1
 70
     1
 71
     1
 10
0.0
 20
0.0
 11
420.0
 21
297.0
 12
0.0
 22
0.0
 32
0.0
 14
1.000000000000000E+20
 24
1.000000000000000E+20
 34
1.000000000000000E+20
 15
-1.000000000000000E+20
 25
-1.000000000000000E+20
 35
-1.000000000000000E+20
146
0.0
 13
0.0
 23
0.0
 33
0.0
 16
1.0
 26
0.0
 36
0.0
 17
0.0
 27
1.0
 37
0.0
 76
     0
330
17
331
22
  0
MATERIAL
  5
1D170
102
{ACAD_XDICTIONARY
360
1D171
102
}
102
{ACAD_REACTORS
330
A8AD
102
}
330
A8AD
100
AcDbMaterial
  1
Global
  0
MLINESTYLE
  5
13
102
{ACAD_REACTORS
330
E
102
}
330
E
100
AcDbMlineStyle
  2
STANDARD
 70
     0
  3

 62
     0
 51
90.0
 52
90.0
 71
     2
 49
0.5
 62
   256
  6
BYLAYER
 49
-0.5
 62
   256
  6
BYLAYER
  0
ACDBPLACEHOLDER
  5
A786
102
{ACAD_REACTORS
330
A785
102
}
330
A785
  0
XRECORD
  5
6496D
102
{ACAD_REACTORS
330
6496B
102
}
330
6496B
100
AcDbXrecord
280
     1
340
A8AE
  0
XRECORD
  5
6496C
102
{ACAD_REACTORS
330
6496B
102
}
330
6496B
100
AcDbXrecord
280
     1
340
A8AD
  0
DICTIONARYVAR
  5
A78F
102
{ACAD_REACTORS
330
A1A6
102
}
330
A1A6
100
DictionaryVariables
280
     0
  1
1
  0
DICTIONARYVAR
  5
64969
102
{ACAD_REACTORS
330
A1A6
102
}
330
A1A6
100
DictionaryVariables
280
     0
  1

  0
DICTIONARYVAR
  5
A1A7
102
{ACAD_REACTORS
330
A1A6
102
}
330
A1A6
100
DictionaryVariables
280
     0
  1
127
  0
DICTIONARY
  5
64970
330
A789
100
AcDbDictionary
280
     1
281
     1
  3
ACAD_XREC_ROUNDTRIP
360
64971
  0
DICTIONARY
  5
64972
330
A78A
100
AcDbDictionary
280
     1
281
     1
  3
ACAD_XREC_ROUNDTRIP
360
64973
  0
DICTIONARY
  5
1D171
330
1D170
100
AcDbDictionary
280
     1
281
     1
  3
ACAD_XREC_ROUNDTRIP
360
1D172
  0
XRECORD
  5
64971
102
{ACAD_REACTORS
330
64970
102
}
330
64970
100
AcDbXrecord
280
     1
102
SHADEPLOT
 70
     0
102
SHADEPLOTRESLEVEL
 70
     2
102
SHADEPLOTCUSTOMDPI
 70
   300
  0
XRECORD
  5
64973
102
{ACAD_REACTORS
330
64972
102
}
330
64972
100
AcDbXrecord
280
     1
102
SHADEPLOT
 70
     0
102
SHADEPLOTRESLEVEL
 70
     2
102
SHADEPLOTCUSTOMDPI
 70
   300
  0
XRECORD
  5
1D172
102
{ACAD_REACTORS
330
1D171
102
}
330
1D171
100
AcDbXrecord
280
     1
102
MATERIAL
148
0.0
149
0.0
149
0.0
 93
        0
 94
       63
282
     0
 72
     1
 77
     1
171
     1
175
     1
179
     1
273
     0
  0
ENDSEC
  0
EOF
