  0
SECTION
  2
HEADER
  9
$ACADVER
  1
AC1015
  9
$ACADMAINTVER
 70
    20
  9
$DWGCODEPAGE
  3
ANSI_932
  9
$INSBASE
 10
0.0
 20
0.0
 30
0.0
  9
$EXTMIN
 10
20.0
 20
5.0
 30
0.0
  9
$EXTMAX
 10
405.0
 20
280.0
 30
0.0
  9
$LIMMIN
 10
0.0
 20
0.0
  9
$LIMMAX
 10
420.0
 20
297.0
  9
$ORTHOMODE
 70
     0
  9
$REGENMODE
 70
     1
  9
$FILLMODE
 70
     1
  9
$QTEXTMODE
 70
     0
  9
$MIRRTEXT
 70
     1
  9
$LTSCALE
 40
15.0
  9
$ATTMODE
 70
     1
  9
$TEXTSIZE
 40
10.0
  9
$TRACEWID
 40
1.0
  9
$TEXTSTYLE
  7
STANDARD
  9
$CLAYER
  8
0
  9
$CELTYPE
  6
BYLAYER
  9
$CECOLOR
 62
   256
  9
$CELTSCALE
 40
1.0
  9
$DISPSILH
 70
     0
  9
$DIMSCALE
 40
1.0
  9
$DIMASZ
 40
2.5
  9
$DIMEXO
 40
0.5
  9
$DIMDLI
 40
10.0
  9
$DIMRND
 40
0.0
  9
$DIMDLE
 40
0.0
  9
$DIMEXE
 40
0.5
  9
$DIMTP
 40
0.0
  9
$DIMTM
 40
0.0
  9
$DIMTXT
 40
2.5
  9
$DIMCEN
 40
0.0
  9
$DIMTSZ
 40
0.0
  9
$DIMTOL
 70
     0
  9
$DIMLIM
 70
     0
  9
$DIMTIH
 70
     0
  9
$DIMTOH
 70
     0
  9
$DIMSE1
 70
     0
  9
$DIMSE2
 70
     0
  9
$DIMTAD
 70
     1
  9
$DIMZIN
 70
     0
  9
$DIMBLK
  1

  9
$DIMASO
 70
     1
  9
$DIMSHO
 70
     1
  9
$DIMPOST
  1

  9
$DIMAPOST
  1

  9
$DIMALT
 70
     0
  9
$DIMALTD
 70
     2
  9
$DIMALTF
 40
25.4
  9
$DIMLFAC
 40
1.0
  9
$DIMTOFL
 70
     0
  9
$DIMTVP
 40
0.0
  9
$DIMTIX
 70
     0
  9
$DIMSOXD
 70
     0
  9
$DIMSAH
 70
     1
  9
$DIMBLK1
  1
OPEN
  9
$DIMBLK2
  1
OPEN
  9
$DIMSTYLE
  2
STANDARD
  9
$DIMCLRD
 70
     0
  9
$DIMCLRE
 70
     0
  9
$DIMCLRT
 70
     0
  9
$DIMTFAC
 40
1.0
  9
$DIMGAP
 40
0.5
  9
$DIMJUST
 70
     0
  9
$DIMSD1
 70
     0
  9
$DIMSD2
 70
     0
  9
$DIMTOLJ
 70
     1
  9
$DIMTZIN
 70
     0
  9
$DIMALTZ
 70
     0
  9
$DIMALTTZ
 70
     0
  9
$DIMUPT
 70
     0
  9
$DIMDEC
 70
     2
  9
$DIMTDEC
 70
     0
  9
$DIMALTU
 70
     2
  9
$DIMALTTD
 70
     2
  9
$DIMTXSTY
  7
STANDARD
  9
$DIMAUNIT
 70
     0
  9
$DIMADEC
 70
     0
  9
$DIMALTRND
 40
0.0
  9
$DIMAZIN
 70
     0
  9
$DIMDSEP
 70
    46
  9
$DIMATFIT
 70
     3
  9
$DIMFRAC
 70
     0
  9
$DIMLDRBLK
  1
OPEN
  9
$DIMLUNIT
 70
     2
  9
$DIMLWD
 70
    -2
  9
$DIMLWE
 70
    -2
  9
$DIMTMOVE
 70
     0
  9
$LUNITS
 70
     2
  9
$LUPREC
 70
     4
  9
$SKETCHINC
 40
1.0
  9
$FILLETRAD
 40
3.0
  9
$AUNITS
 70
     0
  9
$AUPREC
 70
     0
  9
$MENU
  1
.
  9
$ELEVATION
 40
0.0
  9
$PELEVATION
 40
0.0
  9
$THICKNESS
 40
0.0
  9
$LIMCHECK
 70
     0
  9
$CHAMFERA
 40
0.5
  9
$CHAMFERB
 40
0.5
  9
$CHAMFERC
 40
20.0
  9
$CHAMFERD
 40
0.0
  9
$SKPOLY
 70
     0
  9
$TDCREATE
 40
2450857.620429745
  9
$TDUCREATE
 40
2450857.245429745
  9
$TDUPDATE
 40
2456914.540404178
  9
$TDUUPDATE
 40
2456914.165404178
  9
$TDINDWG
 40
6.6395118866
  9
$TDUSRTIMER
 40
6.6395118866
  9
$USRTIMER
 70
     1
  9
$ANGBASE
 50
0.0
  9
$ANGDIR
 70
     0
  9
$PDMODE
 70
     0
  9
$PDSIZE
 40
0.0
  9
$PLINEWID
 40
0.0
  9
$SPLFRAME
 70
     0
  9
$SPLINETYPE
 70
     6
  9
$SPLINESEGS
 70
     8
  9
$HANDSEED
  5
D388
  9
$SURFTAB1
 70
     6
  9
$SURFTAB2
 70
     6
  9
$SURFTYPE
 70
     6
  9
$SURFU
 70
     6
  9
$SURFV
 70
     6
  9
$UCSBASE
  2

  9
$UCSNAME
  2

  9
$UCSORG
 10
0.0
 20
0.0
 30
0.0
  9
$UCSXDIR
 10
1.0
 20
0.0
 30
0.0
  9
$UCSYDIR
 10
0.0
 20
1.0
 30
0.0
  9
$UCSORTHOREF
  2

  9
$UCSORTHOVIEW
 70
     0
  9
$UCSORGTOP
 10
0.0
 20
0.0
 30
0.0
  9
$UCSORGBOTTOM
 10
0.0
 20
0.0
 30
0.0
  9
$UCSORGLEFT
 10
0.0
 20
0.0
 30
0.0
  9
$UCSORGRIGHT
 10
0.0
 20
0.0
 30
0.0
  9
$UCSORGFRONT
 10
0.0
 20
0.0
 30
0.0
  9
$UCSORGBACK
 10
0.0
 20
0.0
 30
0.0
  9
$PUCSBASE
  2

  9
$PUCSNAME
  2

  9
$PUCSORG
 10
0.0
 20
0.0
 30
0.0
  9
$PUCSXDIR
 10
1.0
 20
0.0
 30
0.0
  9
$PUCSYDIR
 10
0.0
 20
1.0
 30
0.0
  9
$PUCSORTHOREF
  2

  9
$PUCSORTHOVIEW
 70
     0
  9
$PUCSORGTOP
 10
0.0
 20
0.0
 30
0.0
  9
$PUCSORGBOTTOM
 10
0.0
 20
0.0
 30
0.0
  9
$PUCSORGLEFT
 10
0.0
 20
0.0
 30
0.0
  9
$PUCSORGRIGHT
 10
0.0
 20
0.0
 30
0.0
  9
$PUCSORGFRONT
 10
0.0
 20
0.0
 30
0.0
  9
$PUCSORGBACK
 10
0.0
 20
0.0
 30
0.0
  9
$USERI1
 70
     0
  9
$USERI2
 70
     0
  9
$USERI3
 70
     0
  9
$USERI4
 70
     0
  9
$USERI5
 70
     0
  9
$USERR1
 40
0.0
  9
$USERR2
 40
0.0
  9
$USERR3
 40
0.0
  9
$USERR4
 40
0.0
  9
$USERR5
 40
0.0
  9
$WORLDVIEW
 70
     1
  9
$SHADEDGE
 70
     3
  9
$SHADEDIF
 70
    70
  9
$TILEMODE
 70
     1
  9
$MAXACTVP
 70
    16
  9
$PINSBASE
 10
0.0
 20
0.0
 30
0.0
  9
$PLIMCHECK
 70
     0
  9
$PEXTMIN
 10
1.000000000000000E+20
 20
1.000000000000000E+20
 30
1.000000000000000E+20
  9
$PEXTMAX
 10
-1.000000000000000E+20
 20
-1.000000000000000E+20
 30
-1.000000000000000E+20
  9
$PLIMMIN
 10
0.0
 20
0.0
  9
$PLIMMAX
 10
420.0
 20
297.0
  9
$UNITMODE
 70
     0
  9
$VISRETAIN
 70
     0
  9
$PLINEGEN
 70
     0
  9
$PSLTSCALE
 70
     1
  9
$TREEDEPTH
 70
  3020
  9
$CMLSTYLE
  2
STANDARD
  9
$CMLJUST
 70
     0
  9
$CMLSCALE
 40
1.0
  9
$PROXYGRAPHICS
 70
     1
  9
$MEASUREMENT
 70
     1
  9
$CELWEIGHT
370
    -1
  9
$ENDCAPS
280
     0
  9
$JOINSTYLE
280
     0
  9
$LWDISPLAY
290
     0
  9
$INSUNITS
 70
     0
  9
$HYPERLINKBASE
  1

  9
$STYLESHEET
  1
TMI_pen_style.ctb
  9
$XEDIT
290
     1
  9
$CEPSNTYPE
380
     0
  9
$PSTYLEMODE
290
     1
  9
$FINGERPRINTGUID
  2
{D240549C-E1BE-417A-8DE2-1C3C8C1D75C3}
  9
$VERSIONGUID
  2
{727616C1-233B-4E75-B3FA-42AF4C1A5B54}
  9
$EXTNAMES
290
     1
  9
$PSVPSCALE
 40
0.0
  9
$OLESTARTUP
290
     0
  0
ENDSEC
  0
SECTION
  2
CLASSES
  0
CLASS
  1
ACDBDICTIONARYWDFLT
  2
AcDbDictionaryWithDefault
  3
ObjectDBX Classes
 90
        0
280
     0
281
     0
  0
CLASS
  1
ACDBPLACEHOLDER
  2
AcDbPlaceHolder
  3
ObjectDBX Classes
 90
        0
280
     0
281
     0
  0
CLASS
  1
LAYOUT
  2
AcDbLayout
  3
ObjectDBX Classes
 90
        0
280
     0
281
     0
  0
CLASS
  1
DICTIONARYVAR
  2
AcDbDictionaryVar
  3
ObjectDBX Classes
 90
        0
280
     0
281
     0
  0
CLASS
  1
SORTENTSTABLE
  2
AcDbSortentsTable
  3
ObjectDBX Classes
 90
    32768
280
     0
281
     0
  0
ENDSEC
  0
SECTION
  2
TABLES
  0
TABLE
  2
VPORT
  5
8
330
0
100
AcDbSymbolTable
 70
     2
  0
VPORT
  5
D37E
330
8
100
AcDbSymbolTableRecord
100
AcDbViewportTableRecord
  2
*Active
 70
     0
 10
0.0
 20
0.0
 11
1.0
 21
1.0
 12
238.8949708526319
 22
142.5066153695883
 13
0.0
 23
0.0
 14
0.5
 24
0.5
 15
5.0
 25
5.0
 16
0.0
 26
0.0
 36
1.0
 17
0.0
 27
0.0
 37
0.0
 40
277.1073214196921
 41
1.68796992481203
 42
50.0
 43
0.0
 44
0.0
 50
0.0
 51
0.0
 71
     0
 72
   100
 73
     1
 74
     0
 75
     1
 76
     1
 77
     0
 78
     0
281
     0
 65
     1
110
0.0
120
0.0
130
0.0
111
1.0
121
0.0
131
0.0
112
0.0
122
1.0
132
0.0
 79
     0
146
0.0
  0
ENDTAB
  0
TABLE
  2
LTYPE
  5
5
330
0
100
AcDbSymbolTable
 70
     6
  0
LTYPE
  5
14
330
5
100
AcDbSymbolTableRecord
100
AcDbLinetypeTableRecord
  2
BYBLOCK
 70
     0
  3

 72
    65
 73
     0
 40
0.0
  0
LTYPE
  5
15
330
5
100
AcDbSymbolTableRecord
100
AcDbLinetypeTableRecord
  2
BYLAYER
 70
     0
  3

 72
    65
 73
     0
 40
0.0
  0
LTYPE
  5
16
330
5
100
AcDbSymbolTableRecord
100
AcDbLinetypeTableRecord
  2
CONTINUOUS
 70
     0
  3
Solid line
 72
    65
 73
     0
 40
0.0
  0
LTYPE
  5
61
330
5
100
AcDbSymbolTableRecord
100
AcDbLinetypeTableRecord
  2
CENTER2
 70
     0
  3
___ _ ___ _ ___ _ ___ _ ___ _ ___ _ ___ _ ___ _
 72
    65
 73
     4
 40
1.125
 49
0.75
 74
     0
 49
-0.125
 74
     0
 49
0.125
 74
     0
 49
-0.125
 74
     0
  0
LTYPE
  5
62
330
5
100
AcDbSymbolTableRecord
100
AcDbLinetypeTableRecord
  2
DASHED2
 70
     0
  3
_ _ _ _ _ _ _ _ _ _ _ _ _ _ _ _ _ _ _ _ _ _ _ _
 72
    65
 73
     2
 40
0.375
 49
0.25
 74
     0
 49
-0.125
 74
     0
  0
LTYPE
  5
B42F
330
5
100
AcDbSymbolTableRecord
100
AcDbLinetypeTableRecord
  2
AM_ISO08W050
 70
     0
  3
____ . ____ . ____ . ____ . ____ . ____ . ____
 72
    65
 73
     4
 40
18.0
 49
12.0
 74
     0
 49
-1.5
 74
     0
 49
3.0
 74
     0
 49
-1.5
 74
     0
  0
LTYPE
  5
B430
330
5
100
AcDbSymbolTableRecord
100
AcDbLinetypeTableRecord
  2
ACISOTGB
 70
     0
  3
__ . . __ . .
 72
    65
 73
     6
 40
9.0
 49
4.0
 74
     0
 49
-1.0
 74
     0
 49
1.0
 74
     0
 49
-1.0
 74
     0
 49
1.0
 74
     0
 49
-1.0
 74
     0
  0
LTYPE
  5
C4FC
330
5
100
AcDbSymbolTableRecord
100
AcDbLinetypeTableRecord
  2
DOT
 70
     0
  3
・・・・・・・・・・・・・・・
 72
    65
 73
     2
 40
6.5
 49
0.1
 74
     0
 49
-6.4
 74
     0
  0
ENDTAB
  0
TABLE
  2
LAYER
  5
2
102
{ACAD_XDICTIONARY
360
B43B
102
}
330
0
100
AcDbSymbolTable
 70
    15
  0
LAYER
  5
F
330
2
100
AcDbSymbolTableRecord
100
AcDbLayerTableRecord
  2
0
 70
     0
 62
     7
  6
CONTINUOUS
370
    -3
390
6F5F
  0
LAYER
  5
63
330
2
100
AcDbSymbolTableRecord
100
AcDbLayerTableRecord
  2
WAKU
 70
     0
 62
     7
  6
CONTINUOUS
370
    -3
390
6F5F
  0
LAYER
  5
64
330
2
100
AcDbSymbolTableRecord
100
AcDbLayerTableRecord
  2
SUNPOU
 70
     0
 62
     5
  6
CONTINUOUS
370
    -3
390
6F5F
  0
LAYER
  5
65
330
2
100
AcDbSymbolTableRecord
100
AcDbLayerTableRecord
  2
CENTER
 70
     0
 62
    14
  6
CENTER2
370
    -3
390
6F5F
  0
LAYER
  5
66
330
2
100
AcDbSymbolTableRecord
100
AcDbLayerTableRecord
  2
KAGESEN
 70
     0
 62
     5
  6
DASHED2
370
    -3
390
6F5F
  0
LAYER
  5
7DC
330
2
100
AcDbSymbolTableRecord
100
AcDbLayerTableRecord
  2
DEFPOINTS
 70
     0
 62
     7
  6
CONTINUOUS
290
     0
370
    -3
390
6F5F
  0
LAYER
  5
B431
330
2
100
AcDbSymbolTableRecord
100
AcDbLayerTableRecord
  2
ＡＭ_3
 70
     0
 62
    10
  6
CONTINUOUS
370
    13
390
6F5F
  0
LAYER
  5
B432
330
2
100
AcDbSymbolTableRecord
100
AcDbLayerTableRecord
  2
AM_7
 70
     0
 62
     1
  6
AM_ISO08W050
370
    13
390
6F5F
1001
AcAecLayerStandard
1000

1000

  0
LAYER
  5
B433
330
2
100
AcDbSymbolTableRecord
100
AcDbLayerTableRecord
  2
GEOMETRY
 70
     0
 62
     3
  6
CONTINUOUS
370
     5
390
6F5F
  0
LAYER
  5
B434
330
2
100
AcDbSymbolTableRecord
100
AcDbLayerTableRecord
  2
センター
 70
     0
 62
     1
  6
CENTER2
370
    13
390
6F5F
  0
LAYER
  5
B435
330
2
100
AcDbSymbolTableRecord
100
AcDbLayerTableRecord
  2
実線
 70
     0
 62
     7
  6
CONTINUOUS
370
    30
390
6F5F
  0
LAYER
  5
B436
330
2
100
AcDbSymbolTableRecord
100
AcDbLayerTableRecord
  2
寸法
 70
     0
 62
     2
  6
CONTINUOUS
370
    13
390
6F5F
  0
LAYER
  5
C4FD
330
2
100
AcDbSymbolTableRecord
100
AcDbLayerTableRecord
  2
PCB
 70
     0
 62
     1
  6
CONTINUOUS
370
    -3
390
6F5F
  0
LAYER
  5
C4FE
330
2
100
AcDbSymbolTableRecord
100
AcDbLayerTableRecord
  2
PARTS
 70
     0
 62
     5
  6
CONTINUOUS
370
    -3
390
6F5F
  0
LAYER
  5
CD4F
330
2
100
AcDbSymbolTableRecord
100
AcDbLayerTableRecord
  2
CASE
 70
     0
 62
     7
  6
CONTINUOUS
370
    -3
390
6F5F
  0
ENDTAB
  0
TABLE
  2
STYLE
  5
3
330
0
100
AcDbSymbolTable
 70
     3
  0
STYLE
  5
10
330
3
100
AcDbSymbolTableRecord
100
AcDbTextStyleTableRecord
  2
STANDARD
 70
     0
 40
0.0
 41
1.0
 50
0.0
 71
     0
 42
10.0
  3
C:\Program Files\AutoCAD LT\romans.shx
  4
C:\Program Files\AutoCAD LT\extfont.shx
  0
STYLE
  5
B437
330
3
100
AcDbSymbolTableRecord
100
AcDbTextStyleTableRecord
  2
2
 70
     0
 40
10.0
 41
1.0
 50
0.0
 71
     0
 42
3.0
  3
romans.shx
  4
extfont.shx
  0
STYLE
  5
B438
330
3
100
AcDbSymbolTableRecord
100
AcDbTextStyleTableRecord
  2
すんぽうー１
 70
     0
 40
6.0
 41
1.0
 50
0.0
 71
     0
 42
6.0
  3
MS PGothic.ttf
  4

1001
ACAD
1000
MS PGothic
1071
    32818
  0
ENDTAB
  0
TABLE
  2
VIEW
  5
6
330
0
100
AcDbSymbolTable
 70
     0
  0
ENDTAB
  0
TABLE
  2
UCS
  5
7
330
0
100
AcDbSymbolTable
 70
     0
  0
ENDTAB
  0
TABLE
  2
APPID
  5
9
330
0
100
AcDbSymbolTable
 70
     4
  0
APPID
  5
11
330
9
100
AcDbSymbolTableRecord
100
AcDbRegAppTableRecord
  2
ACAD
 70
     0
  0
APPID
  5
5E9A
330
9
100
AcDbSymbolTableRecord
100
AcDbRegAppTableRecord
  2
CONTENTTABDATA
 70
     0
  0
APPID
  5
5E9B
330
9
100
AcDbSymbolTableRecord
100
AcDbRegAppTableRecord
  2
CONTENTCURRENTTAB
 70
     0
  0
APPID
  5
B43A
330
9
100
AcDbSymbolTableRecord
100
AcDbRegAppTableRecord
  2
AcAecLayerStandard
 70
     0
  0
ENDTAB
  0
TABLE
  2
DIMSTYLE
  5
A
330
0
100
AcDbSymbolTable
 70
     9
100
AcDbDimStyleTable
 71
     1
340
1D
  0
DIMSTYLE
105
1D
102
{ACAD_REACTORS
330
C9FE
330
CA0B
330
CA18
330
D26A
330
D269
102
}
330
A
100
AcDbSymbolTableRecord
100
AcDbDimStyleTableRecord
  2
STANDARD
 70
     0
340
10
  0
DIMSTYLE
105
24
330
A
100
AcDbSymbolTableRecord
100
AcDbDimStyleTableRecord
  2
ISO-25
 70
     0
 41
2.5
 42
0.625
 43
3.75
 44
1.25
 74
     0
 77
     1
 78
     8
140
2.5
141
2.5
143
0.0394
145
1.0
147
0.625
172
     1
340
10
  0
DIMSTYLE
105
25
330
A
100
AcDbSymbolTableRecord
100
AcDbDimStyleTableRecord
  2
ISO-35
 70
     0
 41
3.5
 42
0.875
 43
5.25
 44
1.75
 74
     0
 77
     1
 78
     8
140
3.5
141
3.5
143
0.0394
145
1.399999999999999
147
0.875
172
     1
340
10
  0
DIMSTYLE
105
26
330
A
100
AcDbSymbolTableRecord
100
AcDbDimStyleTableRecord
  2
ISO-5
 70
     0
 41
5.0
 42
1.25
 43
7.5
 44
2.5
 74
     0
 77
     1
 78
     8
140
5.0
141
5.0
143
0.0394
145
2.0
147
1.25
172
     1
340
10
  0
DIMSTYLE
105
27
330
A
100
AcDbSymbolTableRecord
100
AcDbDimStyleTableRecord
  2
ISO-7
 70
     0
 41
7.0
 42
1.75
 43
10.5
 44
3.5
 74
     0
 77
     1
 78
     8
140
7.0
141
7.0
143
0.0394
145
2.799999999999999
147
1.75
172
     1
340
10
  0
DIMSTYLE
105
28
330
A
100
AcDbSymbolTableRecord
100
AcDbDimStyleTableRecord
  2
ISO1
 70
     0
 41
10.0
 42
2.5
 43
15.0
 44
5.0
 74
     0
 77
     1
 78
     8
140
10.0
141
10.0
143
0.0394
145
4.0
147
2.5
172
     1
340
10
  0
DIMSTYLE
105
29
330
A
100
AcDbSymbolTableRecord
100
AcDbDimStyleTableRecord
  2
ISO1-4
 70
     0
 41
14.0
 42
3.5
 43
21.0
 44
7.0
 74
     0
 77
     1
 78
     8
140
14.0
141
14.0
143
0.0394
145
5.599999999999999
147
3.5
172
     1
340
10
  0
DIMSTYLE
105
2A
330
A
100
AcDbSymbolTableRecord
100
AcDbDimStyleTableRecord
  2
ISO2
 70
     0
 41
20.0
 42
5.0
 43
30.0
 44
10.0
 74
     0
 77
     1
 78
     8
140
20.0
141
20.0
143
0.0394
145
8.0
147
5.0
172
     1
340
10
  0
DIMSTYLE
105
B439
330
A
100
AcDbSymbolTableRecord
100
AcDbDimStyleTableRecord
  2
A3WAKU
 70
     0
 41
4.0
 42
0.5
 43
10.0
 44
0.5
 73
     0
 74
     0
 77
     1
140
4.0
141
0.0
147
0.5
173
     1
271
     0
272
     1
340
10
341
BA
343
BA
344
BA
  0
ENDTAB
  0
TABLE
  2
BLOCK_RECORD
  5
1
330
0
100
AcDbSymbolTable
 70
    15
  0
BLOCK_RECORD
  5
1A
330
1
100
AcDbSymbolTableRecord
100
AcDbBlockTableRecord
  2
*MODEL_SPACE
340
6F62
  0
BLOCK_RECORD
  5
17
330
1
100
AcDbSymbolTableRecord
100
AcDbBlockTableRecord
  2
*PAPER_SPACE
340
6F63
  0
BLOCK_RECORD
  5
BA
330
1
100
AcDbSymbolTableRecord
100
AcDbBlockTableRecord
  2
_OPEN
340
0
102
{BLKREFS
331
CA55
331
CA56
331
CA5E
331
CA5F
331
D2C6
331
D2C7
102
}
  0
BLOCK_RECORD
  5
C389
330
1
100
AcDbSymbolTableRecord
100
AcDbBlockTableRecord
  2
DRT-1-SIDE
340
0
310
2800000020000000200000000100080000000000000400000000000000000000000000000000000000000000000080000080000000808000800000008000800080800000C0C0C000C0DCC000F0CAA6000020400000206000002080000020A0000020C0000020E00000400000004020000040400000406000004080000040A0
310
000040C0000040E00000600000006020000060400000606000006080000060A0000060C0000060E00000800000008020000080400000806000008080000080A0000080C0000080E00000A0000000A0200000A0400000A0600000A0800000A0A00000A0C00000A0E00000C0000000C0200000C0400000C0600000C0800000C0
310
A00000C0C00000C0E00000E0000000E0200000E0400000E0600000E0800000E0A00000E0C00000E0E00040000000400020004000400040006000400080004000A0004000C0004000E00040200000402020004020400040206000402080004020A0004020C0004020E000404000004040200040404000404060004040800040
310
40A0004040C0004040E00040600000406020004060400040606000406080004060A0004060C0004060E00040800000408020004080400040806000408080004080A0004080C0004080E00040A0000040A0200040A0400040A0600040A0800040A0A00040A0C00040A0E00040C0000040C0200040C0400040C0600040C08000
310
40C0A00040C0C00040C0E00040E0000040E0200040E0400040E0600040E0800040E0A00040E0C00040E0E00080000000800020008000400080006000800080008000A0008000C0008000E00080200000802020008020400080206000802080008020A0008020C0008020E00080400000804020008040400080406000804080
310
008040A0008040C0008040E00080600000806020008060400080606000806080008060A0008060C0008060E00080800000808020008080400080806000808080008080A0008080C0008080E00080A0000080A0200080A0400080A0600080A0800080A0A00080A0C00080A0E00080C0000080C0200080C0400080C0600080C0
310
800080C0A00080C0C00080C0E00080E0000080E0200080E0400080E0600080E0800080E0A00080E0C00080E0E000C0000000C0002000C0004000C0006000C0008000C000A000C000C000C000E000C0200000C0202000C0204000C0206000C0208000C020A000C020C000C020E000C0400000C0402000C0404000C0406000C0
310
408000C040A000C040C000C040E000C0600000C0602000C0604000C0606000C0608000C060A000C060C000C060E000C0800000C0802000C0804000C0806000C0808000C080A000C080C000C080E000C0A00000C0A02000C0A04000C0A06000C0A08000C0A0A000C0A0C000C0A0E000C0C00000C0C02000C0C04000C0C06000
310
C0C08000C0C0A000F0FBFF00A4A0A000808080000000FF0000FF000000FFFF00FF000000FF00FF00FFFF0000FFFFFF00FFFFFFFFFFFFFFFFFFFFFFFFFFFFFFFFFFFFFFFFFFFFFFFFFFFFFFFFFFFFFFFFFFFFFFFFFFFFFFFFFFFFFFFFFFFFFFFF000000FFFFFFFFFFFFFFFFFFFFFFFFFFFFFFFFFFFFFFFFFFFFFFFFFFFFFFFF
310
FF00FF00FFFFFFFFFFFFFFFFFFFFFFFFFFFFFFFFFFFFFFFFFFFFFFFFFFFFFFFFFF00FF00FFFFFFFFFFFFFFFFFFFFFFFFFFFFFFFFFFFFFFFFFFFFFFFFFFFFFFFFFF00FF00FFFFFFFFFFFFFFFFFFFFFFFFFFFFFFFFFFFFFFFFFFFFFFFFFFFFFFFFFF00FF00FFFFFFFFFFFFFFFFFFFFFFFFFFFFFFFFFFFFFFFFFFFFFFFFFFFFFF
310
FFFF00FF00FFFFFFFFFFFFFFFFFFFFFFFFFFFFFFFFFFFFFFFFFFFFFFFFFFFFFF000000FF00FFFFFFFFFFFFFFFFFFFFFFFFFFFFFFFFFFFFFFFFFFFFFFFFFFFFFF000000FF00FFFFFFFFFFFFFFFFFFFFFFFFFFFFFFFFFFFFFFFFFFFFFFFFFFFFFFFFFF00FF00FFFFFFFFFFFFFFFFFFFFFFFFFFFFFFFFFFFFFFFFFFFFFFFFFFFF
310
FFFFFF00FF00FFFFFFFFFFFFFFFFFFFFFFFFFFFFFFFFFFFFFFFFFFFFFFFFFFFFFFFF0000FF00FFFFFFFFFFFFFFFFFFFFFFFFFFFFFFFFFFFFFFFFFFFFFFFFFFFF00000000FF00FFFFFFFFFFFFFFFFFFFFFFFFFFFFFFFFFFFFFFFFFFFFFFFFFFFF0000FF00FF00FFFFFFFFFFFFFFFFFFFFFFFFFFFFFFFFFFFFFFFFFFFFFFFFFF
310
FFFF000000FF00FFFFFFFFFFFFFFFFFFFFFFFFFFFFFFFFFFFFFFFFFFFFFFFFFFFFFFFF0000FF00FFFFFFFFFFFFFFFFFFFFFFFFFFFFFFFFFFFFFFFFFFFFFFFFFFFFFF000000FF00FFFFFFFFFFFFFFFFFFFFFFFFFFFFFFFFFFFFFFFFFFFFFFFFFFFFFF000000FF00FFFFFFFFFFFFFFFFFFFFFFFFFFFFFFFFFFFFFFFFFFFFFFFF
310
FFFF0000FF00FF00FFFFFFFFFFFFFFFFFFFFFFFFFFFFFFFFFFFFFFFFFFFFFFFFFFFF00000000FF00FFFFFFFFFFFFFFFFFFFFFFFFFFFFFFFFFFFFFFFFFFFFFFFFFFFFFFFF0000FF00FFFFFFFFFFFFFFFFFFFFFFFFFFFFFFFFFFFFFFFFFFFFFFFFFFFFFFFFFF00FF00FFFFFFFFFFFFFFFFFFFFFFFFFFFFFFFFFFFFFFFFFFFFFF
310
FFFFFFFFFFFF00FF00FFFFFFFFFFFFFFFFFFFFFFFFFFFFFFFFFFFFFFFFFFFFFFFFFFFFFF000000FF00FFFFFFFFFFFFFFFFFFFFFFFFFFFFFFFFFFFFFFFFFFFFFFFFFFFFFF000000FF00FFFFFFFFFFFFFFFFFFFFFFFFFFFFFFFFFFFFFFFFFFFFFFFFFFFFFFFFFF00FF00FFFFFFFFFFFFFFFFFFFFFFFFFFFFFFFFFFFFFFFFFFFF
310
FFFFFFFFFFFFFF00FF00FFFFFFFFFFFFFFFFFFFFFFFFFFFFFFFFFFFFFFFFFFFFFFFFFFFFFFFFFF00FF00FFFFFFFFFFFFFFFFFFFFFFFFFFFFFFFFFFFFFFFFFFFFFFFFFFFFFFFFFF00FF00FFFFFFFFFFFFFFFFFFFFFFFFFFFFFFFFFFFFFFFFFFFFFFFFFFFFFFFFFF00FF00FFFFFFFFFFFFFFFFFFFFFFFFFFFFFFFFFFFFFFFFFF
310
FFFFFFFFFFFFFFFF000000FFFFFFFFFFFFFFFFFFFFFFFFFFFFFFFFFFFFFFFFFFFFFFFFFFFFFFFFFFFFFFFFFFFFFFFFFFFFFFFFFFFFFFFFFF
102
{BLKREFS
331
C84E
102
}
  0
BLOCK_RECORD
  5
C41D
330
1
100
AcDbSymbolTableRecord
100
AcDbBlockTableRecord
  2
M3-TOP
340
0
310
2800000020000000200000000100080000000000000400000000000000000000000000000000000000000000000080000080000000808000800000008000800080800000C0C0C000C0DCC000F0CAA6000020400000206000002080000020A0000020C0000020E00000400000004020000040400000406000004080000040A0
310
000040C0000040E00000600000006020000060400000606000006080000060A0000060C0000060E00000800000008020000080400000806000008080000080A0000080C0000080E00000A0000000A0200000A0400000A0600000A0800000A0A00000A0C00000A0E00000C0000000C0200000C0400000C0600000C0800000C0
310
A00000C0C00000C0E00000E0000000E0200000E0400000E0600000E0800000E0A00000E0C00000E0E00040000000400020004000400040006000400080004000A0004000C0004000E00040200000402020004020400040206000402080004020A0004020C0004020E000404000004040200040404000404060004040800040
310
40A0004040C0004040E00040600000406020004060400040606000406080004060A0004060C0004060E00040800000408020004080400040806000408080004080A0004080C0004080E00040A0000040A0200040A0400040A0600040A0800040A0A00040A0C00040A0E00040C0000040C0200040C0400040C0600040C08000
310
40C0A00040C0C00040C0E00040E0000040E0200040E0400040E0600040E0800040E0A00040E0C00040E0E00080000000800020008000400080006000800080008000A0008000C0008000E00080200000802020008020400080206000802080008020A0008020C0008020E00080400000804020008040400080406000804080
310
008040A0008040C0008040E00080600000806020008060400080606000806080008060A0008060C0008060E00080800000808020008080400080806000808080008080A0008080C0008080E00080A0000080A0200080A0400080A0600080A0800080A0A00080A0C00080A0E00080C0000080C0200080C0400080C0600080C0
310
800080C0A00080C0C00080C0E00080E0000080E0200080E0400080E0600080E0800080E0A00080E0C00080E0E000C0000000C0002000C0004000C0006000C0008000C000A000C000C000C000E000C0200000C0202000C0204000C0206000C0208000C020A000C020C000C020E000C0400000C0402000C0404000C0406000C0
310
408000C040A000C040C000C040E000C0600000C0602000C0604000C0606000C0608000C060A000C060C000C060E000C0800000C0802000C0804000C0806000C0808000C080A000C080C000C080E000C0A00000C0A02000C0A04000C0A06000C0A08000C0A0A000C0A0C000C0A0E000C0C00000C0C02000C0C04000C0C06000
310
C0C08000C0C0A000F0FBFF00A4A0A000808080000000FF0000FF000000FFFF00FF000000FF00FF00FFFF0000FFFFFF00FFFFFFFFFFFFFFFFFFFFFFFFFFFFFFFFFFFFFFFFFFFFFFFFFFFFFFFFFFFFFFFFFFFFFFFFFFFFFFFFFFFFFFFFFFFFFF000000FFFFFFFFFFFFFFFFFFFFFFFFFFFFFFFFFFFFFFFFFFFFFFFFFF00000000
310
FFFFFF00000000FFFFFFFFFFFFFFFFFFFFFFFFFFFFFFFFFFFF000000FFFFFFFFFFFFFFFFFFFFFF0000FFFFFFFFFFFFFFFFFFFFFFFFFFFFFF00FFFFFFFFFFFFFFFFFFFFFFFFFFFFFFFF00FFFFFFFFFFFFFFFFFFFFFFFFFF00FFFFFFFFFFFFFFFFFFFFFFFFFFFFFFFFFFFF00FFFFFFFFFFFFFFFFFFFFFF00FFFFFFFFFFFFFFFF
310
FFFFFFFFFFFFFFFFFFFFFFFF00FFFFFFFFFFFFFFFFFF00FFFFFFFFFFFFFFFF000000000000FFFFFFFFFFFFFFFF00FFFFFFFFFFFFFF00FFFFFFFFFFFFFFFFFF00FFFFFFFF00FFFFFFFFFFFFFFFFFF00FFFFFFFFFFFF00FFFFFFFFFFFFFFFFFF00FFFFFFFF00FFFFFFFFFFFFFFFFFF00FFFFFFFFFFFF00FFFFFFFFFFFFFFFFFF
310
00FFFFFFFF00FFFFFFFFFFFFFFFFFFFF00FFFFFFFF00FFFFFFFFFFFFFFFFFFFF00FFFFFFFF00FFFFFFFFFFFFFFFFFFFF00FFFFFFFF00FFFFFFFFFFFFFFFFFFFF00FFFFFFFF00FFFFFFFFFFFFFFFFFFFF00FFFFFFFF00FFFFFFFF00000000000000FFFFFFFF00000000000000FFFFFFFF00FFFFFFFF00FFFFFFFF00FFFFFFFF
310
FFFFFFFFFFFFFFFFFFFFFFFF00FFFFFFFFFF00FFFF00FFFFFFFFFF00FFFFFFFFFFFFFFFFFFFFFFFFFFFFFFFF00FFFFFFFFFF00FFFF00FFFFFFFFFF00FFFFFFFFFFFFFFFFFFFFFFFFFFFFFFFF00FFFFFFFFFF00FFFF00FFFFFFFFFF00FFFFFFFFFFFFFFFFFFFFFFFFFFFFFFFF00FFFFFFFFFF00FFFFFF00FFFFFFFF00000000
310
000000FFFFFFFF00000000000000FFFFFFFF00FFFFFFFF00FFFFFFFFFFFFFFFFFFFF00FFFFFFFF00FFFFFFFFFFFFFFFFFFFF00FFFFFFFF00FFFFFFFFFFFFFFFFFFFF00FFFFFFFF00FFFFFFFFFFFFFFFFFFFF00FFFFFFFF00FFFFFFFFFFFFFFFFFFFF00FFFFFFFF00FFFFFFFFFFFFFFFFFFFF00FFFFFFFFFF00FFFFFFFFFFFF
310
FFFFFF00FFFFFFFF00FFFFFFFFFFFFFFFFFF00FFFFFFFFFFFF00FFFFFFFFFFFFFFFFFF00FFFFFFFF00FFFFFFFFFFFFFFFFFF00FFFFFFFFFFFFFF00FFFFFFFFFFFFFFFF000000000000FFFFFFFFFFFFFFFF00FFFFFFFFFFFFFFFFFF00FFFFFFFFFFFFFFFFFFFFFFFFFFFFFFFFFFFFFFFF00FFFFFFFFFFFFFFFFFFFFFF00FFFF
310
FFFFFFFFFFFFFFFFFFFFFFFFFFFFFFFF00FFFFFFFFFFFFFFFFFFFFFFFFFF00FFFFFFFFFFFFFFFFFFFFFFFFFFFFFFFF00FFFFFFFFFFFFFFFFFFFFFFFFFFFFFF0000FFFFFFFFFFFFFFFFFFFFFFFF0000FFFFFFFFFFFFFFFFFFFFFFFFFFFFFFFFFFFF00000000FFFFFFFF00000000FFFFFFFFFFFFFFFFFFFFFFFFFFFFFFFFFFFF
310
FFFFFFFFFFFF00000000FFFFFFFFFFFFFFFFFFFFFFFFFFFFFFFFFFFFFFFFFFFFFFFFFFFFFFFFFFFFFFFFFFFFFFFFFFFFFFFFFFFFFFFFFFFF
102
{BLKREFS
331
C839
331
C83A
331
C83B
331
C83C
102
}
  0
BLOCK_RECORD
  5
C422
330
1
100
AcDbSymbolTableRecord
100
AcDbBlockTableRecord
  2
BLKF0013
340
0
102
{BLKREFS
331
C80F
102
}
  0
BLOCK_RECORD
  5
C4F7
330
1
100
AcDbSymbolTableRecord
100
AcDbBlockTableRecord
  2
M2.6-TOP
340
0
310
28000000200000002000000001000800000000000004000000000000000000000000000000000000000000004000000080000000FF000000002000004020000080200000FF200000004000004040000080400000FF400000006000004060000080600000FF600000008000004080000080800000FF80000000A0000040A000
310
0080A00000FFA0000000C0000040C0000080C00000FFC0000000FF000040FF000080FF0000FFFF0000000020004000200080002000FF002000002020004020200080202000FF202000004020004040200080402000FF402000006020004060200080602000FF602000008020004080200080802000FF80200000A0200040A0
310
200080A02000FFA0200000C0200040C0200080C02000FFC0200000FF200040FF200080FF2000FFFF2000000040004000400080004000FF004000002040004020400080204000FF204000004040004040400080404000FF404000006040004060400080604000FF604000008040004080400080804000FF80400000A0400040
310
A0400080A04000FFA0400000C0400040C0400080C04000FFC0400000FF400040FF400080FF4000FFFF4000000060004000600080006000FF006000002060004020600080206000FF206000004060004040600080406000FF406000006060004060600080606000FF606000008060004080600080806000FF80600000A06000
310
40A0600080A06000FFA0600000C0600040C0600080C06000FFC0600000FF600040FF600080FF6000FFFF6000000080004000800080008000FF008000002080004020800080208000FF208000004080004040800080408000FF408000006080004060800080608000FF608000008080004080800080808000FF80800000A080
310
0040A0800080A08000FFA0800000C0800040C0800080C08000FFC0800000FF800040FF800080FF8000FFFF80000000A0004000A0008000A000FF00A0000020A0004020A0008020A000FF20A0000040A0004040A0008040A000FF40A0000060A0004060A0008060A000FF60A0000080A0004080A0008080A000FF80A00000A0
310
A00040A0A00080A0A000FFA0A00000C0A00040C0A00080C0A000FFC0A00000FFA00040FFA00080FFA000FFFFA0000000C0004000C0008000C000FF00C0000020C0004020C0008020C000FF20C0000040C0004040C0008040C000FF40C0000060C0004060C0008060C000FF60C0000080C0004080C0008080C000FF80C00000
310
A0C00040A0C00080A0C000FFA0C00000C0C00040C0C00080C0C000FFC0C00000FFC00040FFC00080FFC000FFFFC0000000FF004000FF008000FF00FF00FF000020FF004020FF008020FF00FF20FF000040FF004040FF008040FF00FF40FF000060FF004060FF008060FF00FF60FF000080FF004080FF008080FF00FF80FF00
310
00A0FF0040A0FF0080A0FF00FFA0FF0000C0FF0040C0FF0080C0FF00FFC0FF0000FFFF0040FFFF0080FFFF00FFFFFF00FFFFFFFFFFFFFFFFFFFFFFFFFFFFFFFFFFFFFFFFFFFFFFFFFFFFFFFFFFFFFFFFFFFFFFFFFFFFFFFFFFFFFFFFFFFFFFFF00FFFFFFFFFFFFFFFFFFFFFFFFFFFFFFFFFFFFFFFFFFFFFFFFFFFFFFFFFF00
310
00FF0000FFFFFFFFFFFFFFFFFFFFFFFFFFFFFFFFFFFFFFFFFFFFFFFFFF0000FFFFFFFFFF0000FFFFFFFFFFFFFFFFFFFFFFFFFFFFFFFFFFFFFFFFFF0000FFFFFFFFFFFFFFFFFF0000FFFFFFFFFFFFFFFFFFFFFFFFFFFFFFFFFF0000FFFFFFFFFFFFFFFFFFFFFFFFFF0000FFFFFFFFFFFFFFFFFFFFFFFFFF0000FFFFFFFF0000
310
000000000000FFFFFFFFFF00FFFFFFFFFFFFFFFFFFFFFF00FFFFFFFFFFFF00FFFFFFFFFFFF00FFFFFFFFFFFF00FFFFFFFFFFFFFFFFFFFF00FFFFFFFFFFFF00FFFFFFFFFFFF00FFFFFFFFFFFF00FFFFFFFFFFFFFFFFFF00FFFFFFFFFFFFFF00FFFFFFFFFFFF00FFFFFFFFFFFFFF00FFFFFFFFFFFFFFFF00FFFFFFFFFFFFFF00
310
FFFFFFFFFFFF00FFFFFFFFFFFFFF00FFFFFFFFFFFFFF00FFFFFFFFFFFFFFFF00FFFFFFFFFFFF00FFFFFFFFFFFFFFFF00FFFFFFFFFFFF00FFFF00000000000000FFFFFFFFFFFF00000000000000FFFF00FFFFFFFFFF00FFFFFF00FFFFFFFFFFFFFFFFFFFFFFFFFFFFFFFFFFFF00FFFFFF00FFFFFFFF00FFFFFF00FFFFFFFFFF
310
FFFFFFFFFFFFFFFFFFFFFFFFFF00FFFFFF00FFFFFF00FFFFFFFF00FFFFFFFFFFFFFFFFFFFFFFFFFFFFFFFFFFFF00FFFFFFFF00FFFFFF00FFFFFF00FFFFFFFFFFFFFFFFFFFFFFFFFFFFFFFFFFFF00FFFFFFFF00FFFFFF00FFFFFF00FFFFFFFFFFFFFFFFFFFFFFFFFFFFFFFFFFFF00FFFFFF00FFFFFFFFFF00FFFF00FFFFFFFF
310
FFFFFFFFFFFFFFFFFFFFFFFFFFFF00FFFFFF00FFFFFFFFFF00FFFF00000000000000FFFFFFFFFFFF00000000000000FFFF00FFFFFFFFFFFFFF00FFFFFFFFFFFFFF00FFFFFFFFFFFF00FFFFFFFFFFFFFFFF00FFFFFFFFFFFFFF00FFFFFFFFFFFFFF00FFFFFFFFFFFF00FFFFFFFFFFFFFF00FFFFFFFFFFFFFFFFFF00FFFFFFFF
310
FFFF00FFFFFFFFFFFF00FFFFFFFFFFFFFF00FFFFFFFFFFFFFFFFFF00FFFFFFFFFFFF00FFFFFFFFFFFF00FFFFFFFFFFFF00FFFFFFFFFFFFFFFFFFFFFF00FFFFFFFFFF00FFFFFFFFFFFF00FFFFFFFFFFFF00FFFFFFFFFFFFFFFFFFFFFF00FFFFFFFFFF0000000000000000FFFFFFFFFF00FFFFFFFFFFFFFFFFFFFFFFFFFF0000
310
FFFFFFFFFFFFFFFFFFFFFFFFFFFF0000FFFFFFFFFFFFFFFFFFFFFFFFFFFFFFFF0000FFFFFFFFFFFFFFFFFFFF0000FFFFFFFFFFFFFFFFFFFFFFFFFFFFFFFFFFFFFFFF0000FFFFFFFFFFFF0000FFFFFFFFFFFFFFFFFFFFFFFFFFFFFFFFFFFFFFFFFFFFFFFF0000FFFF0000FFFFFFFFFFFFFFFFFFFFFFFFFFFFFFFFFFFFFFFFFF
310
FFFFFFFFFFFFFF0000FFFFFFFFFFFFFFFFFFFFFFFFFFFFFFFFFFFFFFFFFFFFFFFFFFFFFFFFFFFFFFFFFFFFFFFFFFFFFFFFFFFFFFFFFFFFFF
102
{BLKREFS
331
CFB4
331
CFB5
102
}
  0
BLOCK_RECORD
  5
C9FF
330
1
100
AcDbSymbolTableRecord
100
AcDbBlockTableRecord
  2
*D5
340
0
  0
BLOCK_RECORD
  5
CA0C
330
1
100
AcDbSymbolTableRecord
100
AcDbBlockTableRecord
  2
*D6
340
0
  0
BLOCK_RECORD
  5
CA19
330
1
100
AcDbSymbolTableRecord
100
AcDbBlockTableRecord
  2
*D7
340
0
  0
BLOCK_RECORD
  5
CAF7
330
1
100
AcDbSymbolTableRecord
100
AcDbBlockTableRecord
  2
_Open30
340
0
102
{BLKREFS
331
D2DB
331
D2DC
331
D2E4
331
D2E5
102
}
  0
BLOCK_RECORD
  5
CB7A
330
1
100
AcDbSymbolTableRecord
100
AcDbBlockTableRecord
  2
ML-2300-H-10P-1
340
0
310
2800000020000000200000000100080000000000000400000000000000000000000000000000000000000000000080000080000000808000800000008000800080800000C0C0C000C0DCC000F0CAA6000020400000206000002080000020A0000020C0000020E00000400000004020000040400000406000004080000040A0
310
000040C0000040E00000600000006020000060400000606000006080000060A0000060C0000060E00000800000008020000080400000806000008080000080A0000080C0000080E00000A0000000A0200000A0400000A0600000A0800000A0A00000A0C00000A0E00000C0000000C0200000C0400000C0600000C0800000C0
310
A00000C0C00000C0E00000E0000000E0200000E0400000E0600000E0800000E0A00000E0C00000E0E00040000000400020004000400040006000400080004000A0004000C0004000E00040200000402020004020400040206000402080004020A0004020C0004020E000404000004040200040404000404060004040800040
310
40A0004040C0004040E00040600000406020004060400040606000406080004060A0004060C0004060E00040800000408020004080400040806000408080004080A0004080C0004080E00040A0000040A0200040A0400040A0600040A0800040A0A00040A0C00040A0E00040C0000040C0200040C0400040C0600040C08000
310
40C0A00040C0C00040C0E00040E0000040E0200040E0400040E0600040E0800040E0A00040E0C00040E0E00080000000800020008000400080006000800080008000A0008000C0008000E00080200000802020008020400080206000802080008020A0008020C0008020E00080400000804020008040400080406000804080
310
008040A0008040C0008040E00080600000806020008060400080606000806080008060A0008060C0008060E00080800000808020008080400080806000808080008080A0008080C0008080E00080A0000080A0200080A0400080A0600080A0800080A0A00080A0C00080A0E00080C0000080C0200080C0400080C0600080C0
310
800080C0A00080C0C00080C0E00080E0000080E0200080E0400080E0600080E0800080E0A00080E0C00080E0E000C0000000C0002000C0004000C0006000C0008000C000A000C000C000C000E000C0200000C0202000C0204000C0206000C0208000C020A000C020C000C020E000C0400000C0402000C0404000C0406000C0
310
408000C040A000C040C000C040E000C0600000C0602000C0604000C0606000C0608000C060A000C060C000C060E000C0800000C0802000C0804000C0806000C0808000C080A000C080C000C080E000C0A00000C0A02000C0A04000C0A06000C0A08000C0A0A000C0A0C000C0A0E000C0C00000C0C02000C0C04000C0C06000
310
C0C08000C0C0A000F0FBFF00A4A0A000808080000000FF0000FF000000FFFF00FF000000FF00FF00FFFF0000FFFFFF00FFFFFFFFFFFFFFFFFFFFFFFFFFFFFFFFFFFFFFFFFFFFFFFFFFFFFFFFFFFFFFFFFFFFFFFFFFFFFFFFFFFFFFFFFFFFFFFFFFFFFFFFFFFFFFFFFFFFFFFFFFFFFFFFFFFFFFFFFFFFFFFFFFFFFFFFFFFFFF
310
FFFFFFFFFFFFFFFFFFFFFFFFFFFFFFFFFFFFFFFFFFFFFFFFFFFFFFFFFFFFFFFFFFFFFFFFFFFFFFFFFFFFFFFFFFFFFFFFFFFFFFFFFFFFFFFFFFFFFFFFFFFFFFFFFFFFFFFFFFFFFFFFFFFFFFFFFFFFFFFFFFFFFFFFFFFFFFFFFFFFFFFFFFFFFFFFFFFFFFFFFFFFFFFFFFFFFFFFFFFFFFFFFFFFFFFFFFFFFFFFFFFFFFFFFFFFFF
310
FFFFFFFFFFFFFFFFFFFFFFFFFFFFFFFFFFFFFFFFFFFFFFFFFFFFFFFFFFFFFFFFFFFFFFFFFFFFFFFFFFFFFFFFFFFFFFFFFFFFFFFFFFFFFFFFFFFFFFFFFFFFFFFFFFFFFFFFFFFFFFFFFFFFFFFFFFFFFFFFFFFFFFFFFFFFFFFFFFFFFFFFFFFFFFFFFFFFFFFFFFFFFFFFFFFFFFFFFFFFFFFFFFFFFFFFFFFFFFFFFFFFFFFFFFFFFF
310
FFFFFFFFFFFFFFFFFFFFFFFFFFFFFFFFFFFFFFFF000000000000000000000000000000000000000000000000000000000000FFFF00FFFF00FFFF00FFFF00FF00FFFF00FFFF00FF00FFFF00FFFF00FF00FF00FFFF0000000000FF0000FF00000000000000FF00000000000000FF000000FF00FFFF00FFFC0000FC00FCFC00FC
310
FCFFFCFCFCFC00FCFCFFFCFC00FC00FCFCFF00FFFF00FF000000FF0000FF000000FF000000FF000000FF000000FF000000FF00FFFF0000000000FF0000FF00000000000000FF00000000000000FF000000FF00FFFF00FFFC00FFFC00FCFC00FCFCFFFCFCFCFC00FCFCFFFCFCFFFC00FCFCFF00FFFF00000000000000000000
310
0000000000000000000000000000000000000000FFFF00FF0000000000000000000000000000000000000000000000000000FF00FFFF000000000000000000000000000000000000000000000000000000000000FFFFFFFFFFFFFFFFFFFFFFFFFFFFFFFFFFFFFFFFFFFFFFFFFFFFFFFFFFFFFFFFFFFFFFFFFFFFFFFFFFFFFF
310
FFFFFFFFFFFFFFFFFFFFFFFFFFFFFFFFFFFFFFFFFFFFFFFFFFFFFFFFFFFFFFFFFFFFFFFFFFFFFFFFFFFFFFFFFFFFFFFFFFFFFFFFFFFFFFFFFFFFFFFFFFFFFFFFFFFFFFFFFFFFFFFFFFFFFFFFFFFFFFFFFFFFFFFFFFFFFFFFFFFFFFFFFFFFFFFFFFFFFFFFFFFFFFFFFFFFFFFFFFFFFFFFFFFFFFFFFFFFFFFFFFFFFFFFFFFFFF
310
FFFFFFFFFFFFFFFFFFFFFFFFFFFFFFFFFFFFFFFFFFFFFFFFFFFFFFFFFFFFFFFFFFFFFFFFFFFFFFFFFFFFFFFFFFFFFFFFFFFFFFFFFFFFFFFFFFFFFFFFFFFFFFFFFFFFFFFFFFFFFFFFFFFFFFFFFFFFFFFFFFFFFFFFFFFFFFFFFFFFFFFFFFFFFFFFFFFFFFFFFFFFFFFFFFFFFFFFFFFFFFFFFFFFFFFFFFFFFFFFFFFFFFFFFFFFFF
310
FFFFFFFFFFFFFFFFFFFFFFFFFFFFFFFFFFFFFFFFFFFFFFFFFFFFFFFFFFFFFFFFFFFFFFFFFFFFFFFFFFFFFFFFFFFFFFFFFFFFFFFFFFFFFFFF
102
{BLKREFS
331
CFC1
331
CFC2
102
}
  0
BLOCK_RECORD
  5
CCB6
330
1
100
AcDbSymbolTableRecord
100
AcDbBlockTableRecord
  2
M2.6皿ネジ-TOP
340
0
310
2800000020000000200000000100080000000000000400000000000000000000000000000000000000000000000080000080000000808000800000008000800080800000C0C0C000C0DCC000F0CAA6000020400000206000002080000020A0000020C0000020E00000400000004020000040400000406000004080000040A0
310
000040C0000040E00000600000006020000060400000606000006080000060A0000060C0000060E00000800000008020000080400000806000008080000080A0000080C0000080E00000A0000000A0200000A0400000A0600000A0800000A0A00000A0C00000A0E00000C0000000C0200000C0400000C0600000C0800000C0
310
A00000C0C00000C0E00000E0000000E0200000E0400000E0600000E0800000E0A00000E0C00000E0E00040000000400020004000400040006000400080004000A0004000C0004000E00040200000402020004020400040206000402080004020A0004020C0004020E000404000004040200040404000404060004040800040
310
40A0004040C0004040E00040600000406020004060400040606000406080004060A0004060C0004060E00040800000408020004080400040806000408080004080A0004080C0004080E00040A0000040A0200040A0400040A0600040A0800040A0A00040A0C00040A0E00040C0000040C0200040C0400040C0600040C08000
310
40C0A00040C0C00040C0E00040E0000040E0200040E0400040E0600040E0800040E0A00040E0C00040E0E00080000000800020008000400080006000800080008000A0008000C0008000E00080200000802020008020400080206000802080008020A0008020C0008020E00080400000804020008040400080406000804080
310
008040A0008040C0008040E00080600000806020008060400080606000806080008060A0008060C0008060E00080800000808020008080400080806000808080008080A0008080C0008080E00080A0000080A0200080A0400080A0600080A0800080A0A00080A0C00080A0E00080C0000080C0200080C0400080C0600080C0
310
800080C0A00080C0C00080C0E00080E0000080E0200080E0400080E0600080E0800080E0A00080E0C00080E0E000C0000000C0002000C0004000C0006000C0008000C000A000C000C000C000E000C0200000C0202000C0204000C0206000C0208000C020A000C020C000C020E000C0400000C0402000C0404000C0406000C0
310
408000C040A000C040C000C040E000C0600000C0602000C0604000C0606000C0608000C060A000C060C000C060E000C0800000C0802000C0804000C0806000C0808000C080A000C080C000C080E000C0A00000C0A02000C0A04000C0A06000C0A08000C0A0A000C0A0C000C0A0E000C0C00000C0C02000C0C04000C0C06000
310
C0C08000C0C0A000F0FBFF00A4A0A000808080000000FF0000FF000000FFFF00FF000000FF00FF00FFFF0000FFFFFF00FFFFFFFFFFFFFFFFFFFFFFFFFFFFFFFFFFFFFFFFFFFFFFFFFFFFFFFFFFFFFFFFFFFFFFFFFFFFFFFFFFFFFFFFFFFFFF000000FFFFFFFFFFFFFFFFFFFFFFFFFFFFFFFFFFFFFFFFFFFFFFFFFF00000000
310
FFFFFF00000000FFFFFFFFFFFFFFFFFFFFFFFFFFFFFFFFFFFF000000FFFFFFFFFFFFFFFFFFFFFF0000FFFFFFFFFFFFFFFFFFFFFFFFFFFFFF00FFFFFFFFFFFFFFFFFFFFFFFFFFFFFFFF00FFFFFFFFFFFFFFFFFFFFFFFFFF00FFFFFFFFFFFFFFFFFFFFFFFFFFFFFFFFFFFF00FFFFFFFFFFFFFFFFFFFFFF00FFFFFFFFFFFFFFFF
310
FFFFFFFFFFFFFFFFFFFFFFFF00FFFFFFFFFFFFFFFFFF00FFFFFFFFFFFFFFFF000000000000FFFFFFFFFFFFFFFF00FFFFFFFFFFFFFF00FFFFFFFFFFFFFFFFFF00FFFFFFFF00FFFFFFFFFFFFFFFFFF00FFFFFFFFFFFF00FFFFFFFFFFFFFFFFFF00FFFFFFFF00FFFFFFFFFFFFFFFFFF00FFFFFFFFFFFF00FFFFFFFFFFFFFFFFFF
310
00FFFFFFFF00FFFFFFFFFFFFFFFFFFFF00FFFFFFFF00FFFFFFFFFFFFFFFFFFFF00FFFFFFFF00FFFFFFFFFFFFFFFFFFFF00FFFFFFFF00FFFFFFFFFFFFFFFFFFFF00FFFFFFFF00FFFFFFFFFFFFFFFFFFFF00FFFFFFFF00FFFFFFFF00000000000000FFFFFFFF00000000000000FFFFFFFF00FFFFFFFF00FFFFFFFF00FFFFFFFF
310
FFFFFFFFFFFFFFFFFFFFFFFF00FFFFFFFFFF00FFFF00FFFFFFFFFF00FFFFFFFFFFFFFFFFFFFFFFFFFFFFFFFF00FFFFFFFFFF00FFFF00FFFFFFFFFF00FFFFFFFFFFFFFFFFFFFFFFFFFFFFFFFF00FFFFFFFFFF00FFFF00FFFFFFFFFF00FFFFFFFFFFFFFFFFFFFFFFFFFFFFFFFF00FFFFFFFFFF00FFFFFF00FFFFFFFF00000000
310
000000FFFFFFFF00000000000000FFFFFFFF00FFFFFFFF00FFFFFFFFFFFFFFFFFFFF00FFFFFFFF00FFFFFFFFFFFFFFFFFFFF00FFFFFFFF00FFFFFFFFFFFFFFFFFFFF00FFFFFFFF00FFFFFFFFFFFFFFFFFFFF00FFFFFFFF00FFFFFFFFFFFFFFFFFFFF00FFFFFFFF00FFFFFFFFFFFFFFFFFFFF00FFFFFFFFFF00FFFFFFFFFFFF
310
FFFFFF00FFFFFFFF00FFFFFFFFFFFFFFFFFF00FFFFFFFFFFFF00FFFFFFFFFFFFFFFFFF00FFFFFFFF00FFFFFFFFFFFFFFFFFF00FFFFFFFFFFFFFF00FFFFFFFFFFFFFFFF000000000000FFFFFFFFFFFFFFFF00FFFFFFFFFFFFFFFFFF00FFFFFFFFFFFFFFFFFFFFFFFFFFFFFFFFFFFFFFFF00FFFFFFFFFFFFFFFFFFFFFF00FFFF
310
FFFFFFFFFFFFFFFFFFFFFFFFFFFFFFFF00FFFFFFFFFFFFFFFFFFFFFFFFFF00FFFFFFFFFFFFFFFFFFFFFFFFFFFFFFFF00FFFFFFFFFFFFFFFFFFFFFFFFFFFFFF0000FFFFFFFFFFFFFFFFFFFFFFFF0000FFFFFFFFFFFFFFFFFFFFFFFFFFFFFFFFFFFF00000000FFFFFFFF00000000FFFFFFFFFFFFFFFFFFFFFFFFFFFFFFFFFFFF
310
FFFFFFFFFFFF00000000FFFFFFFFFFFFFFFFFFFFFFFFFFFFFFFFFFFFFFFFFFFFFFFFFFFFFFFFFFFFFFFFFFFFFFFFFFFFFFFFFFFFFFFFFFFF
102
{BLKREFS
331
D25C
331
D25B
331
D25D
331
D25E
102
}
  0
BLOCK_RECORD
  5
CD26
330
1
100
AcDbSymbolTableRecord
100
AcDbBlockTableRecord
  2
M3-皿-L5
340
0
310
2800000020000000200000000100080000000000000400000000000000000000000000000000000000000000000080000080000000808000800000008000800080800000C0C0C000C0DCC000F0CAA6000020400000206000002080000020A0000020C0000020E00000400000004020000040400000406000004080000040A0
310
000040C0000040E00000600000006020000060400000606000006080000060A0000060C0000060E00000800000008020000080400000806000008080000080A0000080C0000080E00000A0000000A0200000A0400000A0600000A0800000A0A00000A0C00000A0E00000C0000000C0200000C0400000C0600000C0800000C0
310
A00000C0C00000C0E00000E0000000E0200000E0400000E0600000E0800000E0A00000E0C00000E0E00040000000400020004000400040006000400080004000A0004000C0004000E00040200000402020004020400040206000402080004020A0004020C0004020E000404000004040200040404000404060004040800040
310
40A0004040C0004040E00040600000406020004060400040606000406080004060A0004060C0004060E00040800000408020004080400040806000408080004080A0004080C0004080E00040A0000040A0200040A0400040A0600040A0800040A0A00040A0C00040A0E00040C0000040C0200040C0400040C0600040C08000
310
40C0A00040C0C00040C0E00040E0000040E0200040E0400040E0600040E0800040E0A00040E0C00040E0E00080000000800020008000400080006000800080008000A0008000C0008000E00080200000802020008020400080206000802080008020A0008020C0008020E00080400000804020008040400080406000804080
310
008040A0008040C0008040E00080600000806020008060400080606000806080008060A0008060C0008060E00080800000808020008080400080806000808080008080A0008080C0008080E00080A0000080A0200080A0400080A0600080A0800080A0A00080A0C00080A0E00080C0000080C0200080C0400080C0600080C0
310
800080C0A00080C0C00080C0E00080E0000080E0200080E0400080E0600080E0800080E0A00080E0C00080E0E000C0000000C0002000C0004000C0006000C0008000C000A000C000C000C000E000C0200000C0202000C0204000C0206000C0208000C020A000C020C000C020E000C0400000C0402000C0404000C0406000C0
310
408000C040A000C040C000C040E000C0600000C0602000C0604000C0606000C0608000C060A000C060C000C060E000C0800000C0802000C0804000C0806000C0808000C080A000C080C000C080E000C0A00000C0A02000C0A04000C0A06000C0A08000C0A0A000C0A0C000C0A0E000C0C00000C0C02000C0C04000C0C06000
310
C0C08000C0C0A000F0FBFF00A4A0A000808080000000FF0000FF000000FFFF00FF000000FF00FF00FFFF0000FFFFFF00FFFFFFFFFFFFFFFFFFFFFFFFFFFFFFFFFFFFFFFFFFFFFFFFFFFFFFFFFFFFFFFFFFFFFFFFFFFFFFFFFFFFFFFFFFFFFFFFFFFFFFFFFFFFFFFFFFFFFCFCFFFFFFFFFFFFFFFFFFFFFFFFFFFFFFFFFFFFFF
310
FFFFFFFFFFFFFFFFFFFFFCFCFCFFFFFFFFFFFFFFFFFFFFFFFFFFFFFFFFFFFFFFFFFFFFFFFFFFFFFFFFFCFFFCFCFFFFFFFFFFFFFFFFFFFFFFFFFFFFFFFFFFFFFFFFFFFFFFFFFFFFFFFCFFFFFCFCFFFFFFFFFFFFFFFFFFFFFFFFFFFFFFFFFFFFFFFFFFFFFFFFFFFFFCFFFFFFFCFCFFFFFFFFFFFFFFFFFFFFFFFFFFFFFFFFFFFF
310
FFFFFFFFFFFFFFFFFCFFFFFFFCFCFFFFFFFFFFFFFFFFFFFFFFFFFFFFFFFFFFFFFFFFFFFFFFFFFFFCFFFFFFFFFCFCFFFFFFFFFFFFFFFFFFFCFCFCFCFCFCFCFCFCFCFCFCFCFCFCFCFFFFFFFFFFFCFCFFFFFFFFFFFFFFFFFFFCFFFFFFFFFFFFFFFFFFFFFFFFFFFCFFFFFFFFFFFFFCFCFFFFFFFFFFFFFFFFFCFCFCFCFCFCFCFCFC
310
FCFCFCFCFCFCFFFFFFFFFFFFFFFCFCFFFFFFFFFFFFFFFFFCFCFFFFFFFFFFFFFFFFFFFFFFFFFFFFFFFFFFFFFFFFFCFCFFFFFFFFFFFFFFFFFCFCFFFFFFFFFFFFFFFFFFFFFFFFFFFFFFFFFFFFFFFFFCFCFFFFFFFFFFFFFFFFFCFCFFFFFFFFFFFFFFFFFFFFFFFFFFFFFFFFFFFFFFFFFCFCFFFFFFFFFFFFFFFFFCFCFFFFFFFFFFFF
310
FFFFFFFFFFFFFFFFFFFFFFFFFFFFFCFCFFFFFFFFFFFFFFFFFCFCFFFFFFFFFFFFFFFFFFFFFFFFFFFFFFFFFFFFFFFFFCFCFFFFFFFFFFFFFFFFFCFCFFFFFFFFFFFFFFFFFFFFFFFFFFFFFFFFFFFFFFFFFCFCFFFFFFFFFFFFFFFFFCFCFFFFFFFFFFFFFFFFFFFFFFFFFFFFFFFFFFFFFFFFFCFCFFFFFFFFFFFFFFFFFCFCFFFFFFFFFF
310
FFFFFFFFFFFFFFFFFFFFFFFFFFFFFFFCFCFFFFFFFFFFFFFFFFFCFCFFFFFFFFFFFFFFFFFFFFFFFFFFFFFFFFFFFFFFFFFCFCFFFFFFFFFFFFFFFFFCFCFFFFFFFFFFFFFFFFFFFFFFFFFFFFFFFFFFFFFFFFFCFCFFFFFFFFFFFFFFFFFCFCFCFCFCFCFCFCFCFCFCFCFCFCFCFFFFFFFFFFFFFFFCFCFFFFFFFFFFFFFFFFFFFCFFFFFFFF
310
FFFFFFFFFFFFFFFFFFFCFFFFFFFFFFFFFCFCFFFFFFFFFFFFFFFFFFFCFCFCFCFCFCFCFCFCFCFCFCFCFCFCFCFFFFFFFFFFFCFCFFFFFFFFFFFFFFFFFFFFFFFFFFFFFFFFFFFFFFFFFFFFFFFFFFFCFFFFFFFFFCFCFFFFFFFFFFFFFFFFFFFFFFFFFFFFFFFFFFFFFFFFFFFFFFFFFFFFFCFFFFFFFCFCFFFFFFFFFFFFFFFFFFFFFFFFFF
310
FFFFFFFFFFFFFFFFFFFFFFFFFFFCFFFFFFFCFCFFFFFFFFFFFFFFFFFFFFFFFFFFFFFFFFFFFFFFFFFFFFFFFFFFFFFFFCFFFFFCFCFFFFFFFFFFFFFFFFFFFFFFFFFFFFFFFFFFFFFFFFFFFFFFFFFFFFFFFFFCFFFCFCFFFFFFFFFFFFFFFFFFFFFFFFFFFFFFFFFFFFFFFFFFFFFFFFFFFFFFFFFFFCFCFCFFFFFFFFFFFFFFFFFFFFFFFF
310
FFFFFFFFFFFFFFFFFFFFFFFFFFFFFFFFFFFFFCFCFFFFFFFFFFFFFFFFFFFFFFFFFFFFFFFFFFFFFFFFFFFFFFFFFFFFFFFFFFFFFFFFFFFFFFFF
102
{BLKREFS
331
D259
331
D250
102
}
  0
BLOCK_RECORD
  5
D26B
330
1
100
AcDbSymbolTableRecord
100
AcDbBlockTableRecord
  2
*D12
340
0
  0
BLOCK_RECORD
  5
D277
330
1
100
AcDbSymbolTableRecord
100
AcDbBlockTableRecord
  2
*D13
340
0
  0
BLOCK_RECORD
  5
D32B
330
1
100
AcDbSymbolTableRecord
100
AcDbBlockTableRecord
  2
LCD-F
340
0
310
2800000020000000200000000100080000000000000400000000000000000000000000000000000000000000000080000080000000808000800000008000800080800000C0C0C000C0DCC000F0CAA6000020400000206000002080000020A0000020C0000020E00000400000004020000040400000406000004080000040A0
310
000040C0000040E00000600000006020000060400000606000006080000060A0000060C0000060E00000800000008020000080400000806000008080000080A0000080C0000080E00000A0000000A0200000A0400000A0600000A0800000A0A00000A0C00000A0E00000C0000000C0200000C0400000C0600000C0800000C0
310
A00000C0C00000C0E00000E0000000E0200000E0400000E0600000E0800000E0A00000E0C00000E0E00040000000400020004000400040006000400080004000A0004000C0004000E00040200000402020004020400040206000402080004020A0004020C0004020E000404000004040200040404000404060004040800040
310
40A0004040C0004040E00040600000406020004060400040606000406080004060A0004060C0004060E00040800000408020004080400040806000408080004080A0004080C0004080E00040A0000040A0200040A0400040A0600040A0800040A0A00040A0C00040A0E00040C0000040C0200040C0400040C0600040C08000
310
40C0A00040C0C00040C0E00040E0000040E0200040E0400040E0600040E0800040E0A00040E0C00040E0E00080000000800020008000400080006000800080008000A0008000C0008000E00080200000802020008020400080206000802080008020A0008020C0008020E00080400000804020008040400080406000804080
310
008040A0008040C0008040E00080600000806020008060400080606000806080008060A0008060C0008060E00080800000808020008080400080806000808080008080A0008080C0008080E00080A0000080A0200080A0400080A0600080A0800080A0A00080A0C00080A0E00080C0000080C0200080C0400080C0600080C0
310
800080C0A00080C0C00080C0E00080E0000080E0200080E0400080E0600080E0800080E0A00080E0C00080E0E000C0000000C0002000C0004000C0006000C0008000C000A000C000C000C000E000C0200000C0202000C0204000C0206000C0208000C020A000C020C000C020E000C0400000C0402000C0404000C0406000C0
310
408000C040A000C040C000C040E000C0600000C0602000C0604000C0606000C0608000C060A000C060C000C060E000C0800000C0802000C0804000C0806000C0808000C080A000C080C000C080E000C0A00000C0A02000C0A04000C0A06000C0A08000C0A0A000C0A0C000C0A0E000C0C00000C0C02000C0C04000C0C06000
310
C0C08000C0C0A000F0FBFF00A4A0A000808080000000FF0000FF000000FFFF00FF000000FF00FF00FFFF0000FFFFFF00FFFFFFFFFFFFFFFFFFFFFFFFFFFFFFFFFFFFFFFFFFFFFFFFFFFFFFFFFFFFFFFFFFFFFFFFFFFFFFFFFFFFFFFFFFFFFFFFFFFFFFFFFFFFFFFFFFFFFFFFFFFFFFFFFFFFFFFFFFFFFFFFFFFFFFFFFFFFFF
310
FFFFFFFFFFFFFFFFFFFFFFFFFFFFFFFFFFFFFFFFFFFFFFFFFFFFFFFFFFFFFFFFFFFFFFFFFFFFFFFFFFFFFFFFFFFFFFFFFFFFFFFFFFFFFFFFFFFFFFFFFFFFFFFFFFFFFFFFFFFFFFFFFFFFFFFFFFFFFFFFFFFFFFFFFFFFFFFFFFFFFFFFFFFFFFFFFFFFFFFFFFFFFFFFFFFFFFFFFFFFFFFFFFFFFFFFFFFFFFFFFFFFFFFFFFFFFF
310
FFFFFFFFFFFFFFFFFFFFFFFFFFFFFFFFFFFFFFFFFFFFFFFFFFFFFFFFFFFFFFFFFFFFFFFFFFFFFFFFFFFFFFFFFFFFFFFFFFFFFFFFFCFCFCFCFCFCFCFCFCFCFCFCFCFCFCFCFCFCFCFCFCFCFCFCFCFCFCFCFFFFFFFCFCFFFFFFFFFFFFFFFFFFFFFFFFFFFFFFFFFFFFFFFFFFFFFFFFFFFFFCFCFFFFFCFCFCFCFCFCFCFCFCFCFCFC
310
FCFCFCFCFCFCFCFCFCFCFCFCFCFCFCFCFCFCFFFFFCFFFCFCFCFCFCFCFCFCFCFCFCFCFCFCFCFCFCFCFCFCFCFCFCFCFCFCFFFCFFFFFCFFFCFCFCFCFCFCFCFCFCFCFCFCFCFCFCFCFCFCFCFCFCFCFCFCFCFCFFFCFFFFFCFFFCFFFCFFFCFCFFFCFFFFFCFFFCFCFFFCFFFFFCFFFCFCFFFCFFFCFFFCFFFFFCFFFCFCFCFFFCFCFFFCFF
310
FFFCFFFCFCFFFCFFFFFCFFFCFCFFFCFCFCFFFCFFFFFCFFFCFCFCFCFCFCFCFCFCFCFCFCFCFCFCFCFCFCFCFCFCFCFCFCFCFCFFFCFFFFFCFFFCFCFCFCFCFCFCFCFCFCFCFCFCFCFCFCFCFCFCFCFCFCFCFCFCFCFFFCFFFFFCFFFCFCFCFFFCFCFFFCFFFFFCFFFCFCFFFCFFFFFCFFFCFCFFFCFCFCFFFCFFFFFCFFFCFFFCFFFCFCFFFC
310
FFFFFCFFFCFCFFFCFFFFFCFFFCFCFFFCFFFCFFFCFFFFFCFFFCFCFCFCFCFCFCFCFCFCFCFCFCFCFCFCFCFCFCFCFCFCFCFCFCFCFFFCFFFFFCFFFCFCFCFCFCFCFCFCFCFCFCFCFCFCFCFCFCFCFCFCFCFCFCFCFCFCFFFCFFFFFCFCFCFCFCFCFCFCFCFCFCFCFCFCFCFCFCFCFCFCFCFCFCFCFCFCFCFCFCFCFFFFFCFCFFFFFFFFFFFFFF
310
FFFFFFFFFFFFFFFFFFFFFFFFFFFFFFFFFFFFFFFCFCFFFFFFFCFCFCFCFCFCFCFCFCFCFCFCFCFCFCFCFCFCFCFCFCFCFCFCFCFCFCFCFFFFFFFFFFFFFFFFFFFFFFFFFFFFFFFFFFFFFFFFFFFFFFFFFFFFFFFFFFFFFFFFFFFFFFFFFFFFFFFFFFFFFFFFFFFFFFFFFFFFFFFFFFFFFFFFFFFFFFFFFFFFFFFFFFFFFFFFFFFFFFFFFFFFFF
310
FFFFFFFFFFFFFFFFFFFFFFFFFFFFFFFFFFFFFFFFFFFFFFFFFFFFFFFFFFFFFFFFFFFFFFFFFFFFFFFFFFFFFFFFFFFFFFFFFFFFFFFFFFFFFFFFFFFFFFFFFFFFFFFFFFFFFFFFFFFFFFFFFFFFFFFFFFFFFFFFFFFFFFFFFFFFFFFFFFFFFFFFFFFFFFFFFFFFFFFFFFFFFFFFFFFFFFFFFFFFFFFFFFFFFFFFFFFFFFFFFFFFFFFFFFFFFF
310
FFFFFFFFFFFFFFFFFFFFFFFFFFFFFFFFFFFFFFFFFFFFFFFFFFFFFFFFFFFFFFFFFFFFFFFFFFFFFFFFFFFFFFFFFFFFFFFFFFFFFFFFFFFFFFFF
  0
ENDTAB
  0
ENDSEC
  0
SECTION
  2
BLOCKS
  0
BLOCK
  5
1B
330
1A
100
AcDbEntity
  8
0
100
AcDbBlockBegin
  2
*MODEL_SPACE
 70
     0
 10
0.0
 20
0.0
 30
0.0
  3
*MODEL_SPACE
  1

  0
ENDBLK
  5
1C
330
1A
100
AcDbEntity
  8
0
100
AcDbBlockEnd
  0
BLOCK
  5
18
330
17
100
AcDbEntity
 67
     1
  8
0
100
AcDbBlockBegin
  2
*PAPER_SPACE
 70
     0
 10
0.0
 20
0.0
 30
0.0
  3
*PAPER_SPACE
  1

  0
ENDBLK
  5
19
330
17
100
AcDbEntity
 67
     1
  8
0
100
AcDbBlockEnd
  0
BLOCK
  5
BB
330
BA
100
AcDbEntity
  8
0
100
AcDbBlockBegin
  2
_OPEN
 70
     0
 10
0.0
 20
0.0
 30
0.0
  3
_OPEN
  1

  0
LINE
  5
BC
330
BA
100
AcDbEntity
  8
0
  6
ByBlock
 62
     0
100
AcDbLine
 10
-1.0
 20
0.1666666666666666
 30
0.0
 11
0.0
 21
0.0
 31
0.0
  0
LINE
  5
BD
330
BA
100
AcDbEntity
  8
0
  6
ByBlock
 62
     0
100
AcDbLine
 10
0.0
 20
0.0
 30
0.0
 11
-1.0
 21
-0.1666666666666666
 31
0.0
  0
LINE
  5
BE
330
BA
100
AcDbEntity
  8
0
  6
ByBlock
 62
     0
100
AcDbLine
 10
0.0
 20
0.0
 30
0.0
 11
-1.0
 21
0.0
 31
0.0
  0
ENDBLK
  5
BF
330
BA
100
AcDbEntity
  8
0
100
AcDbBlockEnd
  0
BLOCK
  5
C38A
330
C389
100
AcDbEntity
  8
0
100
AcDbBlockBegin
  2
DRT-1-SIDE
 70
     0
 10
0.0
 20
0.0
 30
0.0
  3
DRT-1-SIDE
  1

  0
LINE
  5
C38B
330
C389
100
AcDbEntity
  8
0
100
AcDbLine
 10
0.0
 20
32.5
 30
0.0
 11
0.0
 21
-32.5
 31
0.0
  0
LINE
  5
C38C
330
C389
100
AcDbEntity
  8
0
100
AcDbLine
 10
-3.5
 20
-32.5
 30
0.0
 11
0.0
 21
-32.5
 31
0.0
  0
LINE
  5
C38D
330
C389
100
AcDbEntity
  8
0
100
AcDbLine
 10
-3.5
 20
32.5
 30
0.0
 11
-3.5
 21
-32.5
 31
0.0
  0
LINE
  5
C38E
330
C389
100
AcDbEntity
  8
0
100
AcDbLine
 10
-7.5
 20
-19.5
 30
0.0
 11
-3.5
 21
-19.5
 31
0.0
  0
LINE
  5
C38F
330
C389
100
AcDbEntity
  8
0
100
AcDbLine
 10
-7.5
 20
-17.5
 30
0.0
 11
-7.5
 21
-19.5
 31
0.0
  0
LINE
  5
C390
330
C389
100
AcDbEntity
  8
0
100
AcDbLine
 10
-6.199999999999988
 20
-16.5
 30
0.0
 11
-7.5
 21
-17.5
 31
0.0
  0
LINE
  5
C391
330
C389
100
AcDbEntity
  8
0
100
AcDbLine
 10
-5.199999999999988
 20
-16.5
 30
0.0
 11
-6.199999999999988
 21
-16.5
 31
0.0
  0
LINE
  5
C392
330
C389
100
AcDbEntity
  8
0
100
AcDbLine
 10
-5.199999999999988
 20
-17.5
 30
0.0
 11
-5.199999999999988
 21
-16.5
 31
0.0
  0
LINE
  5
C393
330
C389
100
AcDbEntity
  8
0
100
AcDbLine
 10
-3.5
 20
-17.5
 30
0.0
 11
-5.199999999999988
 21
-17.5
 31
0.0
  0
LINE
  5
C394
330
C389
100
AcDbEntity
  8
0
100
AcDbLine
 10
-6.199999999999988
 20
20.5
 30
0.0
 11
-6.199999999999988
 21
19.49999999999997
 31
0.0
  0
LINE
  5
C395
330
C389
100
AcDbEntity
  8
0
100
AcDbLine
 10
-3.5
 20
20.5
 30
0.0
 11
-6.199999999999988
 21
20.5
 31
0.0
  0
LINE
  5
C396
330
C389
100
AcDbEntity
  8
0
100
AcDbLine
 10
-7.199999999999988
 20
19.49999999999997
 30
0.0
 11
-3.5
 21
19.49999999999997
 31
0.0
  0
LINE
  5
C397
330
C389
100
AcDbEntity
  8
0
100
AcDbLine
 10
-7.199999999999988
 20
17.5
 30
0.0
 11
-7.199999999999988
 21
19.49999999999997
 31
0.0
  0
LINE
  5
C398
330
C389
100
AcDbEntity
  8
0
100
AcDbLine
 10
-6.199999999999988
 20
16.5
 30
0.0
 11
-7.199999999999988
 21
17.5
 31
0.0
  0
LINE
  5
C399
330
C389
100
AcDbEntity
  8
0
100
AcDbLine
 10
-5.199999999999988
 20
16.5
 30
0.0
 11
-6.199999999999988
 21
16.5
 31
0.0
  0
LINE
  5
C39A
330
C389
100
AcDbEntity
  8
0
100
AcDbLine
 10
-5.199999999999988
 20
17.5
 30
0.0
 11
-5.199999999999988
 21
16.5
 31
0.0
  0
LINE
  5
C39B
330
C389
100
AcDbEntity
  8
0
100
AcDbLine
 10
-3.5
 20
17.5
 30
0.0
 11
-5.199999999999988
 21
17.5
 31
0.0
  0
LINE
  5
C39C
330
C389
100
AcDbEntity
  8
0
100
AcDbLine
 10
-8.600000000000022
 20
-7.150000000000019
 30
0.0
 11
-3.5
 21
-9.150000000000019
 31
0.0
  0
LINE
  5
C39D
330
C389
100
AcDbEntity
  8
0
100
AcDbLine
 10
-8.600000000000022
 20
-6.150000000000034
 30
0.0
 11
-8.600000000000022
 21
-7.150000000000019
 31
0.0
  0
LINE
  5
C39E
330
C389
100
AcDbEntity
  8
0
100
AcDbLine
 10
-4.5
 20
0.0
 30
0.0
 11
-8.600000000000022
 21
-6.150000000000034
 31
0.0
  0
LINE
  5
C39F
330
C389
100
AcDbEntity
  8
0
100
AcDbLine
 10
-8.600000000000022
 20
6.150000000000034
 30
0.0
 11
-4.5
 21
0.0
 31
0.0
  0
LINE
  5
C3A0
330
C389
100
AcDbEntity
  8
0
100
AcDbLine
 10
-8.600000000000022
 20
7.150000000000034
 30
0.0
 11
-8.600000000000022
 21
6.150000000000034
 31
0.0
  0
LINE
  5
C3A1
330
C389
100
AcDbEntity
  8
0
100
AcDbLine
 10
-3.5
 20
9.150000000000034
 30
0.0
 11
-8.600000000000022
 21
7.150000000000034
 31
0.0
  0
LINE
  5
C3A2
330
C389
100
AcDbEntity
  8
0
100
AcDbLine
 10
-9.600000000000022
 20
-8.150000000000019
 30
0.0
 11
-3.5
 21
-10.15000000000002
 31
0.0
  0
LINE
  5
C3A3
330
C389
100
AcDbEntity
  8
0
100
AcDbLine
 10
-9.600000000000022
 20
-6.150000000000034
 30
0.0
 11
-9.600000000000022
 21
-8.150000000000019
 31
0.0
  0
LINE
  5
C3A4
330
C389
100
AcDbEntity
  8
0
100
AcDbLine
 10
-5.5
 20
0.0
 30
0.0
 11
-9.600000000000022
 21
-6.150000000000034
 31
0.0
  0
LINE
  5
C3A5
330
C389
100
AcDbEntity
  8
0
100
AcDbLine
 10
-9.600000000000022
 20
6.150000000000034
 30
0.0
 11
-5.5
 21
0.0
 31
0.0
  0
LINE
  5
C3A6
330
C389
100
AcDbEntity
  8
0
100
AcDbLine
 10
-9.600000000000022
 20
8.150000000000034
 30
0.0
 11
-9.600000000000022
 21
6.150000000000034
 31
0.0
  0
LINE
  5
C3A7
330
C389
100
AcDbEntity
  8
0
100
AcDbLine
 10
-3.5
 20
10.15000000000003
 30
0.0
 11
-9.600000000000022
 21
8.150000000000034
 31
0.0
  0
LINE
  5
C3A8
330
C389
100
AcDbEntity
  8
0
100
AcDbLine
 10
-3.5
 20
32.5
 30
0.0
 11
0.0
 21
32.5
 31
0.0
  0
ENDBLK
  5
C3A9
330
C389
100
AcDbEntity
  8
0
100
AcDbBlockEnd
  0
BLOCK
  5
C41E
330
C41D
100
AcDbEntity
  8
0
100
AcDbBlockBegin
  2
M3-TOP
 70
     0
 10
0.0
 20
0.0
 30
0.0
  3
M3-TOP
  1

  0
CIRCLE
  5
C41F
330
C41D
100
AcDbEntity
  8
0
100
AcDbCircle
 10
0.0
 20
0.0
 30
0.0
 40
3.150000000000034
  0
LWPOLYLINE
  5
C420
330
C41D
100
AcDbEntity
  8
0
100
AcDbPolyline
 90
       13
 70
     0
 43
0.0
 10
-2.0
 20
0.5
 10
-2.0
 20
-0.5
 10
-0.5
 20
-0.5
 10
-0.5
 20
-2.0
 10
0.5
 20
-2.0
 10
0.5
 20
-0.5
 10
2.0
 20
-0.5
 10
2.0
 20
0.5
 10
0.5
 20
0.5
 10
0.5
 20
2.0
 10
-0.5
 20
2.0
 10
-0.5
 20
0.5
 10
-2.0
 20
0.5
  0
ENDBLK
  5
C421
330
C41D
100
AcDbEntity
  8
0
100
AcDbBlockEnd
  0
BLOCK
  5
C423
330
C422
100
AcDbEntity
  8
0
100
AcDbBlockBegin
  2
BLKF0013
 70
     0
 10
0.0
 20
0.0
 30
0.0
  3
BLKF0013
  1

  0
LINE
  5
C424
330
C422
100
AcDbEntity
  8
0
  6
Continuous
 62
     4
100
AcDbLine
 10
97.229988
 20
80.097173
 30
0.0
 11
98.62998799999999
 21
81.497173
 31
0.0
  0
LINE
  5
C425
330
C422
100
AcDbEntity
  8
0
  6
Continuous
 62
     4
100
AcDbLine
 10
95.815774
 20
80.097173
 30
0.0
 11
97.21577400000001
 21
81.497173
 31
0.0
  0
LINE
  5
C426
330
C422
100
AcDbEntity
  8
0
  6
Continuous
 62
     4
100
AcDbLine
 10
94.40156100000001
 20
80.097173
 30
0.0
 11
95.80156099999999
 21
81.497173
 31
0.0
  0
LINE
  5
C427
330
C422
100
AcDbEntity
  8
0
  6
Continuous
 62
     4
100
AcDbLine
 10
93.277117
 20
80.38694300000001
 30
0.0
 11
94.38734699999999
 21
81.497173
 31
0.0
  0
LINE
  5
C428
330
C422
100
AcDbEntity
  8
0
  6
Continuous
 62
     4
100
AcDbLine
 10
92.748179
 20
81.272219
 30
0.0
 11
93.898617
 21
82.422657
 31
0.0
  0
LINE
  5
C429
330
C422
100
AcDbEntity
  8
0
  6
Continuous
 62
     4
100
AcDbLine
 10
92.72998800000001
 20
82.668241
 30
0.0
 11
93.72998800000001
 21
83.668241
 31
0.0
  0
LINE
  5
C42A
330
C422
100
AcDbEntity
  8
0
  6
Continuous
 62
     4
100
AcDbLine
 10
92.72998800000001
 20
84.08245500000001
 30
0.0
 11
93.72370699999999
 21
85.07617399999999
 31
0.0
  0
LINE
  5
C42B
330
C422
100
AcDbEntity
  8
0
  6
Continuous
 62
     4
100
AcDbLine
 10
98.49057700000001
 20
79.94354799999999
 30
0.0
 11
99.62701899999999
 21
81.07999000000001
 31
0.0
  0
LINE
  5
C42C
330
C422
100
AcDbEntity
  8
0
  6
Continuous
 62
     4
100
AcDbLine
 10
98.62998799999999
 20
78.668746
 30
0.0
 11
100.029988
 21
80.06874599999999
 31
0.0
  0
LINE
  5
C42D
330
C422
100
AcDbEntity
  8
0
  6
Continuous
 62
     4
100
AcDbLine
 10
98.62998799999999
 20
77.254532
 30
0.0
 11
100.029988
 21
78.65453199999999
 31
0.0
  0
LINE
  5
C42E
330
C422
100
AcDbEntity
  8
0
  6
Continuous
 62
     4
100
AcDbLine
 10
98.62998799999999
 20
75.84031899999999
 30
0.0
 11
100.029988
 21
77.24031899999999
 31
0.0
  0
LINE
  5
C42F
330
C422
100
AcDbEntity
  8
0
  6
Continuous
 62
     4
100
AcDbLine
 10
98.62998799999999
 20
74.426105
 30
0.0
 11
100.029988
 21
75.826105
 31
0.0
  0
LINE
  5
C430
330
C422
100
AcDbEntity
  8
0
  6
Continuous
 62
     4
100
AcDbLine
 10
98.62998799999999
 20
73.011892
 30
0.0
 11
100.029988
 21
74.41189200000001
 31
0.0
  0
LINE
  5
C431
330
C422
100
AcDbEntity
  8
0
  6
Continuous
 62
     4
100
AcDbLine
 10
98.62998799999999
 20
71.597678
 30
0.0
 11
100.029988
 21
72.99767800000001
 31
0.0
  0
LINE
  5
C432
330
C422
100
AcDbEntity
  8
0
  6
Continuous
 62
     4
100
AcDbLine
 10
98.62998799999999
 20
70.18346499999999
 30
0.0
 11
100.029988
 21
71.583465
 31
0.0
  0
LINE
  5
C433
330
C422
100
AcDbEntity
  8
0
  6
Continuous
 62
     4
100
AcDbLine
 10
98.62998799999999
 20
68.769251
 30
0.0
 11
100.029988
 21
70.169251
 31
0.0
  0
LINE
  5
C434
330
C422
100
AcDbEntity
  8
0
  6
Continuous
 62
     4
100
AcDbLine
 10
98.62998799999999
 20
67.355038
 30
0.0
 11
100.029988
 21
68.755038
 31
0.0
  0
LINE
  5
C435
330
C422
100
AcDbEntity
  8
0
  6
Continuous
 62
     4
100
AcDbLine
 10
98.62998799999999
 20
65.94082399999999
 30
0.0
 11
100.029988
 21
67.340824
 31
0.0
  0
LINE
  5
C436
330
C422
100
AcDbEntity
  8
0
  6
Continuous
 62
     4
100
AcDbLine
 10
98.62998799999999
 20
64.52660999999999
 30
0.0
 11
100.029988
 21
65.92660999999999
 31
0.0
  0
LINE
  5
C437
330
C422
100
AcDbEntity
  8
0
  6
Continuous
 62
     4
100
AcDbLine
 10
98.62998799999999
 20
63.11239699999999
 30
0.0
 11
100.029988
 21
64.51239699999999
 31
0.0
  0
LINE
  5
C438
330
C422
100
AcDbEntity
  8
0
  6
Continuous
 62
     4
100
AcDbLine
 10
98.62998799999999
 20
61.69818299999999
 30
0.0
 11
100.029988
 21
63.09818299999999
 31
0.0
  0
LINE
  5
C439
330
C422
100
AcDbEntity
  8
0
  6
Continuous
 62
     4
100
AcDbLine
 10
92.72998800000001
 20
54.38397
 30
0.0
 11
94.24319100000001
 21
55.897173
 31
0.0
  0
LINE
  5
C43A
330
C422
100
AcDbEntity
  8
0
  6
Continuous
 62
     4
100
AcDbLine
 10
98.62998799999999
 20
60.28397
 30
0.0
 11
100.029988
 21
61.68396999999999
 31
0.0
  0
LINE
  5
C43B
330
C422
100
AcDbEntity
  8
0
  6
Continuous
 62
     4
100
AcDbLine
 10
92.72998800000001
 20
52.969756
 30
0.0
 11
94.087516
 21
54.327284
 31
0.0
  0
LINE
  5
C43C
330
C422
100
AcDbEntity
  8
0
  6
Continuous
 62
     4
100
AcDbLine
 10
94.25740500000001
 20
54.49717299999999
 30
0.0
 11
95.65740500000002
 21
55.897173
 31
0.0
  0
LINE
  5
C43D
330
C422
100
AcDbEntity
  8
0
  6
Continuous
 62
     4
100
AcDbLine
 10
98.62998799999999
 20
58.869756
 30
0.0
 11
100.029988
 21
60.269756
 31
0.0
  0
LINE
  5
C43E
330
C422
100
AcDbEntity
  8
0
  6
Continuous
 62
     4
100
AcDbLine
 10
92.72998800000001
 20
51.555543
 30
0.0
 11
93.72998800000001
 21
52.555543
 31
0.0
  0
LINE
  5
C43F
330
C422
100
AcDbEntity
  8
0
  6
Continuous
 62
     4
100
AcDbLine
 10
95.671618
 20
54.49717299999999
 30
0.0
 11
97.07161800000001
 21
55.897173
 31
0.0
  0
LINE
  5
C440
330
C422
100
AcDbEntity
  8
0
  6
Continuous
 62
     4
100
AcDbLine
 10
98.62998799999999
 20
57.45554300000001
 30
0.0
 11
100.029988
 21
58.855543
 31
0.0
  0
LINE
  5
C441
330
C422
100
AcDbEntity
  8
0
  6
Continuous
 62
     4
100
AcDbLine
 10
93.102388
 20
50.513729
 30
0.0
 11
93.72998800000001
 21
51.141329
 31
0.0
  0
LINE
  5
C442
330
C422
100
AcDbEntity
  8
0
  6
Continuous
 62
     4
100
AcDbLine
 10
97.08583199999999
 20
54.49717299999999
 30
0.0
 11
100.029988
 21
57.441329
 31
0.0
  0
LINE
  5
C443
330
C422
100
AcDbEntity
  8
0
  6
Continuous
 62
     4
100
AcDbLine
 10
98.500046
 20
54.49717299999999
 30
0.0
 11
100.029988
 21
56.027115
 31
0.0
  0
ENDBLK
  5
C444
330
C422
100
AcDbEntity
  8
0
100
AcDbBlockEnd
  0
BLOCK
  5
C4F8
330
C4F7
100
AcDbEntity
  8
0
100
AcDbBlockBegin
  2
M2.6-TOP
 70
     0
 10
0.0
 20
0.0
 30
0.0
  3
M2.6-TOP
  1

  0
LWPOLYLINE
  5
C4F9
330
C4F7
100
AcDbEntity
  8
0
100
AcDbPolyline
 90
       13
 70
     0
 43
0.0
 10
-0.5
 20
0.5
 10
-1.5
 20
0.5
 10
-1.5
 20
-0.5
 10
-0.5
 20
-0.5
 10
-0.5
 20
-1.5
 10
0.5
 20
-1.5
 10
0.5
 20
-0.5
 10
1.5
 20
-0.5
 10
1.5
 20
0.5
 10
0.5
 20
0.5
 10
0.5
 20
1.5
 10
-0.5
 20
1.5
 10
-0.5
 20
0.5
  0
CIRCLE
  5
C4FA
330
C4F7
100
AcDbEntity
  8
0
100
AcDbCircle
 10
0.0
 20
0.0
 30
0.0
 40
2.25
  0
ENDBLK
  5
C4FB
330
C4F7
100
AcDbEntity
  8
0
100
AcDbBlockEnd
  0
BLOCK
  5
CA09
330
C9FF
100
AcDbEntity
  8
0
100
AcDbBlockBegin
  2
*D5
 70
     1
 10
0.0
 20
0.0
 30
0.0
  3
*D5
  1

  0
LINE
  5
CA5B
330
C9FF
100
AcDbEntity
  8
SUNPOU
 62
     0
370
    -2
100
AcDbLine
 10
40.49999999999998
 20
215.0
 30
0.0
 11
29.57649323789043
 21
215.0
 31
0.0
  0
LINE
  5
CA5C
330
C9FF
100
AcDbEntity
  8
SUNPOU
 62
     0
370
    -2
100
AcDbLine
 10
40.50000000000004
 20
125.0
 30
0.0
 11
29.57649323789042
 21
125.0
 31
0.0
  0
LINE
  5
CA5D
330
C9FF
100
AcDbEntity
  8
SUNPOU
 62
     0
370
    -2
100
AcDbLine
 10
30.07649323789044
 20
212.5
 30
0.0
 11
30.07649323789042
 21
127.5
 31
0.0
  0
INSERT
  5
CA5E
330
C9FF
100
AcDbEntity
  8
SUNPOU
 62
     0
370
    -2
100
AcDbBlockReference
  2
_OPEN
 10
30.07649323789044
 20
215.0
 30
0.0
 41
2.5
 42
2.5
 43
2.5
 50
90.0
  0
INSERT
  5
CA5F
330
C9FF
100
AcDbEntity
  8
SUNPOU
 62
     0
370
    -2
100
AcDbBlockReference
  2
_OPEN
 10
30.07649323789042
 20
125.0
 30
0.0
 41
2.5
 42
2.5
 43
2.5
 50
270.0
  0
MTEXT
  5
CA60
330
C9FF
100
AcDbEntity
  8
SUNPOU
 62
     0
100
AcDbMText
 10
27.0764932378904
 20
170.0
 30
0.0
 40
5.0
 41
0.0
 71
     5
 72
     1
  1
\A1;90
 11
0.0000000000000001
 21
1.0
 31
0.0
 73
     1
 44
1.0
1001
ACAD
1000
MTEXTBEGIN
1070
    73
1070
     1
1070
    44
1040
1.0
1070
    74
1070
     0
1000
MTEXTEND
  0
POINT
  5
CA61
330
C9FF
100
AcDbEntity
  8
DEFPOINTS
 62
     0
100
AcDbPoint
 10
40.99999999999998
 20
215.0
 30
0.0
  0
POINT
  5
CA62
330
C9FF
100
AcDbEntity
  8
DEFPOINTS
 62
     0
100
AcDbPoint
 10
41.00000000000004
 20
125.0
 30
0.0
  0
POINT
  5
CA63
330
C9FF
100
AcDbEntity
  8
DEFPOINTS
 62
     0
100
AcDbPoint
 10
30.07649323789042
 20
125.0
 30
0.0
  0
ENDBLK
  5
CA0A
330
C9FF
100
AcDbEntity
  8
0
100
AcDbBlockEnd
  0
BLOCK
  5
CA16
330
CA0C
100
AcDbEntity
  8
0
100
AcDbBlockBegin
  2
*D6
 70
     1
 10
0.0
 20
0.0
 30
0.0
  3
*D6
  1

  0
LINE
  5
CA52
330
CA0C
100
AcDbEntity
  8
SUNPOU
 62
     0
370
    -2
100
AcDbLine
 10
41.00000000000005
 20
215.5
 30
0.0
 11
41.00000000000005
 21
240.4109919246343
 31
0.0
  0
LINE
  5
CA53
330
CA0C
100
AcDbEntity
  8
SUNPOU
 62
     0
370
    -2
100
AcDbLine
 10
98.99999999999991
 20
215.5
 30
0.0
 11
98.99999999999991
 21
240.4109919246343
 31
0.0
  0
LINE
  5
CA54
330
CA0C
100
AcDbEntity
  8
SUNPOU
 62
     0
370
    -2
100
AcDbLine
 10
43.50000000000005
 20
239.9109919246344
 30
0.0
 11
96.49999999999991
 21
239.9109919246344
 31
0.0
  0
INSERT
  5
CA55
330
CA0C
100
AcDbEntity
  8
SUNPOU
 62
     0
370
    -2
100
AcDbBlockReference
  2
_OPEN
 10
41.00000000000005
 20
239.9109919246344
 30
0.0
 41
2.5
 42
2.5
 43
2.5
 50
180.0
  0
INSERT
  5
CA56
330
CA0C
100
AcDbEntity
  8
SUNPOU
 62
     0
370
    -2
100
AcDbBlockReference
  2
_OPEN
 10
98.99999999999991
 20
239.9109919246344
 30
0.0
 41
2.5
 42
2.5
 43
2.5
  0
MTEXT
  5
CA57
330
CA0C
100
AcDbEntity
  8
SUNPOU
 62
     0
100
AcDbMText
 10
69.99999999999999
 20
242.9109919246343
 30
0.0
 40
5.0
 41
0.0
 71
     5
 72
     1
  1
\A1;58
 73
     1
 44
1.0
1001
ACAD
1000
MTEXTBEGIN
1070
    73
1070
     1
1070
    44
1040
1.0
1070
    74
1070
     0
1000
MTEXTEND
  0
POINT
  5
CA58
330
CA0C
100
AcDbEntity
  8
DEFPOINTS
 62
     0
100
AcDbPoint
 10
41.00000000000005
 20
215.0
 30
0.0
  0
POINT
  5
CA59
330
CA0C
100
AcDbEntity
  8
DEFPOINTS
 62
     0
100
AcDbPoint
 10
98.99999999999991
 20
215.0
 30
0.0
  0
POINT
  5
CA5A
330
CA0C
100
AcDbEntity
  8
DEFPOINTS
 62
     0
100
AcDbPoint
 10
98.99999999999991
 20
239.9109919246344
 30
0.0
  0
ENDBLK
  5
CA17
330
CA0C
100
AcDbEntity
  8
0
100
AcDbBlockEnd
  0
BLOCK
  5
CA23
330
CA19
100
AcDbEntity
  8
0
100
AcDbBlockBegin
  2
*D7
 70
     1
 10
0.0
 20
0.0
 30
0.0
  3
*D7
  1

  0
LINE
  5
D2C3
330
CA19
100
AcDbEntity
  8
SUNPOU
 62
     0
370
    -2
100
AcDbLine
 10
116.7
 20
214.7000000000001
 30
0.0
 11
116.7
 21
240.4109919246343
 31
0.0
  0
LINE
  5
D2C4
330
CA19
100
AcDbEntity
  8
SUNPOU
 62
     0
370
    -2
100
AcDbLine
 10
154.0
 20
203.0
 30
0.0
 11
154.0
 21
240.4109919246343
 31
0.0
  0
LINE
  5
D2C5
330
CA19
100
AcDbEntity
  8
SUNPOU
 62
     0
370
    -2
100
AcDbLine
 10
119.2
 20
239.9109919246344
 30
0.0
 11
151.5
 21
239.9109919246344
 31
0.0
  0
INSERT
  5
D2C6
330
CA19
100
AcDbEntity
  8
SUNPOU
 62
     0
370
    -2
100
AcDbBlockReference
  2
_OPEN
 10
116.7
 20
239.9109919246344
 30
0.0
 41
2.5
 42
2.5
 43
2.5
 50
180.0
  0
INSERT
  5
D2C7
330
CA19
100
AcDbEntity
  8
SUNPOU
 62
     0
370
    -2
100
AcDbBlockReference
  2
_OPEN
 10
154.0
 20
239.9109919246344
 30
0.0
 41
2.5
 42
2.5
 43
2.5
  0
MTEXT
  5
D2C8
330
CA19
100
AcDbEntity
  8
SUNPOU
 62
     0
100
AcDbMText
 10
135.35
 20
242.9109919246343
 30
0.0
 40
5.0
 41
0.0
 71
     5
 72
     1
  1
\A1;37.3
 73
     1
 44
1.0
1001
ACAD
1000
MTEXTBEGIN
1070
    73
1070
     1
1070
    44
1040
1.0
1070
    74
1070
     0
1000
MTEXTEND
  0
POINT
  5
D2C9
330
CA19
100
AcDbEntity
  8
DEFPOINTS
 62
     0
100
AcDbPoint
 10
116.7
 20
214.2
 30
0.0
  0
POINT
  5
D2CA
330
CA19
100
AcDbEntity
  8
DEFPOINTS
 62
     0
100
AcDbPoint
 10
154.0
 20
202.5
 30
0.0
  0
POINT
  5
D2CB
330
CA19
100
AcDbEntity
  8
DEFPOINTS
 62
     0
100
AcDbPoint
 10
154.0
 20
239.9109919246344
 30
0.0
  0
ENDBLK
  5
CA24
330
CA19
100
AcDbEntity
  8
0
100
AcDbBlockEnd
  0
BLOCK
  5
CAF8
330
CAF7
100
AcDbEntity
  8
0
100
AcDbBlockBegin
  2
_Open30
 70
     0
 10
0.0
 20
0.0
 30
0.0
  3
_Open30
  1

  0
LINE
  5
CAF9
330
CAF7
100
AcDbEntity
  8
0
  6
ByBlock
 62
     0
370
    -2
100
AcDbLine
 10
-1.0
 20
0.26794919
 30
0.0
 11
0.0
 21
0.0
 31
0.0
  0
LINE
  5
CAFA
330
CAF7
100
AcDbEntity
  8
0
  6
ByBlock
 62
     0
370
    -2
100
AcDbLine
 10
0.0
 20
0.0
 30
0.0
 11
-1.0
 21
-0.26794919
 31
0.0
  0
LINE
  5
CAFB
330
CAF7
100
AcDbEntity
  8
0
  6
ByBlock
 62
     0
370
    -2
100
AcDbLine
 10
0.0
 20
0.0
 30
0.0
 11
-1.0
 21
0.0
 31
0.0
  0
ENDBLK
  5
CAFC
330
CAF7
100
AcDbEntity
  8
0
100
AcDbBlockEnd
  0
BLOCK
  5
CB7B
330
CB7A
100
AcDbEntity
  8
0
100
AcDbBlockBegin
  2
ML-2300-H-10P-1
 70
     0
 10
0.0
 20
0.0
 30
0.0
  3
ML-2300-H-10P-1
  1

  0
LINE
  5
CB7C
330
CB7A
100
AcDbEntity
  8
0
100
AcDbLine
 10
-15.0
 20
9.5
 30
0.0
 11
-14.0
 21
9.5
 31
0.0
  0
ARC
  5
CB7D
330
CB7A
100
AcDbEntity
  8
0
100
AcDbCircle
 10
-15.0
 20
7.5
 30
0.0
 40
2.0
100
AcDbArc
 50
90.0
 51
143.1301023541566
  0
LINE
  5
CB7E
330
CB7A
100
AcDbEntity
  8
0
100
AcDbLine
 10
-16.0
 20
10.5
 30
0.0
 11
-14.0
 21
10.5
 31
0.0
  0
ARC
  5
CB7F
330
CB7A
100
AcDbEntity
  8
0
100
AcDbCircle
 10
-16.0
 20
9.5
 30
0.0
 40
1.0
100
AcDbArc
 50
90.0
 51
270.0
  0
LINE
  5
CB80
330
CB7A
100
AcDbEntity
  8
0
100
AcDbLine
 10
-17.5
 20
0.0
 30
0.0
 11
-17.5
 21
11.0
 31
0.0
  0
LINE
  5
CB81
330
CB7A
100
AcDbEntity
  8
0
100
AcDbLine
 10
-15.75
 20
6.300000000000011
 30
0.0
 11
-15.75
 21
2.699999999999988
 31
0.0
  0
LINE
  5
CB82
330
CB7A
100
AcDbEntity
  8
0
100
AcDbLine
 10
-15.75
 20
6.300000000000011
 30
0.0
 11
-17.5
 21
6.300000000000011
 31
0.0
  0
LINE
  5
CB83
330
CB7A
100
AcDbEntity
  8
0
100
AcDbLine
 10
-15.75
 20
2.699999999999988
 30
0.0
 11
-17.5
 21
2.699999999999988
 31
0.0
  0
CIRCLE
  5
CB84
330
CB7A
100
AcDbEntity
  8
SUNPOU
100
AcDbCircle
 10
-14.99999999999988
 20
3.0
 30
0.0
 40
0.5
  0
CIRCLE
  5
CB85
330
CB7A
100
AcDbEntity
  8
SUNPOU
100
AcDbCircle
 10
-14.99999999999988
 20
8.0
 30
0.0
 40
0.5
  0
CIRCLE
  5
CB86
330
CB7A
100
AcDbEntity
  8
SUNPOU
100
AcDbCircle
 10
-11.49999999999988
 20
8.0
 30
0.0
 40
0.5
  0
CIRCLE
  5
CB87
330
CB7A
100
AcDbEntity
  8
SUNPOU
100
AcDbCircle
 10
-11.49999999999988
 20
3.0
 30
0.0
 40
0.5
  0
ARC
  5
CB88
330
CB7A
100
AcDbEntity
  8
0
100
AcDbCircle
 10
-12.5
 20
9.5
 30
0.0
 40
1.0
100
AcDbArc
 50
90.0
 51
270.0
  0
LINE
  5
CB89
330
CB7A
100
AcDbEntity
  8
0
100
AcDbLine
 10
-12.5
 20
10.5
 30
0.0
 11
-10.5
 21
10.5
 31
0.0
  0
ARC
  5
CB8A
330
CB7A
100
AcDbEntity
  8
0
100
AcDbCircle
 10
-11.5
 20
7.5
 30
0.0
 40
2.0
100
AcDbArc
 50
90.0
 51
143.1301023541566
  0
LINE
  5
CB8B
330
CB7A
100
AcDbEntity
  8
0
100
AcDbLine
 10
-11.5
 20
9.5
 30
0.0
 11
-10.5
 21
9.5
 31
0.0
  0
LINE
  5
CB8C
330
CB7A
100
AcDbEntity
  8
0
100
AcDbLine
 10
-12.25
 20
2.699999999999988
 30
0.0
 11
-14.0
 21
2.699999999999988
 31
0.0
  0
LINE
  5
CB8D
330
CB7A
100
AcDbEntity
  8
0
100
AcDbLine
 10
-12.25
 20
6.300000000000011
 30
0.0
 11
-14.0
 21
6.300000000000011
 31
0.0
  0
LINE
  5
CB8E
330
CB7A
100
AcDbEntity
  8
0
100
AcDbLine
 10
-12.25
 20
6.300000000000011
 30
0.0
 11
-12.25
 21
2.699999999999988
 31
0.0
  0
LINE
  5
CB8F
330
CB7A
100
AcDbEntity
  8
0
100
AcDbLine
 10
-14.0
 20
0.0
 30
0.0
 11
-14.0
 21
11.0
 31
0.0
  0
LINE
  5
CB90
330
CB7A
100
AcDbEntity
  8
0
100
AcDbLine
 10
19.0
 20
11.0
 30
0.0
 11
-17.5
 21
11.0
 31
0.0
  0
LINE
  5
CB91
330
CB7A
100
AcDbEntity
  8
0
100
AcDbLine
 10
19.0
 20
0.0
 30
0.0
 11
19.0
 21
11.0
 31
0.0
  0
LINE
  5
CB92
330
CB7A
100
AcDbEntity
  8
0
100
AcDbLine
 10
19.0
 20
0.0
 30
0.0
 11
-17.5
 21
0.0
 31
0.0
  0
LINE
  5
CB93
330
CB7A
100
AcDbEntity
  8
0
100
AcDbLine
 10
17.5
 20
0.0
 30
0.0
 11
17.5
 21
11.0
 31
0.0
  0
LINE
  5
CB94
330
CB7A
100
AcDbEntity
  8
0
100
AcDbLine
 10
14.0
 20
0.0
 30
0.0
 11
14.0
 21
11.0
 31
0.0
  0
LINE
  5
CB95
330
CB7A
100
AcDbEntity
  8
0
100
AcDbLine
 10
7.0
 20
0.0
 30
0.0
 11
7.0
 21
11.0
 31
0.0
  0
LINE
  5
CB96
330
CB7A
100
AcDbEntity
  8
0
100
AcDbLine
 10
10.5
 20
0.0
 30
0.0
 11
10.5
 21
11.0
 31
0.0
  0
LINE
  5
CB97
330
CB7A
100
AcDbEntity
  8
0
100
AcDbLine
 10
-3.5
 20
0.0
 30
0.0
 11
-3.5
 21
11.0
 31
0.0
  0
LINE
  5
CB98
330
CB7A
100
AcDbEntity
  8
0
100
AcDbLine
 10
-7.0
 20
0.0
 30
0.0
 11
-7.0
 21
11.0
 31
0.0
  0
LINE
  5
CB99
330
CB7A
100
AcDbEntity
  8
0
100
AcDbLine
 10
0.0
 20
0.0
 30
0.0
 11
0.0
 21
11.0
 31
0.0
  0
LINE
  5
CB9A
330
CB7A
100
AcDbEntity
  8
0
100
AcDbLine
 10
3.5
 20
0.0
 30
0.0
 11
3.5
 21
11.0
 31
0.0
  0
LINE
  5
CB9B
330
CB7A
100
AcDbEntity
  8
0
100
AcDbLine
 10
-10.5
 20
0.0
 30
0.0
 11
-10.5
 21
11.0
 31
0.0
  0
LINE
  5
CB9C
330
CB7A
100
AcDbEntity
  8
0
100
AcDbLine
 10
15.75
 20
2.699999999999988
 30
0.0
 11
14.0
 21
2.699999999999988
 31
0.0
  0
LINE
  5
CB9D
330
CB7A
100
AcDbEntity
  8
0
100
AcDbLine
 10
15.75
 20
6.300000000000011
 30
0.0
 11
14.0
 21
6.300000000000011
 31
0.0
  0
LINE
  5
CB9E
330
CB7A
100
AcDbEntity
  8
0
100
AcDbLine
 10
15.75
 20
6.300000000000011
 30
0.0
 11
15.75
 21
2.699999999999988
 31
0.0
  0
LINE
  5
CB9F
330
CB7A
100
AcDbEntity
  8
0
100
AcDbLine
 10
19.0
 20
8.5
 30
0.0
 11
-17.5
 21
8.5
 31
0.0
  0
ARC
  5
CBA0
330
CB7A
100
AcDbEntity
  8
0
100
AcDbCircle
 10
15.5
 20
9.5
 30
0.0
 40
1.0
100
AcDbArc
 50
90.0
 51
270.0
  0
LINE
  5
CBA1
330
CB7A
100
AcDbEntity
  8
0
100
AcDbLine
 10
15.5
 20
10.5
 30
0.0
 11
17.5
 21
10.5
 31
0.0
  0
ARC
  5
CBA2
330
CB7A
100
AcDbEntity
  8
0
100
AcDbCircle
 10
16.5
 20
7.5
 30
0.0
 40
2.0
100
AcDbArc
 50
90.0
 51
143.1301023541566
  0
LINE
  5
CBA3
330
CB7A
100
AcDbEntity
  8
0
100
AcDbLine
 10
16.5
 20
9.5
 30
0.0
 11
17.5
 21
9.5
 31
0.0
  0
LINE
  5
CBA4
330
CB7A
100
AcDbEntity
  8
0
100
AcDbLine
 10
12.25
 20
6.300000000000011
 30
0.0
 11
12.25
 21
2.699999999999988
 31
0.0
  0
LINE
  5
CBA5
330
CB7A
100
AcDbEntity
  8
0
100
AcDbLine
 10
12.25
 20
6.300000000000011
 30
0.0
 11
10.5
 21
6.300000000000011
 31
0.0
  0
LINE
  5
CBA6
330
CB7A
100
AcDbEntity
  8
0
100
AcDbLine
 10
12.25
 20
2.699999999999988
 30
0.0
 11
10.5
 21
2.699999999999988
 31
0.0
  0
LINE
  5
CBA7
330
CB7A
100
AcDbEntity
  8
0
100
AcDbLine
 10
13.0
 20
9.5
 30
0.0
 11
14.0
 21
9.5
 31
0.0
  0
ARC
  5
CBA8
330
CB7A
100
AcDbEntity
  8
0
100
AcDbCircle
 10
13.0
 20
7.5
 30
0.0
 40
2.0
100
AcDbArc
 50
90.0
 51
143.1301023541566
  0
LINE
  5
CBA9
330
CB7A
100
AcDbEntity
  8
0
100
AcDbLine
 10
12.0
 20
10.5
 30
0.0
 11
14.0
 21
10.5
 31
0.0
  0
ARC
  5
CBAA
330
CB7A
100
AcDbEntity
  8
0
100
AcDbCircle
 10
12.0
 20
9.5
 30
0.0
 40
1.0
100
AcDbArc
 50
90.0
 51
270.0
  0
ARC
  5
CBAB
330
CB7A
100
AcDbEntity
  8
0
100
AcDbCircle
 10
5.0
 20
9.5
 30
0.0
 40
1.0
100
AcDbArc
 50
90.0
 51
270.0
  0
LINE
  5
CBAC
330
CB7A
100
AcDbEntity
  8
0
100
AcDbLine
 10
5.0
 20
10.5
 30
0.0
 11
7.0
 21
10.5
 31
0.0
  0
ARC
  5
CBAD
330
CB7A
100
AcDbEntity
  8
0
100
AcDbCircle
 10
6.0
 20
7.5
 30
0.0
 40
2.0
100
AcDbArc
 50
90.0
 51
143.1301023541566
  0
LINE
  5
CBAE
330
CB7A
100
AcDbEntity
  8
0
100
AcDbLine
 10
6.0
 20
9.5
 30
0.0
 11
7.0
 21
9.5
 31
0.0
  0
LINE
  5
CBAF
330
CB7A
100
AcDbEntity
  8
0
100
AcDbLine
 10
9.5
 20
9.5
 30
0.0
 11
10.5
 21
9.5
 31
0.0
  0
ARC
  5
CBB0
330
CB7A
100
AcDbEntity
  8
0
100
AcDbCircle
 10
9.5
 20
7.5
 30
0.0
 40
2.0
100
AcDbArc
 50
90.0
 51
143.1301023541566
  0
LINE
  5
CBB1
330
CB7A
100
AcDbEntity
  8
0
100
AcDbLine
 10
8.5
 20
10.5
 30
0.0
 11
10.5
 21
10.5
 31
0.0
  0
ARC
  5
CBB2
330
CB7A
100
AcDbEntity
  8
0
100
AcDbCircle
 10
8.5
 20
9.5
 30
0.0
 40
1.0
100
AcDbArc
 50
90.0
 51
270.0
  0
LINE
  5
CBB3
330
CB7A
100
AcDbEntity
  8
0
100
AcDbLine
 10
8.75
 20
6.300000000000011
 30
0.0
 11
8.75
 21
2.699999999999988
 31
0.0
  0
LINE
  5
CBB4
330
CB7A
100
AcDbEntity
  8
0
100
AcDbLine
 10
8.75
 20
6.300000000000011
 30
0.0
 11
7.0
 21
6.300000000000011
 31
0.0
  0
LINE
  5
CBB5
330
CB7A
100
AcDbEntity
  8
0
100
AcDbLine
 10
8.75
 20
2.699999999999988
 30
0.0
 11
7.0
 21
2.699999999999988
 31
0.0
  0
LINE
  5
CBB6
330
CB7A
100
AcDbEntity
  8
0
100
AcDbLine
 10
5.25
 20
2.699999999999988
 30
0.0
 11
3.5
 21
2.699999999999988
 31
0.0
  0
LINE
  5
CBB7
330
CB7A
100
AcDbEntity
  8
0
100
AcDbLine
 10
5.25
 20
6.300000000000011
 30
0.0
 11
3.5
 21
6.300000000000011
 31
0.0
  0
LINE
  5
CBB8
330
CB7A
100
AcDbEntity
  8
0
100
AcDbLine
 10
5.25
 20
6.300000000000011
 30
0.0
 11
5.25
 21
2.699999999999988
 31
0.0
  0
LINE
  5
CBB9
330
CB7A
100
AcDbEntity
  8
0
100
AcDbLine
 10
-8.75
 20
6.300000000000011
 30
0.0
 11
-8.75
 21
2.699999999999988
 31
0.0
  0
LINE
  5
CBBA
330
CB7A
100
AcDbEntity
  8
0
100
AcDbLine
 10
-8.75
 20
6.300000000000011
 30
0.0
 11
-10.5
 21
6.300000000000011
 31
0.0
  0
LINE
  5
CBBB
330
CB7A
100
AcDbEntity
  8
0
100
AcDbLine
 10
-8.75
 20
2.699999999999988
 30
0.0
 11
-10.5
 21
2.699999999999988
 31
0.0
  0
LINE
  5
CBBC
330
CB7A
100
AcDbEntity
  8
0
100
AcDbLine
 10
-5.25
 20
2.699999999999988
 30
0.0
 11
-7.0
 21
2.699999999999988
 31
0.0
  0
LINE
  5
CBBD
330
CB7A
100
AcDbEntity
  8
0
100
AcDbLine
 10
-5.25
 20
6.300000000000011
 30
0.0
 11
-7.0
 21
6.300000000000011
 31
0.0
  0
LINE
  5
CBBE
330
CB7A
100
AcDbEntity
  8
0
100
AcDbLine
 10
-5.25
 20
6.300000000000011
 30
0.0
 11
-5.25
 21
2.699999999999988
 31
0.0
  0
LINE
  5
CBBF
330
CB7A
100
AcDbEntity
  8
0
100
AcDbLine
 10
-1.75
 20
2.699999999999988
 30
0.0
 11
-3.5
 21
2.699999999999988
 31
0.0
  0
LINE
  5
CBC0
330
CB7A
100
AcDbEntity
  8
0
100
AcDbLine
 10
-1.75
 20
6.300000000000011
 30
0.0
 11
-3.5
 21
6.300000000000011
 31
0.0
  0
LINE
  5
CBC1
330
CB7A
100
AcDbEntity
  8
0
100
AcDbLine
 10
-1.75
 20
6.300000000000011
 30
0.0
 11
-1.75
 21
2.699999999999988
 31
0.0
  0
LINE
  5
CBC2
330
CB7A
100
AcDbEntity
  8
0
100
AcDbLine
 10
1.75
 20
6.300000000000011
 30
0.0
 11
1.75
 21
2.699999999999988
 31
0.0
  0
LINE
  5
CBC3
330
CB7A
100
AcDbEntity
  8
0
100
AcDbLine
 10
1.75
 20
6.300000000000011
 30
0.0
 11
0.0
 21
6.300000000000011
 31
0.0
  0
LINE
  5
CBC4
330
CB7A
100
AcDbEntity
  8
0
100
AcDbLine
 10
1.75
 20
2.699999999999988
 30
0.0
 11
0.0
 21
2.699999999999988
 31
0.0
  0
ARC
  5
CBC5
330
CB7A
100
AcDbEntity
  8
0
100
AcDbCircle
 10
-5.5
 20
9.5
 30
0.0
 40
1.0
100
AcDbArc
 50
90.0
 51
270.0
  0
LINE
  5
CBC6
330
CB7A
100
AcDbEntity
  8
0
100
AcDbLine
 10
-5.5
 20
10.5
 30
0.0
 11
-3.5
 21
10.5
 31
0.0
  0
ARC
  5
CBC7
330
CB7A
100
AcDbEntity
  8
0
100
AcDbCircle
 10
-4.5
 20
7.5
 30
0.0
 40
2.0
100
AcDbArc
 50
90.0
 51
143.1301023541566
  0
LINE
  5
CBC8
330
CB7A
100
AcDbEntity
  8
0
100
AcDbLine
 10
-4.5
 20
9.5
 30
0.0
 11
-3.5
 21
9.5
 31
0.0
  0
LINE
  5
CBC9
330
CB7A
100
AcDbEntity
  8
0
100
AcDbLine
 10
-8.0
 20
9.5
 30
0.0
 11
-7.0
 21
9.5
 31
0.0
  0
ARC
  5
CBCA
330
CB7A
100
AcDbEntity
  8
0
100
AcDbCircle
 10
-8.0
 20
7.5
 30
0.0
 40
2.0
100
AcDbArc
 50
90.0
 51
143.1301023541566
  0
LINE
  5
CBCB
330
CB7A
100
AcDbEntity
  8
0
100
AcDbLine
 10
-9.0
 20
10.5
 30
0.0
 11
-7.0
 21
10.5
 31
0.0
  0
ARC
  5
CBCC
330
CB7A
100
AcDbEntity
  8
0
100
AcDbCircle
 10
-9.0
 20
9.5
 30
0.0
 40
1.0
100
AcDbArc
 50
90.0
 51
270.0
  0
ARC
  5
CBCD
330
CB7A
100
AcDbEntity
  8
0
100
AcDbCircle
 10
-2.0
 20
9.5
 30
0.0
 40
1.0
100
AcDbArc
 50
90.0
 51
270.0
  0
LINE
  5
CBCE
330
CB7A
100
AcDbEntity
  8
0
100
AcDbLine
 10
-2.0
 20
10.5
 30
0.0
 11
0.0
 21
10.5
 31
0.0
  0
ARC
  5
CBCF
330
CB7A
100
AcDbEntity
  8
0
100
AcDbCircle
 10
-1.0
 20
7.5
 30
0.0
 40
2.0
100
AcDbArc
 50
90.0
 51
143.1301023541566
  0
LINE
  5
CBD0
330
CB7A
100
AcDbEntity
  8
0
100
AcDbLine
 10
-1.0
 20
9.5
 30
0.0
 11
0.0
 21
9.5
 31
0.0
  0
LINE
  5
CBD1
330
CB7A
100
AcDbEntity
  8
0
100
AcDbLine
 10
2.5
 20
9.5
 30
0.0
 11
3.5
 21
9.5
 31
0.0
  0
ARC
  5
CBD2
330
CB7A
100
AcDbEntity
  8
0
100
AcDbCircle
 10
2.5
 20
7.5
 30
0.0
 40
2.0
100
AcDbArc
 50
90.0
 51
143.1301023541566
  0
LINE
  5
CBD3
330
CB7A
100
AcDbEntity
  8
0
100
AcDbLine
 10
1.5
 20
10.5
 30
0.0
 11
3.5
 21
10.5
 31
0.0
  0
ARC
  5
CBD4
330
CB7A
100
AcDbEntity
  8
0
100
AcDbCircle
 10
1.5
 20
9.5
 30
0.0
 40
1.0
100
AcDbArc
 50
90.0
 51
270.0
  0
CIRCLE
  5
CBD5
330
CB7A
100
AcDbEntity
  8
SUNPOU
100
AcDbCircle
 10
6.000000000000113
 20
8.0
 30
0.0
 40
0.5
  0
CIRCLE
  5
CBD6
330
CB7A
100
AcDbEntity
  8
SUNPOU
100
AcDbCircle
 10
6.000000000000113
 20
3.0
 30
0.0
 40
0.5
  0
CIRCLE
  5
CBD7
330
CB7A
100
AcDbEntity
  8
SUNPOU
100
AcDbCircle
 10
9.500000000000113
 20
3.0
 30
0.0
 40
0.5
  0
CIRCLE
  5
CBD8
330
CB7A
100
AcDbEntity
  8
SUNPOU
100
AcDbCircle
 10
9.500000000000113
 20
8.0
 30
0.0
 40
0.5
  0
CIRCLE
  5
CBD9
330
CB7A
100
AcDbEntity
  8
SUNPOU
100
AcDbCircle
 10
16.50000000000011
 20
8.0
 30
0.0
 40
0.5
  0
CIRCLE
  5
CBDA
330
CB7A
100
AcDbEntity
  8
SUNPOU
100
AcDbCircle
 10
16.50000000000011
 20
3.0
 30
0.0
 40
0.5
  0
CIRCLE
  5
CBDB
330
CB7A
100
AcDbEntity
  8
SUNPOU
100
AcDbCircle
 10
13.00000000000011
 20
3.0
 30
0.0
 40
0.5
  0
CIRCLE
  5
CBDC
330
CB7A
100
AcDbEntity
  8
SUNPOU
100
AcDbCircle
 10
13.00000000000011
 20
8.0
 30
0.0
 40
0.5
  0
CIRCLE
  5
CBDD
330
CB7A
100
AcDbEntity
  8
SUNPOU
100
AcDbCircle
 10
-0.9999999999998863
 20
8.0
 30
0.0
 40
0.5
  0
CIRCLE
  5
CBDE
330
CB7A
100
AcDbEntity
  8
SUNPOU
100
AcDbCircle
 10
-0.9999999999998863
 20
3.0
 30
0.0
 40
0.5
  0
CIRCLE
  5
CBDF
330
CB7A
100
AcDbEntity
  8
SUNPOU
100
AcDbCircle
 10
2.500000000000113
 20
3.0
 30
0.0
 40
0.5
  0
CIRCLE
  5
CBE0
330
CB7A
100
AcDbEntity
  8
SUNPOU
100
AcDbCircle
 10
2.500000000000113
 20
8.0
 30
0.0
 40
0.5
  0
CIRCLE
  5
CBE1
330
CB7A
100
AcDbEntity
  8
SUNPOU
100
AcDbCircle
 10
-4.499999999999886
 20
8.0
 30
0.0
 40
0.5
  0
CIRCLE
  5
CBE2
330
CB7A
100
AcDbEntity
  8
SUNPOU
100
AcDbCircle
 10
-4.499999999999886
 20
3.0
 30
0.0
 40
0.5
  0
CIRCLE
  5
CBE3
330
CB7A
100
AcDbEntity
  8
SUNPOU
100
AcDbCircle
 10
-7.999999999999886
 20
3.0
 30
0.0
 40
0.5
  0
CIRCLE
  5
CBE4
330
CB7A
100
AcDbEntity
  8
SUNPOU
100
AcDbCircle
 10
-7.999999999999886
 20
8.0
 30
0.0
 40
0.5
  0
ENDBLK
  5
CBE5
330
CB7A
100
AcDbEntity
  8
0
100
AcDbBlockEnd
  0
BLOCK
  5
CCB7
330
CCB6
100
AcDbEntity
  8
0
100
AcDbBlockBegin
  2
M2.6皿ネジ-TOP
 70
     0
 10
0.0
 20
0.0
 30
0.0
  3
M2.6皿ネジ-TOP
  1

  0
LWPOLYLINE
  5
CCB8
330
CCB6
100
AcDbEntity
  8
0
100
AcDbPolyline
 90
       13
 70
     0
 43
0.0
 10
-1.5
 20
0.5
 10
-1.5
 20
-0.5
 10
-0.5
 20
-0.5
 10
-0.5
 20
-1.5
 10
0.5
 20
-1.5
 10
0.5
 20
-0.5
 10
1.5
 20
-0.5
 10
1.5
 20
0.5
 10
0.5
 20
0.5
 10
0.5
 20
1.5
 10
-0.5
 20
1.5
 10
-0.5
 20
0.5
 10
-1.5
 20
0.5
  0
CIRCLE
  5
CCB9
330
CCB6
100
AcDbEntity
  8
0
100
AcDbCircle
 10
0.0
 20
0.0
 30
0.0
 40
2.6
  0
ENDBLK
  5
CCBA
330
CCB6
100
AcDbEntity
  8
0
100
AcDbBlockEnd
  0
BLOCK
  5
CD27
330
CD26
100
AcDbEntity
  8
0
100
AcDbBlockBegin
  2
M3-皿-L5
 70
     0
 10
0.0
 20
0.0
 30
0.0
  3
M3-皿-L5
  1

  0
LINE
  5
CD28
330
CD26
100
AcDbEntity
  8
PARTS
100
AcDbLine
 10
-0.25
 20
3.0
 30
0.0
 11
-0.25
 21
-2.999999999999943
 31
0.0
  0
LINE
  5
CD29
330
CD26
100
AcDbEntity
  8
PARTS
100
AcDbLine
 10
-0.2499999999999432
 20
-3.0
 30
0.0
 11
-1.999999999999943
 21
-1.250000000000028
 31
0.0
  0
LINE
  5
CD2A
330
CD26
100
AcDbEntity
  8
PARTS
100
AcDbLine
 10
0.0
 20
-3.0
 30
0.0
 11
-0.2499999999999432
 21
-3.0
 31
0.0
  0
LINE
  5
CD2B
330
CD26
100
AcDbEntity
  8
PARTS
100
AcDbLine
 10
-0.0000000000000568
 20
3.0
 30
0.0
 11
0.0
 21
-3.0
 31
0.0
  0
LINE
  5
CD2C
330
CD26
100
AcDbEntity
  8
PARTS
100
AcDbLine
 10
-0.25
 20
3.0
 30
0.0
 11
-0.0000000000000568
 21
3.0
 31
0.0
  0
LINE
  5
CD2D
330
CD26
100
AcDbEntity
  8
PARTS
100
AcDbLine
 10
-2.0
 20
1.25
 30
0.0
 11
-0.25
 21
3.0
 31
0.0
  0
LINE
  5
CD2E
330
CD26
100
AcDbEntity
  8
PARTS
100
AcDbLine
 10
-5.000000000000056
 20
1.25
 30
0.0
 11
-5.000000000000056
 21
-1.25
 31
0.0
  0
LINE
  5
CD2F
330
CD26
100
AcDbEntity
  8
PARTS
100
AcDbLine
 10
-4.750000000000056
 20
1.5
 30
0.0
 11
-4.750000000000056
 21
-1.5
 31
0.0
  0
LINE
  5
CD30
330
CD26
100
AcDbEntity
  8
PARTS
100
AcDbLine
 10
-5.000000000000056
 20
-1.25
 30
0.0
 11
-4.750000000000056
 21
-1.5
 31
0.0
  0
LINE
  5
CD31
330
CD26
100
AcDbEntity
  8
PARTS
100
AcDbLine
 10
-5.000000000000056
 20
1.25
 30
0.0
 11
-4.750000000000056
 21
1.5
 31
0.0
  0
LINE
  5
CD32
330
CD26
100
AcDbEntity
  8
PARTS
100
AcDbLine
 10
-5.000000000000056
 20
1.25
 30
0.0
 11
-2.0
 21
1.25
 31
0.0
  0
LINE
  5
CD33
330
CD26
100
AcDbEntity
  8
PARTS
100
AcDbLine
 10
-4.750000000000056
 20
1.5
 30
0.0
 11
-1.750000000000113
 21
1.499999999999914
 31
0.0
  0
LINE
  5
CD34
330
CD26
100
AcDbEntity
  8
PARTS
100
AcDbLine
 10
-4.750000000000056
 20
-1.5
 30
0.0
 11
-1.749999999999943
 21
-1.499999999999971
 31
0.0
  0
LINE
  5
CD35
330
CD26
100
AcDbEntity
  8
PARTS
100
AcDbLine
 10
-5.000000000000056
 20
-1.25
 30
0.0
 11
-1.999999999999943
 21
-1.250000000000056
 31
0.0
  0
ENDBLK
  5
CD36
330
CD26
100
AcDbEntity
  8
0
100
AcDbBlockEnd
  0
BLOCK
  5
D275
330
D26B
100
AcDbEntity
  8
0
100
AcDbBlockBegin
  2
*D12
 70
     1
 10
0.0
 20
0.0
 30
0.0
  3
*D12
  1

  0
LINE
  5
D2D8
330
D26B
100
AcDbEntity
  8
SUNPOU
 62
     0
370
    -2
100
AcDbLine
 10
228.5
 20
223.0
 30
0.0
 11
260.5
 21
223.0
 31
0.0
  0
LINE
  5
D2D9
330
D26B
100
AcDbEntity
  8
SUNPOU
 62
     0
370
    -2
100
AcDbLine
 10
228.5
 20
117.0
 30
0.0
 11
260.5
 21
117.0
 31
0.0
  0
LINE
  5
D2DA
330
D26B
100
AcDbEntity
  8
SUNPOU
 62
     0
370
    -2
100
AcDbLine
 10
260.0
 20
220.5
 30
0.0
 11
260.0
 21
119.5
 31
0.0
  0
INSERT
  5
D2DB
330
D26B
100
AcDbEntity
  8
SUNPOU
 62
     0
370
    -2
100
AcDbBlockReference
  2
_Open30
 10
260.0
 20
223.0
 30
0.0
 41
2.5
 42
2.5
 43
2.5
 50
90.0
  0
INSERT
  5
D2DC
330
D26B
100
AcDbEntity
  8
SUNPOU
 62
     0
370
    -2
100
AcDbBlockReference
  2
_Open30
 10
260.0
 20
117.0
 30
0.0
 41
2.5
 42
2.5
 43
2.5
 50
270.0
  0
MTEXT
  5
D2DD
330
D26B
100
AcDbEntity
  8
SUNPOU
 62
     0
100
AcDbMText
 10
257.5
 20
170.0
 30
0.0
 40
4.0
 41
0.0
 71
     5
 72
     1
  1
\A1;106
 11
0.0000000000000001
 21
1.0
 31
0.0
 73
     1
 44
1.0
1001
ACAD
1000
MTEXTBEGIN
1070
    73
1070
     1
1070
    44
1040
1.0
1070
    74
1070
     0
1000
MTEXTEND
  0
POINT
  5
D2DE
330
D26B
100
AcDbEntity
  8
DEFPOINTS
 62
     0
100
AcDbPoint
 10
228.0
 20
223.0
 30
0.0
  0
POINT
  5
D2DF
330
D26B
100
AcDbEntity
  8
DEFPOINTS
 62
     0
100
AcDbPoint
 10
228.0
 20
117.0
 30
0.0
  0
POINT
  5
D2E0
330
D26B
100
AcDbEntity
  8
DEFPOINTS
 62
     0
100
AcDbPoint
 10
260.0
 20
117.0
 30
0.0
  0
ENDBLK
  5
D276
330
D26B
100
AcDbEntity
  8
0
100
AcDbBlockEnd
  0
BLOCK
  5
D281
330
D277
100
AcDbEntity
  8
0
100
AcDbBlockBegin
  2
*D13
 70
     1
 10
0.0
 20
0.0
 30
0.0
  3
*D13
  1

  0
LINE
  5
D2E1
330
D277
100
AcDbEntity
  8
SUNPOU
 62
     0
370
    -2
100
AcDbLine
 10
215.5
 20
220.0
 30
0.0
 11
253.0
 21
220.0
 31
0.0
  0
LINE
  5
D2E2
330
D277
100
AcDbEntity
  8
SUNPOU
 62
     0
370
    -2
100
AcDbLine
 10
215.5
 20
120.0
 30
0.0
 11
253.0
 21
120.0
 31
0.0
  0
LINE
  5
D2E3
330
D277
100
AcDbEntity
  8
SUNPOU
 62
     0
370
    -2
100
AcDbLine
 10
252.5
 20
217.5
 30
0.0
 11
252.5
 21
122.5
 31
0.0
  0
INSERT
  5
D2E4
330
D277
100
AcDbEntity
  8
SUNPOU
 62
     0
370
    -2
100
AcDbBlockReference
  2
_Open30
 10
252.5
 20
220.0
 30
0.0
 41
2.5
 42
2.5
 43
2.5
 50
90.0
  0
INSERT
  5
D2E5
330
D277
100
AcDbEntity
  8
SUNPOU
 62
     0
370
    -2
100
AcDbBlockReference
  2
_Open30
 10
252.5
 20
120.0
 30
0.0
 41
2.5
 42
2.5
 43
2.5
 50
270.0
  0
MTEXT
  5
D2E6
330
D277
100
AcDbEntity
  8
SUNPOU
 62
     0
100
AcDbMText
 10
250.0
 20
170.0
 30
0.0
 40
4.0
 41
0.0
 71
     5
 72
     1
  1
\A1;100
 11
0.0000000000000001
 21
1.0
 31
0.0
 73
     1
 44
1.0
1001
ACAD
1000
MTEXTBEGIN
1070
    73
1070
     1
1070
    44
1040
1.0
1070
    74
1070
     0
1000
MTEXTEND
  0
POINT
  5
D2E7
330
D277
100
AcDbEntity
  8
DEFPOINTS
 62
     0
100
AcDbPoint
 10
215.0
 20
220.0
 30
0.0
  0
POINT
  5
D2E8
330
D277
100
AcDbEntity
  8
DEFPOINTS
 62
     0
100
AcDbPoint
 10
215.0
 20
120.0
 30
0.0
  0
POINT
  5
D2E9
330
D277
100
AcDbEntity
  8
DEFPOINTS
 62
     0
100
AcDbPoint
 10
252.5
 20
120.0
 30
0.0
  0
ENDBLK
  5
D282
330
D277
100
AcDbEntity
  8
0
100
AcDbBlockEnd
  0
BLOCK
  5
D32C
330
D32B
100
AcDbEntity
  8
0
100
AcDbBlockBegin
  2
LCD-F
 70
     0
 10
0.0
 20
0.0
 30
0.0
  3
LCD-F
  1

  0
LINE
  5
D32D
330
D32B
100
AcDbEntity
  8
PARTS
100
AcDbLine
 10
-18.99999999999994
 20
-9.999999999999943
 30
0.0
 11
19.0
 21
-9.999999999999943
 31
0.0
  0
LINE
  5
D32E
330
D32B
100
AcDbEntity
  8
PARTS
100
AcDbLine
 10
19.00000000000005
 20
10.00000000000005
 30
0.0
 11
-18.99999999999994
 21
10.00000000000005
 31
0.0
  0
POINT
  5
D32F
330
D32B
100
AcDbEntity
  8
PARTS
100
AcDbPoint
 10
16.00000000000006
 20
0.0000000000000568
 30
0.0
  0
POINT
  5
D330
330
D32B
100
AcDbEntity
  8
PARTS
100
AcDbPoint
 10
16.00000000000006
 20
2.500000000000056
 30
0.0
  0
POINT
  5
D331
330
D32B
100
AcDbEntity
  8
PARTS
100
AcDbPoint
 10
16.00000000000006
 20
5.000000000000056
 30
0.0
  0
POINT
  5
D332
330
D32B
100
AcDbEntity
  8
PARTS
100
AcDbPoint
 10
16.00000000000006
 20
7.500000000000056
 30
0.0
  0
POINT
  5
D333
330
D32B
100
AcDbEntity
  8
PARTS
100
AcDbPoint
 10
16.00000000000006
 20
-2.499999999999943
 30
0.0
  0
POINT
  5
D334
330
D32B
100
AcDbEntity
  8
PARTS
100
AcDbPoint
 10
16.00000000000006
 20
-4.999999999999943
 30
0.0
  0
POINT
  5
D335
330
D32B
100
AcDbEntity
  8
PARTS
100
AcDbPoint
 10
16.00000000000006
 20
-7.499999999999943
 30
0.0
  0
POINT
  5
D336
330
D32B
100
AcDbEntity
  8
PARTS
100
AcDbPoint
 10
-15.99999999999994
 20
-7.499999999999943
 30
0.0
  0
POINT
  5
D337
330
D32B
100
AcDbEntity
  8
PARTS
100
AcDbPoint
 10
-15.99999999999994
 20
-4.999999999999943
 30
0.0
  0
POINT
  5
D338
330
D32B
100
AcDbEntity
  8
PARTS
100
AcDbPoint
 10
-15.99999999999994
 20
-2.499999999999943
 30
0.0
  0
POINT
  5
D339
330
D32B
100
AcDbEntity
  8
PARTS
100
AcDbPoint
 10
-15.99999999999994
 20
0.0000000000000568
 30
0.0
  0
POINT
  5
D33A
330
D32B
100
AcDbEntity
  8
PARTS
100
AcDbPoint
 10
-15.99999999999994
 20
2.500000000000056
 30
0.0
  0
POINT
  5
D33B
330
D32B
100
AcDbEntity
  8
PARTS
100
AcDbPoint
 10
-15.99999999999994
 20
5.000000000000056
 30
0.0
  0
POINT
  5
D33C
330
D32B
100
AcDbEntity
  8
PARTS
100
AcDbPoint
 10
-15.99999999999994
 20
7.500000000000056
 30
0.0
  0
LWPOLYLINE
  5
D33D
330
D32B
100
AcDbEntity
  8
PARTS
100
AcDbPolyline
 90
        4
 70
     1
 43
0.0
 10
18.30000000000001
 20
7.000000000000056
 10
-18.30000000000001
 20
7.000000000000056
 10
-18.30000000000001
 20
-6.999999999999943
 10
18.30000000000001
 20
-6.999999999999943
  0
LWPOLYLINE
  5
D33E
330
D32B
100
AcDbEntity
  8
PARTS
100
AcDbPolyline
 90
        4
 70
     1
 43
0.0
 10
16.19999999999999
 20
7.699999999999988
 10
15.80000000000001
 20
7.699999999999988
 10
15.80000000000001
 20
7.300000000000011
 10
16.19999999999999
 20
7.300000000000011
  0
LWPOLYLINE
  5
D33F
330
D32B
100
AcDbEntity
  8
PARTS
100
AcDbPolyline
 90
        4
 70
     1
 43
0.0
 10
16.19999999999999
 20
5.199999999999988
 10
15.80000000000001
 20
5.199999999999988
 10
15.80000000000001
 20
4.800000000000011
 10
16.19999999999999
 20
4.800000000000011
  0
LWPOLYLINE
  5
D340
330
D32B
100
AcDbEntity
  8
PARTS
100
AcDbPolyline
 90
        4
 70
     1
 43
0.0
 10
16.19999999999999
 20
2.699999999999988
 10
15.80000000000001
 20
2.699999999999988
 10
15.80000000000001
 20
2.300000000000011
 10
16.19999999999999
 20
2.300000000000011
  0
LWPOLYLINE
  5
D341
330
D32B
100
AcDbEntity
  8
PARTS
100
AcDbPolyline
 90
        4
 70
     1
 43
0.0
 10
16.19999999999999
 20
0.1999999999999886
 10
15.80000000000001
 20
0.1999999999999886
 10
15.80000000000001
 20
-0.1999999999999886
 10
16.19999999999999
 20
-0.1999999999999886
  0
LWPOLYLINE
  5
D342
330
D32B
100
AcDbEntity
  8
PARTS
100
AcDbPolyline
 90
        4
 70
     1
 43
0.0
 10
16.19999999999999
 20
-2.300000000000011
 10
15.80000000000001
 20
-2.300000000000011
 10
15.80000000000001
 20
-2.699999999999988
 10
16.19999999999999
 20
-2.699999999999988
  0
LWPOLYLINE
  5
D343
330
D32B
100
AcDbEntity
  8
PARTS
100
AcDbPolyline
 90
        4
 70
     1
 43
0.0
 10
16.19999999999999
 20
-4.800000000000011
 10
15.80000000000001
 20
-4.800000000000011
 10
15.80000000000001
 20
-5.199999999999988
 10
16.19999999999999
 20
-5.199999999999988
  0
LWPOLYLINE
  5
D344
330
D32B
100
AcDbEntity
  8
PARTS
100
AcDbPolyline
 90
        4
 70
     1
 43
0.0
 10
16.19999999999999
 20
-7.300000000000011
 10
15.80000000000001
 20
-7.300000000000011
 10
15.80000000000001
 20
-7.699999999999988
 10
16.19999999999999
 20
-7.699999999999988
  0
LWPOLYLINE
  5
D345
330
D32B
100
AcDbEntity
  8
PARTS
100
AcDbPolyline
 90
        4
 70
     1
 43
0.0
 10
-15.80000000000001
 20
7.699999999999988
 10
-16.19999999999999
 20
7.699999999999988
 10
-16.19999999999999
 20
7.300000000000011
 10
-15.80000000000001
 20
7.300000000000011
  0
LWPOLYLINE
  5
D346
330
D32B
100
AcDbEntity
  8
PARTS
100
AcDbPolyline
 90
        4
 70
     1
 43
0.0
 10
-15.80000000000001
 20
5.199999999999988
 10
-16.19999999999999
 20
5.199999999999988
 10
-16.19999999999999
 20
4.800000000000011
 10
-15.80000000000001
 20
4.800000000000011
  0
LWPOLYLINE
  5
D347
330
D32B
100
AcDbEntity
  8
PARTS
100
AcDbPolyline
 90
        4
 70
     1
 43
0.0
 10
-15.80000000000001
 20
2.699999999999988
 10
-16.19999999999999
 20
2.699999999999988
 10
-16.19999999999999
 20
2.300000000000011
 10
-15.80000000000001
 20
2.300000000000011
  0
LWPOLYLINE
  5
D348
330
D32B
100
AcDbEntity
  8
PARTS
100
AcDbPolyline
 90
        4
 70
     1
 43
0.0
 10
-15.80000000000001
 20
0.1999999999999886
 10
-16.19999999999999
 20
0.1999999999999886
 10
-16.19999999999999
 20
-0.1999999999999886
 10
-15.80000000000001
 20
-0.1999999999999886
  0
LWPOLYLINE
  5
D349
330
D32B
100
AcDbEntity
  8
PARTS
100
AcDbPolyline
 90
        4
 70
     1
 43
0.0
 10
-15.80000000000001
 20
-2.300000000000011
 10
-16.19999999999999
 20
-2.300000000000011
 10
-16.19999999999999
 20
-2.699999999999988
 10
-15.80000000000001
 20
-2.699999999999988
  0
LWPOLYLINE
  5
D34A
330
D32B
100
AcDbEntity
  8
PARTS
100
AcDbPolyline
 90
        4
 70
     1
 43
0.0
 10
-15.80000000000001
 20
-4.800000000000011
 10
-16.19999999999999
 20
-4.800000000000011
 10
-16.19999999999999
 20
-5.199999999999988
 10
-15.80000000000001
 20
-5.199999999999988
  0
LWPOLYLINE
  5
D34B
330
D32B
100
AcDbEntity
  8
PARTS
100
AcDbPolyline
 90
        4
 70
     1
 43
0.0
 10
-15.80000000000001
 20
-7.300000000000011
 10
-16.19999999999999
 20
-7.300000000000011
 10
-16.19999999999999
 20
-7.699999999999988
 10
-15.80000000000001
 20
-7.699999999999988
  0
LINE
  5
D34C
330
D32B
100
AcDbEntity
  8
PARTS
100
AcDbLine
 10
-18.99999999999994
 20
10.00000000000005
 30
0.0
 11
-18.99999999999994
 21
9.000000000000056
 31
0.0
  0
LINE
  5
D34D
330
D32B
100
AcDbEntity
  8
PARTS
100
AcDbLine
 10
-18.99999999999994
 20
9.000000000000056
 30
0.0
 11
-19.99999999999994
 21
9.000000000000056
 31
0.0
  0
LINE
  5
D34E
330
D32B
100
AcDbEntity
  8
PARTS
100
AcDbLine
 10
-19.99999999999994
 20
9.000000000000056
 30
0.0
 11
-19.99999999999994
 21
-8.999999999999943
 31
0.0
  0
LINE
  5
D34F
330
D32B
100
AcDbEntity
  8
PARTS
100
AcDbLine
 10
-19.99999999999994
 20
-8.999999999999943
 30
0.0
 11
-18.99999999999994
 21
-8.999999999999943
 31
0.0
  0
LINE
  5
D350
330
D32B
100
AcDbEntity
  8
PARTS
100
AcDbLine
 10
-18.99999999999994
 20
-8.999999999999943
 30
0.0
 11
-18.99999999999994
 21
-9.999999999999943
 31
0.0
  0
LINE
  5
D351
330
D32B
100
AcDbEntity
  8
PARTS
100
AcDbLine
 10
19.00000000000005
 20
10.00000000000005
 30
0.0
 11
19.00000000000005
 21
9.000000000000056
 31
0.0
  0
LINE
  5
D352
330
D32B
100
AcDbEntity
  8
PARTS
100
AcDbLine
 10
19.00000000000005
 20
9.000000000000056
 30
0.0
 11
20.00000000000006
 21
9.000000000000056
 31
0.0
  0
LINE
  5
D353
330
D32B
100
AcDbEntity
  8
PARTS
100
AcDbLine
 10
20.00000000000006
 20
9.000000000000056
 30
0.0
 11
20.00000000000006
 21
-8.999999999999943
 31
0.0
  0
LINE
  5
D354
330
D32B
100
AcDbEntity
  8
PARTS
100
AcDbLine
 10
20.00000000000006
 20
-8.999999999999943
 30
0.0
 11
19.00000000000005
 21
-8.999999999999943
 31
0.0
  0
LINE
  5
D355
330
D32B
100
AcDbEntity
  8
PARTS
100
AcDbLine
 10
19.00000000000005
 20
-8.999999999999943
 30
0.0
 11
19.0
 21
-9.999999999999943
 31
0.0
  0
LINE
  5
D356
330
D32B
100
AcDbEntity
  8
PARTS
100
AcDbLine
 10
-19.99999999999994
 20
8.000000000000056
 30
0.0
 11
20.00000000000006
 21
8.000000000000056
 31
0.0
  0
LINE
  5
D357
330
D32B
100
AcDbEntity
  8
PARTS
100
AcDbLine
 10
-19.99999999999994
 20
-7.999999999999943
 30
0.0
 11
20.0
 21
-7.999999999999943
 31
0.0
  0
LWPOLYLINE
  5
D358
330
D32B
100
AcDbEntity
  8
PARTS
100
AcDbPolyline
 90
        4
 70
     1
 43
0.0
 10
-14.685
 20
5.324999999999988
 10
-11.565
 20
5.324999999999988
 10
-11.565
 20
0.3149999999999977
 10
-14.685
 20
0.3149999999999977
  0
LWPOLYLINE
  5
D359
330
D32B
100
AcDbEntity
  8
PARTS
100
AcDbPolyline
 90
        4
 70
     1
 43
0.0
 10
-10.935
 20
5.324999999999988
 10
-7.814999999999997
 20
5.324999999999988
 10
-7.814999999999997
 20
0.3149999999999977
 10
-10.935
 20
0.3149999999999977
  0
LWPOLYLINE
  5
D35A
330
D32B
100
AcDbEntity
  8
PARTS
100
AcDbPolyline
 90
        4
 70
     1
 43
0.0
 10
-7.185000000000002
 20
5.324999999999988
 10
-4.064999999999997
 20
5.324999999999988
 10
-4.064999999999997
 20
0.3149999999999977
 10
-7.185000000000002
 20
0.3149999999999977
  0
LWPOLYLINE
  5
D35B
330
D32B
100
AcDbEntity
  8
PARTS
100
AcDbPolyline
 90
        4
 70
     1
 43
0.0
 10
-3.435000000000002
 20
5.324999999999988
 10
-0.3149999999999977
 20
5.324999999999988
 10
-0.3149999999999977
 20
0.3149999999999977
 10
-3.435000000000002
 20
0.3149999999999977
  0
LWPOLYLINE
  5
D35C
330
D32B
100
AcDbEntity
  8
PARTS
100
AcDbPolyline
 90
        4
 70
     1
 43
0.0
 10
0.3149999999999977
 20
5.324999999999988
 10
3.435000000000002
 20
5.324999999999988
 10
3.435000000000002
 20
0.3149999999999977
 10
0.3149999999999977
 20
0.3149999999999977
  0
LWPOLYLINE
  5
D35D
330
D32B
100
AcDbEntity
  8
PARTS
100
AcDbPolyline
 90
        4
 70
     1
 43
0.0
 10
4.064999999999997
 20
5.324999999999988
 10
7.185000000000002
 20
5.324999999999988
 10
7.185000000000002
 20
0.3149999999999977
 10
4.064999999999997
 20
0.3149999999999977
  0
LWPOLYLINE
  5
D35E
330
D32B
100
AcDbEntity
  8
PARTS
100
AcDbPolyline
 90
        4
 70
     1
 43
0.0
 10
7.814999999999997
 20
5.324999999999988
 10
10.935
 20
5.324999999999988
 10
10.935
 20
0.3149999999999977
 10
7.814999999999997
 20
0.3149999999999977
  0
LWPOLYLINE
  5
D35F
330
D32B
100
AcDbEntity
  8
PARTS
100
AcDbPolyline
 90
        4
 70
     1
 43
0.0
 10
11.565
 20
5.324999999999988
 10
14.685
 20
5.324999999999988
 10
14.685
 20
0.3149999999999977
 10
11.565
 20
0.3149999999999977
  0
LWPOLYLINE
  5
D360
330
D32B
100
AcDbEntity
  8
PARTS
100
AcDbPolyline
 90
        4
 70
     1
 43
0.0
 10
-14.685
 20
-0.3149999999999977
 10
-11.565
 20
-0.3149999999999977
 10
-11.565
 20
-5.324999999999988
 10
-14.685
 20
-5.324999999999988
  0
LWPOLYLINE
  5
D361
330
D32B
100
AcDbEntity
  8
PARTS
100
AcDbPolyline
 90
        4
 70
     1
 43
0.0
 10
-10.935
 20
-0.3149999999999977
 10
-7.814999999999997
 20
-0.3149999999999977
 10
-7.814999999999997
 20
-5.324999999999988
 10
-10.935
 20
-5.324999999999988
  0
LWPOLYLINE
  5
D362
330
D32B
100
AcDbEntity
  8
PARTS
100
AcDbPolyline
 90
        4
 70
     1
 43
0.0
 10
-7.185000000000002
 20
-0.3149999999999977
 10
-4.064999999999997
 20
-0.3149999999999977
 10
-4.064999999999997
 20
-5.324999999999988
 10
-7.185000000000002
 20
-5.324999999999988
  0
LWPOLYLINE
  5
D363
330
D32B
100
AcDbEntity
  8
PARTS
100
AcDbPolyline
 90
        4
 70
     1
 43
0.0
 10
-3.435000000000002
 20
-0.3149999999999977
 10
-0.3149999999999977
 20
-0.3149999999999977
 10
-0.3149999999999977
 20
-5.324999999999988
 10
-3.435000000000002
 20
-5.324999999999988
  0
LWPOLYLINE
  5
D364
330
D32B
100
AcDbEntity
  8
PARTS
100
AcDbPolyline
 90
        4
 70
     1
 43
0.0
 10
0.3149999999999977
 20
-0.3149999999999977
 10
3.435000000000002
 20
-0.3149999999999977
 10
3.435000000000002
 20
-5.324999999999988
 10
0.3149999999999977
 20
-5.324999999999988
  0
LWPOLYLINE
  5
D365
330
D32B
100
AcDbEntity
  8
PARTS
100
AcDbPolyline
 90
        4
 70
     1
 43
0.0
 10
4.064999999999997
 20
-0.3149999999999977
 10
7.185000000000002
 20
-0.3149999999999977
 10
7.185000000000002
 20
-5.324999999999988
 10
4.064999999999997
 20
-5.324999999999988
  0
LWPOLYLINE
  5
D366
330
D32B
100
AcDbEntity
  8
PARTS
100
AcDbPolyline
 90
        4
 70
     1
 43
0.0
 10
7.814999999999997
 20
-0.3149999999999977
 10
10.935
 20
-0.3149999999999977
 10
10.935
 20
-5.324999999999988
 10
7.814999999999997
 20
-5.324999999999988
  0
LWPOLYLINE
  5
D367
330
D32B
100
AcDbEntity
  8
PARTS
100
AcDbPolyline
 90
        4
 70
     1
 43
0.0
 10
11.565
 20
-0.3149999999999977
 10
14.685
 20
-0.3149999999999977
 10
14.685
 20
-5.324999999999988
 10
11.565
 20
-5.324999999999988
  0
ENDBLK
  5
D368
330
D32B
100
AcDbEntity
  8
0
100
AcDbBlockEnd
  0
ENDSEC
  0
SECTION
  2
ENTITIES
  0
LINE
  5
C9
330
1A
100
AcDbEntity
  8
WAKU
 62
     7
100
AcDbLine
 10
405.0
 20
280.0
 30
0.0
 11
20.0
 21
280.0
 31
0.0
  0
LINE
  5
CB
330
1A
100
AcDbEntity
  8
WAKU
 62
     7
100
AcDbLine
 10
20.0
 20
5.0
 30
0.0
 11
405.0
 21
5.0
 31
0.0
  0
LINE
  5
D4
330
1A
100
AcDbEntity
  8
WAKU
100
AcDbLine
 10
405.0
 20
5.0
 30
0.0
 11
405.0
 21
280.0
 31
0.0
  0
LINE
  5
D5
330
1A
100
AcDbEntity
  8
WAKU
100
AcDbLine
 10
20.0
 20
280.0
 30
0.0
 11
20.0
 21
5.0
 31
0.0
  0
LINE
  5
D6
330
1A
100
AcDbEntity
  8
WAKU
 62
     7
100
AcDbLine
 10
225.0
 20
50.0
 30
0.0
 11
405.0
 21
50.0
 31
0.0
  0
LINE
  5
D7
330
1A
100
AcDbEntity
  8
WAKU
100
AcDbLine
 10
225.0
 20
5.0
 30
0.0
 11
225.0
 21
50.0
 31
0.0
  0
LINE
  5
D8
330
1A
100
AcDbEntity
  8
WAKU
100
AcDbLine
 10
345.0
 20
5.0
 30
0.0
 11
345.0
 21
50.0
 31
0.0
  0
LINE
  5
D9
330
1A
100
AcDbEntity
  8
WAKU
 62
     7
100
AcDbLine
 10
345.0
 20
15.0
 30
0.0
 11
405.0
 21
15.0
 31
0.0
  0
LINE
  5
DA
330
1A
100
AcDbEntity
  8
WAKU
 62
     7
100
AcDbLine
 10
345.0
 20
22.0
 30
0.0
 11
405.0
 21
22.0
 31
0.0
  0
LINE
  5
DB
330
1A
100
AcDbEntity
  8
WAKU
 62
     7
100
AcDbLine
 10
345.0
 20
29.0
 30
0.0
 11
405.0
 21
29.0
 31
0.0
  0
LINE
  5
DC
330
1A
100
AcDbEntity
  8
WAKU
 62
     7
100
AcDbLine
 10
345.0
 20
36.0
 30
0.0
 11
405.0
 21
36.0
 31
0.0
  0
LINE
  5
DD
330
1A
100
AcDbEntity
  8
WAKU
 62
     7
100
AcDbLine
 10
345.0
 20
43.0
 30
0.0
 11
405.0
 21
43.0
 31
0.0
  0
LINE
  5
DE
330
1A
100
AcDbEntity
  8
WAKU
100
AcDbLine
 10
360.0
 20
15.0
 30
0.0
 11
360.0
 21
50.0
 31
0.0
  0
LINE
  5
DF
330
1A
100
AcDbEntity
  8
WAKU
100
AcDbLine
 10
352.0
 20
5.0
 30
0.0
 11
352.0
 21
15.0
 31
0.0
  0
LINE
  5
E0
330
1A
100
AcDbEntity
  8
WAKU
100
AcDbLine
 10
330.0
 20
13.0
 30
0.0
 11
330.0
 21
28.0
 31
0.0
  0
LINE
  5
E1
330
1A
100
AcDbEntity
  8
WAKU
100
AcDbLine
 10
315.0
 20
13.0
 30
0.0
 11
315.0
 21
34.0
 31
0.0
  0
LINE
  5
E2
330
1A
100
AcDbEntity
  8
WAKU
100
AcDbLine
 10
300.0
 20
13.0
 30
0.0
 11
300.0
 21
50.0
 31
0.0
  0
LINE
  5
E3
330
1A
100
AcDbEntity
  8
WAKU
100
AcDbLine
 10
285.0
 20
13.0
 30
0.0
 11
285.0
 21
50.0
 31
0.0
  0
LINE
  5
E4
330
1A
100
AcDbEntity
  8
WAKU
100
AcDbLine
 10
345.0
 20
40.0
 30
0.0
 11
285.0
 21
40.0
 31
0.0
  0
LINE
  5
E5
330
1A
100
AcDbEntity
  8
WAKU
100
AcDbLine
 10
345.0
 20
34.0
 30
0.0
 11
285.0
 21
34.0
 31
0.0
  0
LINE
  5
E6
330
1A
100
AcDbEntity
  8
WAKU
100
AcDbLine
 10
345.0
 20
28.0
 30
0.0
 11
285.0
 21
28.0
 31
0.0
  0
LINE
  5
E7
330
1A
100
AcDbEntity
  8
WAKU
100
AcDbLine
 10
345.0
 20
13.0
 30
0.0
 11
225.0
 21
13.0
 31
0.0
  0
MTEXT
  5
E9
330
1A
100
AcDbEntity
  8
WAKU
100
AcDbMText
 10
345.0
 20
43.0
 30
0.0
 40
4.0
 41
15.0
 71
     1
 72
     5
  1

 73
     1
 44
1.0
1001
ACAD
1000
MTEXTBEGIN
1070
    73
1070
     1
1070
    44
1040
1.0
1070
    74
1070
     0
1000
MTEXTEND
  0
MTEXT
  5
EA
330
1A
100
AcDbEntity
  8
WAKU
100
AcDbMText
 10
345.0
 20
49.0
 30
0.0
 40
4.0
 41
14.0
 71
     1
 72
     5
  1

 73
     1
 44
1.0
1001
ACAD
1000
MTEXTBEGIN
1070
    73
1070
     1
1070
    44
1040
1.0
1070
    74
1070
     0
1000
MTEXTEND
  0
MTEXT
  5
ED
330
1A
100
AcDbEntity
  8
WAKU
100
AcDbMText
 10
347.3192310662242
 20
34.48051906497278
 30
0.0
 40
3.0
 41
11.0
 71
     1
 72
     5
  1
部品表
 73
     1
 44
1.0
1001
ACAD
1000
MTEXTBEGIN
1070
    73
1070
     1
1070
    44
1040
1.0
1070
    74
1070
     0
1000
MTEXTEND
  0
MTEXT
  5
EE
330
1A
100
AcDbEntity
  8
WAKU
100
AcDbMText
 10
327.0
 20
82.0
 30
0.0
 40
3.0
 41
37.0
 71
     1
 72
     5
  1

 73
     1
 44
1.0
1001
ACAD
1000
MTEXTBEGIN
1070
    73
1070
     1
1070
    44
1040
1.0
1070
    74
1070
     0
1000
MTEXTEND
  0
MTEXT
  5
F0
330
1A
100
AcDbEntity
  8
WAKU
100
AcDbMText
 10
347.2
 20
47.7
 30
0.0
 40
3.0
 41
10.0
 71
     1
 72
     5
  1
機種名
 73
     1
 44
1.0
1001
ACAD
1000
MTEXTBEGIN
1070
    73
1070
     1
1070
    44
1040
1.0
1070
    74
1070
     0
1000
MTEXTEND
  0
MTEXT
  5
F1
330
1A
100
AcDbEntity
  8
WAKU
100
AcDbMText
 10
347.2999999999999
 20
40.69999999999999
 30
0.0
 40
3.0
 41
10.0
 71
     1
 72
     5
  1
部　名
 73
     1
 44
1.0
1001
ACAD
1000
MTEXTBEGIN
1070
    73
1070
     1
1070
    44
1040
1.0
1070
    74
1070
     0
1000
MTEXTEND
  0
MTEXT
  5
F2
330
1A
100
AcDbEntity
  8
WAKU
100
AcDbMText
 10
346.0
 20
27.0
 30
0.0
 40
3.0
 41
10.0
 71
     1
 72
     5
  1
ｽﾄｯｸNo.
 73
     1
 44
1.0
1001
ACAD
1000
MTEXTBEGIN
1070
    73
1070
     1
1070
    44
1040
1.0
1070
    74
1070
     0
1000
MTEXTEND
  0
MTEXT
  5
F3
330
1A
100
AcDbEntity
  8
WAKU
100
AcDbMText
 10
347.0
 20
20.0
 30
0.0
 40
3.0
 41
12.0
 71
     1
 72
     5
  1
適用ﾛｯﾄ
 73
     1
 44
1.0
1001
ACAD
1000
MTEXTBEGIN
1070
    73
1070
     1
1070
    44
1040
1.0
1070
    74
1070
     0
1000
MTEXTEND
  0
MTEXT
  5
F5
330
1A
100
AcDbEntity
  8
WAKU
100
AcDbMText
 10
330.0
 20
85.0
 30
0.0
 40
3.0
 41
12.0
 71
     1
 72
     5
  1

 73
     1
 44
1.0
1001
ACAD
1000
MTEXTBEGIN
1070
    73
1070
     1
1070
    44
1040
1.0
1070
    74
1070
     0
1000
MTEXTEND
  0
MTEXT
  5
FF
330
1A
100
AcDbEntity
  8
WAKU
100
AcDbMText
 10
271.0
 20
82.0
 30
0.0
 40
3.0
 41
74.0
 71
     1
 72
     5
  1

 73
     1
 44
1.0
1001
ACAD
1000
MTEXTBEGIN
1070
    73
1070
     1
1070
    44
1040
1.0
1070
    74
1070
     0
1000
MTEXTEND
  0
MTEXT
  5
102
330
1A
100
AcDbEntity
  8
WAKU
100
AcDbMText
 10
287.0
 20
32.51948100072616
 30
0.0
 40
3.0
 41
13.0
 71
     1
 72
     5
  1
設　計
 73
     1
 44
1.0
1001
ACAD
1000
MTEXTBEGIN
1070
    73
1070
     1
1070
    44
1040
1.0
1070
    74
1070
     0
1000
MTEXTEND
  0
MTEXT
  5
103
330
1A
100
AcDbEntity
  8
WAKU
100
AcDbMText
 10
302.0
 20
33.0
 30
0.0
 40
3.0
 41
13.0
 71
     1
 72
     5
  1
検　図
 73
     1
 44
1.0
1001
ACAD
1000
MTEXTBEGIN
1070
    73
1070
     1
1070
    44
1040
1.0
1070
    74
1070
     0
1000
MTEXTEND
  0
MTEXT
  5
104
330
1A
100
AcDbEntity
  8
WAKU
100
AcDbMText
 10
325.5
 20
32.51948100072616
 30
0.0
 40
3.0
 41
17.0
 71
     1
 72
     5
  1
承　認
 73
     1
 44
1.0
1001
ACAD
1000
MTEXTBEGIN
1070
    73
1070
     1
1070
    44
1040
1.0
1070
    74
1070
     0
1000
MTEXTEND
  0
MTEXT
  5
106
330
1A
100
AcDbEntity
  8
WAKU
100
AcDbMText
 10
314.791664707496
 20
38.86071114661275
 30
0.0
 40
3.0
 41
13.6217958711934
 71
     1
 72
     5
  1
名　　称
 73
     1
 44
1.0
1001
ACAD
1000
MTEXTBEGIN
1070
    73
1070
     1
1070
    44
1040
1.0
1070
    74
1070
     0
1000
MTEXTEND
  0
LINE
  5
78B
330
1A
100
AcDbEntity
  8
WAKU
100
AcDbLine
 10
285.0
 20
17.0
 30
0.0
 11
225.0
 21
17.0
 31
0.0
  0
LINE
  5
78C
330
1A
100
AcDbEntity
  8
WAKU
100
AcDbLine
 10
285.0
 20
21.0
 30
0.0
 11
225.0
 21
21.0
 31
0.0
  0
LINE
  5
78D
330
1A
100
AcDbEntity
  8
WAKU
100
AcDbLine
 10
285.0
 20
25.0
 30
0.0
 11
225.0
 21
25.0
 31
0.0
  0
LINE
  5
78E
330
1A
100
AcDbEntity
  8
WAKU
100
AcDbLine
 10
285.0
 20
29.0
 30
0.0
 11
225.0
 21
29.0
 31
0.0
  0
LINE
  5
78F
330
1A
100
AcDbEntity
  8
WAKU
100
AcDbLine
 10
285.0
 20
33.0
 30
0.0
 11
225.0
 21
33.0
 31
0.0
  0
LINE
  5
790
330
1A
100
AcDbEntity
  8
WAKU
100
AcDbLine
 10
285.0
 20
37.0
 30
0.0
 11
225.0
 21
37.0
 31
0.0
  0
LINE
  5
791
330
1A
100
AcDbEntity
  8
WAKU
100
AcDbLine
 10
285.0
 20
41.0
 30
0.0
 11
225.0
 21
41.0
 31
0.0
  0
LINE
  5
792
330
1A
100
AcDbEntity
  8
WAKU
100
AcDbLine
 10
285.0
 20
45.0
 30
0.0
 11
225.0
 21
45.0
 31
0.0
  0
LINE
  5
794
330
1A
100
AcDbEntity
  8
WAKU
100
AcDbLine
 10
233.0
 20
13.0
 30
0.0
 11
233.0
 21
50.0
 31
0.0
  0
LINE
  5
795
330
1A
100
AcDbEntity
  8
WAKU
100
AcDbLine
 10
246.0
 20
13.0
 30
0.0
 11
246.0
 21
50.0
 31
0.0
  0
LINE
  5
796
330
1A
100
AcDbEntity
  8
WAKU
100
AcDbLine
 10
256.0
 20
13.0
 30
0.0
 11
256.0
 21
50.0
 31
0.0
  0
TEXT
  5
797
330
1A
100
AcDbEntity
  8
WAKU
100
AcDbText
 10
226.0
 20
46.0
 30
0.0
 40
3.0
  1
記号
100
AcDbText
  0
TEXT
  5
798
330
1A
100
AcDbEntity
  8
WAKU
100
AcDbText
 10
234.5
 20
46.0
 30
0.0
 40
3.0
  1
年月日
100
AcDbText
  0
TEXT
  5
799
330
1A
100
AcDbEntity
  8
WAKU
100
AcDbText
 10
248.0
 20
46.0
 30
0.0
 40
3.0
  1
担当
100
AcDbText
  0
TEXT
  5
79A
330
1A
100
AcDbEntity
  8
WAKU
100
AcDbText
 10
263.5
 20
46.0
 30
0.0
 40
3.0
  1
改連No.
100
AcDbText
  0
TEXT
  5
7CC
330
1A
100
AcDbEntity
  8
WAKU
100
AcDbText
 10
226.0
 20
13.5
 30
0.0
 40
3.0
  1
設置
100
AcDbText
  0
TEXT
  5
7CD
330
1A
100
AcDbEntity
  8
WAKU
100
AcDbText
 10
286.5
 20
35.5
 30
0.0
 40
3.0
  1
尺　度
100
AcDbText
  0
LINE
  5
7CE
330
1A
100
AcDbEntity
  8
WAKU
100
AcDbLine
 10
298.0
 20
48.0
 30
0.0
 11
287.0
 21
42.0
 31
0.0
  0
TEXT
  5
7CF
330
1A
100
AcDbEntity
  8
WAKU
100
AcDbText
 10
346.5
 20
10.5
 30
0.0
 40
3.0
  1
図
100
AcDbText
  0
TEXT
  5
7D0
330
1A
100
AcDbEntity
  8
WAKU
100
AcDbText
 10
346.5
 20
6.0
 30
0.0
 40
3.0
  1
番
100
AcDbText
  0
TEXT
  5
7D1
330
1A
100
AcDbEntity
  8
WAKU
100
AcDbText
 10
256.5
 20
6.0
 30
0.0
 40
6.0
  1
東洋測器株式会社
100
AcDbText
  0
TEXT
  5
8C1
330
1A
100
AcDbEntity
  8
0
100
AcDbText
 10
293.0
 20
41.5
 30
0.0
 40
3.0
  1
1
100
AcDbText
  0
TEXT
  5
8C4
330
1A
100
AcDbEntity
  8
0
100
AcDbText
 10
301.0
 20
42.5
 30
0.0
 40
3.5
  1
DINレール取付型デジタル指示計
 41
0.7
100
AcDbText
  0
TEXT
  5
8C5
330
1A
100
AcDbEntity
  8
0
100
AcDbText
 10
363.5
 20
44.5
 30
0.0
 40
3.0
  1
TI-703
100
AcDbText
  0
TEXT
  5
8C6
330
1A
100
AcDbEntity
  8
0
100
AcDbText
 10
287.5
 20
44.5
 30
0.0
 40
3.0
  1
1
100
AcDbText
  0
TEXT
  5
222A
330
1A
100
AcDbEntity
  8
0
100
AcDbText
 10
358.0
 20
7.5
 30
0.0
 40
3.0
  1
EA3-00131
100
AcDbText
  0
TEXT
  5
222B
330
1A
100
AcDbEntity
  8
WAKU
100
AcDbText
 10
286.0
 20
14.0
 30
0.0
 40
2.0
  1
13.09.17
100
AcDbText
  0
TEXT
  5
2240
330
1A
100
AcDbEntity
  8
WAKU
100
AcDbText
 10
288.0
 20
19.0
 30
0.0
 40
4.0
  1
大野
100
AcDbText
  0
TEXT
  5
4C22
330
1A
100
AcDbEntity
  8
WAKU
100
AcDbText
 10
234.0523809523809
 20
14.0
 30
0.0
 40
2.0
  1
13.09.17
 41
0.8
 72
     4
 11
239.5
 21
15.0
 31
0.0
100
AcDbText
  0
TEXT
  5
4C23
330
1A
100
AcDbEntity
  8
WAKU
100
AcDbText
 10
247.8
 20
13.5
 30
0.0
 40
3.0
  1
大野
 72
     4
 11
251.0
 21
15.0
 31
0.0
100
AcDbText
  0
LWPOLYLINE
  5
77DF
330
1A
100
AcDbEntity
  8
0
100
AcDbPolyline
 90
        3
 70
     1
 43
0.0
 10
398.0002991937029
 20
13.75002575180714
 10
393.6701721747807
 20
6.250025751807143
 10
402.330426212625
 20
6.250025751807143
  0
LWPOLYLINE
  5
77E1
330
1A
100
AcDbEntity
  8
0
100
AcDbPolyline
 90
        3
 70
     1
 43
0.0
 10
229.0
 20
33.0
 10
226.8349364905389
 20
29.25
 10
231.1650635094611
 20
29.25
  0
LWPOLYLINE
  5
77E2
330
1A
100
AcDbEntity
  8
0
100
AcDbPolyline
 90
        3
 70
     1
 43
0.0
 10
229.0
 20
21.0
 10
226.8349364905389
 20
17.25
 10
231.1650635094611
 20
17.25
  0
TEXT
  5
77E3
330
1A
100
AcDbEntity
  8
WAKU
100
AcDbText
 10
228.0
 20
17.5
 30
0.0
 40
2.0
  1
1
100
AcDbText
  0
LWPOLYLINE
  5
77E4
330
1A
100
AcDbEntity
  8
0
100
AcDbPolyline
 90
        3
 70
     1
 43
0.0
 10
229.0
 20
29.0
 10
226.8349364905389
 20
25.25
 10
231.1650635094611
 20
25.25
  0
TEXT
  5
77E5
330
1A
100
AcDbEntity
  8
WAKU
100
AcDbText
 10
228.0
 20
25.5
 30
0.0
 40
2.0
  1
3
100
AcDbText
  0
LWPOLYLINE
  5
77E6
330
1A
100
AcDbEntity
  8
0
100
AcDbPolyline
 90
        3
 70
     1
 43
0.0
 10
229.0
 20
25.0
 10
226.8349364905389
 20
21.25
 10
231.1650635094611
 20
21.25
  0
TEXT
  5
77E7
330
1A
100
AcDbEntity
  8
WAKU
100
AcDbText
 10
228.0
 20
21.5
 30
0.0
 40
2.0
  1
2
100
AcDbText
  0
TEXT
  5
77E8
330
1A
100
AcDbEntity
  8
WAKU
100
AcDbText
 10
228.0
 20
29.5
 30
0.0
 40
2.0
  1
4
100
AcDbText
  0
LWPOLYLINE
  5
77EA
330
1A
100
AcDbEntity
  8
0
100
AcDbPolyline
 90
        3
 70
     1
 43
0.0
 10
229.0
 20
45.0
 10
226.8349364905389
 20
41.25
 10
231.1650635094611
 20
41.25
  0
LWPOLYLINE
  5
77EB
330
1A
100
AcDbEntity
  8
0
100
AcDbPolyline
 90
        3
 70
     1
 43
0.0
 10
229.0
 20
41.0
 10
226.8349364905389
 20
37.25
 10
231.1650635094611
 20
37.25
  0
TEXT
  5
77EC
330
1A
100
AcDbEntity
  8
WAKU
100
AcDbText
 10
228.0
 20
37.5
 30
0.0
 40
2.0
  1
6
100
AcDbText
  0
LWPOLYLINE
  5
77ED
330
1A
100
AcDbEntity
  8
0
100
AcDbPolyline
 90
        3
 70
     1
 43
0.0
 10
229.0
 20
37.0
 10
226.8349364905389
 20
33.25
 10
231.1650635094611
 20
33.25
  0
TEXT
  5
77EE
330
1A
100
AcDbEntity
  8
WAKU
100
AcDbText
 10
228.0
 20
33.5
 30
0.0
 40
2.0
  1
5
100
AcDbText
  0
TEXT
  5
77EF
330
1A
100
AcDbEntity
  8
WAKU
100
AcDbText
 10
228.0
 20
41.5
 30
0.0
 40
2.0
  1
7
100
AcDbText
  0
TEXT
  5
9C26
330
1A
100
AcDbEntity
  8
0
100
AcDbText
 10
396.5
 20
7.5
 30
0.0
 40
3.0
  1
3
100
AcDbText
  0
TEXT
  5
A311
330
1A
100
AcDbEntity
  8
WAKU
100
AcDbText
 10
303.0
 20
19.0
 30
0.0
 40
4.0
  1
奥野
100
AcDbText
  0
TEXT
  5
A312
330
1A
100
AcDbEntity
  8
WAKU
100
AcDbText
 10
301.0
 20
14.0
 30
0.0
 40
2.0
  1
13.09.17
100
AcDbText
  0
TEXT
  5
A313
330
1A
100
AcDbEntity
  8
WAKU
100
AcDbText
 10
331.0
 20
14.0
 30
0.0
 40
2.0
  1
13.09.17
100
AcDbText
  0
TEXT
  5
A314
330
1A
100
AcDbEntity
  8
WAKU
100
AcDbText
 10
333.0
 20
19.0
 30
0.0
 40
4.0
  1
串田
100
AcDbText
  0
LINE
  5
C7C2
330
1A
100
AcDbEntity
  8
0
100
AcDbLine
 10
150.2
 20
125.8
 30
0.0
 11
150.2
 21
125.0
 31
0.0
  0
LINE
  5
C7C3
330
1A
100
AcDbEntity
  8
0
100
AcDbLine
 10
121.7
 20
214.2
 30
0.0
 11
121.7
 21
125.8
 31
0.0
  0
ARC
  5
C7D5
330
1A
100
AcDbEntity
  8
0
100
AcDbCircle
 10
117.5
 20
214.2
 30
0.0
 40
0.8
100
AcDbArc
 50
90.0
 51
180.0
  0
ARC
  5
C7D7
330
1A
100
AcDbEntity
  8
0
100
AcDbCircle
 10
117.5
 20
125.8
 30
0.0
 40
0.8
100
AcDbArc
 50
180.0
 51
270.0
  0
LINE
  5
C7D8
330
1A
100
AcDbEntity
  8
0
100
AcDbLine
 10
117.5
 20
125.0
 30
0.0
 11
150.2
 21
125.0
 31
0.0
  0
LINE
  5
C7D9
330
1A
100
AcDbEntity
  8
0
100
AcDbLine
 10
117.4999999999999
 20
125.8
 30
0.0
 11
150.2
 21
125.8
 31
0.0
  0
LINE
  5
C7DA
330
1A
100
AcDbEntity
  8
0
100
AcDbLine
 10
150.2
 20
215.0
 30
0.0
 11
117.5
 21
215.0
 31
0.0
  0
LINE
  5
C7DB
330
1A
100
AcDbEntity
  8
0
100
AcDbLine
 10
150.2
 20
214.2
 30
0.0
 11
117.5
 21
214.2
 31
0.0
  0
LINE
  5
C7DC
330
1A
100
AcDbEntity
  8
0
100
AcDbLine
 10
150.2
 20
215.0
 30
0.0
 11
150.2
 21
214.2
 31
0.0
  0
LINE
  5
C7DD
330
1A
100
AcDbEntity
  8
0
100
AcDbLine
 10
116.7
 20
214.2
 30
0.0
 11
116.7
 21
125.8
 31
0.0
  0
LINE
  5
C7F0
330
1A
100
AcDbEntity
  8
0
100
AcDbLine
 10
242.9999999999999
 20
215.0
 30
0.0
 11
235.0
 21
215.0
 31
0.0
  0
LINE
  5
C7F9
330
1A
100
AcDbEntity
  8
0
100
AcDbLine
 10
187.0
 20
215.0
 30
0.0
 11
195.0
 21
215.0
 31
0.0
  0
LINE
  5
C802
330
1A
100
AcDbEntity
  8
0
100
AcDbLine
 10
187.0
 20
125.0
 30
0.0
 11
195.0
 21
125.0
 31
0.0
  0
LINE
  5
C80B
330
1A
100
AcDbEntity
  8
0
100
AcDbLine
 10
242.9999999999999
 20
125.0
 30
0.0
 11
235.0
 21
125.0
 31
0.0
  0
INSERT
  5
C80F
330
1A
100
AcDbEntity
  8
SUNPOU
100
AcDbBlockReference
  2
BLKF0013
 10
62.07001200000002
 20
101.9312539999999
 30
0.0
  0
LINE
  5
C810
330
1A
100
AcDbEntity
  8
0
100
AcDbLine
 10
160.7
 20
158.3284269999999
 30
0.0
 11
160.7
 21
181.5284269999999
 31
0.0
  0
LINE
  5
C811
330
1A
100
AcDbEntity
  8
0
100
AcDbLine
 10
162.1
 20
157.8284269999999
 30
0.0
 11
162.1
 21
182.0284269999999
 31
0.0
  0
ARC
  5
C812
330
1A
100
AcDbEntity
  8
0
100
AcDbCircle
 10
156.2
 20
156.4284269999999
 30
0.0
 40
1.399999999999999
100
AcDbArc
 50
90.0
 51
180.0
  0
ARC
  5
C813
330
1A
100
AcDbEntity
  8
0
100
AcDbCircle
 10
155.3
 20
152.9284269999999
 30
0.0
 40
0.5
100
AcDbArc
 50
180.0
 51
0.0
  0
LINE
  5
C814
330
1A
100
AcDbEntity
  8
0
100
AcDbLine
 10
154.8
 20
156.4284269999999
 30
0.0
 11
154.8
 21
152.9284269999999
 31
0.0
  0
LINE
  5
C815
330
1A
100
AcDbEntity
  8
0
100
AcDbLine
 10
155.8
 20
154.8284269999999
 30
0.0
 11
156.2
 21
156.4284269999999
 31
0.0
  0
LINE
  5
C816
330
1A
100
AcDbEntity
  8
0
100
AcDbLine
 10
155.8
 20
154.8284269999999
 30
0.0
 11
155.8
 21
152.9284269999999
 31
0.0
  0
LINE
  5
C817
330
1A
100
AcDbEntity
  8
0
100
AcDbLine
 10
156.2
 20
157.8284269999999
 30
0.0
 11
160.2
 21
157.8284269999999
 31
0.0
  0
LINE
  5
C818
330
1A
100
AcDbEntity
  8
0
100
AcDbLine
 10
156.2
 20
156.4284269999999
 30
0.0
 11
160.7
 21
156.4284269999999
 31
0.0
  0
ARC
  5
C819
330
1A
100
AcDbEntity
  8
0
100
AcDbCircle
 10
160.2
 20
158.3284269999999
 30
0.0
 40
0.5
100
AcDbArc
 50
270.0
 51
0.0
  0
ARC
  5
C81A
330
1A
100
AcDbEntity
  8
0
100
AcDbCircle
 10
160.7
 20
157.8284269999999
 30
0.0
 40
1.399999999999999
100
AcDbArc
 50
270.0
 51
0.0
  0
ARC
  5
C81B
330
1A
100
AcDbEntity
  8
0
100
AcDbCircle
 10
155.3
 20
186.9284269999999
 30
0.0
 40
0.5
100
AcDbArc
 50
0.0
 51
180.0
  0
ARC
  5
C81C
330
1A
100
AcDbEntity
  8
0
100
AcDbCircle
 10
156.2
 20
183.4284269999999
 30
0.0
 40
1.399999999999999
100
AcDbArc
 50
180.0
 51
270.0
  0
LINE
  5
C81D
330
1A
100
AcDbEntity
  8
0
100
AcDbLine
 10
154.8
 20
183.4284269999999
 30
0.0
 11
154.8
 21
186.9284269999999
 31
0.0
  0
LINE
  5
C81E
330
1A
100
AcDbEntity
  8
0
100
AcDbLine
 10
155.8
 20
185.0284269999999
 30
0.0
 11
155.8
 21
186.9284269999999
 31
0.0
  0
LINE
  5
C81F
330
1A
100
AcDbEntity
  8
0
100
AcDbLine
 10
156.2
 20
183.4284269999999
 30
0.0
 11
160.7
 21
183.4284269999999
 31
0.0
  0
LINE
  5
C820
330
1A
100
AcDbEntity
  8
0
100
AcDbLine
 10
156.2
 20
182.0284269999999
 30
0.0
 11
160.2
 21
182.0284269999999
 31
0.0
  0
LINE
  5
C821
330
1A
100
AcDbEntity
  8
0
100
AcDbLine
 10
155.8
 20
185.0284269999999
 30
0.0
 11
156.2
 21
183.4284269999999
 31
0.0
  0
ARC
  5
C822
330
1A
100
AcDbEntity
  8
0
100
AcDbCircle
 10
160.2
 20
181.5284269999999
 30
0.0
 40
0.5
100
AcDbArc
 50
0.0
 51
90.0
  0
ARC
  5
C823
330
1A
100
AcDbEntity
  8
0
100
AcDbCircle
 10
160.7
 20
182.0284269999999
 30
0.0
 40
1.399999999999999
100
AcDbArc
 50
0.0
 51
90.0
  0
MTEXT
  5
C824
102
{ACAD_REACTORS
330
C825
102
}
330
1A
100
AcDbEntity
  8
SUNPOU
100
AcDbMText
 10
238.6428571428571
 20
98.0
 30
0.0
 40
3.0
 41
0.0
 71
     6
 72
     1
  1
{\C0;壁面取り付けアダプタ}
 73
     1
 44
1.0
1001
ACAD
1000
MTEXTBEGIN
1070
    73
1070
     1
1070
    44
1040
1.0
1070
    74
1070
     0
1000
MTEXTEND
  0
LEADER
  5
C825
330
1A
100
AcDbEntity
  8
SUNPOU
100
AcDbLeader
  3
STANDARD
 73
     0
 75
     1
 40
3.0
 41
35.57142857142861
 76
     3
 10
228.0
 20
117.0
 30
0.0
 10
241.6428571428571
 20
96.0
 30
0.0
 10
239.1428571428571
 20
96.0
 30
0.0
340
C824
1001
ACAD
1000
DSTYLE
1002
{
1070
   341
1005
BA
1070
    41
1040
2.5
1070
    42
1040
0.5
1070
    43
1040
10.0
1070
    44
1040
0.5
1070
    73
1070
     0
1070
    74
1070
     0
1070
    77
1070
     1
1070
   140
1040
2.0
1070
   141
1040
0.0
1070
   147
1040
0.5
1070
   173
1070
     1
1070
   271
1070
     1
1070
   272
1070
     0
1070
   343
1005
BA
1070
   344
1005
BA
1002
}
  0
MTEXT
  5
C826
102
{ACAD_REACTORS
330
C827
102
}
330
1A
100
AcDbEntity
  8
SUNPOU
100
AcDbMText
 10
184.5427900928886
 20
96.92842689077759
 30
0.0
 40
3.0
 41
0.0
 71
     6
 72
     1
  1
{\C0;35mmDIN規格レール}
 73
     1
 44
1.0
1001
ACAD
1000
MTEXTBEGIN
1070
    73
1070
     1
1070
    44
1040
1.0
1070
    74
1070
     0
1000
MTEXTEND
  0
LEADER
  5
C827
330
1A
100
AcDbEntity
  8
SUNPOU
100
AcDbLeader
  3
STANDARD
 73
     0
 75
     1
 40
3.000000000000001
 41
39.14285714285713
 76
     3
 10
160.570058
 20
156.4284269999999
 30
0.0
 10
187.5427900928886
 20
94.92842689077759
 30
0.0
 10
185.0427900928886
 20
94.92842689077759
 30
0.0
340
C826
1001
ACAD
1000
DSTYLE
1002
{
1070
   341
1005
BA
1070
    41
1040
2.5
1070
    42
1040
0.5
1070
    43
1040
10.0
1070
    44
1040
0.5
1070
    73
1070
     0
1070
    74
1070
     0
1070
    77
1070
     1
1070
   140
1040
2.0
1070
   141
1040
0.0
1070
   147
1040
0.5
1070
   173
1070
     1
1070
   271
1070
     1
1070
   272
1070
     0
1070
   343
1005
BA
1070
   344
1005
BA
1002
}
  0
LINE
  5
C829
330
1A
100
AcDbEntity
  8
0
100
AcDbLine
 10
186.0
 20
125.0
 30
0.0
 11
186.0
 21
215.0
 31
0.0
  0
LINE
  5
C82A
330
1A
100
AcDbEntity
  8
0
100
AcDbLine
 10
186.8000000000001
 20
125.8
 30
0.0
 11
186.8
 21
214.2
 31
0.0
  0
LINE
  5
C82B
330
1A
100
AcDbEntity
  8
0
100
AcDbLine
 10
186.0
 20
125.0
 30
0.0
 11
243.9999999999999
 21
125.0
 31
0.0
  0
LINE
  5
C82C
330
1A
100
AcDbEntity
  8
0
100
AcDbLine
 10
186.0
 20
125.8
 30
0.0
 11
243.9999999999999
 21
125.8
 31
0.0
  0
LINE
  5
C82E
330
1A
100
AcDbEntity
  8
0
100
AcDbLine
 10
186.0000000000001
 20
215.0
 30
0.0
 11
243.9999999999999
 21
215.0
 31
0.0
  0
LINE
  5
C82F
330
1A
100
AcDbEntity
  8
0
100
AcDbLine
 10
243.9999999999999
 20
125.0
 30
0.0
 11
243.9999999999999
 21
215.0
 31
0.0
  0
LINE
  5
C830
330
1A
100
AcDbEntity
  8
0
100
AcDbLine
 10
186.0
 20
214.2
 30
0.0
 11
243.9999999999999
 21
214.2
 31
0.0
  0
LINE
  5
C831
330
1A
100
AcDbEntity
  8
0
100
AcDbLine
 10
243.1999999999999
 20
125.8
 30
0.0
 11
243.1999999999999
 21
214.2
 31
0.0
  0
LINE
  5
C836
330
1A
100
AcDbEntity
  8
0
100
AcDbLine
 10
117.6999999999999
 20
126.0
 30
0.0
 11
150.5
 21
126.0
 31
0.0
  0
LINE
  5
C837
330
1A
100
AcDbEntity
  8
0
100
AcDbLine
 10
150.5
 20
214.0
 30
0.0
 11
117.7
 21
214.0
 31
0.0
  0
INSERT
  5
C839
330
1A
100
AcDbEntity
  8
0
100
AcDbBlockReference
  2
M3-TOP
 10
225.0
 20
142.5
 30
0.0
  0
INSERT
  5
C83A
330
1A
100
AcDbEntity
  8
0
100
AcDbBlockReference
  2
M3-TOP
 10
225.0
 20
197.5
 30
0.0
  0
INSERT
  5
C83B
330
1A
100
AcDbEntity
  8
0
100
AcDbBlockReference
  2
M3-TOP
 10
205.0000000000001
 20
197.5
 30
0.0
  0
INSERT
  5
C83C
330
1A
100
AcDbEntity
  8
0
100
AcDbBlockReference
  2
M3-TOP
 10
205.0000000000001
 20
142.5
 30
0.0
  0
INSERT
  5
C84E
330
1A
100
AcDbEntity
  8
0
100
AcDbBlockReference
  2
DRT-1-SIDE
 10
150.5
 20
170.0
 30
0.0
 41
-1.0
  0
LINE
  5
C85F
330
1A
100
AcDbEntity
  8
0
100
AcDbLine
 10
149.7
 20
214.0
 30
0.0
 11
150.5
 21
214.0
 31
0.0
  0
LINE
  5
C860
330
1A
100
AcDbEntity
  8
0
100
AcDbLine
 10
150.5
 20
126.0
 30
0.0
 11
150.5
 21
214.0
 31
0.0
  0
ELLIPSE
  5
C891
330
1A
100
AcDbEntity
  8
SUNPOU
100
AcDbEllipse
 10
154.0499998839027
 20
197.5
 30
0.0
 11
0.0
 21
2.650000000000011
 31
0.0
210
0.0
220
0.0
230
-1.0
 40
0.5962264589045838
 41
-0.0316507780268766
 42
3.173243431616669
  0
ELLIPSE
  5
C8A3
330
1A
100
AcDbEntity
  8
SUNPOU
100
AcDbEllipse
 10
154.0499998839028
 20
142.5
 30
0.0
 11
0.0
 21
2.650000000000005
 31
0.0
210
0.0
220
0.0
230
1.0
 40
0.596226458904585
 41
3.109941875562853
 42
6.314836085206525
  0
LINE
  5
C8B5
330
1A
100
AcDbEntity
  8
0
100
AcDbLine
 10
227.5000000000001
 20
154.5
 30
0.0
 11
219.5000000000001
 21
154.5
 31
0.0
  0
LINE
  5
C8B6
330
1A
100
AcDbEntity
  8
0
100
AcDbLine
 10
210.5
 20
154.5
 30
0.0
 11
202.5000000000001
 21
154.5
 31
0.0
  0
LINE
  5
C8B7
330
1A
100
AcDbEntity
  8
0
100
AcDbLine
 10
215.0000000000001
 20
190.5
 30
0.0
 11
223.5000000000001
 21
189.0
 31
0.0
  0
LINE
  5
C8B8
330
1A
100
AcDbEntity
  8
0
100
AcDbLine
 10
206.5
 20
189.0
 30
0.0
 11
215.0000000000001
 21
190.5
 31
0.0
  0
LINE
  5
C8B9
330
1A
100
AcDbEntity
  8
0
100
AcDbLine
 10
215.0000000000001
 20
188.5
 30
0.0
 11
223.5000000000001
 21
187.5
 31
0.0
  0
LINE
  5
C8BA
330
1A
100
AcDbEntity
  8
0
100
AcDbLine
 10
206.5
 20
187.5
 30
0.0
 11
215.0000000000001
 21
188.5
 31
0.0
  0
LINE
  5
C8BB
330
1A
100
AcDbEntity
  8
0
100
AcDbLine
 10
223.5000000000001
 20
187.5
 30
0.0
 11
227.5000000000001
 21
187.5
 31
0.0
  0
LINE
  5
C8BC
330
1A
100
AcDbEntity
  8
0
100
AcDbLine
 10
202.5000000000001
 20
187.5
 30
0.0
 11
206.5
 21
187.5
 31
0.0
  0
LINE
  5
C8BD
330
1A
100
AcDbEntity
  8
0
100
AcDbLine
 10
227.5000000000001
 20
189.5
 30
0.0
 11
223.5000000000001
 21
189.5
 31
0.0
  0
LINE
  5
C8BE
330
1A
100
AcDbEntity
  8
0
100
AcDbLine
 10
227.5000000000001
 20
186.5
 30
0.0
 11
227.5000000000001
 21
189.5
 31
0.0
  0
LINE
  5
C8BF
330
1A
100
AcDbEntity
  8
0
100
AcDbLine
 10
223.5000000000001
 20
186.5
 30
0.0
 11
227.5000000000001
 21
186.5
 31
0.0
  0
LINE
  5
C8C0
330
1A
100
AcDbEntity
  8
0
100
AcDbLine
 10
223.5000000000001
 20
189.5
 30
0.0
 11
223.5000000000001
 21
186.5
 31
0.0
  0
LINE
  5
C8C1
330
1A
100
AcDbEntity
  8
0
100
AcDbLine
 10
206.5
 20
189.5
 30
0.0
 11
202.5000000000001
 21
189.5
 31
0.0
  0
LINE
  5
C8C2
330
1A
100
AcDbEntity
  8
0
100
AcDbLine
 10
206.5
 20
186.5
 30
0.0
 11
206.5
 21
189.5
 31
0.0
  0
LINE
  5
C8C3
330
1A
100
AcDbEntity
  8
0
100
AcDbLine
 10
202.5000000000001
 20
186.5
 30
0.0
 11
206.5
 21
186.5
 31
0.0
  0
LINE
  5
C8C4
330
1A
100
AcDbEntity
  8
0
100
AcDbLine
 10
202.5000000000001
 20
189.5
 30
0.0
 11
202.5000000000001
 21
186.5
 31
0.0
  0
LINE
  5
C8C5
330
1A
100
AcDbEntity
  8
0
100
AcDbLine
 10
223.5000000000001
 20
186.5
 30
0.0
 11
223.5000000000001
 21
189.5
 31
0.0
  0
LINE
  5
C8C6
330
1A
100
AcDbEntity
  8
0
100
AcDbLine
 10
206.5
 20
186.5
 30
0.0
 11
206.5
 21
189.5
 31
0.0
  0
LINE
  5
C8C7
330
1A
100
AcDbEntity
  8
0
100
AcDbLine
 10
227.5000000000001
 20
186.5
 30
0.0
 11
227.5000000000001
 21
189.5
 31
0.0
  0
LINE
  5
C8C8
330
1A
100
AcDbEntity
  8
0
100
AcDbLine
 10
202.5000000000001
 20
186.5
 30
0.0
 11
202.5000000000001
 21
189.5
 31
0.0
  0
LINE
  5
C8C9
330
1A
100
AcDbEntity
  8
0
100
AcDbLine
 10
219.5000000000001
 20
152.5
 30
0.0
 11
227.5000000000001
 21
152.5
 31
0.0
  0
LINE
  5
C8CA
330
1A
100
AcDbEntity
  8
0
100
AcDbLine
 10
202.5000000000001
 20
152.5
 30
0.0
 11
210.5
 21
152.5
 31
0.0
  0
LINE
  5
C8CB
330
1A
100
AcDbEntity
  8
0
100
AcDbLine
 10
227.5000000000001
 20
153.5
 30
0.0
 11
219.5000000000001
 21
153.5
 31
0.0
  0
LINE
  5
C8CC
330
1A
100
AcDbEntity
  8
0
100
AcDbLine
 10
227.5000000000001
 20
150.5
 30
0.0
 11
227.5000000000001
 21
154.5
 31
0.0
  0
LINE
  5
C8CD
330
1A
100
AcDbEntity
  8
0
100
AcDbLine
 10
219.5000000000001
 20
150.5
 30
0.0
 11
227.5000000000001
 21
150.5
 31
0.0
  0
LINE
  5
C8CE
330
1A
100
AcDbEntity
  8
0
100
AcDbLine
 10
219.5000000000001
 20
154.5
 30
0.0
 11
219.5000000000001
 21
150.5
 31
0.0
  0
LINE
  5
C8CF
330
1A
100
AcDbEntity
  8
0
100
AcDbLine
 10
210.5
 20
153.5
 30
0.0
 11
202.5000000000001
 21
153.5
 31
0.0
  0
LINE
  5
C8D0
330
1A
100
AcDbEntity
  8
0
100
AcDbLine
 10
210.5
 20
150.5
 30
0.0
 11
210.5
 21
154.5
 31
0.0
  0
LINE
  5
C8D1
330
1A
100
AcDbEntity
  8
0
100
AcDbLine
 10
202.5000000000001
 20
150.5
 30
0.0
 11
210.5
 21
150.5
 31
0.0
  0
LINE
  5
C8D2
330
1A
100
AcDbEntity
  8
0
100
AcDbLine
 10
202.5000000000001
 20
154.5
 30
0.0
 11
202.5000000000001
 21
150.5
 31
0.0
  0
LINE
  5
C8D9
330
1A
100
AcDbEntity
  8
0
100
AcDbLine
 10
208.0
 20
161.8499999999999
 30
0.0
 11
222.0
 21
161.8499999999999
 31
0.0
  0
LINE
  5
C8DA
330
1A
100
AcDbEntity
  8
0
100
AcDbLine
 10
208.0
 20
163.8499999999999
 30
0.0
 11
222.0
 21
163.8499999999999
 31
0.0
  0
LINE
  5
C8DB
330
1A
100
AcDbEntity
  8
0
100
AcDbLine
 10
208.0
 20
176.15
 30
0.0
 11
222.0000000000001
 21
176.15
 31
0.0
  0
LINE
  5
C8DC
330
1A
100
AcDbEntity
  8
0
100
AcDbLine
 10
208.0
 20
178.15
 30
0.0
 11
222.0000000000001
 21
178.15
 31
0.0
  0
LINE
  5
C8DD
330
1A
100
AcDbEntity
  8
0
100
AcDbLine
 10
222.0000000000001
 20
180.15
 30
0.0
 11
222.0
 21
159.8499999999999
 31
0.0
  0
LINE
  5
C8DE
330
1A
100
AcDbEntity
  8
0
100
AcDbLine
 10
208.0
 20
180.15
 30
0.0
 11
208.0
 21
159.8499999999999
 31
0.0
  0
LINE
  5
C8DF
330
1A
100
AcDbEntity
  8
0
100
AcDbLine
 10
208.0
 20
159.8499999999999
 30
0.0
 11
222.0000000000001
 21
159.8499999999999
 31
0.0
  0
LINE
  5
C8E0
330
1A
100
AcDbEntity
  8
0
100
AcDbLine
 10
208.0
 20
180.15
 30
0.0
 11
222.0000000000001
 21
180.15
 31
0.0
  0
LINE
  5
C8E3
330
1A
100
AcDbEntity
  8
0
100
AcDbLine
 10
208.0
 20
170.0
 30
0.0
 11
222.0
 21
170.0
 31
0.0
  0
LINE
  5
C8E4
330
1A
100
AcDbEntity
  8
0
100
AcDbLine
 10
200.0
 20
137.5
 30
0.0
 11
230.0000000000001
 21
137.5
 31
0.0
  0
LINE
  5
C8E5
330
1A
100
AcDbEntity
  8
0
100
AcDbLine
 10
200.0
 20
202.5
 30
0.0
 11
230.0000000000001
 21
202.5
 31
0.0
  0
LINE
  5
C8E6
330
1A
100
AcDbEntity
  8
0
100
AcDbLine
 10
230.0000000000001
 20
202.5
 30
0.0
 11
230.0000000000001
 21
137.5
 31
0.0
  0
LINE
  5
C8E7
330
1A
100
AcDbEntity
  8
0
100
AcDbLine
 10
200.0
 20
202.5
 30
0.0
 11
200.0
 21
137.5
 31
0.0
  0
LINE
  5
C8EA
330
1A
100
AcDbEntity
  8
0
100
AcDbLine
 10
301.5
 20
252.0
 30
0.0
 11
396.5
 21
252.0000000000001
 31
0.0
  0
LINE
  5
C8ED
330
1A
100
AcDbEntity
  8
0
100
AcDbLine
 10
266.5
 20
154.0
 30
0.0
 11
396.5
 21
154.0
 31
0.0
  0
LINE
  5
C8F1
330
1A
100
AcDbEntity
  8
0
100
AcDbLine
 10
301.5
 20
252.0
 30
0.0
 11
371.5
 21
252.0000000000001
 31
0.0
  0
TEXT
  5
C8F2
330
1A
100
AcDbEntity
  8
0
100
AcDbText
 10
303.5
 20
233.0
 30
0.0
 40
3.0
  1
DC5V±5% (60mA), リモートセンス機能付き
100
AcDbText
  0
TEXT
  5
C8F3
330
1A
100
AcDbEntity
  8
0
100
AcDbText
 10
303.5
 20
156.0
 30
0.0
 40
3.0
  1
-10～+40℃、20～85%RH(結露無き事)
100
AcDbText
  0
TEXT
  5
C8F4
330
1A
100
AcDbEntity
  8
0
100
AcDbText
 10
268.5
 20
149.0000000000001
 30
0.0
 40
3.0
  1
断線検出機能
100
AcDbText
  0
TEXT
  5
C8F5
330
1A
100
AcDbEntity
  8
0
100
AcDbText
 10
268.5
 20
156.0
 30
0.0
 40
3.0
  1
使用温度、湿度範囲
100
AcDbText
  0
LINE
  5
C8F6
330
1A
100
AcDbEntity
  8
0
100
AcDbLine
 10
301.5
 20
168.0
 30
0.0
 11
396.5
 21
168.0000000000001
 31
0.0
  0
LINE
  5
C8F7
330
1A
100
AcDbEntity
  8
0
100
AcDbLine
 10
266.5
 20
161.0
 30
0.0
 11
396.5
 21
161.0
 31
0.0
  0
LINE
  5
C8F8
330
1A
100
AcDbEntity
  8
0
100
AcDbLine
 10
301.5
 20
140.0000000000001
 30
0.0
 11
396.5
 21
140.0000000000001
 31
0.0
  0
LINE
  5
C8F9
330
1A
100
AcDbEntity
  8
0
100
AcDbLine
 10
301.5
 20
133.0000000000001
 30
0.0
 11
396.5
 21
133.0000000000001
 31
0.0
  0
LINE
  5
C8FA
330
1A
100
AcDbEntity
  8
0
100
AcDbLine
 10
301.5
 20
133.0000000000001
 30
0.0
 11
396.5
 21
133.0000000000001
 31
0.0
  0
LINE
  5
C8FB
330
1A
100
AcDbEntity
  8
0
100
AcDbLine
 10
266.5
 20
126.0000000000001
 30
0.0
 11
396.5
 21
126.0000000000001
 31
0.0
  0
TEXT
  5
C8FC
330
1A
100
AcDbEntity
  8
0
100
AcDbText
 10
303.5
 20
149.0000000000001
 30
0.0
 40
3.0
  1
センサケーブル断線検出時RUN信号OFF
100
AcDbText
  0
TEXT
  5
C8FD
330
1A
100
AcDbEntity
  8
0
100
AcDbText
 10
303.5
 20
142.0
 30
0.0
 40
3.0
  1
電流(4-20mA)または電圧(±5V)出力 [OPTION]
100
AcDbText
  0
TEXT
  5
C8FE
330
1A
100
AcDbEntity
  8
0
100
AcDbText
 10
268.5
 20
142.0
 30
0.0
 40
3.0
  1
アナログ出力
100
AcDbText
  0
TEXT
  5
C8FF
330
1A
100
AcDbEntity
  8
0
100
AcDbText
 10
303.5
 20
121.0000000000001
 30
0.0
 40
3.0
  1
RS-232C準拠　[OPTION]
100
AcDbText
  0
TEXT
  5
C900
330
1A
100
AcDbEntity
  8
0
100
AcDbText
 10
268.5
 20
121.0000000000001
 30
0.0
 40
3.0
  1
シリアルI/F
100
AcDbText
  0
LINE
  5
C901
330
1A
100
AcDbEntity
  8
0
100
AcDbLine
 10
266.5
 20
119.0
 30
0.0
 11
396.5
 21
119.0
 31
0.0
  0
TEXT
  5
C902
330
1A
100
AcDbEntity
  8
0
100
AcDbText
 10
303.5
 20
114.0000000000001
 30
0.0
 40
3.0
  1
35mm幅DINレールに取付
100
AcDbText
  0
TEXT
  5
C903
330
1A
100
AcDbEntity
  8
0
100
AcDbText
 10
268.5
 20
114.0000000000001
 30
0.0
 40
3.0
  1
取付方法
100
AcDbText
  0
LINE
  5
C904
330
1A
100
AcDbEntity
  8
0
100
AcDbLine
 10
301.5
 20
252.0
 30
0.0
 11
301.5
 21
105.0
 31
0.0
  0
TEXT
  5
C905
330
1A
100
AcDbEntity
  8
0
100
AcDbText
 10
268.5
 20
184.0
 30
0.0
 40
3.0
  1
表示
100
AcDbText
  0
LINE
  5
C906
330
1A
100
AcDbEntity
  8
0
100
AcDbLine
 10
266.5
 20
182.0
 30
0.0
 11
396.5
 21
182.0
 31
0.0
  0
TEXT
  5
C907
330
1A
100
AcDbEntity
  8
0
100
AcDbText
 10
268.5
 20
254.0
 30
0.0
 40
3.0
  1
概略仕様
100
AcDbText
  0
LINE
  5
C908
330
1A
100
AcDbEntity
  8
0
100
AcDbLine
 10
266.5
 20
259.0000000000001
 30
0.0
 11
396.5
 21
259.0000000000001
 31
0.0
  0
TEXT
  5
C909
330
1A
100
AcDbEntity
  8
0
100
AcDbText
 10
268.5
 20
170.0
 30
0.0
 40
3.0
  1
制御用出力
100
AcDbText
  0
TEXT
  5
C90A
330
1A
100
AcDbEntity
  8
0
100
AcDbText
 10
303.5
 20
170.0
 30
0.0
 40
3.0
  1
オープンコレクタ出力2点 (SP1, SP2またはRUN)
100
AcDbText
  0
TEXT
  5
C90B
330
1A
100
AcDbEntity
  8
0
100
AcDbText
 10
268.5
 20
177.0
 30
0.0
 40
3.0
  1
外部指令入力
100
AcDbText
  0
TEXT
  5
C90C
330
1A
100
AcDbEntity
  8
0
100
AcDbText
 10
303.5
 20
177.0
 30
0.0
 40
3.0
  1
接点入力2点 (AZ, AZ.R)
100
AcDbText
  0
LINE
  5
C90D
330
1A
100
AcDbEntity
  8
0
100
AcDbLine
 10
266.5
 20
196.0
 30
0.0
 11
396.5
 21
196.0
 31
0.0
  0
LINE
  5
C90E
330
1A
100
AcDbEntity
  8
0
100
AcDbLine
 10
266.5
 20
189.0
 30
0.0
 11
396.5
 21
189.0
 31
0.0
  0
TEXT
  5
C90F
330
1A
100
AcDbEntity
  8
0
100
AcDbText
 10
303.5
 20
191.0
 30
0.0
 40
3.0
  1
約1.2Hz
100
AcDbText
  0
TEXT
  5
C910
330
1A
100
AcDbEntity
  8
0
100
AcDbText
 10
268.5
 20
198.0
 30
0.0
 40
3.0
  1
非直線性
100
AcDbText
  0
TEXT
  5
C911
330
1A
100
AcDbEntity
  8
0
100
AcDbText
 10
303.5
 20
184.0
 30
0.0
 40
3.0
  1
8文字2行　バックライト付LCD
100
AcDbText
  0
TEXT
  5
C912
330
1A
100
AcDbEntity
  8
0
100
AcDbText
 10
303.5
 20
198.0
 30
0.0
 40
3.0
  1
±0.02%FS±1カウント
100
AcDbText
  0
TEXT
  5
C913
330
1A
100
AcDbEntity
  8
0
100
AcDbText
 10
268.5
 20
191.0
 30
0.0
 40
3.0
  1
周波数特性
100
AcDbText
  0
TEXT
  5
C916
330
1A
100
AcDbEntity
  8
0
100
AcDbText
 10
268.5
 20
219.0000000000001
 30
0.0
 40
3.0
  1
サンプリング周期
100
AcDbText
  0
TEXT
  5
C917
330
1A
100
AcDbEntity
  8
0
100
AcDbText
 10
303.5
 20
219.0000000000001
 30
0.0
 40
3.0
  1
10回/秒
100
AcDbText
  0
TEXT
  5
C91A
330
1A
100
AcDbEntity
  8
0
100
AcDbText
 10
303.5
 20
226.0000000000001
 30
0.0
 40
3.0
  1
0.5～3.0mV/V (分解能1/10,000に必要なスパン量)
 41
0.9
100
AcDbText
  0
LINE
  5
C91B
330
1A
100
AcDbEntity
  8
0
100
AcDbLine
 10
266.5
 20
203.0000000000001
 30
0.0
 11
396.5
 21
203.0000000000001
 31
0.0
  0
LINE
  5
C91C
330
1A
100
AcDbEntity
  8
0
100
AcDbLine
 10
301.5
 20
210.0
 30
0.0
 11
396.5
 21
210.0
 31
0.0
  0
LINE
  5
C91D
330
1A
100
AcDbEntity
  8
0
100
AcDbLine
 10
266.5
 20
217.0000000000001
 30
0.0
 11
396.5
 21
217.0000000000001
 31
0.0
  0
LINE
  5
C91E
330
1A
100
AcDbEntity
  8
0
100
AcDbLine
 10
266.5
 20
224.0000000000001
 30
0.0
 11
396.5
 21
224.0000000000001
 31
0.0
  0
LINE
  5
C91F
330
1A
100
AcDbEntity
  8
0
100
AcDbLine
 10
266.5
 20
231.0
 30
0.0
 11
396.5
 21
231.0
 31
0.0
  0
LINE
  5
C920
330
1A
100
AcDbEntity
  8
0
100
AcDbLine
 10
266.5
 20
238.0000000000001
 30
0.0
 11
396.5
 21
238.0000000000001
 31
0.0
  0
LINE
  5
C921
330
1A
100
AcDbEntity
  8
0
100
AcDbLine
 10
266.5
 20
245.0000000000001
 30
0.0
 11
396.5
 21
245.0000000000001
 31
0.0
  0
LINE
  5
C922
330
1A
100
AcDbEntity
  8
0
100
AcDbLine
 10
301.5
 20
252.0
 30
0.0
 11
301.5
 21
98.00000000000004
 31
0.0
  0
LINE
  5
C923
330
1A
100
AcDbEntity
  8
0
100
AcDbLine
 10
266.5
 20
98.00000000000004
 30
0.0
 11
266.5
 21
259.0000000000001
 31
0.0
  0
LINE
  5
C924
330
1A
100
AcDbEntity
  8
0
100
AcDbLine
 10
396.5
 20
259.0000000000001
 30
0.0
 11
396.5
 21
98.00000000000004
 31
0.0
  0
LINE
  5
C925
330
1A
100
AcDbEntity
  8
0
100
AcDbLine
 10
266.5
 20
252.0
 30
0.0
 11
396.5
 21
252.0000000000001
 31
0.0
  0
TEXT
  5
C926
330
1A
100
AcDbEntity
  8
0
100
AcDbText
 10
268.5
 20
240.0000000000001
 30
0.0
 40
3.0
  1
最大表示分解能
100
AcDbText
  0
TEXT
  5
C927
330
1A
100
AcDbEntity
  8
0
100
AcDbText
 10
268.5
 20
233.0
 30
0.0
 40
3.0
  1
トランスデューサ電源
 41
0.8
100
AcDbText
  0
TEXT
  5
C928
330
1A
100
AcDbEntity
  8
0
100
AcDbText
 10
303.5
 20
240.0000000000001
 30
0.0
 40
3.0
  1
1/20,000 (1mV/V入力時)
100
AcDbText
  0
LINE
  5
C929
330
1A
100
AcDbEntity
  8
0
100
AcDbLine
 10
266.5
 20
175.0
 30
0.0
 11
396.5
 21
175.0
 31
0.0
  0
TEXT
  5
C92A
330
1A
100
AcDbEntity
  8
0
100
AcDbText
 10
303.5
 20
247.0000000000001
 30
0.0
 40
3.0
  1
0.25μV/D以上
100
AcDbText
  0
TEXT
  5
C92B
330
1A
100
AcDbEntity
  8
0
100
AcDbText
 10
268.5
 20
247.0000000000001
 30
0.0
 40
3.0
  1
入力感度
100
AcDbText
  0
DIMENSION
  5
C9FE
330
1A
100
AcDbEntity
  8
SUNPOU
100
AcDbDimension
  2
*D5
 10
30.07649323789042
 20
125.0
 30
0.0
 11
27.0764932378904
 21
170.0
 31
0.0
 70
    32
 71
     5
 42
89.99999999999998
  3
STANDARD
100
AcDbAlignedDimension
 13
40.99999999999998
 23
215.0
 33
0.0
 14
41.00000000000004
 24
125.0
 34
0.0
 50
90.0
100
AcDbRotatedDimension
1001
ACAD
1000
DSTYLE
1002
{
1070
    41
1040
2.5
1070
    42
1040
0.5
1070
    43
1040
10.0
1070
    44
1040
0.5
1070
    73
1070
     0
1070
    74
1070
     0
1070
    77
1070
     1
1070
   140
1040
5.0
1070
   141
1040
0.0
1070
   147
1040
0.5
1070
   173
1070
     1
1070
   271
1070
     0
1070
   272
1070
     0
1070
   341
1005
BA
1070
   343
1005
BA
1070
   344
1005
BA
1002
}
  0
DIMENSION
  5
CA0B
330
1A
100
AcDbEntity
  8
SUNPOU
100
AcDbDimension
  2
*D6
 10
98.99999999999991
 20
239.9109919246344
 30
0.0
 11
69.99999999999999
 21
242.9109919246343
 31
0.0
 70
    32
 71
     5
 42
57.99999999999986
  3
STANDARD
100
AcDbAlignedDimension
 13
41.00000000000005
 23
215.0
 33
0.0
 14
98.99999999999991
 24
215.0
 34
0.0
100
AcDbRotatedDimension
1001
ACAD
1000
DSTYLE
1002
{
1070
    41
1040
2.5
1070
    42
1040
0.5
1070
    43
1040
10.0
1070
    44
1040
0.5
1070
    73
1070
     0
1070
    74
1070
     0
1070
    77
1070
     1
1070
   140
1040
5.0
1070
   141
1040
0.0
1070
   147
1040
0.5
1070
   173
1070
     1
1070
   271
1070
     0
1070
   272
1070
     0
1070
   341
1005
BA
1070
   343
1005
BA
1070
   344
1005
BA
1002
}
  0
DIMENSION
  5
CA18
330
1A
100
AcDbEntity
  8
SUNPOU
100
AcDbDimension
  2
*D7
 10
154.0
 20
239.9109919246344
 30
0.0
 11
135.35
 21
242.9109919246343
 31
0.0
 70
    32
 71
     5
 42
37.29999999999995
  3
STANDARD
100
AcDbAlignedDimension
 13
116.7
 23
214.2
 33
0.0
 14
154.0
 24
202.5
 34
0.0
100
AcDbRotatedDimension
1001
ACAD
1000
DSTYLE
1002
{
1070
    41
1040
2.5
1070
    42
1040
0.5
1070
    43
1040
10.0
1070
    44
1040
0.5
1070
    73
1070
     0
1070
    74
1070
     0
1070
    77
1070
     1
1070
   140
1040
5.0
1070
   141
1040
0.0
1070
   147
1040
0.5
1070
   173
1070
     1
1070
   271
1070
     1
1070
   272
1070
     0
1070
   341
1005
BA
1070
   343
1005
BA
1070
   344
1005
BA
1002
}
  0
TEXT
  5
CA78
330
1A
100
AcDbEntity
  8
0
100
AcDbText
 10
268.5
 20
226.0000000000001
 30
0.0
 40
3.0
  1
感度調整範囲
100
AcDbText
  0
TEXT
  5
CA7A
330
1A
100
AcDbEntity
  8
0
100
AcDbText
 10
268.5
 20
212.0
 30
0.0
 40
3.0
  1
指示値温度特性
100
AcDbText
  0
TEXT
  5
CA7B
330
1A
100
AcDbEntity
  8
0
100
AcDbText
 10
303.5
 20
212.0
 30
0.0
 40
3.0
  1
零点：±0.001%FS/℃ typ (感度1mV/V時)
100
AcDbText
  0
TEXT
  5
CA7C
330
1A
100
AcDbEntity
  8
0
100
AcDbText
 10
303.5
 20
205.0000000000001
 30
0.0
 40
3.0
  1
感度：±0.001% of reading/℃ typ
100
AcDbText
  0
TEXT
  5
CA80
330
1A
100
AcDbEntity
  8
0
100
AcDbText
 10
303.5
 20
107.0000000000001
 30
0.0
 40
3.0
  1
DC+24V±5%
100
AcDbText
  0
TEXT
  5
CA81
330
1A
100
AcDbEntity
  8
0
100
AcDbText
 10
268.5
 20
107.0000000000001
 30
0.0
 40
3.0
  1
供給電源
100
AcDbText
  0
TEXT
  5
CA90
330
1A
100
AcDbEntity
  8
0
100
AcDbText
 10
303.5
 20
135.0000000000001
 30
0.0
 40
3.0
  1
零点：±0.001%FS/℃ typ (指示値に対し)
100
AcDbText
  0
TEXT
  5
CA91
330
1A
100
AcDbEntity
  8
0
100
AcDbText
 10
303.5
 20
128.0000000000001
 30
0.0
 40
3.0
  1
感度：±0.001%FS/℃ typ (指示値に対し)
100
AcDbText
  0
TEXT
  5
CA93
330
1A
100
AcDbEntity
  8
0
100
AcDbText
 10
303.5
 20
163.0
 30
0.0
 40
3.0
  1
(SP1,2：上限または下限動作コンパレータ)
100
AcDbText
  0
LINE
  5
CA94
330
1A
100
AcDbEntity
  8
0
100
AcDbLine
 10
266.5
 20
147.0
 30
0.0
 11
396.5
 21
147.0
 31
0.0
  0
LINE
  5
CA95
330
1A
100
AcDbEntity
  8
0
100
AcDbLine
 10
266.5
 20
105.0
 30
0.0
 11
396.5
 21
105.0
 31
0.0
  0
LINE
  5
CA96
330
1A
100
AcDbEntity
  8
0
100
AcDbLine
 10
266.5
 20
112.0
 30
0.0
 11
396.5
 21
112.0
 31
0.0
  0
TEXT
  5
CA98
330
1A
100
AcDbEntity
  8
0
100
AcDbText
 10
268.5
 20
100.0000000000001
 30
0.0
 40
3.0
  1
備考
100
AcDbText
  0
TEXT
  5
CA99
330
1A
100
AcDbEntity
  8
0
100
AcDbText
 10
303.5
 20
100.0000000000001
 30
0.0
 40
3.0
  1
アナログ出力とシリアルI/Fは何れか一方のみ装着可能
100
AcDbText
  0
LINE
  5
CA9A
330
1A
100
AcDbEntity
  8
0
100
AcDbLine
 10
266.5
 20
98.00000000000004
 30
0.0
 11
396.5
 21
98.00000000000004
 31
0.0
  0
TEXT
  5
CAB7
330
1A
100
AcDbEntity
  8
WAKU
100
AcDbText
 10
234.0523809523809
 20
18.0
 30
0.0
 40
2.0
  1
13.09.26
 41
0.8
 72
     4
 11
239.5
 21
19.0
 31
0.0
100
AcDbText
  0
TEXT
  5
CAB8
330
1A
100
AcDbEntity
  8
WAKU
100
AcDbText
 10
247.8
 20
17.5
 30
0.0
 40
3.0
  1
大野
 72
     4
 11
251.0
 21
19.0
 31
0.0
100
AcDbText
  0
TEXT
  5
CABA
330
1A
100
AcDbEntity
  8
0
100
AcDbText
 10
268.5
 20
89.00000000000011
 30
0.0
 40
3.0
  1
型名
100
AcDbText
  0
TEXT
  5
CABB
330
1A
100
AcDbEntity
  8
0
100
AcDbText
 10
282.0
 20
89.00000000000011
 30
0.0
 40
3.0
  1
TI-703
100
AcDbText
  0
TEXT
  5
CABC
330
1A
100
AcDbEntity
  8
0
100
AcDbText
 10
282.0
 20
84.00000000000011
 30
0.0
 40
3.0
  1
TI-703-1
100
AcDbText
  0
TEXT
  5
CABD
330
1A
100
AcDbEntity
  8
0
100
AcDbText
 10
282.0
 20
79.00000000000014
 30
0.0
 40
3.0
  1
TI-703-2
100
AcDbText
  0
TEXT
  5
CABE
330
1A
100
AcDbEntity
  8
0
100
AcDbText
 10
282.0
 20
74.00000000000011
 30
0.0
 40
3.0
  1
TI-703-3
100
AcDbText
  0
TEXT
  5
CABF
330
1A
100
AcDbEntity
  8
0
100
AcDbText
 10
312.0
 20
74.00000000000011
 30
0.0
 40
3.0
  1
RS-232C I/Fオプション付き
100
AcDbText
  0
TEXT
  5
CAC0
330
1A
100
AcDbEntity
  8
0
100
AcDbText
 10
312.0
 20
79.00000000000014
 30
0.0
 40
3.0
  1
電圧出力オプション付き
100
AcDbText
  0
TEXT
  5
CAC1
330
1A
100
AcDbEntity
  8
0
100
AcDbText
 10
312.0
 20
84.00000000000011
 30
0.0
 40
3.0
  1
電流出力オプション付き
100
AcDbText
  0
TEXT
  5
CAC2
330
1A
100
AcDbEntity
  8
0
100
AcDbText
 10
312.0
 20
89.00000000000011
 30
0.0
 40
3.0
  1
オプション無し
100
AcDbText
  0
TEXT
  5
CAD2
330
1A
100
AcDbEntity
  8
0
100
AcDbText
 10
282.0
 20
69.00000000000011
 30
0.0
 40
3.0
  1
注．オプションの同時装着は不可　(工場出荷時オプション)
100
AcDbText
  0
MTEXT
  5
CF78
330
1A
100
AcDbEntity
  8
0
100
AcDbMText
 10
81.49999999999996
 20
197.45
 30
0.0
 40
2.0
 41
6.5
 71
     4
 72
     5
  1
{\fMS Gothic|b0|i0|c128|p49;OP2}
 11
0.0000000000000001
 21
1.0
 31
0.0
 73
     1
 44
1.0
1001
ACAD
1000
MTEXTBEGIN
1070
    73
1070
     1
1070
    44
1040
1.0
1070
    74
1070
     0
1000
MTEXTEND
  0
MTEXT
  5
CF79
330
1A
100
AcDbEntity
  8
0
100
AcDbMText
 10
84.99999999999998
 20
196.2
 30
0.0
 40
2.0
 41
6.5
 71
     4
 72
     5
  1
{\fMS Gothic|b0|i0|c128|p49;COM3}
 11
0.0000000000000001
 21
1.0
 31
0.0
 73
     1
 44
1.0
1001
ACAD
1000
MTEXTBEGIN
1070
    73
1070
     1
1070
    44
1040
1.0
1070
    74
1070
     0
1000
MTEXTEND
  0
MTEXT
  5
CF7A
330
1A
100
AcDbEntity
  8
0
100
AcDbMText
 10
67.49999999999997
 20
196.2
 30
0.0
 40
2.0
 41
6.5
 71
     4
 72
     5
  1
{\fMS Gothic|b0|i0|c128|p49;OUT1}
 11
0.0000000000000001
 21
1.0
 31
0.0
 73
     1
 44
1.0
1001
ACAD
1000
MTEXTBEGIN
1070
    73
1070
     1
1070
    44
1040
1.0
1070
    74
1070
     0
1000
MTEXTEND
  0
MTEXT
  5
CF7B
330
1A
100
AcDbEntity
  8
0
100
AcDbMText
 10
74.49999999999997
 20
196.2
 30
0.0
 40
2.0
 41
6.5
 71
     4
 72
     5
  1
{\fMS Gothic|b0|i0|c128|p49;COM2}
 11
0.0000000000000001
 21
1.0
 31
0.0
 73
     1
 44
1.0
1001
ACAD
1000
MTEXTBEGIN
1070
    73
1070
     1
1070
    44
1040
1.0
1070
    74
1070
     0
1000
MTEXTEND
  0
MTEXT
  5
CF7C
330
1A
100
AcDbEntity
  8
0
100
AcDbMText
 10
77.99999999999997
 20
197.45
 30
0.0
 40
2.0
 41
6.5
 71
     4
 72
     5
  1
{\fMS Gothic|b0|i0|c128|p49;OP1}
 11
0.0000000000000001
 21
1.0
 31
0.0
 73
     1
 44
1.0
1001
ACAD
1000
MTEXTBEGIN
1070
    73
1070
     1
1070
    44
1040
1.0
1070
    74
1070
     0
1000
MTEXTEND
  0
MTEXT
  5
CF7D
330
1A
100
AcDbEntity
  8
0
100
AcDbMText
 10
70.99999999999997
 20
196.2
 30
0.0
 40
2.0
 41
6.5
 71
     4
 72
     5
  1
{\fMS Gothic|b0|i0|c128|p49;OUT2}
 11
0.0000000000000001
 21
1.0
 31
0.0
 73
     1
 44
1.0
1001
ACAD
1000
MTEXTBEGIN
1070
    73
1070
     1
1070
    44
1040
1.0
1070
    74
1070
     0
1000
MTEXTEND
  0
MTEXT
  5
CF7E
330
1A
100
AcDbEntity
  8
0
100
AcDbMText
 10
53.49999999999997
 20
197.95
 30
0.0
 40
2.0
 41
6.5
 71
     4
 72
     5
  1
{\fMS Gothic|b0|i0|c128|p49;IN1}
 11
0.0000000000000001
 21
1.0
 31
0.0
 73
     1
 44
1.0
1001
ACAD
1000
MTEXTBEGIN
1070
    73
1070
     1
1070
    44
1040
1.0
1070
    74
1070
     0
1000
MTEXTEND
  0
MTEXT
  5
CF7F
330
1A
100
AcDbEntity
  8
0
100
AcDbMText
 10
56.99999999999997
 20
197.95
 30
0.0
 40
2.0
 41
6.5
 71
     4
 72
     5
  1
{\fMS Gothic|b0|i0|c128|p49;IN2}
 11
0.0000000000000001
 21
1.0
 31
0.0
 73
     1
 44
1.0
1001
ACAD
1000
MTEXTBEGIN
1070
    73
1070
     1
1070
    44
1040
1.0
1070
    74
1070
     0
1000
MTEXTEND
  0
MTEXT
  5
CF80
330
1A
100
AcDbEntity
  8
0
100
AcDbMText
 10
63.99999999999997
 20
197.45
 30
0.0
 40
2.0
 41
6.5
 71
     4
 72
     5
  1
{\fMS Gothic|b0|i0|c128|p49;SHL}
 11
0.0000000000000001
 21
1.0
 31
0.0
 73
     1
 44
1.0
1001
ACAD
1000
MTEXTBEGIN
1070
    73
1070
     1
1070
    44
1040
1.0
1070
    74
1070
     0
1000
MTEXTEND
  0
MTEXT
  5
CF81
330
1A
100
AcDbEntity
  8
0
100
AcDbMText
 10
60.49999999999997
 20
196.2
 30
0.0
 40
2.0
 41
6.5
 71
     4
 72
     5
  1
{\fMS Gothic|b0|i0|c128|p49;COM1}
 11
0.0000000000000001
 21
1.0
 31
0.0
 73
     1
 44
1.0
1001
ACAD
1000
MTEXTBEGIN
1070
    73
1070
     1
1070
    44
1040
1.0
1070
    74
1070
     0
1000
MTEXTEND
  0
LINE
  5
CF82
330
1A
100
AcDbEntity
  8
0
100
AcDbLine
 10
52.99999999999997
 20
126.8
 30
0.0
 11
52.99999999999997
 21
126.0
 31
0.0
  0
CIRCLE
  5
CF83
330
1A
100
AcDbEntity
  8
0
100
AcDbCircle
 10
69.99999999999992
 20
167.25
 30
0.0
 40
2.0
  0
CIRCLE
  5
CF84
330
1A
100
AcDbEntity
  8
0
100
AcDbCircle
 10
69.99999999999992
 20
152.75
 30
0.0
 40
2.0
  0
CIRCLE
  5
CF85
330
1A
100
AcDbEntity
  8
0
100
AcDbCircle
 10
53.99999999999991
 20
160.0
 30
0.0
 40
3.0
  0
TEXT
  5
CF86
330
1A
100
AcDbEntity
  8
SUNPOU
100
AcDbText
 10
57.74999999999997
 20
216.0
 30
0.0
 40
2.0
  1
CMD2
 50
90.0
 41
0.8
 11
56.74999999999997
 21
216.0
 31
0.0
100
AcDbText
 73
     2
  0
TEXT
  5
CF87
330
1A
100
AcDbEntity
  8
SUNPOU
100
AcDbText
 10
61.24999999999997
 20
216.0
 30
0.0
 40
2.0
  1
CMD.COM
 50
90.0
 41
0.8
 11
60.24999999999997
 21
216.0
 31
0.0
100
AcDbText
 73
     2
  0
TEXT
  5
CF88
330
1A
100
AcDbEntity
  8
SUNPOU
100
AcDbText
 10
64.74999999999997
 20
216.0
 30
0.0
 40
2.0
  1
Shield
 50
90.0
 41
0.8
 11
63.74999999999997
 21
216.0
 31
0.0
100
AcDbText
 73
     2
  0
TEXT
  5
CF89
330
1A
100
AcDbEntity
  8
SUNPOU
100
AcDbText
 10
54.24999999999997
 20
216.0
 30
0.0
 40
2.0
  1
CMD1
 50
90.0
 41
0.8
 11
53.24999999999997
 21
216.0
 31
0.0
100
AcDbText
 73
     2
  0
MTEXT
  5
CF8A
330
1A
100
AcDbEntity
  8
0
 62
   252
100
AcDbMText
 10
85.99999999999992
 20
148.5
 30
0.0
 40
3.0
 41
25.12903225806452
 71
     5
 72
     5
  1
{\fTahoma|b0|i0|c0|p34;TOYO SOKKI}
 73
     1
 44
1.0
1001
ACAD
1000
MTEXTBEGIN
1070
    73
1070
     1
1070
    44
1040
1.0
1070
    74
1070
     0
1000
MTEXTEND
  0
MTEXT
  5
CF8B
330
1A
100
AcDbEntity
  8
0
 62
   252
100
AcDbMText
 10
50.99999999999991
 20
172.5
 30
0.0
 40
3.0
 41
13.72631578947368
 71
     5
 72
     5
  1
{\fTahoma|b0|i0|c0|p34;TI-703}
 73
     1
 44
1.0
1001
ACAD
1000
MTEXTBEGIN
1070
    73
1070
     1
1070
    44
1040
1.0
1070
    74
1070
     0
1000
MTEXTEND
  0
MTEXT
  5
CF8C
330
1A
100
AcDbEntity
  8
0
100
AcDbMText
 10
54.99999999999997
 20
138.8
 30
0.0
 40
2.0
 41
6.5
 71
     4
 72
     5
  1
{\fMS Gothic|b0|i0|c128|p49;+EXC}
 11
0.0000000000000001
 21
1.0
 31
0.0
 73
     1
 44
1.0
1001
ACAD
1000
MTEXTBEGIN
1070
    73
1070
     1
1070
    44
1040
1.0
1070
    74
1070
     0
1000
MTEXTEND
  0
MTEXT
  5
CF8D
330
1A
100
AcDbEntity
  8
0
100
AcDbMText
 10
58.49999999999997
 20
138.8
 30
0.0
 40
2.0
 41
6.5
 71
     4
 72
     5
  1
{\fMS Gothic|b0|i0|c128|p49;+SEN}
 11
0.0000000000000001
 21
1.0
 31
0.0
 73
     1
 44
1.0
1001
ACAD
1000
MTEXTBEGIN
1070
    73
1070
     1
1070
    44
1040
1.0
1070
    74
1070
     0
1000
MTEXTEND
  0
MTEXT
  5
CF8E
330
1A
100
AcDbEntity
  8
0
100
AcDbMText
 10
79.49999999999997
 20
138.8
 30
0.0
 40
2.0
 41
6.5
 71
     4
 72
     5
  1
{\fMS Gothic|b0|i0|c128|p49;E}
 11
0.0000000000000001
 21
1.0
 31
0.0
 73
     1
 44
1.0
1001
ACAD
1000
MTEXTBEGIN
1070
    73
1070
     1
1070
    44
1040
1.0
1070
    74
1070
     0
1000
MTEXTEND
  0
MTEXT
  5
CF8F
330
1A
100
AcDbEntity
  8
0
100
AcDbMText
 10
75.99999999999997
 20
138.8
 30
0.0
 40
2.0
 41
6.5
 71
     4
 72
     5
  1
{\fMS Gothic|b0|i0|c128|p49;SHL}
 11
0.0000000000000001
 21
1.0
 31
0.0
 73
     1
 44
1.0
1001
ACAD
1000
MTEXTBEGIN
1070
    73
1070
     1
1070
    44
1040
1.0
1070
    74
1070
     0
1000
MTEXTEND
  0
MTEXT
  5
CF90
330
1A
100
AcDbEntity
  8
0
100
AcDbMText
 10
86.49999999999996
 20
138.8
 30
0.0
 40
2.0
 41
6.5
 71
     4
 72
     5
  1
{\fMS Gothic|b0|i0|c128|p49;0V}
 11
0.0000000000000001
 21
1.0
 31
0.0
 73
     1
 44
1.0
1001
ACAD
1000
MTEXTBEGIN
1070
    73
1070
     1
1070
    44
1040
1.0
1070
    74
1070
     0
1000
MTEXTEND
  0
MTEXT
  5
CF91
330
1A
100
AcDbEntity
  8
0
100
AcDbMText
 10
82.99999999999997
 20
138.8
 30
0.0
 40
2.0
 41
6.5
 71
     4
 72
     5
  1
{\fMS Gothic|b0|i0|c128|p49;+24V}
 11
0.0000000000000001
 21
1.0
 31
0.0
 73
     1
 44
1.0
1001
ACAD
1000
MTEXTBEGIN
1070
    73
1070
     1
1070
    44
1040
1.0
1070
    74
1070
     0
1000
MTEXTEND
  0
MTEXT
  5
CF92
330
1A
100
AcDbEntity
  8
0
100
AcDbMText
 10
65.49999999999997
 20
138.8
 30
0.0
 40
2.0
 41
6.5
 71
     4
 72
     5
  1
{\fMS Gothic|b0|i0|c128|p49;-EXC}
 11
0.0000000000000001
 21
1.0
 31
0.0
 73
     1
 44
1.0
1001
ACAD
1000
MTEXTBEGIN
1070
    73
1070
     1
1070
    44
1040
1.0
1070
    74
1070
     0
1000
MTEXTEND
  0
MTEXT
  5
CF93
330
1A
100
AcDbEntity
  8
0
100
AcDbMText
 10
61.99999999999997
 20
138.8
 30
0.0
 40
2.0
 41
6.5
 71
     4
 72
     5
  1
{\fMS Gothic|b0|i0|c128|p49;-SEN}
 11
0.0000000000000001
 21
1.0
 31
0.0
 73
     1
 44
1.0
1001
ACAD
1000
MTEXTBEGIN
1070
    73
1070
     1
1070
    44
1040
1.0
1070
    74
1070
     0
1000
MTEXTEND
  0
MTEXT
  5
CF94
330
1A
100
AcDbEntity
  8
0
100
AcDbMText
 10
68.99999999999997
 20
138.8
 30
0.0
 40
2.0
 41
6.5
 71
     4
 72
     5
  1
{\fMS Gothic|b0|i0|c128|p49;+SIG}
 11
0.0000000000000001
 21
1.0
 31
0.0
 73
     1
 44
1.0
1001
ACAD
1000
MTEXTBEGIN
1070
    73
1070
     1
1070
    44
1040
1.0
1070
    74
1070
     0
1000
MTEXTEND
  0
MTEXT
  5
CF95
330
1A
100
AcDbEntity
  8
0
100
AcDbMText
 10
72.49999999999997
 20
138.8
 30
0.0
 40
2.0
 41
6.5
 71
     4
 72
     5
  1
{\fMS Gothic|b0|i0|c128|p49;-SIG}
 11
0.0000000000000001
 21
1.0
 31
0.0
 73
     1
 44
1.0
1001
ACAD
1000
MTEXTBEGIN
1070
    73
1070
     1
1070
    44
1040
1.0
1070
    74
1070
     0
1000
MTEXTEND
  0
LINE
  5
CF9A
330
1A
100
AcDbEntity
  8
SUNPOU
100
AcDbLine
 10
88.30000000000003
 20
178.0
 30
0.0
 11
88.30000000000003
 21
192.0
 31
0.0
  0
LINE
  5
CF9B
330
1A
100
AcDbEntity
  8
SUNPOU
100
AcDbLine
 10
51.70000000000001
 20
178.0
 30
0.0
 11
51.70000000000001
 21
192.0
 31
0.0
  0
LINE
  5
CF9C
330
1A
100
AcDbEntity
  8
SUNPOU
100
AcDbLine
 10
88.30000000000003
 20
178.0
 30
0.0
 11
51.70000000000001
 21
178.0
 31
0.0
  0
LINE
  5
CF9D
330
1A
100
AcDbEntity
  8
SUNPOU
100
AcDbLine
 10
88.30000000000003
 20
192.0
 30
0.0
 11
51.70000000000001
 21
192.0
 31
0.0
  0
HATCH
  5
CF9E
330
1A
100
AcDbEntity
  8
0
 62
   252
100
AcDbHatch
 10
0.0
 20
0.0
 30
0.0
210
0.0
220
0.0
230
1.0
  2
SOLID
 70
     1
 71
     0
 91
        2
 92
       16
 93
        1
 72
     2
 10
70.00000000000003
 20
152.75
 40
2.0
 50
0.0
 51
360.0
 73
     1
 97
        0
 92
        1
 93
        4
 72
     1
 10
73.00000000000003
 20
156.645898
 11
73.00000000000003
 21
150.145898
 72
     2
 10
70.00000000000003
 20
153.5
 40
4.5
 50
48.18968500000103
 51
131.8103149999991
 73
     0
 72
     1
 10
67.00000000000002
 20
150.145898
 11
67.00000000000002
 21
156.645898
 72
     2
 10
70.00000000000003
 20
160.0
 40
4.5
 50
228.1896850000009
 51
311.810314999999
 73
     1
 97
        0
 75
     0
 76
     1
 98
        1
 10
-9.999999999999971
 20
0.0
  0
HATCH
  5
CF9F
330
1A
100
AcDbEntity
  8
0
 62
   252
100
AcDbHatch
 10
0.0
 20
0.0
 30
0.0
210
0.0
220
0.0
230
1.0
  2
SOLID
 70
     1
 71
     0
 91
        2
 92
       16
 93
        1
 72
     2
 10
62.75000000000003
 20
160.0
 40
2.0
 50
0.0
 51
360.0
 73
     1
 97
        0
 92
        1
 93
        4
 72
     2
 10
70.00000000000003
 20
160.0
 40
4.5
 50
138.1896850000007
 51
221.8103149999993
 73
     1
 72
     1
 10
66.64589800000001
 20
157.0
 11
60.14589800000002
 21
157.0
 72
     2
 10
63.50000000000003
 20
160.0
 40
4.5
 50
138.1896850000007
 51
221.8103149999993
 73
     0
 72
     1
 10
60.14589800000002
 20
163.0
 11
66.64589800000001
 21
163.0
 97
        0
 75
     0
 76
     1
 98
        1
 10
-9.999999999999971
 20
0.0
  0
HATCH
  5
CFA0
330
1A
100
AcDbEntity
  8
0
 62
   252
100
AcDbHatch
 10
0.0
 20
0.0
 30
0.0
210
0.0
220
0.0
230
1.0
  2
SOLID
 70
     1
 71
     0
 91
        2
 92
       16
 93
        1
 72
     2
 10
77.25000000000003
 20
160.0
 40
2.0
 50
0.0
 51
360.0
 73
     1
 97
        0
 92
        1
 93
        4
 72
     2
 10
76.50000000000003
 20
160.0
 40
4.5
 50
318.1896850000007
 51
401.8103149999992
 73
     1
 72
     1
 10
79.85410199999998
 20
163.0
 11
73.35410199999998
 21
163.0
 72
     2
 10
70.00000000000003
 20
160.0
 40
4.5
 50
318.1896850000007
 51
401.8103149999992
 73
     0
 72
     1
 10
73.35410199999998
 20
157.0
 11
79.85410199999998
 21
157.0
 97
        0
 75
     0
 76
     1
 98
        1
 10
-9.999999999999971
 20
0.0
  0
HATCH
  5
CFA1
330
1A
100
AcDbEntity
  8
0
 62
   252
100
AcDbHatch
 10
0.0
 20
0.0
 30
0.0
210
0.0
220
0.0
230
1.0
  2
SOLID
 70
     1
 71
     0
 91
        2
 92
       16
 93
        1
 72
     2
 10
70.00000000000003
 20
167.25
 40
2.0
 50
0.0
 51
360.0
 73
     1
 97
        0
 92
        1
 93
        4
 72
     1
 10
73.00000000000003
 20
163.354102
 11
73.00000000000003
 21
169.854102
 72
     2
 10
70.00000000000003
 20
166.5
 40
4.5
 50
48.18968500000087
 51
131.8103149999991
 73
     1
 72
     1
 10
67.00000000000002
 20
169.854102
 11
67.00000000000002
 21
163.354102
 72
     2
 10
70.00000000000003
 20
160.0
 40
4.5
 50
228.1896850000009
 51
311.8103149999992
 73
     0
 97
        0
 75
     0
 76
     1
 98
        1
 10
-9.999999999999971
 20
0.0
  0
HATCH
  5
CFA2
330
1A
100
AcDbEntity
  8
0
 62
   252
100
AcDbHatch
 10
0.0
 20
0.0
 30
0.0
210
0.0
220
0.0
230
1.0
  2
SOLID
 70
     1
 71
     0
 91
        2
 92
       16
 93
        1
 72
     2
 10
86.00000000000003
 20
160.0
 40
2.0
 50
0.0
 51
360.0
 73
     1
 97
        0
 92
        1
 93
        1
 72
     2
 10
86.00000000000003
 20
160.0
 40
3.0
 50
0.0
 51
360.0
 73
     1
 97
        0
 75
     0
 76
     1
 98
        1
 10
-9.999999999999971
 20
0.0
  0
HATCH
  5
CFA3
330
1A
100
AcDbEntity
  8
0
 62
   252
100
AcDbHatch
 10
0.0
 20
0.0
 30
0.0
210
0.0
220
0.0
230
1.0
  2
SOLID
 70
     1
 71
     0
 91
        2
 92
       16
 93
        1
 72
     2
 10
70.00000000000003
 20
160.0
 40
2.0
 50
0.0
 51
360.0
 73
     1
 97
        0
 92
        1
 93
        1
 72
     2
 10
70.00000000000003
 20
160.0
 40
3.5
 50
0.0
 51
360.0
 73
     1
 97
        0
 75
     0
 76
     1
 98
        1
 10
-9.999999999999971
 20
0.0
  0
HATCH
  5
CFA4
330
1A
100
AcDbEntity
  8
0
 62
   252
100
AcDbHatch
 10
0.0
 20
0.0
 30
0.0
210
0.0
220
0.0
230
1.0
  2
SOLID
 70
     1
 71
     0
 91
        2
 92
       16
 93
        1
 72
     2
 10
54.00000000000003
 20
160.0
 40
2.0
 50
0.0
 51
360.0
 73
     1
 97
        0
 92
        1
 93
        1
 72
     2
 10
54.00000000000003
 20
160.0
 40
3.0
 50
0.0
 51
360.0
 73
     1
 97
        0
 75
     0
 76
     1
 98
        1
 10
-9.999999999999971
 20
0.0
  0
MTEXT
  5
CFA5
330
1A
100
AcDbEntity
  8
0
100
AcDbMText
 10
90.25000000000003
 20
136.8
 30
0.0
 40
2.5
 41
15.49999999999991
 71
     1
 72
     5
  1
{\fMS Gothic|b0|i0|c128|p49;20}
 73
     1
 44
1.0
1001
ACAD
1000
MTEXTBEGIN
1070
    73
1070
     1
1070
    44
1040
1.0
1070
    74
1070
     0
1000
MTEXTEND
  0
MTEXT
  5
CFA6
330
1A
100
AcDbEntity
  8
0
100
AcDbMText
 10
49.75000000000003
 20
136.8
 30
0.0
 40
2.5
 41
7.5
 71
     3
 72
     5
  1
{\fMS Gothic|b0|i0|c128|p49;11}
 73
     1
 44
1.0
1001
ACAD
1000
MTEXTBEGIN
1070
    73
1070
     1
1070
    44
1040
1.0
1070
    74
1070
     0
1000
MTEXTEND
  0
MTEXT
  5
CFA7
330
1A
100
AcDbEntity
  8
0
100
AcDbMText
 10
90.25000000000003
 20
203.2
 30
0.0
 40
2.5
 41
15.49999999999991
 71
     7
 72
     5
  1
{\fMS Gothic|b0|i0|c128|p49;10}
 73
     1
 44
1.0
1001
ACAD
1000
MTEXTBEGIN
1070
    73
1070
     1
1070
    44
1040
1.0
1070
    74
1070
     0
1000
MTEXTEND
  0
MTEXT
  5
CFA8
330
1A
100
AcDbEntity
  8
0
100
AcDbMText
 10
49.75000000000003
 20
203.2
 30
0.0
 40
2.5
 41
8.0
 71
     9
 72
     5
  1
{\fMS Gothic|b0|i0|c128|p49;1}
 73
     1
 44
1.0
1001
ACAD
1000
MTEXTBEGIN
1070
    73
1070
     1
1070
    44
1040
1.0
1070
    74
1070
     0
1000
MTEXTEND
  0
LINE
  5
CFA9
330
1A
100
AcDbEntity
  8
0
100
AcDbLine
 10
97.99999999999997
 20
65.45409924480646
 30
0.0
 11
97.99999999999997
 21
64.95409924480646
 31
0.0
  0
LINE
  5
CFAA
330
1A
100
AcDbEntity
  8
0
100
AcDbLine
 10
41.99999999999997
 20
65.45409924480646
 30
0.0
 11
41.99999999999997
 21
64.95409924480646
 31
0.0
  0
LINE
  5
CFAB
330
1A
100
AcDbEntity
  8
0
100
AcDbLine
 10
98.19999999999991
 20
65.45409924480646
 30
0.0
 11
41.80000000000004
 21
65.45409924480646
 31
0.0
  0
MTEXT
  5
CFAC
330
1A
100
AcDbEntity
  8
0
 62
   252
100
AcDbMText
 10
54.00000000000003
 20
165.5
 30
0.0
 40
3.0
 41
5.999999999999996
 71
     5
 72
     5
  1
{\fTahoma|b0|i0|c0|p34;AZ}
 73
     1
 44
1.0
1001
ACAD
1000
MTEXTBEGIN
1070
    73
1070
     1
1070
    44
1040
1.0
1070
    74
1070
     0
1000
MTEXTEND
  0
MTEXT
  5
CFAD
330
1A
100
AcDbEntity
  8
0
 62
   252
100
AcDbMText
 10
86.00000000000003
 20
165.5
 30
0.0
 40
3.0
 41
13.71304347826087
 71
     5
 72
     5
  1
{\fTahoma|b0|i0|c0|p34;CLEAR}
 73
     1
 44
1.0
1001
ACAD
1000
MTEXTBEGIN
1070
    73
1070
     1
1070
    44
1040
1.0
1070
    74
1070
     0
1000
MTEXTEND
  0
TEXT
  5
CFAE
330
1A
100
AcDbEntity
  8
SUNPOU
100
AcDbText
 10
78.75000000000003
 20
216.0
 30
0.0
 40
2.0
  1
CURR/TXD
 50
90.0
 41
0.8
 11
77.75000000000003
 21
216.0
 31
0.0
100
AcDbText
 73
     2
  0
TEXT
  5
CFAF
330
1A
100
AcDbEntity
  8
SUNPOU
100
AcDbText
 10
82.25000000000003
 20
216.0
 30
0.0
 40
2.0
  1
VOLT/RXD
 50
90.0
 41
0.8
 11
81.25000000000003
 21
216.0
 31
0.0
100
AcDbText
 73
     2
  0
TEXT
  5
CFB0
330
1A
100
AcDbEntity
  8
SUNPOU
100
AcDbText
 10
75.25000000000003
 20
216.0
 30
0.0
 40
2.0
  1
Emitter-COM
 50
90.0
 41
0.8
 11
74.25000000000003
 21
216.0
 31
0.0
100
AcDbText
 73
     2
  0
TEXT
  5
CFB1
330
1A
100
AcDbEntity
  8
SUNPOU
100
AcDbText
 10
71.75000000000003
 20
216.0
 30
0.0
 40
2.0
  1
SP2/RUN
 50
90.0
 41
0.8
 11
70.75000000000002
 21
216.0
 31
0.0
100
AcDbText
 73
     2
  0
TEXT
  5
CFB2
330
1A
100
AcDbEntity
  8
SUNPOU
100
AcDbText
 10
68.25000000000002
 20
216.0
 30
0.0
 40
2.0
  1
SP1
 50
90.0
 41
0.8
 11
67.25000000000003
 21
216.0
 31
0.0
100
AcDbText
 73
     2
  0
TEXT
  5
CFB3
330
1A
100
AcDbEntity
  8
SUNPOU
100
AcDbText
 10
85.75000000000002
 20
216.0
 30
0.0
 40
2.0
  1
A.COM / D.COM
 50
90.0
 41
0.8
 11
84.75000000000003
 21
216.0
 31
0.0
100
AcDbText
 73
     2
  0
INSERT
  5
CFB4
330
1A
100
AcDbEntity
  8
0
100
AcDbBlockReference
  2
M2.6-TOP
 10
46.00000000000003
 20
72.95409924480646
 30
0.0
 50
270.0
  0
INSERT
  5
CFB5
330
1A
100
AcDbEntity
  8
0
100
AcDbBlockReference
  2
M2.6-TOP
 10
93.99999999999991
 20
72.95409924480646
 30
0.0
 50
270.0
  0
LINE
  5
CFB6
330
1A
100
AcDbEntity
  8
0
100
AcDbLine
 10
88.25000000000002
 20
94.95409924480645
 30
0.0
 11
88.25000000000002
 21
88.75409924480647
 31
0.0
  0
LINE
  5
CFB7
330
1A
100
AcDbEntity
  8
0
100
AcDbLine
 10
85.75000000000002
 20
93.95409924480645
 30
0.0
 11
84.75000000000003
 21
93.95409924480645
 31
0.0
  0
LINE
  5
CFB8
330
1A
100
AcDbEntity
  8
0
100
AcDbLine
 10
86.75000000000002
 20
92.95409924480646
 30
0.0
 11
84.75000000000003
 21
92.95409924480646
 31
0.0
  0
ARC
  5
CFB9
330
1A
100
AcDbEntity
  8
0
100
AcDbCircle
 10
85.75000000000002
 20
91.95409924480646
 30
0.0
 40
2.0
100
AcDbArc
 50
36.86989764584219
 51
90.0
  0
ARC
  5
CFBA
330
1A
100
AcDbEntity
  8
0
100
AcDbCircle
 10
86.75000000000002
 20
93.95409924480645
 30
0.0
 40
1.0
100
AcDbArc
 50
270.0
 51
90.0
  0
LINE
  5
CFBB
330
1A
100
AcDbEntity
  8
0
100
AcDbLine
 10
87.75000000000003
 20
94.95409924480645
 30
0.0
 11
87.75000000000003
 21
96.70409924480646
 31
0.0
  0
LINE
  5
CFBC
330
1A
100
AcDbEntity
  8
0
100
AcDbLine
 10
87.00000000000002
 20
94.95409924480645
 30
0.0
 11
87.00000000000002
 21
96.70409924480646
 31
0.0
  0
LINE
  5
CFBD
330
1A
100
AcDbEntity
  8
0
100
AcDbLine
 10
88.25000000000002
 20
96.70409924480646
 30
0.0
 11
86.50000000000003
 21
96.70409924480646
 31
0.0
  0
LINE
  5
CFBE
330
1A
100
AcDbEntity
  8
0
100
AcDbLine
 10
86.50000000000003
 20
94.95409924480645
 30
0.0
 11
86.50000000000003
 21
96.70409924480646
 31
0.0
  0
LINE
  5
CFBF
330
1A
100
AcDbEntity
  8
0
100
AcDbLine
 10
88.25000000000002
 20
94.95409924480645
 30
0.0
 11
88.25000000000002
 21
96.70409924480646
 31
0.0
  0
TEXT
  5
CFC0
330
1A
100
AcDbEntity
  8
SUNPOU
100
AcDbText
 10
56.25000000000003
 20
117.6761904761903
 30
0.0
 40
2.0
  1
+EXC
 50
90.0
 41
0.8
 72
     2
 11
55.25000000000003
 21
123.9999999999999
 31
0.0
100
AcDbText
 73
     2
  0
INSERT
  5
CFC1
330
1A
100
AcDbEntity
  8
0
100
AcDbBlockReference
  2
ML-2300-H-10P-1
 10
70.75000000000002
 20
136.8
 30
0.0
 50
180.0
  0
INSERT
  5
CFC2
330
1A
100
AcDbEntity
  8
0
100
AcDbBlockReference
  2
ML-2300-H-10P-1
 10
69.25000000000003
 20
203.2
 30
0.0
  0
LWPOLYLINE
  5
CFC3
330
1A
100
AcDbEntity
  8
PARTS
100
AcDbPolyline
 90
        4
 70
     1
 43
0.0
 10
81.56499999999997
 20
184.685
 10
84.68499999999997
 20
184.685
 10
84.68499999999997
 20
179.675
 10
81.56499999999997
 20
179.675
  0
LWPOLYLINE
  5
CFC4
330
1A
100
AcDbEntity
  8
PARTS
100
AcDbPolyline
 90
        4
 70
     1
 43
0.0
 10
77.81499999999997
 20
184.685
 10
80.93499999999997
 20
184.685
 10
80.93499999999997
 20
179.675
 10
77.81499999999997
 20
179.675
  0
LWPOLYLINE
  5
CFC5
330
1A
100
AcDbEntity
  8
PARTS
100
AcDbPolyline
 90
        4
 70
     1
 43
0.0
 10
74.06499999999997
 20
184.685
 10
77.18499999999997
 20
184.685
 10
77.18499999999997
 20
179.675
 10
74.06499999999997
 20
179.675
  0
LWPOLYLINE
  5
CFC6
330
1A
100
AcDbEntity
  8
PARTS
100
AcDbPolyline
 90
        4
 70
     1
 43
0.0
 10
70.31499999999997
 20
184.685
 10
73.43499999999997
 20
184.685
 10
73.43499999999997
 20
179.675
 10
70.31499999999997
 20
179.675
  0
LWPOLYLINE
  5
CFC7
330
1A
100
AcDbEntity
  8
PARTS
100
AcDbPolyline
 90
        4
 70
     1
 43
0.0
 10
66.56499999999997
 20
184.685
 10
69.68499999999997
 20
184.685
 10
69.68499999999997
 20
179.675
 10
66.56499999999997
 20
179.675
  0
LWPOLYLINE
  5
CFC8
330
1A
100
AcDbEntity
  8
PARTS
100
AcDbPolyline
 90
        4
 70
     1
 43
0.0
 10
62.81499999999997
 20
184.685
 10
65.93499999999997
 20
184.685
 10
65.93499999999997
 20
179.675
 10
62.81499999999997
 20
179.675
  0
LWPOLYLINE
  5
CFC9
330
1A
100
AcDbEntity
  8
PARTS
100
AcDbPolyline
 90
        4
 70
     1
 43
0.0
 10
59.06499999999997
 20
184.685
 10
62.18499999999997
 20
184.685
 10
62.18499999999997
 20
179.675
 10
59.06499999999997
 20
179.675
  0
LWPOLYLINE
  5
CFCA
330
1A
100
AcDbEntity
  8
PARTS
100
AcDbPolyline
 90
        4
 70
     1
 43
0.0
 10
55.31499999999997
 20
184.685
 10
58.43499999999997
 20
184.685
 10
58.43499999999997
 20
179.675
 10
55.31499999999997
 20
179.675
  0
LWPOLYLINE
  5
CFCB
330
1A
100
AcDbEntity
  8
PARTS
100
AcDbPolyline
 90
        4
 70
     1
 43
0.0
 10
81.56499999999997
 20
190.325
 10
84.68499999999997
 20
190.325
 10
84.68499999999997
 20
185.315
 10
81.56499999999997
 20
185.315
  0
LWPOLYLINE
  5
CFCC
330
1A
100
AcDbEntity
  8
PARTS
100
AcDbPolyline
 90
        4
 70
     1
 43
0.0
 10
77.81499999999997
 20
190.325
 10
80.93499999999997
 20
190.325
 10
80.93499999999997
 20
185.315
 10
77.81499999999997
 20
185.315
  0
LWPOLYLINE
  5
CFCD
330
1A
100
AcDbEntity
  8
PARTS
100
AcDbPolyline
 90
        4
 70
     1
 43
0.0
 10
74.06499999999997
 20
190.325
 10
77.18499999999997
 20
190.325
 10
77.18499999999997
 20
185.315
 10
74.06499999999997
 20
185.315
  0
LWPOLYLINE
  5
CFCE
330
1A
100
AcDbEntity
  8
PARTS
100
AcDbPolyline
 90
        4
 70
     1
 43
0.0
 10
70.31499999999997
 20
190.325
 10
73.43499999999997
 20
190.325
 10
73.43499999999997
 20
185.315
 10
70.31499999999997
 20
185.315
  0
LWPOLYLINE
  5
CFCF
330
1A
100
AcDbEntity
  8
PARTS
100
AcDbPolyline
 90
        4
 70
     1
 43
0.0
 10
66.56499999999997
 20
190.325
 10
69.68499999999997
 20
190.325
 10
69.68499999999997
 20
185.315
 10
66.56499999999997
 20
185.315
  0
LWPOLYLINE
  5
CFD0
330
1A
100
AcDbEntity
  8
PARTS
100
AcDbPolyline
 90
        4
 70
     1
 43
0.0
 10
62.81499999999997
 20
190.325
 10
65.93499999999997
 20
190.325
 10
65.93499999999997
 20
185.315
 10
62.81499999999997
 20
185.315
  0
LWPOLYLINE
  5
CFD1
330
1A
100
AcDbEntity
  8
PARTS
100
AcDbPolyline
 90
        4
 70
     1
 43
0.0
 10
59.06499999999997
 20
190.325
 10
62.18499999999997
 20
190.325
 10
62.18499999999997
 20
185.315
 10
59.06499999999997
 20
185.315
  0
LWPOLYLINE
  5
CFD2
330
1A
100
AcDbEntity
  8
PARTS
100
AcDbPolyline
 90
        4
 70
     1
 43
0.0
 10
55.31499999999997
 20
190.325
 10
58.43499999999997
 20
190.325
 10
58.43499999999997
 20
185.315
 10
55.31499999999997
 20
185.315
  0
LINE
  5
CFD3
330
1A
100
AcDbEntity
  8
0
100
AcDbLine
 10
87.75000000000003
 20
97.95409924480651
 30
0.0
 11
88.74999999999991
 21
97.95409924480646
 31
0.0
  0
LINE
  5
CFD4
330
1A
100
AcDbEntity
  8
0
100
AcDbLine
 10
52.25000000000003
 20
97.95409924480651
 30
0.0
 11
51.25000000000008
 21
97.95409924480651
 31
0.0
  0
LINE
  5
CFD5
330
1A
100
AcDbEntity
  8
0
100
AcDbLine
 10
87.75000000000003
 20
98.75409924480647
 30
0.0
 11
87.75000000000003
 21
96.70409924480646
 31
0.0
  0
LINE
  5
CFD6
330
1A
100
AcDbEntity
  8
0
100
AcDbLine
 10
52.25000000000003
 20
98.75409924480647
 30
0.0
 11
52.25000000000003
 21
94.95409924480645
 31
0.0
  0
LINE
  5
CFD7
330
1A
100
AcDbEntity
  8
0
100
AcDbLine
 10
51.25000000000008
 20
88.75409924480647
 30
0.0
 11
51.25000000000008
 21
98.75409924480647
 31
0.0
  0
LINE
  5
CFD8
330
1A
100
AcDbEntity
  8
0
100
AcDbLine
 10
88.74999999999991
 20
88.75409924480647
 30
0.0
 11
51.25000000000008
 21
88.75409924480647
 31
0.0
  0
LINE
  5
CFD9
330
1A
100
AcDbEntity
  8
0
100
AcDbLine
 10
88.74999999999991
 20
98.75409924480647
 30
0.0
 11
88.74999999999991
 21
88.75409924480647
 31
0.0
  0
CIRCLE
  5
CFDA
330
1A
100
AcDbEntity
  8
0
100
AcDbCircle
 10
54.00000000000003
 20
160.0
 30
0.0
 40
1.5
  0
CIRCLE
  5
CFDB
330
1A
100
AcDbEntity
  8
0
100
AcDbCircle
 10
70.00000000000003
 20
160.0
 30
0.0
 40
1.5
  0
CIRCLE
  5
CFDC
330
1A
100
AcDbEntity
  8
0
100
AcDbCircle
 10
62.75000000000003
 20
160.0
 30
0.0
 40
1.5
  0
LINE
  5
CFDD
330
1A
100
AcDbEntity
  8
0
100
AcDbLine
 10
66.64589800000001
 20
157.0
 30
0.0
 11
60.14589800000002
 21
157.0
 31
0.0
  0
ARC
  5
CFDE
330
1A
100
AcDbEntity
  8
0
100
AcDbCircle
 10
63.50000000000003
 20
160.0
 30
0.0
 40
4.5
100
AcDbArc
 50
138.1896850000009
 51
221.8103149999991
  0
ARC
  5
CFDF
330
1A
100
AcDbEntity
  8
0
100
AcDbCircle
 10
70.00000000000003
 20
160.0
 30
0.0
 40
4.5
100
AcDbArc
 50
138.1896850000009
 51
221.8103149999991
  0
LINE
  5
CFE0
330
1A
100
AcDbEntity
  8
0
100
AcDbLine
 10
66.64589800000001
 20
163.0
 30
0.0
 11
60.14589800000002
 21
163.0
 31
0.0
  0
CIRCLE
  5
CFE1
330
1A
100
AcDbEntity
  8
0
100
AcDbCircle
 10
70.00000000000003
 20
160.0
 30
0.0
 40
2.0
  0
CIRCLE
  5
CFE2
330
1A
100
AcDbEntity
  8
0
100
AcDbCircle
 10
62.75000000000003
 20
160.0
 30
0.0
 40
2.0
  0
CIRCLE
  5
CFE3
330
1A
100
AcDbEntity
  8
0
100
AcDbCircle
 10
54.00000000000003
 20
160.0
 30
0.0
 40
2.0
  0
CIRCLE
  5
CFE4
330
1A
100
AcDbEntity
  8
0
100
AcDbCircle
 10
86.00000000000003
 20
160.0
 30
0.0
 40
1.5
  0
CIRCLE
  5
CFE5
330
1A
100
AcDbEntity
  8
0
100
AcDbCircle
 10
77.25000000000003
 20
160.0
 30
0.0
 40
1.5
  0
LINE
  5
CFE6
330
1A
100
AcDbEntity
  8
0
100
AcDbLine
 10
73.35410199999998
 20
163.0
 30
0.0
 11
79.85410199999998
 21
163.0
 31
0.0
  0
ARC
  5
CFE7
330
1A
100
AcDbEntity
  8
0
100
AcDbCircle
 10
76.50000000000003
 20
160.0
 30
0.0
 40
4.5
100
AcDbArc
 50
318.1896850000009
 51
41.81031499999905
  0
ARC
  5
CFE8
330
1A
100
AcDbEntity
  8
0
100
AcDbCircle
 10
70.00000000000003
 20
160.0
 30
0.0
 40
4.5
100
AcDbArc
 50
318.1896850000009
 51
41.81031499999905
  0
LINE
  5
CFE9
330
1A
100
AcDbEntity
  8
0
100
AcDbLine
 10
73.35410199999998
 20
157.0
 30
0.0
 11
79.85410199999998
 21
157.0
 31
0.0
  0
ARC
  5
CFEA
330
1A
100
AcDbEntity
  8
0
100
AcDbCircle
 10
70.00000000000003
 20
160.0
 30
0.0
 40
4.5
100
AcDbArc
 50
228.1896850000015
 51
311.8103149999985
  0
ARC
  5
CFEB
330
1A
100
AcDbEntity
  8
0
100
AcDbCircle
 10
70.00000000000003
 20
160.0
 30
0.0
 40
4.5
100
AcDbArc
 50
48.18968500000148
 51
131.8103149999985
  0
CIRCLE
  5
CFEC
330
1A
100
AcDbEntity
  8
0
100
AcDbCircle
 10
86.00000000000003
 20
160.0
 30
0.0
 40
2.0
  0
CIRCLE
  5
CFED
330
1A
100
AcDbEntity
  8
0
100
AcDbCircle
 10
77.25000000000003
 20
160.0
 30
0.0
 40
2.0
  0
CIRCLE
  5
CFEE
330
1A
100
AcDbEntity
  8
0
100
AcDbCircle
 10
86.00000000000003
 20
160.0
 30
0.0
 40
3.0
  0
CIRCLE
  5
CFEF
330
1A
100
AcDbEntity
  8
0
100
AcDbCircle
 10
70.00000000000003
 20
160.0
 30
0.0
 40
3.5
  0
CIRCLE
  5
CFF0
330
1A
100
AcDbEntity
  8
0
100
AcDbCircle
 10
70.00000000000003
 20
152.75
 30
0.0
 40
1.5
  0
CIRCLE
  5
CFF1
330
1A
100
AcDbEntity
  8
0
100
AcDbCircle
 10
70.00000000000003
 20
167.25
 30
0.0
 40
1.5
  0
LINE
  5
CFF2
330
1A
100
AcDbEntity
  8
0
100
AcDbLine
 10
67.00000000000002
 20
156.645898
 30
0.0
 11
67.00000000000002
 21
150.145898
 31
0.0
  0
LINE
  5
CFF3
330
1A
100
AcDbEntity
  8
0
100
AcDbLine
 10
67.00000000000002
 20
163.354102
 30
0.0
 11
67.00000000000002
 21
169.854102
 31
0.0
  0
CIRCLE
  5
CFF4
330
1A
100
AcDbEntity
  8
0
100
AcDbCircle
 10
70.00000000000003
 20
152.75
 30
0.0
 40
2.0
  0
CIRCLE
  5
CFF5
330
1A
100
AcDbEntity
  8
0
100
AcDbCircle
 10
70.00000000000003
 20
167.25
 30
0.0
 40
2.0
  0
LINE
  5
CFF6
330
1A
100
AcDbEntity
  8
0
100
AcDbLine
 10
73.00000000000003
 20
156.645898
 30
0.0
 11
73.00000000000003
 21
150.145898
 31
0.0
  0
ARC
  5
CFF7
330
1A
100
AcDbEntity
  8
0
100
AcDbCircle
 10
70.00000000000003
 20
153.5
 30
0.0
 40
4.5
100
AcDbArc
 50
228.1896850000015
 51
311.8103149999985
  0
LINE
  5
CFF8
330
1A
100
AcDbEntity
  8
0
100
AcDbLine
 10
73.00000000000003
 20
163.354102
 30
0.0
 11
73.00000000000003
 21
169.854102
 31
0.0
  0
ARC
  5
CFF9
330
1A
100
AcDbEntity
  8
0
100
AcDbCircle
 10
70.00000000000003
 20
166.5
 30
0.0
 40
4.5
100
AcDbArc
 50
48.18968500000148
 51
131.8103149999985
  0
LINE
  5
CFFE
330
1A
100
AcDbEntity
  8
0
100
AcDbLine
 10
77.00000000000002
 20
61.45409924480645
 30
0.0
 11
77.00000000000002
 21
55.35409924480643
 31
0.0
  0
LINE
  5
CFFF
330
1A
100
AcDbEntity
  8
0
100
AcDbLine
 10
63.00000000000003
 20
61.45409924480645
 30
0.0
 11
63.00000000000003
 21
55.35409924480643
 31
0.0
  0
LINE
  5
D000
330
1A
100
AcDbEntity
  8
0
100
AcDbLine
 10
63.00000000000003
 20
55.35409924480643
 30
0.0
 11
77.00000000000002
 21
55.35409924480643
 31
0.0
  0
ELLIPSE
  5
D001
330
1A
100
AcDbEntity
  8
SUNPOU
100
AcDbEllipse
 10
80.00000000000003
 20
61.40409936090373
 30
0.0
 11
2.650000000000011
 21
0.0000000000000002
 31
0.0
210
0.0
220
0.0
230
-1.0
 40
0.5962264589045838
 41
-0.0316507780268765
 42
3.173243431616674
  0
ELLIPSE
  5
D002
330
1A
100
AcDbEntity
  8
SUNPOU
100
AcDbEllipse
 10
60.00000000000003
 20
61.40409936090373
 30
0.0
 11
-2.650000000000007
 21
0.0000000000000102
 31
0.0
210
0.0
220
0.0
230
-1.0
 40
0.5962264589045846
 41
3.109941875562905
 42
6.314836085206465
  0
LINE
  5
D003
330
1A
100
AcDbEntity
  8
0
100
AcDbLine
 10
69.25000000000003
 20
92.95409924480646
 30
0.0
 11
67.25000000000003
 21
92.95409924480646
 31
0.0
  0
ARC
  5
D004
330
1A
100
AcDbEntity
  8
0
100
AcDbCircle
 10
69.25000000000003
 20
93.95409924480645
 30
0.0
 40
1.0
100
AcDbArc
 50
270.0
 51
90.0
  0
LINE
  5
D005
330
1A
100
AcDbEntity
  8
0
100
AcDbLine
 10
68.25000000000002
 20
93.95409924480645
 30
0.0
 11
67.25000000000003
 21
93.95409924480645
 31
0.0
  0
ARC
  5
D006
330
1A
100
AcDbEntity
  8
0
100
AcDbCircle
 10
68.25000000000002
 20
91.95409924480646
 30
0.0
 40
2.0
100
AcDbArc
 50
36.86989764584219
 51
90.0
  0
ARC
  5
D007
330
1A
100
AcDbEntity
  8
0
100
AcDbCircle
 10
71.75000000000003
 20
91.95409924480646
 30
0.0
 40
2.0
100
AcDbArc
 50
36.86989764584219
 51
90.0
  0
LINE
  5
D008
330
1A
100
AcDbEntity
  8
0
100
AcDbLine
 10
71.75000000000003
 20
93.95409924480645
 30
0.0
 11
70.75000000000002
 21
93.95409924480645
 31
0.0
  0
ARC
  5
D009
330
1A
100
AcDbEntity
  8
0
100
AcDbCircle
 10
72.75000000000003
 20
93.95409924480645
 30
0.0
 40
1.0
100
AcDbArc
 50
270.0
 51
90.0
  0
LINE
  5
D00A
330
1A
100
AcDbEntity
  8
0
100
AcDbLine
 10
72.75000000000003
 20
92.95409924480646
 30
0.0
 11
70.75000000000002
 21
92.95409924480646
 31
0.0
  0
LINE
  5
D00B
330
1A
100
AcDbEntity
  8
0
100
AcDbLine
 10
79.75000000000003
 20
92.95409924480646
 30
0.0
 11
77.75000000000003
 21
92.95409924480646
 31
0.0
  0
ARC
  5
D00C
330
1A
100
AcDbEntity
  8
0
100
AcDbCircle
 10
79.75000000000003
 20
93.95409924480645
 30
0.0
 40
1.0
100
AcDbArc
 50
270.0
 51
90.0
  0
LINE
  5
D00D
330
1A
100
AcDbEntity
  8
0
100
AcDbLine
 10
78.75000000000003
 20
93.95409924480645
 30
0.0
 11
77.75000000000003
 21
93.95409924480645
 31
0.0
  0
ARC
  5
D00E
330
1A
100
AcDbEntity
  8
0
100
AcDbCircle
 10
78.75000000000003
 20
91.95409924480646
 30
0.0
 40
2.0
100
AcDbArc
 50
36.86989764584219
 51
90.0
  0
ARC
  5
D00F
330
1A
100
AcDbEntity
  8
0
100
AcDbCircle
 10
75.25000000000003
 20
91.95409924480646
 30
0.0
 40
2.0
100
AcDbArc
 50
36.86989764584219
 51
90.0
  0
LINE
  5
D010
330
1A
100
AcDbEntity
  8
0
100
AcDbLine
 10
75.25000000000003
 20
93.95409924480645
 30
0.0
 11
74.25000000000003
 21
93.95409924480645
 31
0.0
  0
ARC
  5
D011
330
1A
100
AcDbEntity
  8
0
100
AcDbCircle
 10
76.25000000000003
 20
93.95409924480645
 30
0.0
 40
1.0
100
AcDbArc
 50
270.0
 51
90.0
  0
LINE
  5
D012
330
1A
100
AcDbEntity
  8
0
100
AcDbLine
 10
76.25000000000003
 20
92.95409924480646
 30
0.0
 11
74.25000000000003
 21
92.95409924480646
 31
0.0
  0
LINE
  5
D013
330
1A
100
AcDbEntity
  8
0
100
AcDbLine
 10
62.25000000000003
 20
92.95409924480646
 30
0.0
 11
60.25000000000003
 21
92.95409924480646
 31
0.0
  0
ARC
  5
D014
330
1A
100
AcDbEntity
  8
0
100
AcDbCircle
 10
62.25000000000003
 20
93.95409924480645
 30
0.0
 40
1.0
100
AcDbArc
 50
270.0
 51
90.0
  0
LINE
  5
D015
330
1A
100
AcDbEntity
  8
0
100
AcDbLine
 10
61.25000000000003
 20
93.95409924480645
 30
0.0
 11
60.25000000000003
 21
93.95409924480645
 31
0.0
  0
ARC
  5
D016
330
1A
100
AcDbEntity
  8
0
100
AcDbCircle
 10
61.25000000000003
 20
91.95409924480646
 30
0.0
 40
2.0
100
AcDbArc
 50
36.86989764584219
 51
90.0
  0
ARC
  5
D017
330
1A
100
AcDbEntity
  8
0
100
AcDbCircle
 10
64.75000000000003
 20
91.95409924480646
 30
0.0
 40
2.0
100
AcDbArc
 50
36.86989764584219
 51
90.0
  0
LINE
  5
D018
330
1A
100
AcDbEntity
  8
0
100
AcDbLine
 10
64.75000000000003
 20
93.95409924480645
 30
0.0
 11
63.75000000000003
 21
93.95409924480645
 31
0.0
  0
ARC
  5
D019
330
1A
100
AcDbEntity
  8
0
100
AcDbCircle
 10
65.75000000000002
 20
93.95409924480645
 30
0.0
 40
1.0
100
AcDbArc
 50
270.0
 51
90.0
  0
LINE
  5
D01A
330
1A
100
AcDbEntity
  8
0
100
AcDbLine
 10
65.75000000000002
 20
92.95409924480646
 30
0.0
 11
63.75000000000003
 21
92.95409924480646
 31
0.0
  0
LINE
  5
D01B
330
1A
100
AcDbEntity
  8
0
100
AcDbLine
 10
58.75000000000003
 20
92.95409924480646
 30
0.0
 11
56.75000000000003
 21
92.95409924480646
 31
0.0
  0
ARC
  5
D01C
330
1A
100
AcDbEntity
  8
0
100
AcDbCircle
 10
58.75000000000003
 20
93.95409924480645
 30
0.0
 40
1.0
100
AcDbArc
 50
270.0
 51
90.0
  0
LINE
  5
D01D
330
1A
100
AcDbEntity
  8
0
100
AcDbLine
 10
57.75000000000003
 20
93.95409924480645
 30
0.0
 11
56.75000000000003
 21
93.95409924480645
 31
0.0
  0
ARC
  5
D01E
330
1A
100
AcDbEntity
  8
0
100
AcDbCircle
 10
57.75000000000003
 20
91.95409924480646
 30
0.0
 40
2.0
100
AcDbArc
 50
36.86989764584219
 51
90.0
  0
ARC
  5
D01F
330
1A
100
AcDbEntity
  8
0
100
AcDbCircle
 10
54.25000000000003
 20
91.95409924480646
 30
0.0
 40
2.0
100
AcDbArc
 50
36.86989764584219
 51
90.0
  0
LINE
  5
D020
330
1A
100
AcDbEntity
  8
0
100
AcDbLine
 10
54.25000000000003
 20
93.95409924480645
 30
0.0
 11
53.25000000000002
 21
93.95409924480645
 31
0.0
  0
ARC
  5
D021
330
1A
100
AcDbEntity
  8
0
100
AcDbCircle
 10
55.25000000000003
 20
93.95409924480645
 30
0.0
 40
1.0
100
AcDbArc
 50
270.0
 51
90.0
  0
LINE
  5
D022
330
1A
100
AcDbEntity
  8
0
100
AcDbLine
 10
55.25000000000003
 20
92.95409924480646
 30
0.0
 11
53.25000000000002
 21
92.95409924480646
 31
0.0
  0
LINE
  5
D023
330
1A
100
AcDbEntity
  8
0
100
AcDbLine
 10
67.25000000000003
 20
94.95409924480645
 30
0.0
 11
67.25000000000003
 21
96.70409924480646
 31
0.0
  0
LINE
  5
D024
330
1A
100
AcDbEntity
  8
0
100
AcDbLine
 10
65.50000000000003
 20
94.95409924480645
 30
0.0
 11
65.50000000000003
 21
96.70409924480646
 31
0.0
  0
LINE
  5
D025
330
1A
100
AcDbEntity
  8
0
100
AcDbLine
 10
67.25000000000003
 20
96.70409924480646
 30
0.0
 11
65.50000000000003
 21
96.70409924480646
 31
0.0
  0
LINE
  5
D026
330
1A
100
AcDbEntity
  8
0
100
AcDbLine
 10
66.00000000000003
 20
94.95409924480645
 30
0.0
 11
66.00000000000003
 21
96.70409924480646
 31
0.0
  0
LINE
  5
D027
330
1A
100
AcDbEntity
  8
0
100
AcDbLine
 10
66.75000000000003
 20
94.95409924480645
 30
0.0
 11
66.75000000000003
 21
96.70409924480646
 31
0.0
  0
LINE
  5
D028
330
1A
100
AcDbEntity
  8
0
100
AcDbLine
 10
63.25000000000002
 20
94.95409924480645
 30
0.0
 11
63.25000000000002
 21
96.70409924480646
 31
0.0
  0
LINE
  5
D029
330
1A
100
AcDbEntity
  8
0
100
AcDbLine
 10
62.50000000000003
 20
94.95409924480645
 30
0.0
 11
62.50000000000003
 21
96.70409924480646
 31
0.0
  0
LINE
  5
D02A
330
1A
100
AcDbEntity
  8
0
100
AcDbLine
 10
63.75000000000003
 20
96.70409924480646
 30
0.0
 11
62.00000000000002
 21
96.70409924480646
 31
0.0
  0
LINE
  5
D02B
330
1A
100
AcDbEntity
  8
0
100
AcDbLine
 10
62.00000000000002
 20
94.95409924480645
 30
0.0
 11
62.00000000000002
 21
96.70409924480646
 31
0.0
  0
LINE
  5
D02C
330
1A
100
AcDbEntity
  8
0
100
AcDbLine
 10
63.75000000000003
 20
94.95409924480645
 30
0.0
 11
63.75000000000003
 21
96.70409924480646
 31
0.0
  0
LINE
  5
D02D
330
1A
100
AcDbEntity
  8
0
100
AcDbLine
 10
56.75000000000003
 20
94.95409924480645
 30
0.0
 11
56.75000000000003
 21
96.70409924480646
 31
0.0
  0
LINE
  5
D02E
330
1A
100
AcDbEntity
  8
0
100
AcDbLine
 10
55.00000000000003
 20
94.95409924480645
 30
0.0
 11
55.00000000000003
 21
96.70409924480646
 31
0.0
  0
LINE
  5
D02F
330
1A
100
AcDbEntity
  8
0
100
AcDbLine
 10
56.75000000000003
 20
96.70409924480646
 30
0.0
 11
55.00000000000003
 21
96.70409924480646
 31
0.0
  0
LINE
  5
D030
330
1A
100
AcDbEntity
  8
0
100
AcDbLine
 10
55.50000000000003
 20
94.95409924480645
 30
0.0
 11
55.50000000000003
 21
96.70409924480646
 31
0.0
  0
LINE
  5
D031
330
1A
100
AcDbEntity
  8
0
100
AcDbLine
 10
56.25000000000003
 20
94.95409924480645
 30
0.0
 11
56.25000000000003
 21
96.70409924480646
 31
0.0
  0
LINE
  5
D032
330
1A
100
AcDbEntity
  8
0
100
AcDbLine
 10
59.75000000000003
 20
94.95409924480645
 30
0.0
 11
59.75000000000003
 21
96.70409924480646
 31
0.0
  0
LINE
  5
D033
330
1A
100
AcDbEntity
  8
0
100
AcDbLine
 10
59.00000000000003
 20
94.95409924480645
 30
0.0
 11
59.00000000000003
 21
96.70409924480646
 31
0.0
  0
LINE
  5
D034
330
1A
100
AcDbEntity
  8
0
100
AcDbLine
 10
60.25000000000003
 20
96.70409924480646
 30
0.0
 11
58.50000000000003
 21
96.70409924480646
 31
0.0
  0
LINE
  5
D035
330
1A
100
AcDbEntity
  8
0
100
AcDbLine
 10
58.50000000000003
 20
94.95409924480645
 30
0.0
 11
58.50000000000003
 21
96.70409924480646
 31
0.0
  0
LINE
  5
D036
330
1A
100
AcDbEntity
  8
0
100
AcDbLine
 10
60.25000000000003
 20
94.95409924480645
 30
0.0
 11
60.25000000000003
 21
96.70409924480646
 31
0.0
  0
LINE
  5
D037
330
1A
100
AcDbEntity
  8
0
100
AcDbLine
 10
74.25000000000003
 20
94.95409924480645
 30
0.0
 11
74.25000000000003
 21
96.70409924480646
 31
0.0
  0
LINE
  5
D038
330
1A
100
AcDbEntity
  8
0
100
AcDbLine
 10
72.50000000000003
 20
94.95409924480645
 30
0.0
 11
72.50000000000003
 21
96.70409924480646
 31
0.0
  0
LINE
  5
D039
330
1A
100
AcDbEntity
  8
0
100
AcDbLine
 10
74.25000000000003
 20
96.70409924480646
 30
0.0
 11
72.50000000000003
 21
96.70409924480646
 31
0.0
  0
LINE
  5
D03A
330
1A
100
AcDbEntity
  8
0
100
AcDbLine
 10
73.00000000000003
 20
94.95409924480645
 30
0.0
 11
73.00000000000003
 21
96.70409924480646
 31
0.0
  0
LINE
  5
D03B
330
1A
100
AcDbEntity
  8
0
100
AcDbLine
 10
73.75000000000003
 20
94.95409924480645
 30
0.0
 11
73.75000000000003
 21
96.70409924480646
 31
0.0
  0
LINE
  5
D03C
330
1A
100
AcDbEntity
  8
0
100
AcDbLine
 10
70.25000000000003
 20
94.95409924480645
 30
0.0
 11
70.25000000000003
 21
96.70409924480646
 31
0.0
  0
LINE
  5
D03D
330
1A
100
AcDbEntity
  8
0
100
AcDbLine
 10
69.50000000000002
 20
94.95409924480645
 30
0.0
 11
69.50000000000002
 21
96.70409924480646
 31
0.0
  0
LINE
  5
D03E
330
1A
100
AcDbEntity
  8
0
100
AcDbLine
 10
70.75000000000002
 20
96.70409924480646
 30
0.0
 11
69.00000000000003
 21
96.70409924480646
 31
0.0
  0
LINE
  5
D03F
330
1A
100
AcDbEntity
  8
0
100
AcDbLine
 10
69.00000000000003
 20
94.95409924480645
 30
0.0
 11
69.00000000000003
 21
96.70409924480646
 31
0.0
  0
LINE
  5
D040
330
1A
100
AcDbEntity
  8
0
100
AcDbLine
 10
70.75000000000002
 20
94.95409924480645
 30
0.0
 11
70.75000000000002
 21
96.70409924480646
 31
0.0
  0
LINE
  5
D041
330
1A
100
AcDbEntity
  8
0
100
AcDbLine
 10
77.75000000000003
 20
94.95409924480645
 30
0.0
 11
77.75000000000003
 21
96.70409924480646
 31
0.0
  0
LINE
  5
D042
330
1A
100
AcDbEntity
  8
0
100
AcDbLine
 10
76.00000000000003
 20
94.95409924480645
 30
0.0
 11
76.00000000000003
 21
96.70409924480646
 31
0.0
  0
LINE
  5
D043
330
1A
100
AcDbEntity
  8
0
100
AcDbLine
 10
77.75000000000003
 20
96.70409924480646
 30
0.0
 11
76.00000000000003
 21
96.70409924480646
 31
0.0
  0
LINE
  5
D044
330
1A
100
AcDbEntity
  8
0
100
AcDbLine
 10
76.50000000000003
 20
94.95409924480645
 30
0.0
 11
76.50000000000003
 21
96.70409924480646
 31
0.0
  0
LINE
  5
D045
330
1A
100
AcDbEntity
  8
0
100
AcDbLine
 10
77.25000000000003
 20
94.95409924480645
 30
0.0
 11
77.25000000000003
 21
96.70409924480646
 31
0.0
  0
LINE
  5
D046
330
1A
100
AcDbEntity
  8
0
100
AcDbLine
 10
80.75000000000002
 20
94.95409924480645
 30
0.0
 11
80.75000000000002
 21
96.70409924480646
 31
0.0
  0
LINE
  5
D047
330
1A
100
AcDbEntity
  8
0
100
AcDbLine
 10
80.00000000000003
 20
94.95409924480645
 30
0.0
 11
80.00000000000003
 21
96.70409924480646
 31
0.0
  0
LINE
  5
D048
330
1A
100
AcDbEntity
  8
0
100
AcDbLine
 10
81.25000000000003
 20
96.70409924480646
 30
0.0
 11
79.50000000000002
 21
96.70409924480646
 31
0.0
  0
LINE
  5
D049
330
1A
100
AcDbEntity
  8
0
100
AcDbLine
 10
79.50000000000002
 20
94.95409924480645
 30
0.0
 11
79.50000000000002
 21
96.70409924480646
 31
0.0
  0
LINE
  5
D04A
330
1A
100
AcDbEntity
  8
0
100
AcDbLine
 10
81.25000000000003
 20
94.95409924480645
 30
0.0
 11
81.25000000000003
 21
96.70409924480646
 31
0.0
  0
LINE
  5
D04B
330
1A
100
AcDbEntity
  8
0
100
AcDbLine
 10
51.75000000000003
 20
92.45409924480645
 30
0.0
 11
88.25000000000002
 21
92.45409924480645
 31
0.0
  0
LINE
  5
D04C
330
1A
100
AcDbEntity
  8
0
100
AcDbLine
 10
51.75000000000003
 20
94.95409924480645
 30
0.0
 11
51.75000000000003
 21
88.75409924480647
 31
0.0
  0
LINE
  5
D04D
330
1A
100
AcDbEntity
  8
0
100
AcDbLine
 10
51.75000000000003
 20
94.95409924480645
 30
0.0
 11
88.25000000000002
 21
94.95409924480645
 31
0.0
  0
LINE
  5
D04E
330
1A
100
AcDbEntity
  8
0
100
AcDbLine
 10
53.25000000000002
 20
94.95409924480645
 30
0.0
 11
53.25000000000002
 21
88.75409924480647
 31
0.0
  0
LINE
  5
D04F
330
1A
100
AcDbEntity
  8
0
100
AcDbLine
 10
56.75000000000003
 20
94.95409924480645
 30
0.0
 11
56.75000000000003
 21
88.75409924480647
 31
0.0
  0
LINE
  5
D050
330
1A
100
AcDbEntity
  8
0
100
AcDbLine
 10
63.75000000000003
 20
94.95409924480645
 30
0.0
 11
63.75000000000003
 21
88.75409924480647
 31
0.0
  0
LINE
  5
D051
330
1A
100
AcDbEntity
  8
0
100
AcDbLine
 10
60.25000000000003
 20
94.95409924480645
 30
0.0
 11
60.25000000000003
 21
88.75409924480647
 31
0.0
  0
LINE
  5
D052
330
1A
100
AcDbEntity
  8
0
100
AcDbLine
 10
74.25000000000003
 20
94.95409924480645
 30
0.0
 11
74.25000000000003
 21
88.75409924480647
 31
0.0
  0
LINE
  5
D053
330
1A
100
AcDbEntity
  8
0
100
AcDbLine
 10
77.75000000000003
 20
94.95409924480645
 30
0.0
 11
77.75000000000003
 21
88.75409924480647
 31
0.0
  0
LINE
  5
D054
330
1A
100
AcDbEntity
  8
0
100
AcDbLine
 10
70.75000000000002
 20
94.95409924480645
 30
0.0
 11
70.75000000000002
 21
88.75409924480647
 31
0.0
  0
LINE
  5
D055
330
1A
100
AcDbEntity
  8
0
100
AcDbLine
 10
67.25000000000003
 20
94.95409924480645
 30
0.0
 11
67.25000000000003
 21
88.75409924480647
 31
0.0
  0
LINE
  5
D056
330
1A
100
AcDbEntity
  8
0
100
AcDbLine
 10
81.25000000000003
 20
94.95409924480645
 30
0.0
 11
81.25000000000003
 21
88.75409924480647
 31
0.0
  0
LINE
  5
D057
330
1A
100
AcDbEntity
  8
0
100
AcDbLine
 10
84.75000000000003
 20
94.95409924480645
 30
0.0
 11
84.75000000000003
 21
96.70409924480646
 31
0.0
  0
LINE
  5
D058
330
1A
100
AcDbEntity
  8
0
100
AcDbLine
 10
83.00000000000002
 20
94.95409924480645
 30
0.0
 11
83.00000000000002
 21
96.70409924480646
 31
0.0
  0
LINE
  5
D059
330
1A
100
AcDbEntity
  8
0
100
AcDbLine
 10
84.75000000000003
 20
96.70409924480646
 30
0.0
 11
83.00000000000002
 21
96.70409924480646
 31
0.0
  0
LINE
  5
D05A
330
1A
100
AcDbEntity
  8
0
100
AcDbLine
 10
83.50000000000003
 20
94.95409924480645
 30
0.0
 11
83.50000000000003
 21
96.70409924480646
 31
0.0
  0
LINE
  5
D05B
330
1A
100
AcDbEntity
  8
0
100
AcDbLine
 10
84.25000000000002
 20
94.95409924480645
 30
0.0
 11
84.25000000000002
 21
96.70409924480646
 31
0.0
  0
ARC
  5
D05C
330
1A
100
AcDbEntity
  8
0
100
AcDbCircle
 10
82.25000000000003
 20
91.95409924480646
 30
0.0
 40
2.0
100
AcDbArc
 50
36.86989764584219
 51
90.0
  0
LINE
  5
D05D
330
1A
100
AcDbEntity
  8
0
100
AcDbLine
 10
82.25000000000003
 20
93.95409924480645
 30
0.0
 11
81.25000000000003
 21
93.95409924480645
 31
0.0
  0
ARC
  5
D05E
330
1A
100
AcDbEntity
  8
0
100
AcDbCircle
 10
83.25000000000002
 20
93.95409924480645
 30
0.0
 40
1.0
100
AcDbArc
 50
270.0
 51
90.0
  0
LINE
  5
D05F
330
1A
100
AcDbEntity
  8
0
100
AcDbLine
 10
83.25000000000002
 20
92.95409924480646
 30
0.0
 11
81.25000000000003
 21
92.95409924480646
 31
0.0
  0
LINE
  5
D060
330
1A
100
AcDbEntity
  8
0
100
AcDbLine
 10
84.75000000000003
 20
94.95409924480645
 30
0.0
 11
84.75000000000003
 21
88.75409924480647
 31
0.0
  0
LINE
  5
D061
330
1A
100
AcDbEntity
  8
0
100
AcDbLine
 10
55.00000000000003
 20
61.45409924480645
 30
0.0
 11
85.00000000000003
 21
61.45409924480645
 31
0.0
  0
LINE
  5
D062
330
1A
100
AcDbEntity
  8
0
100
AcDbLine
 10
55.00000000000003
 20
64.95409924480646
 30
0.0
 11
85.00000000000003
 21
64.95409924480646
 31
0.0
  0
LINE
  5
D063
330
1A
100
AcDbEntity
  8
0
100
AcDbLine
 10
55.00000000000003
 20
61.45409924480645
 30
0.0
 11
55.00000000000003
 21
64.95409924480646
 31
0.0
  0
LINE
  5
D064
330
1A
100
AcDbEntity
  8
0
100
AcDbLine
 10
85.00000000000003
 20
61.45409924480645
 30
0.0
 11
85.00000000000003
 21
64.95409924480646
 31
0.0
  0
LINE
  5
D065
330
1A
100
AcDbEntity
  8
0
100
AcDbLine
 10
41.00000000000008
 20
98.75409924480647
 30
0.0
 11
98.99999999999991
 21
98.75409924480647
 31
0.0
  0
LINE
  5
D066
330
1A
100
AcDbEntity
  8
0
100
AcDbLine
 10
41.00000000000008
 20
66.25409924480647
 30
0.0
 11
41.00000000000008
 21
98.75409924480647
 31
0.0
  0
LINE
  5
D067
330
1A
100
AcDbEntity
  8
0
100
AcDbLine
 10
98.99999999999991
 20
66.25409924480647
 30
0.0
 11
98.99999999999991
 21
98.75409924480647
 31
0.0
  0
LINE
  5
D068
330
1A
100
AcDbEntity
  8
0
100
AcDbLine
 10
97.99999999999997
 20
64.95409924480646
 30
0.0
 11
41.99999999999997
 21
64.95409924480646
 31
0.0
  0
ARC
  5
D069
330
1A
100
AcDbEntity
  8
0
100
AcDbCircle
 10
41.80000000000004
 20
66.25409924480647
 30
0.0
 40
0.8
100
AcDbArc
 50
180.0
 51
270.0
  0
ARC
  5
D06A
330
1A
100
AcDbEntity
  8
0
100
AcDbCircle
 10
98.19999999999991
 20
66.25409924480647
 30
0.0
 40
0.8
100
AcDbArc
 50
270.0
 51
0.0
  0
LINE
  5
D06B
330
1A
100
AcDbEntity
  8
0
100
AcDbLine
 10
41.00000000000008
 20
215.0
 30
0.0
 11
98.99999999999991
 21
215.0
 31
0.0
  0
LINE
  5
D06C
330
1A
100
AcDbEntity
  8
0
100
AcDbLine
 10
41.00000000000008
 20
125.0
 30
0.0
 11
41.00000000000003
 21
215.0
 31
0.0
  0
LINE
  5
D06D
330
1A
100
AcDbEntity
  8
0
100
AcDbLine
 10
98.99999999999991
 20
125.0
 30
0.0
 11
98.99999999999991
 21
215.0
 31
0.0
  0
LINE
  5
D06E
330
1A
100
AcDbEntity
  8
0
100
AcDbLine
 10
88.75000000000003
 20
137.3
 30
0.0
 11
51.25000000000003
 21
137.3
 31
0.0
  0
LINE
  5
D06F
330
1A
100
AcDbEntity
  8
0
100
AcDbLine
 10
51.25000000000003
 20
215.0
 30
0.0
 11
51.25000000000003
 21
202.7
 31
0.0
  0
LINE
  5
D070
330
1A
100
AcDbEntity
  8
0
100
AcDbLine
 10
51.25000000000003
 20
202.7
 30
0.0
 11
88.75000000000003
 21
202.7
 31
0.0
  0
LINE
  5
D071
330
1A
100
AcDbEntity
  8
0
100
AcDbLine
 10
88.75000000000003
 20
202.7
 30
0.0
 11
88.75000000000003
 21
215.0
 31
0.0
  0
LINE
  5
D072
330
1A
100
AcDbEntity
  8
0
100
AcDbLine
 10
51.25000000000003
 20
125.0
 30
0.0
 11
51.25000000000003
 21
137.3
 31
0.0
  0
LINE
  5
D073
330
1A
100
AcDbEntity
  8
0
100
AcDbLine
 10
88.75000000000003
 20
137.3
 30
0.0
 11
88.75000000000003
 21
125.0
 31
0.0
  0
TEXT
  5
D074
330
1A
100
AcDbEntity
  8
SUNPOU
100
AcDbText
 10
84.25000000000002
 20
117.6761904761904
 30
0.0
 40
2.0
  1
+24V
 50
90.0
 41
0.8
 72
     2
 11
83.25000000000002
 21
123.9999999999999
 31
0.0
100
AcDbText
 73
     2
  0
TEXT
  5
D075
330
1A
100
AcDbEntity
  8
SUNPOU
100
AcDbText
 10
87.75000000000003
 20
121.1809523809523
 30
0.0
 40
2.0
  1
0V
 50
90.0
 41
0.8
 72
     2
 11
86.75000000000002
 21
123.9999999999999
 31
0.0
100
AcDbText
 73
     2
  0
TEXT
  5
D076
330
1A
100
AcDbEntity
  8
SUNPOU
100
AcDbText
 10
80.75000000000002
 20
122.7047619047618
 30
0.0
 40
2.0
  1
E
 50
90.0
 41
0.8
 72
     2
 11
79.75000000000003
 21
123.9999999999999
 31
0.0
100
AcDbText
 73
     2
  0
TEXT
  5
D077
330
1A
100
AcDbEntity
  8
SUNPOU
100
AcDbText
 10
59.75000000000003
 20
117.6761904761903
 30
0.0
 40
2.0
  1
+SEN
 50
90.0
 41
0.8
 72
     2
 11
58.75000000000003
 21
123.9999999999999
 31
0.0
100
AcDbText
 73
     2
  0
TEXT
  5
D078
330
1A
100
AcDbEntity
  8
SUNPOU
100
AcDbText
 10
63.25000000000002
 20
117.6761904761903
 30
0.0
 40
2.0
  1
-SEN
 50
90.0
 41
0.8
 72
     2
 11
62.25000000000003
 21
123.9999999999999
 31
0.0
100
AcDbText
 73
     2
  0
TEXT
  5
D079
330
1A
100
AcDbEntity
  8
SUNPOU
100
AcDbText
 10
66.75000000000003
 20
117.6761904761904
 30
0.0
 40
2.0
  1
-EXC
 50
90.0
 41
0.8
 72
     2
 11
65.75000000000002
 21
124.0
 31
0.0
100
AcDbText
 73
     2
  0
TEXT
  5
D07A
330
1A
100
AcDbEntity
  8
SUNPOU
100
AcDbText
 10
77.25000000000003
 20
119.5809523809524
 30
0.0
 40
2.0
  1
SHL
 50
90.0
 41
0.8
 72
     2
 11
76.25000000000003
 21
124.0
 31
0.0
100
AcDbText
 73
     2
  0
TEXT
  5
D07B
330
1A
100
AcDbEntity
  8
SUNPOU
100
AcDbText
 10
73.75000000000003
 20
118.5142857142856
 30
0.0
 40
2.0
  1
-SIG
 50
90.0
 41
0.8
 72
     2
 11
72.75000000000003
 21
123.9999999999999
 31
0.0
100
AcDbText
 73
     2
  0
TEXT
  5
D07C
330
1A
100
AcDbEntity
  8
SUNPOU
100
AcDbText
 10
70.25000000000003
 20
118.5142857142856
 30
0.0
 40
2.0
  1
+SIG
 50
90.0
 41
0.8
 72
     2
 11
69.25000000000003
 21
123.9999999999999
 31
0.0
100
AcDbText
 73
     2
  0
LINE
  5
D07D
330
1A
100
AcDbEntity
  8
0
100
AcDbLine
 10
41.00000000000008
 20
125.0
 30
0.0
 11
98.99999999999991
 21
125.0
 31
0.0
  0
LINE
  5
D07E
330
1A
100
AcDbEntity
  8
0
100
AcDbLine
 10
53.00000000000003
 20
126.8
 30
0.0
 11
53.00000000000003
 21
126.0
 31
0.0
  0
LWPOLYLINE
  5
D245
330
1A
100
AcDbEntity
  8
PARTS
100
AcDbPolyline
 90
        4
 70
     0
 43
0.0
 10
116.7
 20
161.6220930232558
 10
114.6
 20
161.5
 10
114.6
 20
158.5
 10
116.7
 20
158.3779069767442
  0
LWPOLYLINE
  5
D246
330
1A
100
AcDbEntity
  8
PARTS
100
AcDbPolyline
 90
        4
 70
     0
 43
0.0
 10
116.7
 20
168.8720930232558
 10
114.6
 20
168.75
 10
114.6
 20
165.75
 10
116.7
 20
165.6279069767442
  0
LWPOLYLINE
  5
D247
330
1A
100
AcDbEntity
  8
PARTS
100
AcDbPolyline
 90
        4
 70
     0
 43
0.0
 10
116.7
 20
154.3720930232558
 10
114.6
 20
154.25
 10
114.6
 20
151.25
 10
116.7
 20
151.1279069767442
  0
LINE
  5
D24A
330
1A
100
AcDbEntity
  8
KAGESEN
100
AcDbLine
 10
172.0
 20
223.0
 30
0.0
 11
170.0
 21
223.0
 31
0.0
  0
LINE
  5
D24B
330
1A
100
AcDbEntity
  8
KAGESEN
100
AcDbLine
 10
170.0
 20
223.0
 30
0.0
 11
170.0
 21
117.0
 31
0.0
  0
LINE
  5
D24C
330
1A
100
AcDbEntity
  8
KAGESEN
100
AcDbLine
 10
172.0
 20
223.0
 30
0.0
 11
172.0
 21
117.0
 31
0.0
  0
LINE
  5
D24D
330
1A
100
AcDbEntity
  8
KAGESEN
100
AcDbLine
 10
172.0
 20
117.0
 30
0.0
 11
170.0
 21
117.0
 31
0.0
  0
LINE
  5
D24E
330
1A
100
AcDbEntity
  8
KAGESEN
100
AcDbLine
 10
166.0
 20
197.5
 30
0.0
 11
176.0
 21
197.5
 31
0.0
  0
LINE
  5
D24F
330
1A
100
AcDbEntity
  8
KAGESEN
100
AcDbLine
 10
166.0
 20
142.5
 30
0.0
 11
176.0
 21
142.5
 31
0.0
  0
INSERT
  5
D250
330
1A
100
AcDbEntity
  8
0
100
AcDbBlockReference
  2
M3-皿-L5
 10
172.0000000000001
 20
197.5
 30
0.0
  0
LINE
  5
D251
330
1A
100
AcDbEntity
  8
KAGESEN
100
AcDbLine
 10
170.5000000000002
 20
199.25
 30
0.0
 11
172.0
 21
200.7499999999999
 31
0.0
  0
LINE
  5
D252
330
1A
100
AcDbEntity
  8
KAGESEN
100
AcDbLine
 10
170.5
 20
195.75
 30
0.0
 11
172.0
 21
194.25
 31
0.0
  0
LINE
  5
D253
330
1A
100
AcDbEntity
  8
KAGESEN
100
AcDbLine
 10
170.0
 20
199.25
 30
0.0
 11
170.5000000000001
 21
199.25
 31
0.0
  0
LINE
  5
D254
330
1A
100
AcDbEntity
  8
KAGESEN
100
AcDbLine
 10
170.0
 20
195.75
 30
0.0
 11
170.5
 21
195.75
 31
0.0
  0
LINE
  5
D255
330
1A
100
AcDbEntity
  8
KAGESEN
100
AcDbLine
 10
170.0
 20
140.75
 30
0.0
 11
170.5
 21
140.75
 31
0.0
  0
LINE
  5
D256
330
1A
100
AcDbEntity
  8
KAGESEN
100
AcDbLine
 10
170.0
 20
144.25
 30
0.0
 11
170.5000000000001
 21
144.25
 31
0.0
  0
LINE
  5
D257
330
1A
100
AcDbEntity
  8
KAGESEN
100
AcDbLine
 10
170.5
 20
140.75
 30
0.0
 11
172.0
 21
139.25
 31
0.0
  0
LINE
  5
D258
330
1A
100
AcDbEntity
  8
KAGESEN
100
AcDbLine
 10
170.5000000000002
 20
144.25
 30
0.0
 11
172.0
 21
145.7499999999999
 31
0.0
  0
INSERT
  5
D259
330
1A
100
AcDbEntity
  8
0
100
AcDbBlockReference
  2
M3-皿-L5
 10
172.0000000000001
 20
142.5
 30
0.0
  0
INSERT
  5
D25B
330
1A
100
AcDbEntity
  8
0
100
AcDbBlockReference
  2
M2.6皿ネジ-TOP
 10
238.0
 20
205.5000000000001
 30
0.0
  0
INSERT
  5
D25C
330
1A
100
AcDbEntity
  8
0
100
AcDbBlockReference
  2
M2.6皿ネジ-TOP
 10
191.9999999999999
 20
205.5000000000001
 30
0.0
  0
INSERT
  5
D25D
330
1A
100
AcDbEntity
  8
0
100
AcDbBlockReference
  2
M2.6皿ネジ-TOP
 10
238.0
 20
134.5
 30
0.0
  0
INSERT
  5
D25E
330
1A
100
AcDbEntity
  8
0
100
AcDbBlockReference
  2
M2.6皿ネジ-TOP
 10
191.9999999999999
 20
134.5
 30
0.0
  0
LINE
  5
D25F
102
{ACAD_REACTORS
330
D2B9
102
}
330
1A
100
AcDbEntity
  8
KAGESEN
  6
DASHED2
100
AcDbLine
 10
230.0
 20
221.0
 30
0.0
 11
230.0
 21
119.0
 31
0.0
  0
LINE
  5
D260
102
{ACAD_REACTORS
330
D2B9
102
}
330
1A
100
AcDbEntity
  8
KAGESEN
  6
DASHED2
100
AcDbLine
 10
202.0
 20
117.0
 30
0.0
 11
228.0
 21
117.0
 31
0.0
  0
CIRCLE
  5
D261
102
{ACAD_REACTORS
330
D2B9
102
}
330
1A
100
AcDbEntity
  8
KAGESEN
  6
DASHED2
100
AcDbCircle
 10
215.0
 20
120.0
 30
0.0
 40
2.0
  0
ARC
  5
D262
102
{ACAD_REACTORS
330
D2B9
102
}
330
1A
100
AcDbEntity
  8
KAGESEN
  6
DASHED2
100
AcDbCircle
 10
202.0
 20
119.0
 30
0.0
 40
2.0
100
AcDbArc
 50
180.0
 51
270.0
  0
ARC
  5
D263
102
{ACAD_REACTORS
330
D2B9
102
}
330
1A
100
AcDbEntity
  8
KAGESEN
  6
DASHED2
100
AcDbCircle
 10
228.0
 20
119.0
 30
0.0
 40
2.0
100
AcDbArc
 50
270.0
 51
0.0
  0
LINE
  5
D264
102
{ACAD_REACTORS
330
D2B9
102
}
330
1A
100
AcDbEntity
  8
KAGESEN
  6
DASHED2
100
AcDbLine
 10
200.0
 20
119.0
 30
0.0
 11
200.0
 21
221.0
 31
0.0
  0
LINE
  5
D265
102
{ACAD_REACTORS
330
D2B9
102
}
330
1A
100
AcDbEntity
  8
KAGESEN
  6
DASHED2
100
AcDbLine
 10
202.0
 20
223.0
 30
0.0
 11
228.0
 21
223.0
 31
0.0
  0
CIRCLE
  5
D266
102
{ACAD_REACTORS
330
D2B9
102
}
330
1A
100
AcDbEntity
  8
KAGESEN
  6
DASHED2
100
AcDbCircle
 10
215.0
 20
220.0
 30
0.0
 40
2.0
  0
ARC
  5
D267
102
{ACAD_REACTORS
330
D2B9
102
}
330
1A
100
AcDbEntity
  8
KAGESEN
  6
DASHED2
100
AcDbCircle
 10
228.0
 20
221.0
 30
0.0
 40
2.0
100
AcDbArc
 50
0.0
 51
90.0
  0
ARC
  5
D268
102
{ACAD_REACTORS
330
D2B9
102
}
330
1A
100
AcDbEntity
  8
KAGESEN
  6
DASHED2
100
AcDbCircle
 10
202.0
 20
221.0
 30
0.0
 40
2.0
100
AcDbArc
 50
90.0
 51
180.0
  0
DIMENSION
  5
D269
330
1A
100
AcDbEntity
  8
SUNPOU
100
AcDbDimension
  2
*D13
 10
252.5
 20
120.0
 30
0.0
 11
250.0
 21
170.0
 31
0.0
 70
    32
 71
     5
 42
100.0
  3
STANDARD
100
AcDbAlignedDimension
 13
215.0
 23
220.0
 33
0.0
 14
215.0
 24
120.0
 34
0.0
 50
90.0
100
AcDbRotatedDimension
1001
ACAD
1000
DSTYLE
1002
{
1070
    41
1040
2.5
1070
    42
1040
0.5
1070
    43
1040
10.0
1070
    44
1040
0.5
1070
    73
1070
     0
1070
    74
1070
     0
1070
    77
1070
     1
1070
   140
1040
4.0
1070
   141
1040
0.0
1070
   147
1040
0.5
1070
   271
1070
     0
1070
   272
1070
     2
1070
   341
1005
CAF7
1070
   342
1005
CAF7
1002
}
  0
DIMENSION
  5
D26A
330
1A
100
AcDbEntity
  8
SUNPOU
100
AcDbDimension
  2
*D12
 10
260.0
 20
117.0
 30
0.0
 11
257.5
 21
170.0
 31
0.0
 70
    32
 71
     5
 42
106.0
  3
STANDARD
100
AcDbAlignedDimension
 13
228.0
 23
223.0
 33
0.0
 14
228.0
 24
117.0
 34
0.0
 50
90.0
100
AcDbRotatedDimension
1001
ACAD
1000
DSTYLE
1002
{
1070
    41
1040
2.5
1070
    42
1040
0.5
1070
    43
1040
10.0
1070
    44
1040
0.5
1070
    73
1070
     0
1070
    74
1070
     0
1070
    77
1070
     1
1070
   140
1040
4.0
1070
   141
1040
0.0
1070
   147
1040
0.5
1070
   271
1070
     0
1070
   272
1070
     2
1070
   341
1005
CAF7
1070
   342
1005
CAF7
1002
}
  0
LEADER
  5
D2D5
330
1A
100
AcDbEntity
  8
SUNPOU
100
AcDbLeader
  3
STANDARD
 73
     0
 75
     1
 40
3.000000000000001
 41
45.8857142857143
 76
     3
 10
155.0
 20
150.5
 30
0.0
 10
176.5427900928886
 20
102.4284268907776
 30
0.0
 10
174.0427900928886
 20
102.4284268907776
 30
0.0
340
D2D6
1001
ACAD
1000
DSTYLE
1002
{
1070
   341
1005
BA
1070
    41
1040
2.5
1070
    42
1040
0.5
1070
    43
1040
10.0
1070
    44
1040
0.5
1070
    73
1070
     0
1070
    74
1070
     0
1070
    77
1070
     1
1070
   140
1040
2.0
1070
   141
1040
0.0
1070
   147
1040
0.5
1070
   173
1070
     1
1070
   271
1070
     1
1070
   272
1070
     0
1070
   343
1005
BA
1070
   344
1005
BA
1002
}
  0
MTEXT
  5
D2D6
102
{ACAD_REACTORS
330
D2D5
102
}
330
1A
100
AcDbEntity
  8
SUNPOU
100
AcDbMText
 10
173.5427900928886
 20
104.4284268907776
 30
0.0
 40
3.0
 41
0.0
 71
     6
 72
     1
  1
{\C0;DINレール取り付けアダプタ}
 73
     1
 44
1.0
1001
ACAD
1000
MTEXTBEGIN
1070
    73
1070
     1
1070
    44
1040
1.0
1070
    74
1070
     0
1000
MTEXTEND
  0
TEXT
  5
D2EA
330
1A
100
AcDbEntity
  8
WAKU
100
AcDbText
 10
247.8
 20
21.5
 30
0.0
 40
3.0
  1
大野
 72
     4
 11
251.0
 21
23.0
 31
0.0
100
AcDbText
  0
TEXT
  5
D2EB
330
1A
100
AcDbEntity
  8
WAKU
100
AcDbText
 10
234.2809523809524
 20
22.0
 30
0.0
 40
2.0
  1
14.02.21
 41
0.8
 72
     4
 11
239.5
 21
23.0
 31
0.0
100
AcDbText
  0
LINE
  5
D2FC
330
1A
100
AcDbEntity
  8
KAGESEN
100
AcDbLine
 10
151.0
 20
130.0
 30
0.0
 11
169.0
 21
130.0
 31
0.0
  0
LINE
  5
D2FD
330
1A
100
AcDbEntity
  8
KAGESEN
100
AcDbLine
 10
151.0
 20
130.0
 30
0.0
 11
153.0
 21
131.0
 31
0.0
  0
LINE
  5
D2FF
330
1A
100
AcDbEntity
  8
KAGESEN
100
AcDbLine
 10
153.0
 20
129.0
 30
0.0
 11
151.0
 21
130.0
 31
0.0
  0
LINE
  5
D300
330
1A
100
AcDbEntity
  8
KAGESEN
100
AcDbLine
 10
151.0
 20
210.0
 30
0.0
 11
169.0
 21
210.0
 31
0.0
  0
LINE
  5
D301
330
1A
100
AcDbEntity
  8
KAGESEN
100
AcDbLine
 10
153.0
 20
211.0000000000001
 30
0.0
 11
151.0
 21
210.0
 31
0.0
  0
LINE
  5
D302
330
1A
100
AcDbEntity
  8
KAGESEN
100
AcDbLine
 10
151.0
 20
210.0
 30
0.0
 11
153.0
 21
209.0000000000001
 31
0.0
  0
TEXT
  5
D305
330
1A
100
AcDbEntity
  8
SUNPOU
100
AcDbText
 10
235.5
 20
91.5
 30
0.0
 40
2.0
  1
2
100
AcDbText
  0
LWPOLYLINE
  5
D306
330
1A
100
AcDbEntity
  8
SUNPOU
100
AcDbPolyline
 90
        3
 70
     1
 43
0.0
 10
236.5
 20
95.0
 10
234.3349364905389
 20
91.25
 10
238.6650635094611
 20
91.25
  0
LWPOLYLINE
  5
D307
330
1A
100
AcDbEntity
  8
SUNPOU
100
AcDbPolyline
 90
        3
 70
     1
 43
0.0
 10
400.4999999999999
 20
222.5
 10
398.3349364905389
 20
218.75
 10
402.665063509461
 20
218.75
  0
TEXT
  5
D308
330
1A
100
AcDbEntity
  8
SUNPOU
100
AcDbText
 10
399.5
 20
219.0
 30
0.0
 40
2.0
  1
2
100
AcDbText
  0
TEXT
  5
D317
330
1A
100
AcDbEntity
  8
WAKU
100
AcDbText
 10
234.0523809523809
 20
26.0
 30
0.0
 40
2.0
  1
14.08.07
 41
0.8
 72
     4
 11
239.5
 21
27.0
 31
0.0
100
AcDbText
  0
TEXT
  5
D318
330
1A
100
AcDbEntity
  8
WAKU
100
AcDbText
 10
247.8
 20
25.5
 30
0.0
 40
3.0
  1
大野
 72
     4
 11
251.0
 21
27.0
 31
0.0
100
AcDbText
  0
LINE
  5
D321
330
1A
100
AcDbEntity
  8
0
100
AcDbLine
 10
50.5
 20
194.5
 30
0.0
 11
50.5
 21
175.5
 31
0.0
  0
LINE
  5
D322
330
1A
100
AcDbEntity
  8
0
100
AcDbLine
 10
89.50000000000008
 20
194.5
 30
0.0
 11
89.50000000000008
 21
175.5
 31
0.0
  0
LINE
  5
D323
330
1A
100
AcDbEntity
  8
0
100
AcDbLine
 10
50.5
 20
175.5
 30
0.0
 11
89.50000000000008
 21
175.5
 31
0.0
  0
LINE
  5
D324
330
1A
100
AcDbEntity
  8
0
100
AcDbLine
 10
50.49999999999994
 20
194.5
 30
0.0
 11
89.50000000000008
 21
194.5
 31
0.0
  0
TEXT
  5
D325
330
1A
100
AcDbEntity
  8
SUNPOU
100
AcDbText
 10
399.5
 20
156.0
 30
0.0
 40
2.0
  1
3
100
AcDbText
  0
LWPOLYLINE
  5
D326
330
1A
100
AcDbEntity
  8
SUNPOU
100
AcDbPolyline
 90
        3
 70
     1
 43
0.0
 10
400.4999999999999
 20
159.5
 10
398.3349364905389
 20
155.75
 10
402.665063509461
 20
155.75
  0
LWPOLYLINE
  5
D327
330
1A
100
AcDbEntity
  8
SUNPOU
100
AcDbPolyline
 90
        3
 70
     1
 43
0.0
 10
29.0
 20
12.0
 10
26.8349364905389
 20
8.25
 10
31.16506350946111
 20
8.25
  0
TEXT
  5
D328
330
1A
100
AcDbEntity
  8
SUNPOU
100
AcDbText
 10
28.0
 20
8.5
 30
0.0
 40
2.0
  1
3
100
AcDbText
  0
TEXT
  5
D329
330
1A
100
AcDbEntity
  8
0
100
AcDbText
 10
36.0
 20
8.500000000000113
 30
0.0
 40
3.0
  1
LCD窓寸法および使用温度範囲変更
100
AcDbText
  0
VIEWPORT
  5
22
102
{ACAD_XDICTIONARY
360
D382
102
}
330
17
100
AcDbEntity
 67
     1
  8
0
100
AcDbViewport
 10
261.5176991150442
 20
154.7242978687078
 30
0.0
 40
523.0353982300885
 41
309.4485957374157
 68
     1
 69
     1
 12
261.5176991150442
 22
154.7242978687078
 13
0.0
 23
0.0
 14
1.0
 24
1.0
 15
10.0
 25
10.0
 16
0.0
 26
0.0
 36
1.0
 17
0.0
 27
0.0
 37
0.0
 42
50.0
 43
0.0
 44
0.0
 45
309.4485957374157
 50
0.0
 51
0.0
 72
   100
 90
    32768
  1

281
     0
 71
     1
 74
     0
110
0.0
120
0.0
130
0.0
111
1.0
121
0.0
131
0.0
112
0.0
122
1.0
132
0.0
 79
     0
146
0.0
  0
ENDSEC
  0
SECTION
  2
OBJECTS
  0
DICTIONARY
  5
C
330
0
100
AcDbDictionary
281
     1
  3
ACAD_COLOR
350
9CA2
  3
ACAD_GROUP
350
D
  3
ACAD_LAYOUT
350
6F60
  3
ACAD_MATERIAL
350
9CA1
  3
ACAD_MLINESTYLE
350
E
  3
ACAD_PLOTSETTINGS
350
6F61
  3
ACAD_PLOTSTYLENAME
350
6F5E
  3
AcadDim
350
9C6E
  3
ACDBHEADERROUNDTRIPXREC
350
D37F
  3
AcDbVariableDictionary
350
6F68
  3
CONTENTDICTIONARY
350
5E99
  0
DICTIONARY
  5
B43B
330
2
100
AcDbDictionary
280
     1
281
     1
  3
ACAD_LAYERSTATES
360
B43C
  0
DICTIONARY
  5
D382
330
22
100
AcDbDictionary
280
     1
281
     1
  3
ACAD_XREC_ROUNDTRIP
360
D383
  0
DICTIONARY
  5
9CA2
102
{ACAD_REACTORS
330
C
102
}
330
C
100
AcDbDictionary
281
     1
  0
DICTIONARY
  5
D
102
{ACAD_REACTORS
330
C
102
}
330
C
100
AcDbDictionary
281
     1
  3
*A1
350
794F
  3
*A10
350
9406
  3
*A11
350
93C1
  3
*A12
350
79B6
  3
*A13
350
94DC
  3
*A14
350
9423
  3
*A15
350
94E2
  3
*A16
350
94DE
  3
*A17
350
94E0
  3
*A18
350
833C
  3
*A19
350
94DF
  3
*A2
350
933A
  3
*A20
350
94E1
  3
*A21
350
8344
  3
*A22
350
9803
  3
*A23
350
9664
  3
*A24
350
8F2F
  3
*A25
350
94D2
  3
*A26
350
9677
  3
*A27
350
97FD
  3
*A28
350
94D5
  3
*A29
350
7B8D
  3
*A3
350
9322
  3
*A30
350
935F
  3
*A31
350
94D8
  3
*A32
350
9323
  3
*A33
350
932D
  3
*A34
350
8F2A
  3
*A35
350
7B8E
  3
*A36
350
9422
  3
*A37
350
AE68
  3
*A38
350
93C2
  3
*A39
350
D2B9
  3
*A4
350
9356
  3
*A40
350
7B8F
  3
*A41
350
93F0
  3
*A42
350
83F9
  3
*A43
350
9416
  3
*A44
350
942E
  3
*A45
350
94D1
  3
*A46
350
942F
  3
*A47
350
94D4
  3
*A48
350
833F
  3
*A49
350
83D2
  3
*A5
350
94D7
  3
*A50
350
79BD
  3
*A51
350
94DA
  3
*A52
350
94D3
  3
*A53
350
94D6
  3
*A6
350
933F
  3
*A7
350
94DD
  3
*A8
350
94D9
  3
*A9
350
94DB
  0
DICTIONARY
  5
6F60
102
{ACAD_REACTORS
330
C
102
}
330
C
100
AcDbDictionary
281
     1
  3
Model
350
6F62
  3
ﾚｲｱｳﾄ1
350
6F63
  0
DICTIONARY
  5
9CA1
102
{ACAD_REACTORS
330
C
102
}
330
C
100
AcDbDictionary
281
     1
  0
DICTIONARY
  5
E
102
{ACAD_REACTORS
330
C
102
}
330
C
100
AcDbDictionary
281
     1
  3
STANDARD
350
13
  0
DICTIONARY
  5
6F61
102
{ACAD_REACTORS
330
C
102
}
330
C
100
AcDbDictionary
281
     1
  0
ACDBDICTIONARYWDFLT
  5
6F5E
102
{ACAD_REACTORS
330
C
102
}
330
C
100
AcDbDictionary
281
     1
  3
Normal
350
6F5F
100
AcDbDictionaryWithDefault
340
6F5F
  0
XRECORD
  5
9C6E
102
{ACAD_REACTORS
330
C
102
}
330
C
100
AcDbXrecord
280
     1
 90
   990106
  3

 60
     0
 61
     0
 62
     1
 63
     3
 64
     0
 65
     0
 66
     0
 67
     3
 68
     1
 69
     0
 70
     0
 71
     0
 72
     0
 40
0.0
170
     0
  0
DICTIONARY
  5
D37F
102
{ACAD_REACTORS
330
C
102
}
330
C
100
AcDbDictionary
281
     1
  3
COLORDICT
350
D381
  3
MATERIALDICT
350
D380
  0
DICTIONARY
  5
6F68
102
{ACAD_REACTORS
330
C
102
}
330
C
100
AcDbDictionary
281
     1
  3
DIMASSOC
350
6F69
  3
PROJECTNAME
350
D37D
  0
DICTIONARY
  5
5E99
102
{ACAD_REACTORS
330
C
102
}
330
C
100
AcDbDictionary
281
     1
  0
DICTIONARY
  5
B43C
102
{ACAD_REACTORS
330
B43B
102
}
330
B43B
100
AcDbDictionary
281
     1
  0
XRECORD
  5
D383
102
{ACAD_REACTORS
330
D382
102
}
330
D382
100
AcDbXrecord
280
     1
102
SHADEPLOT
 70
     0
  0
GROUP
  5
794F
102
{ACAD_REACTORS
330
D
102
}
330
D
100
AcDbGroup
300

 70
     1
 71
     1
  0
GROUP
  5
9406
102
{ACAD_REACTORS
330
D
102
}
330
D
100
AcDbGroup
300

 70
     1
 71
     1
  0
GROUP
  5
93C1
102
{ACAD_REACTORS
330
D
102
}
330
D
100
AcDbGroup
300

 70
     1
 71
     1
  0
GROUP
  5
79B6
102
{ACAD_REACTORS
330
D
102
}
330
D
100
AcDbGroup
300

 70
     1
 71
     1
  0
GROUP
  5
94DC
102
{ACAD_REACTORS
330
D
102
}
330
D
100
AcDbGroup
300

 70
     1
 71
     1
  0
GROUP
  5
9423
102
{ACAD_REACTORS
330
D
102
}
330
D
100
AcDbGroup
300

 70
     1
 71
     1
  0
GROUP
  5
94E2
102
{ACAD_REACTORS
330
D
102
}
330
D
100
AcDbGroup
300

 70
     1
 71
     1
  0
GROUP
  5
94DE
102
{ACAD_REACTORS
330
D
102
}
330
D
100
AcDbGroup
300

 70
     1
 71
     1
  0
GROUP
  5
94E0
102
{ACAD_REACTORS
330
D
102
}
330
D
100
AcDbGroup
300

 70
     1
 71
     1
  0
GROUP
  5
833C
102
{ACAD_REACTORS
330
D
102
}
330
D
100
AcDbGroup
300

 70
     1
 71
     1
  0
GROUP
  5
94DF
102
{ACAD_REACTORS
330
D
102
}
330
D
100
AcDbGroup
300

 70
     1
 71
     1
  0
GROUP
  5
933A
102
{ACAD_REACTORS
330
D
102
}
330
D
100
AcDbGroup
300

 70
     1
 71
     1
  0
GROUP
  5
94E1
102
{ACAD_REACTORS
330
D
102
}
330
D
100
AcDbGroup
300

 70
     1
 71
     1
  0
GROUP
  5
8344
102
{ACAD_REACTORS
330
D
102
}
330
D
100
AcDbGroup
300

 70
     1
 71
     1
  0
GROUP
  5
9803
102
{ACAD_REACTORS
330
D
102
}
330
D
100
AcDbGroup
300

 70
     1
 71
     1
  0
GROUP
  5
9664
102
{ACAD_REACTORS
330
D
102
}
330
D
100
AcDbGroup
300

 70
     1
 71
     1
  0
GROUP
  5
8F2F
102
{ACAD_REACTORS
330
D
102
}
330
D
100
AcDbGroup
300

 70
     1
 71
     1
  0
GROUP
  5
94D2
102
{ACAD_REACTORS
330
D
102
}
330
D
100
AcDbGroup
300

 70
     1
 71
     1
  0
GROUP
  5
9677
102
{ACAD_REACTORS
330
D
102
}
330
D
100
AcDbGroup
300

 70
     1
 71
     1
  0
GROUP
  5
97FD
102
{ACAD_REACTORS
330
D
102
}
330
D
100
AcDbGroup
300

 70
     1
 71
     1
  0
GROUP
  5
94D5
102
{ACAD_REACTORS
330
D
102
}
330
D
100
AcDbGroup
300

 70
     1
 71
     1
  0
GROUP
  5
7B8D
102
{ACAD_REACTORS
330
D
102
}
330
D
100
AcDbGroup
300

 70
     1
 71
     1
  0
GROUP
  5
9322
102
{ACAD_REACTORS
330
D
102
}
330
D
100
AcDbGroup
300

 70
     1
 71
     1
  0
GROUP
  5
935F
102
{ACAD_REACTORS
330
D
102
}
330
D
100
AcDbGroup
300

 70
     1
 71
     1
  0
GROUP
  5
94D8
102
{ACAD_REACTORS
330
D
102
}
330
D
100
AcDbGroup
300

 70
     1
 71
     1
  0
GROUP
  5
9323
102
{ACAD_REACTORS
330
D
102
}
330
D
100
AcDbGroup
300

 70
     1
 71
     1
  0
GROUP
  5
932D
102
{ACAD_REACTORS
330
D
102
}
330
D
100
AcDbGroup
300

 70
     1
 71
     1
  0
GROUP
  5
8F2A
102
{ACAD_REACTORS
330
D
102
}
330
D
100
AcDbGroup
300

 70
     1
 71
     1
  0
GROUP
  5
7B8E
102
{ACAD_REACTORS
330
D
102
}
330
D
100
AcDbGroup
300

 70
     1
 71
     1
  0
GROUP
  5
9422
102
{ACAD_REACTORS
330
D
102
}
330
D
100
AcDbGroup
300

 70
     1
 71
     1
  0
GROUP
  5
AE68
102
{ACAD_REACTORS
330
D
102
}
330
D
100
AcDbGroup
300

 70
     1
 71
     1
  0
GROUP
  5
93C2
102
{ACAD_REACTORS
330
D
102
}
330
D
100
AcDbGroup
300

 70
     1
 71
     1
  0
GROUP
  5
D2B9
102
{ACAD_REACTORS
330
D
102
}
330
D
100
AcDbGroup
300

 70
     1
 71
     1
340
D268
340
D267
340
D266
340
D265
340
D264
340
D25F
340
D263
340
D262
340
D261
340
D260
  0
GROUP
  5
9356
102
{ACAD_REACTORS
330
D
102
}
330
D
100
AcDbGroup
300

 70
     1
 71
     1
  0
GROUP
  5
7B8F
102
{ACAD_REACTORS
330
D
102
}
330
D
100
AcDbGroup
300

 70
     1
 71
     1
  0
GROUP
  5
93F0
102
{ACAD_REACTORS
330
D
102
}
330
D
100
AcDbGroup
300

 70
     1
 71
     1
  0
GROUP
  5
83F9
102
{ACAD_REACTORS
330
D
102
}
330
D
100
AcDbGroup
300

 70
     1
 71
     1
  0
GROUP
  5
9416
102
{ACAD_REACTORS
330
D
102
}
330
D
100
AcDbGroup
300

 70
     1
 71
     1
  0
GROUP
  5
942E
102
{ACAD_REACTORS
330
D
102
}
330
D
100
AcDbGroup
300

 70
     1
 71
     1
  0
GROUP
  5
94D1
102
{ACAD_REACTORS
330
D
102
}
330
D
100
AcDbGroup
300

 70
     1
 71
     1
  0
GROUP
  5
942F
102
{ACAD_REACTORS
330
D
102
}
330
D
100
AcDbGroup
300

 70
     1
 71
     1
  0
GROUP
  5
94D4
102
{ACAD_REACTORS
330
D
102
}
330
D
100
AcDbGroup
300

 70
     1
 71
     1
  0
GROUP
  5
833F
102
{ACAD_REACTORS
330
D
102
}
330
D
100
AcDbGroup
300

 70
     1
 71
     1
  0
GROUP
  5
83D2
102
{ACAD_REACTORS
330
D
102
}
330
D
100
AcDbGroup
300

 70
     1
 71
     1
  0
GROUP
  5
94D7
102
{ACAD_REACTORS
330
D
102
}
330
D
100
AcDbGroup
300

 70
     1
 71
     1
  0
GROUP
  5
79BD
102
{ACAD_REACTORS
330
D
102
}
330
D
100
AcDbGroup
300

 70
     1
 71
     1
  0
GROUP
  5
94DA
102
{ACAD_REACTORS
330
D
102
}
330
D
100
AcDbGroup
300

 70
     1
 71
     1
  0
GROUP
  5
94D3
102
{ACAD_REACTORS
330
D
102
}
330
D
100
AcDbGroup
300

 70
     1
 71
     1
  0
GROUP
  5
94D6
102
{ACAD_REACTORS
330
D
102
}
330
D
100
AcDbGroup
300

 70
     1
 71
     1
  0
GROUP
  5
933F
102
{ACAD_REACTORS
330
D
102
}
330
D
100
AcDbGroup
300

 70
     1
 71
     1
  0
GROUP
  5
94DD
102
{ACAD_REACTORS
330
D
102
}
330
D
100
AcDbGroup
300

 70
     1
 71
     1
  0
GROUP
  5
94D9
102
{ACAD_REACTORS
330
D
102
}
330
D
100
AcDbGroup
300

 70
     1
 71
     1
  0
GROUP
  5
94DB
102
{ACAD_REACTORS
330
D
102
}
330
D
100
AcDbGroup
300

 70
     1
 71
     1
  0
LAYOUT
  5
6F62
102
{ACAD_XDICTIONARY
360
D384
102
}
102
{ACAD_REACTORS
330
6F60
102
}
330
6F60
100
AcDbPlotSettings
  1

  2
pdf A3横.pc3
  4
A3
  6

 40
3.174999952316284
 41
3.174999952316284
 42
3.17498779296875
 43
3.17498779296875
 44
420.1583251953125
 45
297.0530090332031
 46
0.0
 47
0.0
 48
0.0
 49
0.0
140
0.0
141
0.0
142
1.0
143
1.0
 70
 11952
 72
     1
 73
     0
 74
     2
  7
TMI_pen_style.ctb
 75
    16
147
1.0
148
0.0
149
0.0
100
AcDbLayout
  1
Model
 70
     1
 71
     0
 10
0.0
 20
0.0
 11
12.0
 21
9.0
 12
0.0
 22
0.0
 32
0.0
 14
0.0
 24
0.0
 34
0.0
 15
0.0
 25
0.0
 35
0.0
146
0.0
 13
0.0
 23
0.0
 33
0.0
 16
1.0
 26
0.0
 36
0.0
 17
0.0
 27
1.0
 37
0.0
 76
     0
330
1A
  0
LAYOUT
  5
6F63
102
{ACAD_XDICTIONARY
360
D386
102
}
102
{ACAD_REACTORS
330
6F60
102
}
330
6F60
100
AcDbPlotSettings
  1

  2
EPSON LP-8300 (TMINETWORK)
  4

  6

 40
0.0
 41
0.0
 42
0.0
 43
0.0
 44
0.0
 45
0.0
 46
0.0
 47
0.0
 48
0.0
 49
0.0
140
0.0
141
0.0
142
1.0
143
1.0
 70
   688
 72
     0
 73
     0
 74
     5
  7
TMI_pen_style.ctb
 75
    16
147
1.0
148
0.0
149
0.0
100
AcDbLayout
  1
ﾚｲｱｳﾄ1
 70
     1
 71
     1
 10
0.0
 20
0.0
 11
420.0
 21
297.0
 12
0.0
 22
0.0
 32
0.0
 14
1.000000000000000E+20
 24
1.000000000000000E+20
 34
1.000000000000000E+20
 15
-1.000000000000000E+20
 25
-1.000000000000000E+20
 35
-1.000000000000000E+20
146
0.0
 13
0.0
 23
0.0
 33
0.0
 16
1.0
 26
0.0
 36
0.0
 17
0.0
 27
1.0
 37
0.0
 76
     0
330
17
331
22
  0
MLINESTYLE
  5
13
102
{ACAD_REACTORS
330
E
102
}
330
E
100
AcDbMlineStyle
  2
STANDARD
 70
     0
  3

 62
     0
 51
90.0
 52
90.0
 71
     2
 49
0.5
 62
   256
  6
BYLAYER
 49
-0.5
 62
   256
  6
BYLAYER
  0
ACDBPLACEHOLDER
  5
6F5F
102
{ACAD_REACTORS
330
6F5E
102
}
330
6F5E
  0
XRECORD
  5
D381
102
{ACAD_REACTORS
330
D37F
102
}
330
D37F
100
AcDbXrecord
280
     1
340
9CA2
  0
XRECORD
  5
D380
102
{ACAD_REACTORS
330
D37F
102
}
330
D37F
100
AcDbXrecord
280
     1
340
9CA1
  0
DICTIONARYVAR
  5
6F69
102
{ACAD_REACTORS
330
6F68
102
}
330
6F68
100
DictionaryVariables
280
     0
  1
1
  0
DICTIONARYVAR
  5
D37D
102
{ACAD_REACTORS
330
6F68
102
}
330
6F68
100
DictionaryVariables
280
     0
  1

  0
DICTIONARY
  5
D384
330
6F62
100
AcDbDictionary
280
     1
281
     1
  3
ACAD_XREC_ROUNDTRIP
360
D385
  0
DICTIONARY
  5
D386
330
6F63
100
AcDbDictionary
280
     1
281
     1
  3
ACAD_XREC_ROUNDTRIP
360
D387
  0
XRECORD
  5
D385
102
{ACAD_REACTORS
330
D384
102
}
330
D384
100
AcDbXrecord
280
     1
102
SHADEPLOT
 70
     0
102
SHADEPLOTRESLEVEL
 70
     2
102
SHADEPLOTCUSTOMDPI
 70
   300
  0
XRECORD
  5
D387
102
{ACAD_REACTORS
330
D386
102
}
330
D386
100
AcDbXrecord
280
     1
102
SHADEPLOT
 70
     0
102
SHADEPLOTRESLEVEL
 70
     2
102
SHADEPLOTCUSTOMDPI
 70
   300
  0
ENDSEC
  0
EOF
