  0
SECTION
  2
HEADER
  9
$ACADVER
  1
AC1015
  9
$ACADMAINTVER
 70
    20
  9
$DWGCODEPAGE
  3
ANSI_932
  9
$INSBASE
 10
0.0
 20
0.0
 30
0.0
  9
$EXTMIN
 10
20.0
 20
5.0
 30
0.0
  9
$EXTMAX
 10
405.0
 20
280.0
 30
0.0
  9
$LIMMIN
 10
0.0
 20
0.0
  9
$LIMMAX
 10
420.0
 20
297.0
  9
$ORTHOMODE
 70
     0
  9
$REGENMODE
 70
     1
  9
$FILLMODE
 70
     1
  9
$QTEXTMODE
 70
     0
  9
$MIRRTEXT
 70
     1
  9
$LTSCALE
 40
15.0
  9
$ATTMODE
 70
     1
  9
$TEXTSIZE
 40
3.0
  9
$TRACEWID
 40
1.0
  9
$TEXTSTYLE
  7
STANDARD
  9
$CLAYER
  8
SUNPOU
  9
$CELTYPE
  6
BYLAYER
  9
$CECOLOR
 62
   256
  9
$CELTSCALE
 40
1.0
  9
$DISPSILH
 70
     0
  9
$DIMSCALE
 40
1.0
  9
$DIMASZ
 40
2.5
  9
$DIMEXO
 40
0.5
  9
$DIMDLI
 40
10.0
  9
$DIMRND
 40
0.0
  9
$DIMDLE
 40
0.0
  9
$DIMEXE
 40
0.5
  9
$DIMTP
 40
0.0
  9
$DIMTM
 40
0.0
  9
$DIMTXT
 40
2.5
  9
$DIMCEN
 40
0.0
  9
$DIMTSZ
 40
0.0
  9
$DIMTOL
 70
     0
  9
$DIMLIM
 70
     0
  9
$DIMTIH
 70
     0
  9
$DIMTOH
 70
     0
  9
$DIMSE1
 70
     0
  9
$DIMSE2
 70
     0
  9
$DIMTAD
 70
     1
  9
$DIMZIN
 70
     0
  9
$DIMBLK
  1

  9
$DIMASO
 70
     1
  9
$DIMSHO
 70
     1
  9
$DIMPOST
  1

  9
$DIMAPOST
  1

  9
$DIMALT
 70
     0
  9
$DIMALTD
 70
     2
  9
$DIMALTF
 40
25.4
  9
$DIMLFAC
 40
1.0
  9
$DIMTOFL
 70
     0
  9
$DIMTVP
 40
0.0
  9
$DIMTIX
 70
     0
  9
$DIMSOXD
 70
     0
  9
$DIMSAH
 70
     1
  9
$DIMBLK1
  1
OPEN
  9
$DIMBLK2
  1
OPEN
  9
$DIMSTYLE
  2
STANDARD
  9
$DIMCLRD
 70
     0
  9
$DIMCLRE
 70
     0
  9
$DIMCLRT
 70
     0
  9
$DIMTFAC
 40
1.0
  9
$DIMGAP
 40
0.5
  9
$DIMJUST
 70
     0
  9
$DIMSD1
 70
     0
  9
$DIMSD2
 70
     0
  9
$DIMTOLJ
 70
     1
  9
$DIMTZIN
 70
     0
  9
$DIMALTZ
 70
     0
  9
$DIMALTTZ
 70
     0
  9
$DIMUPT
 70
     0
  9
$DIMDEC
 70
     2
  9
$DIMTDEC
 70
     0
  9
$DIMALTU
 70
     2
  9
$DIMALTTD
 70
     2
  9
$DIMTXSTY
  7
STANDARD
  9
$DIMAUNIT
 70
     0
  9
$DIMADEC
 70
     0
  9
$DIMALTRND
 40
0.0
  9
$DIMAZIN
 70
     0
  9
$DIMDSEP
 70
    46
  9
$DIMATFIT
 70
     3
  9
$DIMFRAC
 70
     0
  9
$DIMLDRBLK
  1
OPEN
  9
$DIMLUNIT
 70
     2
  9
$DIMLWD
 70
    -2
  9
$DIMLWE
 70
    -2
  9
$DIMTMOVE
 70
     0
  9
$LUNITS
 70
     2
  9
$LUPREC
 70
     4
  9
$SKETCHINC
 40
1.0
  9
$FILLETRAD
 40
1.0
  9
$AUNITS
 70
     0
  9
$AUPREC
 70
     0
  9
$MENU
  1
.
  9
$ELEVATION
 40
0.0
  9
$PELEVATION
 40
0.0
  9
$THICKNESS
 40
0.0
  9
$LIMCHECK
 70
     0
  9
$CHAMFERA
 40
0.2
  9
$CHAMFERB
 40
0.2
  9
$CHAMFERC
 40
20.0
  9
$CHAMFERD
 40
0.0
  9
$SKPOLY
 70
     0
  9
$TDCREATE
 40
2450857.620429745
  9
$TDUCREATE
 40
2450857.245429745
  9
$TDUPDATE
 40
2456914.542476667
  9
$TDUUPDATE
 40
2456914.167476667
  9
$TDINDWG
 40
6.7889290162
  9
$TDUSRTIMER
 40
6.7889290162
  9
$USRTIMER
 70
     1
  9
$ANGBASE
 50
0.0
  9
$ANGDIR
 70
     0
  9
$PDMODE
 70
     0
  9
$PDSIZE
 40
0.0
  9
$PLINEWID
 40
0.0
  9
$SPLFRAME
 70
     0
  9
$SPLINETYPE
 70
     6
  9
$SPLINESEGS
 70
     8
  9
$HANDSEED
  5
B886
  9
$SURFTAB1
 70
     6
  9
$SURFTAB2
 70
     6
  9
$SURFTYPE
 70
     6
  9
$SURFU
 70
     6
  9
$SURFV
 70
     6
  9
$UCSBASE
  2

  9
$UCSNAME
  2

  9
$UCSORG
 10
0.0
 20
0.0
 30
0.0
  9
$UCSXDIR
 10
1.0
 20
0.0
 30
0.0
  9
$UCSYDIR
 10
0.0
 20
1.0
 30
0.0
  9
$UCSORTHOREF
  2

  9
$UCSORTHOVIEW
 70
     0
  9
$UCSORGTOP
 10
0.0
 20
0.0
 30
0.0
  9
$UCSORGBOTTOM
 10
0.0
 20
0.0
 30
0.0
  9
$UCSORGLEFT
 10
0.0
 20
0.0
 30
0.0
  9
$UCSORGRIGHT
 10
0.0
 20
0.0
 30
0.0
  9
$UCSORGFRONT
 10
0.0
 20
0.0
 30
0.0
  9
$UCSORGBACK
 10
0.0
 20
0.0
 30
0.0
  9
$PUCSBASE
  2

  9
$PUCSNAME
  2

  9
$PUCSORG
 10
0.0
 20
0.0
 30
0.0
  9
$PUCSXDIR
 10
1.0
 20
0.0
 30
0.0
  9
$PUCSYDIR
 10
0.0
 20
1.0
 30
0.0
  9
$PUCSORTHOREF
  2

  9
$PUCSORTHOVIEW
 70
     0
  9
$PUCSORGTOP
 10
0.0
 20
0.0
 30
0.0
  9
$PUCSORGBOTTOM
 10
0.0
 20
0.0
 30
0.0
  9
$PUCSORGLEFT
 10
0.0
 20
0.0
 30
0.0
  9
$PUCSORGRIGHT
 10
0.0
 20
0.0
 30
0.0
  9
$PUCSORGFRONT
 10
0.0
 20
0.0
 30
0.0
  9
$PUCSORGBACK
 10
0.0
 20
0.0
 30
0.0
  9
$USERI1
 70
     0
  9
$USERI2
 70
     0
  9
$USERI3
 70
     0
  9
$USERI4
 70
     0
  9
$USERI5
 70
     0
  9
$USERR1
 40
0.0
  9
$USERR2
 40
0.0
  9
$USERR3
 40
0.0
  9
$USERR4
 40
0.0
  9
$USERR5
 40
0.0
  9
$WORLDVIEW
 70
     1
  9
$SHADEDGE
 70
     3
  9
$SHADEDIF
 70
    70
  9
$TILEMODE
 70
     1
  9
$MAXACTVP
 70
    16
  9
$PINSBASE
 10
0.0
 20
0.0
 30
0.0
  9
$PLIMCHECK
 70
     0
  9
$PEXTMIN
 10
26.66999878883363
 20
20.31999878883363
 30
0.0
  9
$PEXTMAX
 10
240.0299890995026
 20
182.8799890995025
 30
0.0
  9
$PLIMMIN
 10
-6.350006103515625
 20
-6.349999904632568
  9
$PLIMMAX
 10
273.0499877929688
 20
209.5499939918518
  9
$UNITMODE
 70
     0
  9
$VISRETAIN
 70
     0
  9
$PLINEGEN
 70
     0
  9
$PSLTSCALE
 70
     1
  9
$TREEDEPTH
 70
  3020
  9
$CMLSTYLE
  2
STANDARD
  9
$CMLJUST
 70
     0
  9
$CMLSCALE
 40
1.0
  9
$PROXYGRAPHICS
 70
     1
  9
$MEASUREMENT
 70
     1
  9
$CELWEIGHT
370
    -1
  9
$ENDCAPS
280
     0
  9
$JOINSTYLE
280
     0
  9
$LWDISPLAY
290
     0
  9
$INSUNITS
 70
     0
  9
$HYPERLINKBASE
  1

  9
$STYLESHEET
  1
TMI_pen_style.ctb
  9
$XEDIT
290
     1
  9
$CEPSNTYPE
380
     0
  9
$PSTYLEMODE
290
     1
  9
$FINGERPRINTGUID
  2
{D240549C-E1BE-417A-8DE2-1C3C8C1D75C3}
  9
$VERSIONGUID
  2
{E1E809D3-AE5F-4023-82DB-808A1D4077A2}
  9
$EXTNAMES
290
     1
  9
$PSVPSCALE
 40
0.0
  9
$OLESTARTUP
290
     0
  0
ENDSEC
  0
SECTION
  2
CLASSES
  0
CLASS
  1
ACDBDICTIONARYWDFLT
  2
AcDbDictionaryWithDefault
  3
ObjectDBX Classes
 90
        0
280
     0
281
     0
  0
CLASS
  1
ACDBPLACEHOLDER
  2
AcDbPlaceHolder
  3
ObjectDBX Classes
 90
        0
280
     0
281
     0
  0
CLASS
  1
LAYOUT
  2
AcDbLayout
  3
ObjectDBX Classes
 90
        0
280
     0
281
     0
  0
CLASS
  1
DICTIONARYVAR
  2
AcDbDictionaryVar
  3
ObjectDBX Classes
 90
        0
280
     0
281
     0
  0
ENDSEC
  0
SECTION
  2
TABLES
  0
TABLE
  2
VPORT
  5
8
330
0
100
AcDbSymbolTable
 70
     2
  0
VPORT
  5
B87A
330
8
100
AcDbSymbolTableRecord
100
AcDbViewportTableRecord
  2
*Active
 70
     0
 10
0.0
 20
0.0
 11
1.0
 21
1.0
 12
238.8949708526319
 22
142.5066153695883
 13
0.0
 23
0.0
 14
0.5
 24
0.5
 15
5.0
 25
5.0
 16
0.0
 26
0.0
 36
1.0
 17
0.0
 27
0.0
 37
0.0
 40
277.1073214196921
 41
1.68796992481203
 42
50.0
 43
0.0
 44
0.0
 50
0.0
 51
0.0
 71
     0
 72
   100
 73
     1
 74
     0
 75
     1
 76
     1
 77
     0
 78
     0
281
     0
 65
     1
110
0.0
120
0.0
130
0.0
111
1.0
121
0.0
131
0.0
112
0.0
122
1.0
132
0.0
 79
     0
146
0.0
  0
ENDTAB
  0
TABLE
  2
LTYPE
  5
5
330
0
100
AcDbSymbolTable
 70
     3
  0
LTYPE
  5
14
330
5
100
AcDbSymbolTableRecord
100
AcDbLinetypeTableRecord
  2
BYBLOCK
 70
     0
  3

 72
    65
 73
     0
 40
0.0
  0
LTYPE
  5
15
330
5
100
AcDbSymbolTableRecord
100
AcDbLinetypeTableRecord
  2
BYLAYER
 70
     0
  3

 72
    65
 73
     0
 40
0.0
  0
LTYPE
  5
16
330
5
100
AcDbSymbolTableRecord
100
AcDbLinetypeTableRecord
  2
CONTINUOUS
 70
     0
  3
Solid line
 72
    65
 73
     0
 40
0.0
  0
LTYPE
  5
61
330
5
100
AcDbSymbolTableRecord
100
AcDbLinetypeTableRecord
  2
CENTER2
 70
     0
  3
___ _ ___ _ ___ _ ___ _ ___ _ ___ _ ___ _ ___ _
 72
    65
 73
     4
 40
1.125
 49
0.75
 74
     0
 49
-0.125
 74
     0
 49
0.125
 74
     0
 49
-0.125
 74
     0
  0
LTYPE
  5
62
330
5
100
AcDbSymbolTableRecord
100
AcDbLinetypeTableRecord
  2
DASHED2
 70
     0
  3
_ _ _ _ _ _ _ _ _ _ _ _ _ _ _ _ _ _ _ _ _ _ _ _
 72
    65
 73
     2
 40
0.375
 49
0.25
 74
     0
 49
-0.125
 74
     0
  0
ENDTAB
  0
TABLE
  2
LAYER
  5
2
330
0
100
AcDbSymbolTable
 70
     6
  0
LAYER
  5
F
330
2
100
AcDbSymbolTableRecord
100
AcDbLayerTableRecord
  2
0
 70
     0
 62
     7
  6
CONTINUOUS
370
    -3
390
6F5F
  0
LAYER
  5
63
330
2
100
AcDbSymbolTableRecord
100
AcDbLayerTableRecord
  2
WAKU
 70
     0
 62
     7
  6
CONTINUOUS
370
    -3
390
6F5F
  0
LAYER
  5
64
330
2
100
AcDbSymbolTableRecord
100
AcDbLayerTableRecord
  2
SUNPOU
 70
     0
 62
     5
  6
CONTINUOUS
370
    -3
390
6F5F
  0
LAYER
  5
65
330
2
100
AcDbSymbolTableRecord
100
AcDbLayerTableRecord
  2
CENTER
 70
     0
 62
    14
  6
CENTER2
370
    -3
390
6F5F
  0
LAYER
  5
66
330
2
100
AcDbSymbolTableRecord
100
AcDbLayerTableRecord
  2
KAGESEN
 70
     0
 62
     5
  6
DASHED2
370
    -3
390
6F5F
  0
LAYER
  5
7DC
330
2
100
AcDbSymbolTableRecord
100
AcDbLayerTableRecord
  2
DEFPOINTS
 70
     0
 62
     7
  6
CONTINUOUS
290
     0
370
    -3
390
6F5F
  0
ENDTAB
  0
TABLE
  2
STYLE
  5
3
330
0
100
AcDbSymbolTable
 70
     1
  0
STYLE
  5
10
330
3
100
AcDbSymbolTableRecord
100
AcDbTextStyleTableRecord
  2
STANDARD
 70
     0
 40
0.0
 41
1.0
 50
0.0
 71
     0
 42
3.0
  3
C:\Program Files\AutoCAD LT\romans.shx
  4
C:\Program Files\AutoCAD LT\extfont.shx
  0
ENDTAB
  0
TABLE
  2
VIEW
  5
6
330
0
100
AcDbSymbolTable
 70
     0
  0
ENDTAB
  0
TABLE
  2
UCS
  5
7
330
0
100
AcDbSymbolTable
 70
     0
  0
ENDTAB
  0
TABLE
  2
APPID
  5
9
330
0
100
AcDbSymbolTable
 70
     3
  0
APPID
  5
11
330
9
100
AcDbSymbolTableRecord
100
AcDbRegAppTableRecord
  2
ACAD
 70
     0
  0
APPID
  5
5E9A
330
9
100
AcDbSymbolTableRecord
100
AcDbRegAppTableRecord
  2
CONTENTTABDATA
 70
     0
  0
APPID
  5
5E9B
330
9
100
AcDbSymbolTableRecord
100
AcDbRegAppTableRecord
  2
CONTENTCURRENTTAB
 70
     0
  0
ENDTAB
  0
TABLE
  2
DIMSTYLE
  5
A
330
0
100
AcDbSymbolTable
 70
     8
100
AcDbDimStyleTable
 71
     1
340
1D
  0
DIMSTYLE
105
1D
102
{ACAD_REACTORS
330
A1D5
330
A1ED
330
A20F
330
A269
330
A276
330
A283
330
AC38
330
AF75
330
AF73
330
AF7B
330
AF7A
330
AF79
330
B07A
330
B123
330
B48F
330
B58E
330
B684
330
B683
330
B70E
330
B73C
330
B73D
330
B73B
102
}
330
A
100
AcDbSymbolTableRecord
100
AcDbDimStyleTableRecord
  2
STANDARD
 70
     0
340
10
  0
DIMSTYLE
105
24
330
A
100
AcDbSymbolTableRecord
100
AcDbDimStyleTableRecord
  2
ISO-25
 70
     0
 41
2.5
 42
0.625
 43
3.75
 44
1.25
 74
     0
 77
     1
 78
     8
140
2.5
141
2.5
143
0.0394
145
1.0
147
0.625
172
     1
340
10
  0
DIMSTYLE
105
25
330
A
100
AcDbSymbolTableRecord
100
AcDbDimStyleTableRecord
  2
ISO-35
 70
     0
 41
3.5
 42
0.875
 43
5.25
 44
1.75
 74
     0
 77
     1
 78
     8
140
3.5
141
3.5
143
0.0394
145
1.399999999999999
147
0.875
172
     1
340
10
  0
DIMSTYLE
105
26
330
A
100
AcDbSymbolTableRecord
100
AcDbDimStyleTableRecord
  2
ISO-5
 70
     0
 41
5.0
 42
1.25
 43
7.5
 44
2.5
 74
     0
 77
     1
 78
     8
140
5.0
141
5.0
143
0.0394
145
2.0
147
1.25
172
     1
340
10
  0
DIMSTYLE
105
27
330
A
100
AcDbSymbolTableRecord
100
AcDbDimStyleTableRecord
  2
ISO-7
 70
     0
 41
7.0
 42
1.75
 43
10.5
 44
3.5
 74
     0
 77
     1
 78
     8
140
7.0
141
7.0
143
0.0394
145
2.799999999999999
147
1.75
172
     1
340
10
  0
DIMSTYLE
105
28
330
A
100
AcDbSymbolTableRecord
100
AcDbDimStyleTableRecord
  2
ISO1
 70
     0
 41
10.0
 42
2.5
 43
15.0
 44
5.0
 74
     0
 77
     1
 78
     8
140
10.0
141
10.0
143
0.0394
145
4.0
147
2.5
172
     1
340
10
  0
DIMSTYLE
105
29
330
A
100
AcDbSymbolTableRecord
100
AcDbDimStyleTableRecord
  2
ISO1-4
 70
     0
 41
14.0
 42
3.5
 43
21.0
 44
7.0
 74
     0
 77
     1
 78
     8
140
14.0
141
14.0
143
0.0394
145
5.599999999999999
147
3.5
172
     1
340
10
  0
DIMSTYLE
105
2A
330
A
100
AcDbSymbolTableRecord
100
AcDbDimStyleTableRecord
  2
ISO2
 70
     0
 41
20.0
 42
5.0
 43
30.0
 44
10.0
 74
     0
 77
     1
 78
     8
140
20.0
141
20.0
143
0.0394
145
8.0
147
5.0
172
     1
340
10
  0
ENDTAB
  0
TABLE
  2
BLOCK_RECORD
  5
1
330
0
100
AcDbSymbolTable
 70
    42
  0
BLOCK_RECORD
  5
1A
330
1
100
AcDbSymbolTableRecord
100
AcDbBlockTableRecord
  2
*MODEL_SPACE
340
6F62
  0
BLOCK_RECORD
  5
17
330
1
100
AcDbSymbolTableRecord
100
AcDbBlockTableRecord
  2
*PAPER_SPACE
340
6F63
  0
BLOCK_RECORD
  5
BA
330
1
100
AcDbSymbolTableRecord
100
AcDbBlockTableRecord
  2
_OPEN
340
0
102
{BLKREFS
331
AEE5
331
AEE6
331
AEEE
331
AEEF
331
AF00
331
AF01
331
AF09
331
AF0A
331
AF13
331
AF14
331
AF1D
331
AF1E
331
B09C
331
B09D
331
B34D
331
B34E
331
B356
331
B357
331
B37D
331
B37E
331
B519
331
B51A
331
B523
331
B524
331
B5C0
331
B5C1
331
B66A
331
B66B
331
B67D
331
B67E
331
B6FE
331
B6FF
331
B708
331
B709
331
B734
331
B735
331
B7C1
331
B7C2
331
B7CB
331
B7CC
331
B7F0
331
B7F1
331
B7FA
331
B7FB
102
}
  0
BLOCK_RECORD
  5
9CAD
330
1
100
AcDbSymbolTableRecord
100
AcDbBlockTableRecord
  2
A$C503A35A0
340
0
102
{BLKREFS
331
9D50
331
A10E
331
AF9A
331
AF8E
102
}
  0
BLOCK_RECORD
  5
A196
330
1
100
AcDbSymbolTableRecord
100
AcDbBlockTableRecord
  2
RJ-5-2
340
0
310
2800000020000000200000000100080000000000000400000000000000000000000000000000000000000000000080000080000000808000800000008000800080800000C0C0C000C0DCC000F0CAA6000020400000206000002080000020A0000020C0000020E00000400000004020000040400000406000004080000040A0
310
000040C0000040E00000600000006020000060400000606000006080000060A0000060C0000060E00000800000008020000080400000806000008080000080A0000080C0000080E00000A0000000A0200000A0400000A0600000A0800000A0A00000A0C00000A0E00000C0000000C0200000C0400000C0600000C0800000C0
310
A00000C0C00000C0E00000E0000000E0200000E0400000E0600000E0800000E0A00000E0C00000E0E00040000000400020004000400040006000400080004000A0004000C0004000E00040200000402020004020400040206000402080004020A0004020C0004020E000404000004040200040404000404060004040800040
310
40A0004040C0004040E00040600000406020004060400040606000406080004060A0004060C0004060E00040800000408020004080400040806000408080004080A0004080C0004080E00040A0000040A0200040A0400040A0600040A0800040A0A00040A0C00040A0E00040C0000040C0200040C0400040C0600040C08000
310
40C0A00040C0C00040C0E00040E0000040E0200040E0400040E0600040E0800040E0A00040E0C00040E0E00080000000800020008000400080006000800080008000A0008000C0008000E00080200000802020008020400080206000802080008020A0008020C0008020E00080400000804020008040400080406000804080
310
008040A0008040C0008040E00080600000806020008060400080606000806080008060A0008060C0008060E00080800000808020008080400080806000808080008080A0008080C0008080E00080A0000080A0200080A0400080A0600080A0800080A0A00080A0C00080A0E00080C0000080C0200080C0400080C0600080C0
310
800080C0A00080C0C00080C0E00080E0000080E0200080E0400080E0600080E0800080E0A00080E0C00080E0E000C0000000C0002000C0004000C0006000C0008000C000A000C000C000C000E000C0200000C0202000C0204000C0206000C0208000C020A000C020C000C020E000C0400000C0402000C0404000C0406000C0
310
408000C040A000C040C000C040E000C0600000C0602000C0604000C0606000C0608000C060A000C060C000C060E000C0800000C0802000C0804000C0806000C0808000C080A000C080C000C080E000C0A00000C0A02000C0A04000C0A06000C0A08000C0A0A000C0A0C000C0A0E000C0C00000C0C02000C0C04000C0C06000
310
C0C08000C0C0A000F0FBFF00A4A0A000808080000000FF0000FF000000FFFF00FF000000FF00FF00FFFF0000FFFFFF00FFFFFFFFFFFFFFFFFFFFFFFFFFFFFFFFFFFFFFFFFFFFFFFFFFFFFFFFFFFFFFFFFFFFFFFFFFFFFFFFFFFFFFFFFFFFFFFFFFFFFFFFFFFFFFFFFFFFFFFFFFFFFFFFFFFFFFFFFFFFFFFFFFFFFFFFFFFFFF
310
FFFFFFFFFFFFFFFFFFFFFFFFFFFFFFFFFFFFFFFFFFFFFFFFFFFFFFFFFFFFFFFFFFFFFFFFFFFFFFFFFFFFFFFFFFFFFFFFFFFFFFFFFFFFFFFFFFFFFFFFFFFFFFFFFFFFFFFFFFFFFFFFFFFFFFFFFFFFFFFFFFFFFFFFFFFFFCFCFCFCFCFCFCFCFCFCFCFCFCFCFCFCFCFCFCFCFCFCFCFCFFFFFFFFFCFCFCFCFCFFFFFFFFFFFFFFFF
310
FFFFFFFFFFFFFFFFFFFFFFFFFFFFFCFFFFFFFFFCFFFFFFFCFFFFFFFFFFFFFFFFFFFFFFFFFFFFFFFFFFFFFFFFFFFFFCFFFFFFFFFCFFFFFFFCFFFFFFFFFFFFFFFFFFFFFFFFFFFFFFFFFFFFFFFFFCFCFCFCFCFFFFFCFFFFFFFCFFFFFFFFFFFFFFFFFFFFFFFFFFFFFFFFFFFFFFFFFFFFFCFFFFFFFFFCFFFFFFFCFFFFFFFFFFFFFF
310
FFFFFFFFFFFFFFFFFFFFFFFFFFFFFFFCFFFFFFFFFCFCFCFCFCFFFFFFFFFFFFFFFFFFFFFFFFFFFFFFFFFFFFFFFFFFFFFCFFFFFFFFFFFFFFFFFCFFFFFFFFFFFFFFFFFFFFFFFFFFFFFFFFFFFFFFFFFFFFFCFFFFFFFFFFFFFFFFFCFFFFFFFFFFFFFFFFFFFFFFFFFFFFFFFFFFFFFFFFFFFFFCFFFFFFFFFFFFFFFFFCFFFFFFFFFFFF
310
FFFFFFFFFFFFFFFFFFFFFFFFFFFFFFFFFCFFFFFFFFFFFFFFFFFCFFFFFFFFFFFFFFFFFFFFFFFFFFFFFFFFFFFFFFFFFFFFFCFFFFFFFFFFFFFFFFFCFFFFFFFFFFFFFFFFFFFFFFFFFFFFFFFFFFFFFFFFFFFFFCFFFFFFFFFFFFFFFFFCFFFFFFFFFFFFFFFFFFFFFFFFFFFFFFFFFFFFFFFFFFFFFCFFFFFFFFFFFFFFFFFCFFFFFFFFFF
310
FFFFFFFFFFFFFFFFFFFFFFFFFFFFFFFFFFFCFFFFFFFFFFFFFFFFFCFFFFFFFFFFFFFFFFFFFFFFFFFFFFFFFFFFFFFFFFFFFFFCFFFFFFFFFFFFFFFFFCFFFFFFFFFFFFFFFFFFFFFFFFFFFFFFFFFFFFFFFFFFFFFCFFFFFFFFFFFFFFFFFCFFFFFFFFFFFFFFFFFFFFFFFFFFFFFFFFFFFFFFFFFFFFFCFFFFFFFFFFFFFFFFFCFFFFFFFF
310
FFFFFFFFFFFFFFFFFFFFFFFFFFFFFFFFFFFFFCFFFFFFFFFFFFFFFFFCFFFFFFFFFFFFFFFFFFFFFFFFFFFFFFFFFFFFFFFFFFFFFCFFFFFFFFFFFFFFFFFCFFFFFFFFFFFFFFFFFFFFFFFFFFFFFFFFFFFFFFFFFFFFFCFFFFFFFFFFFFFFFFFCFFFFFFFFFFFFFFFFFFFFFFFFFFFFFFFFFFFFFFFFFFFFFCFFFFFFFFFFFFFFFFFCFCFCFC
310
FCFCFCFCFCFCFCFCFCFCFCFCFCFCFCFCFCFCFCFCFFFFFFFFFFFFFFFFFFFFFFFFFFFFFFFFFFFFFFFFFFFFFFFFFFFFFFFFFFFFFFFFFFFFFFFFFFFFFFFFFFFFFFFFFFFFFFFFFFFFFFFFFFFFFFFFFFFFFFFFFFFFFFFFFFFFFFFFFFFFFFFFFFFFFFFFFFFFFFFFFFFFFFFFFFFFFFFFFFFFFFFFFFFFFFFFFFFFFFFFFFFFFFFFFFFFFF
310
FFFFFFFFFFFFFFFFFFFFFFFFFFFFFFFFFFFFFFFFFFFFFFFFFFFFFFFFFFFFFFFFFFFFFFFFFFFFFFFFFFFFFFFFFFFFFFFFFFFFFFFFFFFFFFFF
102
{BLKREFS
331
A1A1
331
A1AC
331
AF87
102
}
  0
BLOCK_RECORD
  5
A1D6
330
1
100
AcDbSymbolTableRecord
100
AcDbBlockTableRecord
  2
*D3
340
0
  0
BLOCK_RECORD
  5
A1EE
330
1
100
AcDbSymbolTableRecord
100
AcDbBlockTableRecord
  2
*D4
340
0
  0
BLOCK_RECORD
  5
A210
330
1
100
AcDbSymbolTableRecord
100
AcDbBlockTableRecord
  2
*D5
340
0
  0
BLOCK_RECORD
  5
A26A
330
1
100
AcDbSymbolTableRecord
100
AcDbBlockTableRecord
  2
*D6
340
0
  0
BLOCK_RECORD
  5
A277
330
1
100
AcDbSymbolTableRecord
100
AcDbBlockTableRecord
  2
*D7
340
0
  0
BLOCK_RECORD
  5
A284
330
1
100
AcDbSymbolTableRecord
100
AcDbBlockTableRecord
  2
*D8
340
0
  0
BLOCK_RECORD
  5
A745
330
1
100
AcDbSymbolTableRecord
100
AcDbBlockTableRecord
  2
PH-5P-1
340
0
310
2800000020000000200000000100080000000000000400000000000000000000000000000000000000000000000080000080000000808000800000008000800080800000C0C0C000C0DCC000F0CAA6000020400000206000002080000020A0000020C0000020E00000400000004020000040400000406000004080000040A0
310
000040C0000040E00000600000006020000060400000606000006080000060A0000060C0000060E00000800000008020000080400000806000008080000080A0000080C0000080E00000A0000000A0200000A0400000A0600000A0800000A0A00000A0C00000A0E00000C0000000C0200000C0400000C0600000C0800000C0
310
A00000C0C00000C0E00000E0000000E0200000E0400000E0600000E0800000E0A00000E0C00000E0E00040000000400020004000400040006000400080004000A0004000C0004000E00040200000402020004020400040206000402080004020A0004020C0004020E000404000004040200040404000404060004040800040
310
40A0004040C0004040E00040600000406020004060400040606000406080004060A0004060C0004060E00040800000408020004080400040806000408080004080A0004080C0004080E00040A0000040A0200040A0400040A0600040A0800040A0A00040A0C00040A0E00040C0000040C0200040C0400040C0600040C08000
310
40C0A00040C0C00040C0E00040E0000040E0200040E0400040E0600040E0800040E0A00040E0C00040E0E00080000000800020008000400080006000800080008000A0008000C0008000E00080200000802020008020400080206000802080008020A0008020C0008020E00080400000804020008040400080406000804080
310
008040A0008040C0008040E00080600000806020008060400080606000806080008060A0008060C0008060E00080800000808020008080400080806000808080008080A0008080C0008080E00080A0000080A0200080A0400080A0600080A0800080A0A00080A0C00080A0E00080C0000080C0200080C0400080C0600080C0
310
800080C0A00080C0C00080C0E00080E0000080E0200080E0400080E0600080E0800080E0A00080E0C00080E0E000C0000000C0002000C0004000C0006000C0008000C000A000C000C000C000E000C0200000C0202000C0204000C0206000C0208000C020A000C020C000C020E000C0400000C0402000C0404000C0406000C0
310
408000C040A000C040C000C040E000C0600000C0602000C0604000C0606000C0608000C060A000C060C000C060E000C0800000C0802000C0804000C0806000C0808000C080A000C080C000C080E000C0A00000C0A02000C0A04000C0A06000C0A08000C0A0A000C0A0C000C0A0E000C0C00000C0C02000C0C04000C0C06000
310
C0C08000C0C0A000F0FBFF00A4A0A000808080000000FF0000FF000000FFFF00FF000000FF00FF00FFFF0000FFFFFF00FFFFFFFFFFFFFFFFFFFFFFFFFFFFFFFFFFFFFFFFFFFFFFFFFFFFFFFFFFFFFFFFFFFFFFFFFFFFFFFFFFFFFFFFFFFFFFFFFFFFFFFFFFFFFFFFFFFFFFFFFFFFFFFFFFFFFFFFFFFFFFFFFFFFFFFFFFFFFF
310
FFFFFFFFFFFFFFFFFFFFFFFFFFFFFFFFFFFFFFFFFFFFFFFFFFFFFFFFFFFFFFFFFFFFFFFFFFFFFFFFFFFFFFFFFFFFFFFFFFFFFFFFFFFFFFFCFFFFFFFCFCFFFFFFFCFCFFFFFFFCFCFFFFFFFCFFFFFFFFFFFFFFFFFFFFFFFCFCFCFFFFFCFCFFFFFFFCFCFFFFFFFCFCFFFFFCFCFCFFFFFFFFFFFFFFFFFFFFFCFFFCFFFFFCFCFFFF
310
FFFCFCFFFFFFFCFCFFFFFCFFFCFFFFFFFFFFFFFFFFFFFFFCFFFCFFFFFCFCFFFFFFFCFCFFFFFFFCFCFFFFFCFFFCFFFFFFFFFFFFFFFFFFFFFCFFFCFFFFFCFCFFFFFFFCFCFFFFFFFCFCFFFFFCFFFCFFFFFFFFFFFFFFFFFFFFFCFFFCFFFFFCFCFFFFFFFCFCFFFFFFFCFCFFFFFCFFFCFFFFFFFFFFFFFFFFFFFFFCFFFCFFFFFCFCFF
310
FFFFFCFCFFFFFFFCFCFFFFFCFFFCFFFFFFFFFFFFFFFFFFFFFCFFFCFFFFFCFCFFFFFFFCFCFFFFFFFCFCFFFFFCFFFCFFFFFFFFFFFF000000000000000000000000000000000000000000000000000000000000FFFF00FFFFFFFFFFFFFFFFFFFFFFFFFFFCFFFFFFFFFFFFFFFFFFFFFFFFFFFF00FFFF00FFFFFFFFFFFFFFFFFFFF
310
FFFFFFFCFFFFFFFFFFFFFFFFFFFFFFFFFFFF00FFFF00FFFFFFFFFFFFFFFFFFFFFFFFFFFFFFFFFFFFFFFFFFFF000000FFFFFF00FFFF00FFFFFFFFFFFFFFFFFFFFFFFFFFFFFFFFFFFFFFFFFFFFFFFFFFFFFFFF00FFFF00FFFFFFFF0000000000000000000000000000000000000000FFFFFFFF00FFFF00FFFFFFFF00FCFFFFFC
310
FCFFFFFFFCFCFFFFFFFCFCFFFFFC00FFFFFFFF00FFFF00FFFFFFFF00FCFFFFFCFCFFFFFFFCFCFFFFFFFCFCFFFFFC00FFFFFFFF00FFFF00FFFFFFFF00FCFFFFFCFCFFFFFFFCFCFFFFFFFCFCFFFFFC00FFFFFFFF00FFFF00FFFFFFFF00FCFFFFFCFCFFFFFFFCFCFFFFFFFCFCFFFFFC00FFFFFFFF00FFFF00FFFFFFFF00FCFFFF
310
FCFCFFFFFFFCFCFFFFFFFCFCFFFFFC00FFFFFFFF00FFFF00FFFFFFFF00FCFFFFFCFCFFFFFFFCFCFFFFFFFCFCFFFFFC00FFFFFFFF00FFFF00FFFFFFFF00FCFFFFFCFCFFFFFFFCFCFFFFFFFCFCFFFFFC00FFFFFFFF00FFFF00FFFFFFFF00FFFFFFFFFFFFFFFFFFFFFFFFFFFFFFFFFFFF00FFFFFFFF00FFFF00FFFFFFFF00FFFF
310
FFFFFFFFFFFFFFFFFFFFFFFFFFFFFFFF00FFFFFFFF00FFFF000000000000000000000000000000000000000000000000000000000000FFFFFFFFFFFFFFFFFFFFFFFFFFFFFFFFFFFFFFFFFFFFFFFFFFFFFFFFFFFFFFFFFFFFFFFFFFFFFFFFFFFFFFFFFFFFFFFFFFFFFFFFFFFFFFFFFFFFFFFFFFFFFFFFFFFFFFFFFFFFFFFFFF
310
FFFFFFFFFFFFFFFFFFFFFFFFFFFFFFFFFFFFFFFFFFFFFFFFFFFFFFFFFFFFFFFFFFFFFFFFFFFFFFFFFFFFFFFFFFFFFFFFFFFFFFFFFFFFFFFF
102
{BLKREFS
331
A789
102
}
  0
BLOCK_RECORD
  5
A78A
330
1
100
AcDbSymbolTableRecord
100
AcDbBlockTableRecord
  2
PH-5P-2
340
0
310
2800000020000000200000000100080000000000000400000000000000000000000000000000000000000000000080000080000000808000800000008000800080800000C0C0C000C0DCC000F0CAA6000020400000206000002080000020A0000020C0000020E00000400000004020000040400000406000004080000040A0
310
000040C0000040E00000600000006020000060400000606000006080000060A0000060C0000060E00000800000008020000080400000806000008080000080A0000080C0000080E00000A0000000A0200000A0400000A0600000A0800000A0A00000A0C00000A0E00000C0000000C0200000C0400000C0600000C0800000C0
310
A00000C0C00000C0E00000E0000000E0200000E0400000E0600000E0800000E0A00000E0C00000E0E00040000000400020004000400040006000400080004000A0004000C0004000E00040200000402020004020400040206000402080004020A0004020C0004020E000404000004040200040404000404060004040800040
310
40A0004040C0004040E00040600000406020004060400040606000406080004060A0004060C0004060E00040800000408020004080400040806000408080004080A0004080C0004080E00040A0000040A0200040A0400040A0600040A0800040A0A00040A0C00040A0E00040C0000040C0200040C0400040C0600040C08000
310
40C0A00040C0C00040C0E00040E0000040E0200040E0400040E0600040E0800040E0A00040E0C00040E0E00080000000800020008000400080006000800080008000A0008000C0008000E00080200000802020008020400080206000802080008020A0008020C0008020E00080400000804020008040400080406000804080
310
008040A0008040C0008040E00080600000806020008060400080606000806080008060A0008060C0008060E00080800000808020008080400080806000808080008080A0008080C0008080E00080A0000080A0200080A0400080A0600080A0800080A0A00080A0C00080A0E00080C0000080C0200080C0400080C0600080C0
310
800080C0A00080C0C00080C0E00080E0000080E0200080E0400080E0600080E0800080E0A00080E0C00080E0E000C0000000C0002000C0004000C0006000C0008000C000A000C000C000C000E000C0200000C0202000C0204000C0206000C0208000C020A000C020C000C020E000C0400000C0402000C0404000C0406000C0
310
408000C040A000C040C000C040E000C0600000C0602000C0604000C0606000C0608000C060A000C060C000C060E000C0800000C0802000C0804000C0806000C0808000C080A000C080C000C080E000C0A00000C0A02000C0A04000C0A06000C0A08000C0A0A000C0A0C000C0A0E000C0C00000C0C02000C0C04000C0C06000
310
C0C08000C0C0A000F0FBFF00A4A0A000808080000000FF0000FF000000FFFF00FF000000FF00FF00FFFF0000FFFFFF00FFFFFFFFFFFFFFFFFFFFFFFFFFFFFFFFFFFFFFFFFFFFFFFFFFFFFFFFFFFFFFFFFFFFFFFFFFFFFFFFFFFFFFFFFFFCFCFFFFFFFFFFFFFFFFFFFFFFFFFFFFFFFFFFFFFFFFFFFFFFFFFFFFFFFFFFFFFCFC
310
FCFFFFFFFFFFFFFFFFFFFFFFFFFFFFFFFFFFFFFFFFFFFFFFFFFFFFFFFFFFFCFFFCFFFFFFFFFFFFFFFFFFFFFFFFFFFFFFFFFFFFFFFFFFFFFFFFFFFFFFFFFFFCFFFCFFFFFFFFFFFFFFFFFFFFFFFFFFFFFFFFFFFFFFFFFFFFFFFFFFFFFFFFFFFCFFFCFFFFFFFFFFFFFFFFFFFFFFFFFFFFFFFFFFFFFFFFFFFFFFFFFFFFFFFFFFFC
310
FFFCFFFFFFFFFFFFFFFFFFFFFFFFFFFFFFFFFFFFFFFFFFFFFFFFFFFFFFFFFFFCFFFCFFFFFFFFFFFFFFFFFFFFFFFFFFFFFFFFFFFFFFFFFFFFFFFFFFFFFFFFFFFCFFFCFFFFFFFFFFFFFFFFFFFFFFFFFFFFFFFFFFFFFFFFFFFFFFFFFFFFFFFFFFFCFFFCFFFFFFFFFFFFFFFFFFFFFFFFFFFFFFFFFFFFFFFFFFFFFFFFFFFFFFFFFF
310
FCFCFCFFFFFFFFFFFFFFFFFFFFFFFFFFFFFFFFFFFFFFFFFFFFFFFFFFFFFFFFFFFCFCFCFFFFFFFFFFFFFFFFFFFFFFFFFFFFFFFFFFFFFFFFFFFFFFFFFF0000000000000000000000000000FFFFFFFFFFFFFFFFFFFFFFFFFFFFFFFFFFFF00FFFFFFFFFCFFFFFFFFFFFFFF00FFFFFFFFFFFFFFFFFFFFFFFFFFFFFFFFFFFF00FFFF
310
FFFFFFFFFFFFFFFFFFFF00FFFFFFFFFFFFFFFFFFFFFFFFFFFFFFFFFFFF00FFFFFFFFFFFFFFFFFFFFFFFF00FFFFFFFFFFFFFFFFFFFFFFFFFFFFFFFFFFFF00FFFFFFFFFFFFFFFFFFFFFFFF00FFFFFFFFFFFFFFFFFFFFFFFFFFFFFFFFFFFF00FFFFFFFFFFFFFFFFFFFFFFFF00FFFFFFFFFFFFFFFFFFFFFFFFFFFFFFFFFFFF00FF
310
FFFFFFFFFFFFFFFFFFFFFF00FFFFFFFFFFFFFFFFFFFFFFFFFFFFFFFFFFFF00FFFFFFFFFFFFFFFFFFFFFFFF00FFFFFFFFFFFFFFFFFFFFFFFFFFFFFFFFFFFF00FFFFFFFFFFFFFFFFFFFFFFFF00FFFFFFFFFFFFFFFFFFFFFFFFFFFFFFFFFFFF00FFFFFFFFFFFFFFFFFFFFFFFF00FFFFFFFFFFFFFFFFFFFFFFFFFFFFFFFFFFFF00
310
FFFFFFFFFFFFFFFFFFFFFFFF00FFFFFFFFFFFFFFFFFFFFFFFFFFFFFFFFFFFF00FFFFFFFFFFFFFFFFFFFFFFFF00FFFFFFFFFFFFFFFFFFFFFFFFFFFFFFFFFFFF00FFFFFFFFFFFCFFFFFFFFFFFF00FFFFFFFFFFFFFFFFFFFFFFFFFFFFFFFFFFFF00FFFFFF00000000FFFFFFFFFF00FFFFFFFFFFFFFFFFFFFFFFFFFFFFFFFFFFFF
310
00FFFFFF00FCFC00FFFFFFFFFF00FFFFFFFFFFFFFFFFFFFFFFFFFFFFFFFFFFFF00FFFFFF00FCFF00FFFFFFFFFF00FFFFFFFFFFFFFFFFFFFFFFFFFFFFFFFFFFFF00FFFFFF00FFFF00FFFFFFFFFF00FFFFFFFFFFFFFFFFFFFFFFFFFFFFFFFFFFFF00FFFFFF00FFFF00FFFFFFFFFF00FFFFFFFFFFFFFFFFFFFFFFFFFFFFFFFFFF
310
FF0000000000FFFF00000000000000FFFFFFFFFFFFFFFFFFFFFFFFFFFFFFFFFFFFFFFFFFFFFFFFFFFFFFFFFFFFFFFFFFFFFFFFFFFFFFFFFF
102
{BLKREFS
331
A7A1
102
}
  0
BLOCK_RECORD
  5
A7A2
330
1
100
AcDbSymbolTableRecord
100
AcDbBlockTableRecord
  2
PH-5P-3
340
0
310
2800000020000000200000000100080000000000000400000000000000000000000000000000000000000000000080000080000000808000800000008000800080800000C0C0C000C0DCC000F0CAA6000020400000206000002080000020A0000020C0000020E00000400000004020000040400000406000004080000040A0
310
000040C0000040E00000600000006020000060400000606000006080000060A0000060C0000060E00000800000008020000080400000806000008080000080A0000080C0000080E00000A0000000A0200000A0400000A0600000A0800000A0A00000A0C00000A0E00000C0000000C0200000C0400000C0600000C0800000C0
310
A00000C0C00000C0E00000E0000000E0200000E0400000E0600000E0800000E0A00000E0C00000E0E00040000000400020004000400040006000400080004000A0004000C0004000E00040200000402020004020400040206000402080004020A0004020C0004020E000404000004040200040404000404060004040800040
310
40A0004040C0004040E00040600000406020004060400040606000406080004060A0004060C0004060E00040800000408020004080400040806000408080004080A0004080C0004080E00040A0000040A0200040A0400040A0600040A0800040A0A00040A0C00040A0E00040C0000040C0200040C0400040C0600040C08000
310
40C0A00040C0C00040C0E00040E0000040E0200040E0400040E0600040E0800040E0A00040E0C00040E0E00080000000800020008000400080006000800080008000A0008000C0008000E00080200000802020008020400080206000802080008020A0008020C0008020E00080400000804020008040400080406000804080
310
008040A0008040C0008040E00080600000806020008060400080606000806080008060A0008060C0008060E00080800000808020008080400080806000808080008080A0008080C0008080E00080A0000080A0200080A0400080A0600080A0800080A0A00080A0C00080A0E00080C0000080C0200080C0400080C0600080C0
310
800080C0A00080C0C00080C0E00080E0000080E0200080E0400080E0600080E0800080E0A00080E0C00080E0E000C0000000C0002000C0004000C0006000C0008000C000A000C000C000C000E000C0200000C0202000C0204000C0206000C0208000C020A000C020C000C020E000C0400000C0402000C0404000C0406000C0
310
408000C040A000C040C000C040E000C0600000C0602000C0604000C0606000C0608000C060A000C060C000C060E000C0800000C0802000C0804000C0806000C0808000C080A000C080C000C080E000C0A00000C0A02000C0A04000C0A06000C0A08000C0A0A000C0A0C000C0A0E000C0C00000C0C02000C0C04000C0C06000
310
C0C08000C0C0A000F0FBFF00A4A0A000808080000000FF0000FF000000FFFF00FF000000FF00FF00FFFF0000FFFFFF00FFFFFFFFFFFFFFFFFFFFFFFFFFFFFFFFFFFFFFFFFFFFFFFFFFFFFFFFFFFFFFFFFFFFFFFFFFFFFFFFFFFFFFFFFFFFFFFFFFFFFFFFFFFFFFFFFFFFFFFFFFFFFFFFFFFFFFFFFFFFFFFFFFFFFFFFFFFFFF
310
FFFFFFFFFFFFFFFFFFFFFFFFFFFFFFFFFFFFFFFFFFFFFFFFFFFFFFFFFFFFFFFFFFFFFFFFFFFFFFFFFFFFFFFFFFFFFFFFFFFFFFFFFFFFFFFFFFFFFFFFFFFFFFFFFFFFFFFFFFFFFFFFFFFFFFFFFFFFFFFFFFFFFFFFFFFFFFFFFFFFFFFFFFFFFFFFFFFFFFFFFFFFFFFFFFFFFFFFFFFFFFFFFFFFFFFFFFFFFFFFFFFFFFFFFFFFFF
310
FFFFFFFFFFFFFFFFFFFFFFFFFFFFFFFFFFFFFFFFFFFFFFFFFFFFFFFFFFFFFFFFFFFFFFFFFFFFFFFFFFFFFFFFFFFFFFFFFFFFFFFFFFFFFFFFFFFFFFFFFFFFFFFFFFFFFFFFFFFFFFFFFFFFFFFFFFFFFFFFFFFFFFFFFFFFFFFFFFFFFFFFFFFFFFFFFFFFFFFFFFFFFFFFFFFFFFFFFFFFFFFFFFFFFF000000000000000000000000
310
000000000000000000000000000000000000FFFF00FFFCFCFCFCFCFCFCFCFCFCFCFCFCFCFCFCFCFCFCFCFCFCFCFCFCFCFF00FFFF00FFFCFFFFFFFFFFFFFFFFFFFFFFFFFFFFFFFFFFFFFFFFFFFFFFFFFCFF00FFFF00FFFCFFFFFFFFFFFFFFFFFFFFFFFFFFFFFFFFFFFFFFFFFFFFFFFFFCFF00FFFF00FFFCFFFCFCFCFFFFFCFC
310
FFFFFFFCFCFFFFFFFCFCFFFFFCFCFCFFFCFF00FFFF00FFFCFFFCFCFCFFFFFCFCFFFFFFFCFCFFFFFFFCFCFFFFFCFCFCFFFCFF00FFFF00FFFCFFFFFFFFFFFFFFFFFFFFFFFFFFFFFFFFFFFFFFFFFFFFFFFFFCFF00FFFF00FFFCFFFFFFFFFFFFFFFFFFFFFFFFFFFFFFFFFFFFFFFFFFFFFFFFFCFF00FFFF00FFFCFFFFFFFFFFFFFF
310
FFFFFFFFFFFFFFFFFFFFFFFFFFFFFFFFFFFCFF00FFFF00FFFCFFFFFFFFFFFFFFFFFFFFFFFFFFFFFFFFFFFFFFFFFFFFFFFFFCFF00FFFF00FFFCFCFCFCFCFCFCFCFCFCFCFCFCFCFCFCFCFCFCFCFCFCFCFCFCFCFF00FFFF000000000000000000000000000000000000000000000000000000000000FFFFFFFFFFFFFFFFFFFFFF
310
FFFFFFFFFFFFFFFFFFFFFFFFFFFFFFFFFFFFFFFFFFFFFFFFFFFFFFFFFFFFFFFFFFFFFFFFFFFFFFFFFFFFFFFFFFFFFFFFFFFFFFFFFFFFFFFFFFFFFFFFFFFFFFFFFFFFFFFFFFFFFFFFFFFFFFFFFFFFFFFFFFFFFFFFFFFFFFFFFFFFFFFFFFFFFFFFFFFFFFFFFFFFFFFFFFFFFFFFFFFFFFFFFFFFFFFFFFFFFFFFFFFFFFFFFFFFFF
310
FFFFFFFFFFFFFFFFFFFFFFFFFFFFFFFFFFFFFFFFFFFFFFFFFFFFFFFFFFFFFFFFFFFFFFFFFFFFFFFFFFFFFFFFFFFFFFFFFFFFFFFFFFFFFFFFFFFFFFFFFFFFFFFFFFFFFFFFFFFFFFFFFFFFFFFFFFFFFFFFFFFFFFFFFFFFFFFFFFFFFFFFFFFFFFFFFFFFFFFFFFFFFFFFFFFFFFFFFFFFFFFFFFFFFFFFFFFFFFFFFFFFFFFFFFFFFF
310
FFFFFFFFFFFFFFFFFFFFFFFFFFFFFFFFFFFFFFFFFFFFFFFFFFFFFFFFFFFFFFFFFFFFFFFFFFFFFFFFFFFFFFFFFFFFFFFFFFFFFFFFFFFFFFFF
102
{BLKREFS
331
A7C5
331
AF56
102
}
  0
BLOCK_RECORD
  5
A7C7
330
1
100
AcDbSymbolTableRecord
100
AcDbBlockTableRecord
  2
XA-5P-1
340
0
310
2800000020000000200000000100080000000000000400000000000000000000000000000000000000000000000080000080000000808000800000008000800080800000C0C0C000C0DCC000F0CAA6000020400000206000002080000020A0000020C0000020E00000400000004020000040400000406000004080000040A0
310
000040C0000040E00000600000006020000060400000606000006080000060A0000060C0000060E00000800000008020000080400000806000008080000080A0000080C0000080E00000A0000000A0200000A0400000A0600000A0800000A0A00000A0C00000A0E00000C0000000C0200000C0400000C0600000C0800000C0
310
A00000C0C00000C0E00000E0000000E0200000E0400000E0600000E0800000E0A00000E0C00000E0E00040000000400020004000400040006000400080004000A0004000C0004000E00040200000402020004020400040206000402080004020A0004020C0004020E000404000004040200040404000404060004040800040
310
40A0004040C0004040E00040600000406020004060400040606000406080004060A0004060C0004060E00040800000408020004080400040806000408080004080A0004080C0004080E00040A0000040A0200040A0400040A0600040A0800040A0A00040A0C00040A0E00040C0000040C0200040C0400040C0600040C08000
310
40C0A00040C0C00040C0E00040E0000040E0200040E0400040E0600040E0800040E0A00040E0C00040E0E00080000000800020008000400080006000800080008000A0008000C0008000E00080200000802020008020400080206000802080008020A0008020C0008020E00080400000804020008040400080406000804080
310
008040A0008040C0008040E00080600000806020008060400080606000806080008060A0008060C0008060E00080800000808020008080400080806000808080008080A0008080C0008080E00080A0000080A0200080A0400080A0600080A0800080A0A00080A0C00080A0E00080C0000080C0200080C0400080C0600080C0
310
800080C0A00080C0C00080C0E00080E0000080E0200080E0400080E0600080E0800080E0A00080E0C00080E0E000C0000000C0002000C0004000C0006000C0008000C000A000C000C000C000E000C0200000C0202000C0204000C0206000C0208000C020A000C020C000C020E000C0400000C0402000C0404000C0406000C0
310
408000C040A000C040C000C040E000C0600000C0602000C0604000C0606000C0608000C060A000C060C000C060E000C0800000C0802000C0804000C0806000C0808000C080A000C080C000C080E000C0A00000C0A02000C0A04000C0A06000C0A08000C0A0A000C0A0C000C0A0E000C0C00000C0C02000C0C04000C0C06000
310
C0C08000C0C0A000F0FBFF00A4A0A000808080000000FF0000FF000000FFFF00FF000000FF00FF00FFFF0000FFFFFF00FFFFFFFFFFFFFFFFFFFFFFFFFFFFFFFFFFFFFFFFFFFFFFFFFFFFFFFFFFFFFFFFFFFFFFFFFFFFFFFFFFFFFFFFFFFFFFFFFFFFFFFFFFFFFFFFFFFFFFFFFFFFFFFFFFFFFFFFFFFFFFFFFFFFFFFFFFFFFF
310
FFFFFFFFFFFFFFFFFFFFFFFFFFFFFFFFFFFFFFFFFFFFFFFFFFFFFFFFFFFFFFFFFFFFFFFFFFFFFFFFFFFFFFFFFFFFFFFFFFFFFFFFFFFFFFFCFFFFFFFFFCFFFFFFFCFCFFFFFFFCFFFFFFFFFCFFFFFFFFFFFFFFFFFFFFFFFFFCFCFFFFFCFCFFFFFFFCFCFFFFFFFCFCFFFFFCFCFFFFFFFFFFFFFFFFFFFFFFFFFCFCFFFFFCFCFFFF
310
FFFCFCFFFFFFFCFCFFFFFCFCFFFFFFFFFFFFFFFFFFFFFFFFFCFCFFFFFCFCFFFFFFFCFCFFFFFFFCFCFFFFFCFCFFFFFFFFFFFFFFFFFFFFFFFFFCFCFFFFFCFCFFFFFFFCFCFFFFFFFCFCFFFFFCFCFFFFFFFFFFFFFFFFFFFFFFFFFCFCFFFFFCFCFFFFFFFCFCFFFFFFFCFCFFFFFCFCFFFFFFFFFFFFFF000000000000000000000000
310
000000000000000000000000000000000000FFFF00FFFFFFFFFFFFFFFFFFFFFFFFFFFFFCFFFFFFFFFFFFFFFCFCFFFFFFFF00FFFF00FFFFFFFFFFFFFFFFFFFFFFFFFFFFFFFFFFFFFFFFFFFFFFFFFFFFFFFF00FFFF00FCFCFCFCFCFCFCFCFCFFFFFFFFFFFFFFFFFFFFFCFCFCFCFCFCFCFCFC00FFFF00FFFFFFFFFCFCFFFFFCFF
310
FFFFFFFFFFFFFFFFFFFCFFFFFCFCFFFFFFFF00FFFF00FFFFFFFFFCFCFFFFFCFFFFFFFFFFFFFFFFFFFFFCFFFFFCFCFFFFFFFF00FFFF00FFFFFFFFFCFCFFFFFCFFFFFFFFFFFFFFFFFFFFFCFFFFFCFCFFFFFFFF00FFFF00FFFFFFFFFCFCFFFFFCFFFFFFFFFFFFFFFFFFFFFCFFFFFCFCFFFFFFFF00FFFF00FFFFFFFFFCFCFFFFFC
310
FFFFFFFFFFFFFFFFFFFFFCFFFFFCFCFFFFFFFF00FFFF00FFFFFFFFFCFCFFFFFCFFFFFFFFFFFFFFFFFFFFFCFFFFFCFCFFFFFFFF00FFFF00FFFFFFFFFCFCFFFFFCFFFFFFFCFCFCFCFFFFFFFCFFFFFCFCFFFFFFFF00FFFF00FFFFFFFFFCFCFFFFFCFFFFFFFCFFFFFCFFFFFFFCFFFFFCFCFFFFFFFF00FFFF00FFFFFFFFFCFCFFFF
310
FCFFFFFFFCFFFFFCFFFFFFFCFFFFFCFCFFFFFFFF00FFFF00FFFFFFFFFCFCFFFFFCFFFFFFFCFCFCFCFFFFFFFCFFFFFCFCFFFFFFFF00FFFF00FFFFFFFFFCFCFFFFFCFFFFFFFFFFFFFFFFFFFFFCFFFFFCFCFFFFFFFF00FFFF00FFFFFFFFFCFCFFFFFCFFFFFFFFFFFFFFFFFFFFFCFFFFFCFCFFFFFFFF00FFFF00FFFFFFFFFCFCFF
310
FFFCFFFFFFFFFFFFFFFFFFFFFCFFFFFCFCFFFFFFFF00FFFF000000000000000000000000000000000000000000000000000000000000FFFFFFFFFFFFFFFFFFFFFFFFFFFFFFFFFFFFFFFFFFFFFFFFFFFFFFFFFFFFFFFFFFFFFFFFFFFFFFFFFFFFFFFFFFFFFFFFFFFFFFFFFFFFFFFFFFFFFFFFFFFFFFFFFFFFFFFFFFFFFFFFFF
310
FFFFFFFFFFFFFFFFFFFFFFFFFFFFFFFFFFFFFFFFFFFFFFFFFFFFFFFFFFFFFFFFFFFFFFFFFFFFFFFFFFFFFFFFFFFFFFFFFFFFFFFFFFFFFFFF
102
{BLKREFS
331
A7FC
102
}
  0
BLOCK_RECORD
  5
A7FD
330
1
100
AcDbSymbolTableRecord
100
AcDbBlockTableRecord
  2
XA-5P-2
340
0
310
2800000020000000200000000100080000000000000400000000000000000000000000000000000000000000000080000080000000808000800000008000800080800000C0C0C000C0DCC000F0CAA6000020400000206000002080000020A0000020C0000020E00000400000004020000040400000406000004080000040A0
310
000040C0000040E00000600000006020000060400000606000006080000060A0000060C0000060E00000800000008020000080400000806000008080000080A0000080C0000080E00000A0000000A0200000A0400000A0600000A0800000A0A00000A0C00000A0E00000C0000000C0200000C0400000C0600000C0800000C0
310
A00000C0C00000C0E00000E0000000E0200000E0400000E0600000E0800000E0A00000E0C00000E0E00040000000400020004000400040006000400080004000A0004000C0004000E00040200000402020004020400040206000402080004020A0004020C0004020E000404000004040200040404000404060004040800040
310
40A0004040C0004040E00040600000406020004060400040606000406080004060A0004060C0004060E00040800000408020004080400040806000408080004080A0004080C0004080E00040A0000040A0200040A0400040A0600040A0800040A0A00040A0C00040A0E00040C0000040C0200040C0400040C0600040C08000
310
40C0A00040C0C00040C0E00040E0000040E0200040E0400040E0600040E0800040E0A00040E0C00040E0E00080000000800020008000400080006000800080008000A0008000C0008000E00080200000802020008020400080206000802080008020A0008020C0008020E00080400000804020008040400080406000804080
310
008040A0008040C0008040E00080600000806020008060400080606000806080008060A0008060C0008060E00080800000808020008080400080806000808080008080A0008080C0008080E00080A0000080A0200080A0400080A0600080A0800080A0A00080A0C00080A0E00080C0000080C0200080C0400080C0600080C0
310
800080C0A00080C0C00080C0E00080E0000080E0200080E0400080E0600080E0800080E0A00080E0C00080E0E000C0000000C0002000C0004000C0006000C0008000C000A000C000C000C000E000C0200000C0202000C0204000C0206000C0208000C020A000C020C000C020E000C0400000C0402000C0404000C0406000C0
310
408000C040A000C040C000C040E000C0600000C0602000C0604000C0606000C0608000C060A000C060C000C060E000C0800000C0802000C0804000C0806000C0808000C080A000C080C000C080E000C0A00000C0A02000C0A04000C0A06000C0A08000C0A0A000C0A0C000C0A0E000C0C00000C0C02000C0C04000C0C06000
310
C0C08000C0C0A000F0FBFF00A4A0A000808080000000FF0000FF000000FFFF00FF000000FF00FF00FFFF0000FFFFFF00FFFFFFFFFFFFFFFFFFFFFFFFFFFFFFFFFFFFFFFFFFFFFFFFFFFFFFFFFFFFFFFFFFFFFFFFFFFFFFFFFFFFFFFFFFFFFFFCFCFFFFFFFFFFFFFFFFFFFFFFFFFFFFFFFFFFFFFFFFFFFFFFFFFFFFFFFFFFFF
310
FCFCFFFFFFFFFFFFFFFFFFFFFFFFFFFFFFFFFFFFFFFFFFFFFFFFFFFFFFFFFFFFFCFCFFFFFFFFFFFFFFFFFFFFFFFFFFFFFFFFFFFFFFFFFFFFFFFFFFFFFFFFFFFFFCFCFFFFFFFFFFFFFFFFFFFFFFFFFFFFFFFFFFFFFFFFFFFFFFFFFFFFFFFFFFFFFCFCFFFFFFFFFFFFFFFFFFFFFFFFFFFFFFFFFFFFFFFFFFFFFFFFFFFFFFFFFF
310
FFFCFCFFFFFFFFFFFFFFFFFFFFFFFFFFFFFFFFFFFFFFFFFFFFFFFFFFFFFFFFFFFFFCFCFFFFFFFFFFFFFFFFFFFFFFFFFFFFFFFFFFFFFFFFFFFFFFFFFFFFFFFFFFFFFCFCFFFFFFFFFFFFFFFFFFFFFFFFFFFFFFFFFFFFFFFFFFFFFFFFFF0000000000000000000000000000FFFFFFFFFFFFFFFFFFFFFFFFFFFFFFFFFFFF00FFFF
310
FFFFFFFCFFFFFFFFFFFF00FFFFFFFFFFFFFFFFFFFFFFFFFFFFFFFFFFFF00FFFFFFFFFFFFFFFFFFFFFFFF00FFFFFFFFFFFFFFFFFFFFFFFFFFFFFFFF000000FFFFFFFFFFFFFFFFFFFFFFFF00FFFFFFFFFFFFFFFFFFFFFFFFFFFFFFFF00FFFFFFFFFFFFFFFFFFFFFFFFFFFF00FFFFFFFFFFFFFFFFFFFFFFFFFFFFFFFF00FFFFFF
310
FFFFFFFFFFFFFFFFFFFFFF00FFFFFFFFFFFFFFFFFFFFFFFFFFFFFFFF00FFFFFFFFFFFFFFFFFFFFFFFFFFFF00FFFFFFFFFFFFFFFFFFFFFFFFFFFFFFFF00FFFFFFFFFFFFFFFFFFFFFFFFFFFF00FFFFFFFFFFFFFFFFFFFFFFFFFFFFFFFF00FFFFFFFFFFFFFFFFFFFFFFFFFFFF00FFFFFFFFFFFFFFFFFFFFFFFFFFFFFFFF00FFFF
310
FFFFFFFFFFFFFFFFFFFFFFFF00FFFFFFFFFFFFFFFFFFFFFFFFFFFFFFFF00FFFFFFFFFFFFFFFFFFFFFFFFFFFF00FFFFFFFFFFFFFFFFFFFFFFFFFFFFFFFF00FFFFFFFFFFFFFFFFFFFFFFFFFFFF00FFFFFFFFFFFFFFFFFFFFFFFFFFFFFFFF00FFFFFFFFFFFFFFFFFFFFFFFFFFFF00FFFFFFFFFFFFFFFFFFFFFFFFFFFFFFFF00FF
310
FFFFFFFFFFFFFFFFFFFFFFFFFF00FFFFFFFFFFFFFFFFFFFFFFFFFFFFFFFF00FFFFFFFFFFFFFFFFFFFFFFFFFFFF00FFFFFFFFFFFFFFFFFFFFFFFFFFFFFFFF000000000000000000FFFFFFFFFFFF00FFFFFFFFFFFFFFFFFFFFFFFFFFFFFFFFFFFFFFFFFFFFFFFF00FFFFFFFFFFFF00FFFFFFFFFFFFFFFFFFFFFFFFFFFFFFFFFF
310
FFFFFFFFFFFFFF00FFFFFFFFFFFF00FFFFFFFFFFFFFFFFFFFFFFFFFFFFFFFFFFFFFFFFFFFFFFFF00FFFFFFFFFFFF00FFFFFFFFFFFFFFFFFFFFFFFFFFFFFFFFFFFFFFFFFFFFFFFFFF00FFFFFFFFFF00FFFFFFFFFFFFFFFFFFFFFFFFFFFFFFFFFFFFFFFFFFFFFFFFFF00FFFFFFFFFF00FFFFFFFFFFFFFFFFFFFFFFFFFFFFFFFF
310
FFFFFFFFFFFFFFFFFFFF000000000000FFFFFFFFFFFFFFFFFFFFFFFFFFFFFFFFFFFFFFFFFFFFFFFFFFFFFFFFFFFFFFFFFFFFFFFFFFFFFFFF
102
{BLKREFS
331
A810
331
AF54
102
}
  0
BLOCK_RECORD
  5
A811
330
1
100
AcDbSymbolTableRecord
100
AcDbBlockTableRecord
  2
XA-5P-3
340
0
310
2800000020000000200000000100080000000000000400000000000000000000000000000000000000000000000080000080000000808000800000008000800080800000C0C0C000C0DCC000F0CAA6000020400000206000002080000020A0000020C0000020E00000400000004020000040400000406000004080000040A0
310
000040C0000040E00000600000006020000060400000606000006080000060A0000060C0000060E00000800000008020000080400000806000008080000080A0000080C0000080E00000A0000000A0200000A0400000A0600000A0800000A0A00000A0C00000A0E00000C0000000C0200000C0400000C0600000C0800000C0
310
A00000C0C00000C0E00000E0000000E0200000E0400000E0600000E0800000E0A00000E0C00000E0E00040000000400020004000400040006000400080004000A0004000C0004000E00040200000402020004020400040206000402080004020A0004020C0004020E000404000004040200040404000404060004040800040
310
40A0004040C0004040E00040600000406020004060400040606000406080004060A0004060C0004060E00040800000408020004080400040806000408080004080A0004080C0004080E00040A0000040A0200040A0400040A0600040A0800040A0A00040A0C00040A0E00040C0000040C0200040C0400040C0600040C08000
310
40C0A00040C0C00040C0E00040E0000040E0200040E0400040E0600040E0800040E0A00040E0C00040E0E00080000000800020008000400080006000800080008000A0008000C0008000E00080200000802020008020400080206000802080008020A0008020C0008020E00080400000804020008040400080406000804080
310
008040A0008040C0008040E00080600000806020008060400080606000806080008060A0008060C0008060E00080800000808020008080400080806000808080008080A0008080C0008080E00080A0000080A0200080A0400080A0600080A0800080A0A00080A0C00080A0E00080C0000080C0200080C0400080C0600080C0
310
800080C0A00080C0C00080C0E00080E0000080E0200080E0400080E0600080E0800080E0A00080E0C00080E0E000C0000000C0002000C0004000C0006000C0008000C000A000C000C000C000E000C0200000C0202000C0204000C0206000C0208000C020A000C020C000C020E000C0400000C0402000C0404000C0406000C0
310
408000C040A000C040C000C040E000C0600000C0602000C0604000C0606000C0608000C060A000C060C000C060E000C0800000C0802000C0804000C0806000C0808000C080A000C080C000C080E000C0A00000C0A02000C0A04000C0A06000C0A08000C0A0A000C0A0C000C0A0E000C0C00000C0C02000C0C04000C0C06000
310
C0C08000C0C0A000F0FBFF00A4A0A000808080000000FF0000FF000000FFFF00FF000000FF00FF00FFFF0000FFFFFF00FFFFFFFFFFFFFFFFFFFFFFFFFFFFFFFFFFFFFFFFFFFFFFFFFFFFFFFFFFFFFFFFFFFFFFFFFFFFFFFFFFFF00000000000000000000000000FFFFFFFFFFFFFFFFFFFFFFFFFFFFFFFFFFFF00FCFCFCFCFC
310
FCFCFCFCFCFCFC00FFFFFFFFFFFFFFFFFFFFFFFFFFFFFFFFFFFF00FCFFFFFFFFFFFFFFFFFFFFFC00FFFFFFFFFFFFFFFFFFFFFFFFFFFFFFFFFFFF00FCFFFFFFFFFFFCFCFCFCFFFC00FFFFFFFFFFFFFFFFFFFFFFFFFFFFFFFFFFFF00FCFCFCFCFFFFFFFFFCFFFFFC00FFFFFFFFFFFFFFFFFFFFFFFFFFFFFFFFFFFF00000000FC
310
FFFCFCFFFFFFFFFC00FFFFFFFFFFFFFFFFFFFFFFFFFFFFFFFFFFFF00000000FCFFFFFFFFFFFFFFFC00FFFFFFFFFFFFFFFFFFFFFFFFFFFFFFFFFFFF00FFFFFCFCFFFFFFFFFFFFFFFC00FFFFFFFFFFFFFFFFFFFFFFFFFFFFFFFFFFFF00FFFFFCFCFFFFFFFFFFFFFFFC00FFFFFFFFFFFFFFFFFFFFFFFFFFFFFFFFFFFF00000000
310
FCFFFFFFFFFFFFFFFC00FFFFFFFFFFFFFFFFFFFFFFFFFFFFFFFFFFFFFFFFFF00FCFFFCFCFFFFFFFFFC00FFFFFFFFFFFFFFFFFFFFFFFFFFFFFFFFFFFFFFFFFF00FCFFFFFFFFFFFFFFFC00FFFFFFFFFFFFFFFFFFFFFFFFFFFFFFFFFFFFFFFFFF00FCFFFFFFFFFFFFFFFC00FFFFFFFFFFFFFFFFFFFFFFFFFFFFFFFFFFFFFF0000
310
00FCFFFFFFFFFFFFFFFC00FFFFFFFFFFFFFFFFFFFFFFFFFFFFFFFFFFFFFF00FF00FCFFFFFFFFFFFFFFFC00FFFFFFFFFFFFFFFFFFFFFFFFFFFFFFFFFFFFFF00FF00FCFFFCFCFFFFFFFFFC00FFFFFFFFFFFFFFFFFFFFFFFFFFFFFFFFFFFFFF000000FCFFFFFFFFFFFFFFFC00FFFFFFFFFFFFFFFFFFFFFFFFFFFFFFFFFFFFFFFF
310
FF00FCFFFFFFFFFFFFFFFC00FFFFFFFFFFFFFFFFFFFFFFFFFFFFFFFFFFFFFFFFFF00FCFFFFFFFFFFFFFFFC00FFFFFFFFFFFFFFFFFFFFFFFFFFFFFFFFFFFFFFFFFF00FCFFFCFCFFFFFFFFFC00FFFFFFFFFFFFFFFFFFFFFFFFFFFFFFFFFFFF00000000FCFFFFFFFFFFFFFFFC00FFFFFFFFFFFFFFFFFFFFFFFFFFFFFFFFFFFF00
310
FFFFFCFCFFFFFFFFFFFFFFFC00FFFFFFFFFFFFFFFFFFFFFFFFFFFFFFFFFFFF00FFFFFCFCFFFFFFFFFFFFFFFC00FFFFFFFFFFFFFFFFFFFFFFFFFFFFFFFFFFFF00000000FCFFFFFFFFFFFFFFFC00FFFFFFFFFFFFFFFFFFFFFFFFFFFFFFFFFFFF00000000FCFFFCFCFFFFFFFFFC00FFFFFFFFFFFFFFFFFFFFFFFFFFFFFFFFFFFF
310
00FCFCFCFCFFFFFFFFFFFFFFFC00FFFFFFFFFFFFFFFFFFFFFFFFFFFFFFFFFFFF00FCFFFFFFFFFFFFFFFFFFFFFC00FFFFFFFFFFFFFFFFFFFFFFFFFFFFFFFFFFFF00FCFFFFFFFFFFFFFFFFFFFFFC00FFFFFFFFFFFFFFFFFFFFFFFFFFFFFFFFFFFF00FCFCFCFCFCFCFCFCFCFCFCFC00FFFFFFFFFFFFFFFFFFFFFFFFFFFFFFFFFF
310
FFFF00000000000000000000000000FFFFFFFFFFFFFFFFFFFFFFFFFFFFFFFFFFFFFFFFFFFFFFFFFFFFFFFFFFFFFFFFFFFFFFFFFFFFFFFFFF
102
{BLKREFS
331
A846
331
AF53
102
}
  0
BLOCK_RECORD
  5
A882
330
1
100
AcDbSymbolTableRecord
100
AcDbBlockTableRecord
  2
SUS3
340
0
310
2800000020000000200000000100080000000000000400000000000000000000000000000000000000000000000080000080000000808000800000008000800080800000C0C0C000C0DCC000F0CAA6000020400000206000002080000020A0000020C0000020E00000400000004020000040400000406000004080000040A0
310
000040C0000040E00000600000006020000060400000606000006080000060A0000060C0000060E00000800000008020000080400000806000008080000080A0000080C0000080E00000A0000000A0200000A0400000A0600000A0800000A0A00000A0C00000A0E00000C0000000C0200000C0400000C0600000C0800000C0
310
A00000C0C00000C0E00000E0000000E0200000E0400000E0600000E0800000E0A00000E0C00000E0E00040000000400020004000400040006000400080004000A0004000C0004000E00040200000402020004020400040206000402080004020A0004020C0004020E000404000004040200040404000404060004040800040
310
40A0004040C0004040E00040600000406020004060400040606000406080004060A0004060C0004060E00040800000408020004080400040806000408080004080A0004080C0004080E00040A0000040A0200040A0400040A0600040A0800040A0A00040A0C00040A0E00040C0000040C0200040C0400040C0600040C08000
310
40C0A00040C0C00040C0E00040E0000040E0200040E0400040E0600040E0800040E0A00040E0C00040E0E00080000000800020008000400080006000800080008000A0008000C0008000E00080200000802020008020400080206000802080008020A0008020C0008020E00080400000804020008040400080406000804080
310
008040A0008040C0008040E00080600000806020008060400080606000806080008060A0008060C0008060E00080800000808020008080400080806000808080008080A0008080C0008080E00080A0000080A0200080A0400080A0600080A0800080A0A00080A0C00080A0E00080C0000080C0200080C0400080C0600080C0
310
800080C0A00080C0C00080C0E00080E0000080E0200080E0400080E0600080E0800080E0A00080E0C00080E0E000C0000000C0002000C0004000C0006000C0008000C000A000C000C000C000E000C0200000C0202000C0204000C0206000C0208000C020A000C020C000C020E000C0400000C0402000C0404000C0406000C0
310
408000C040A000C040C000C040E000C0600000C0602000C0604000C0606000C0608000C060A000C060C000C060E000C0800000C0802000C0804000C0806000C0808000C080A000C080C000C080E000C0A00000C0A02000C0A04000C0A06000C0A08000C0A0A000C0A0C000C0A0E000C0C00000C0C02000C0C04000C0C06000
310
C0C08000C0C0A000F0FBFF00A4A0A000808080000000FF0000FF000000FFFF00FF000000FF00FF00FFFF0000FFFFFF00FFFFFFFFFFFFFFFFFFFFFFFFFFFFFFFFFFFFFFFFFFFFFFFFFFFFFFFFFFFFFFFFFFFFFFFFFFFFFFFFFFFFFFFFFFFFFFFFFFFFFFFFFFFFFFFFFFFFFFFFFFFFFFFFFFFFFFFFFFFFFFFFFFFFFFFFFFFFFF
310
FFFFFFFFFFFFFFFFFFFFFFFFFFFFFFFFFFFFFFFFFFFFFFFFFFFFFFFFFFFFFFFFFFFFFFFFFFFFFFFFFFFFFFFFFFFFFFFFFFFFFFFFFFFFFFFFFFFFFFFFFFFFFFFFFFFFFFFFFFFFFFFFFFFFFFFFFFFFFFFFFFFFFFFFFFFFFFFFFFFFFFFFFFFFFFFFFFFFFFFFFFFFFFFFFFFFFFFFFFFFFFFFFFFFFFFFFFFFFFFFFFFFFFFFFFFFFF
310
FFFFFFFFFFFFFFFFFFFFFFFFFFFFFFFFFFFFFFFFFF0000000000000000000000000000000000000000000000000000FFFFFFFFFFFF00FFFFFFFFFFFFFCFCFCFCFCFCFCFCFCFCFCFCFFFFFFFFFFFF00FFFFFFFFFFFF00FFFFFFFFFFFFFCFFFFFFFFFCFFFFFFFFFFFCFFFFFFFFFFFF00FFFFFFFFFFFF00FFFFFF00000000FFFF
310
FFFFFCFFFFFFFFFFFC00000000000000FFFFFFFF00000000000000000000FFFFFFFCFCFCFCFFFF0000000000000000000000FFFF000000FFFF00FF000000FFFFFCFFFCFFFFFCFFFF00FF0000000000000000FFFFFFFF00FF000000FFFFFCFFFFFCFFFCFFFFFCFFFFFCFF000000000000FFFFFFFF00000000000000FFFFFCFF
310
FCFFFCFCFCFCFFFCFFFCFF0000000000000000FFFFFFFF00FF000000FFFFFCFFFFFCFFFCFFFFFCFFFFFC00000000FF0000FFFFFFFFFFFF00FCFCFCFCFCFCFCFCFCFCFCFCFCFCFCFCFCFCFCFCFCFCFCFC00FFFFFFFFFFFF00FFFFFFFFFFFFFCFFFFFFFFFCFFFFFFFFFFFCFFFFFFFFFFFF00FFFFFFFFFFFF00FFFFFFFFFFFFFC
310
FFFFFFFFFCFFFFFFFFFFFCFFFFFFFFFFFF00FFFFFFFF000000FF000000000000FCFCFCFCFCFCFCFCFC0000000000000000000000FFFF0000000000FF00000000FFFFFFFFFCFFFFFFFF00FF000000000000000000FFFFFFFF00FFFF00FF00FFFFFFFFFFFFFCFFFFFFFFFF00FF00FFFF00FF00FFFFFFFFFFFF00FFFFFFFFFFFF
310
FFFFFFFFFFFCFFFFFFFFFFFFFFFFFFFFFFFF00FFFFFFFFFFFF00FFFFFFFFFFFFFFFFFFFFFFFCFFFFFFFFFFFFFFFFFFFFFFFF00FFFFFFFFFFFF0000000000000000000000000000000000000000000000000000FFFFFFFFFFFFFFFFFFFFFFFFFFFFFFFFFFFFFFFFFFFFFFFFFFFFFFFFFFFFFFFFFFFFFFFFFFFFFFFFFFFFFFFF
310
FFFFFFFFFFFFFFFFFFFFFFFFFFFFFFFFFFFFFFFFFFFFFFFFFFFFFFFFFFFFFFFFFFFFFFFFFFFFFFFFFFFFFFFFFFFFFFFFFFFFFFFFFFFFFFFFFFFFFFFFFFFFFFFFFFFFFFFFFFFFFFFFFFFFFFFFFFFFFFFFFFFFFFFFFFFFFFFFFFFFFFFFFFFFFFFFFFFFFFFFFFFFFFFFFFFFFFFFFFFFFFFFFFFFFFFFFFFFFFFFFFFFFFFFFFFFFF
310
FFFFFFFFFFFFFFFFFFFFFFFFFFFFFFFFFFFFFFFFFFFFFFFFFFFFFFFFFFFFFFFFFFFFFFFFFFFFFFFFFFFFFFFFFFFFFFFFFFFFFFFFFFFFFFFF
102
{BLKREFS
331
ABD2
331
B666
102
}
  0
BLOCK_RECORD
  5
A8FA
330
1
100
AcDbSymbolTableRecord
100
AcDbBlockTableRecord
  2
XA-5P-4
340
0
310
2800000020000000200000000100080000000000000400000000000000000000000000000000000000000000000080000080000000808000800000008000800080800000C0C0C000C0DCC000F0CAA6000020400000206000002080000020A0000020C0000020E00000400000004020000040400000406000004080000040A0
310
000040C0000040E00000600000006020000060400000606000006080000060A0000060C0000060E00000800000008020000080400000806000008080000080A0000080C0000080E00000A0000000A0200000A0400000A0600000A0800000A0A00000A0C00000A0E00000C0000000C0200000C0400000C0600000C0800000C0
310
A00000C0C00000C0E00000E0000000E0200000E0400000E0600000E0800000E0A00000E0C00000E0E00040000000400020004000400040006000400080004000A0004000C0004000E00040200000402020004020400040206000402080004020A0004020C0004020E000404000004040200040404000404060004040800040
310
40A0004040C0004040E00040600000406020004060400040606000406080004060A0004060C0004060E00040800000408020004080400040806000408080004080A0004080C0004080E00040A0000040A0200040A0400040A0600040A0800040A0A00040A0C00040A0E00040C0000040C0200040C0400040C0600040C08000
310
40C0A00040C0C00040C0E00040E0000040E0200040E0400040E0600040E0800040E0A00040E0C00040E0E00080000000800020008000400080006000800080008000A0008000C0008000E00080200000802020008020400080206000802080008020A0008020C0008020E00080400000804020008040400080406000804080
310
008040A0008040C0008040E00080600000806020008060400080606000806080008060A0008060C0008060E00080800000808020008080400080806000808080008080A0008080C0008080E00080A0000080A0200080A0400080A0600080A0800080A0A00080A0C00080A0E00080C0000080C0200080C0400080C0600080C0
310
800080C0A00080C0C00080C0E00080E0000080E0200080E0400080E0600080E0800080E0A00080E0C00080E0E000C0000000C0002000C0004000C0006000C0008000C000A000C000C000C000E000C0200000C0202000C0204000C0206000C0208000C020A000C020C000C020E000C0400000C0402000C0404000C0406000C0
310
408000C040A000C040C000C040E000C0600000C0602000C0604000C0606000C0608000C060A000C060C000C060E000C0800000C0802000C0804000C0806000C0808000C080A000C080C000C080E000C0A00000C0A02000C0A04000C0A06000C0A08000C0A0A000C0A0C000C0A0E000C0C00000C0C02000C0C04000C0C06000
310
C0C08000C0C0A000F0FBFF00A4A0A000808080000000FF0000FF000000FFFF00FF000000FF00FF00FFFF0000FFFFFF00FFFFFFFFFFFFFFFFFFFFFFFFFFFFFFFFFFFFFFFFFFFFFFFFFFFFFFFFFFFFFFFFFFFFFFFFFFFFFFFFFFFFFFFFFFFFFFFFFFFFFFFFFFFFFFFFFFFFFFFFFFFFFFFFFFFFFFFFFFFFFFFFFFFFFFFFFFFFFF
310
FFFFFFFFFFFFFFFFFFFFFFFFFFFFFFFFFFFFFFFFFFFFFFFFFFFFFFFFFFFFFFFFFFFFFFFFFFFFFFFFFFFFFFFFFFFFFFFFFFFFFFFFFFFFFFFCFFFFFFFFFCFFFFFFFCFCFFFFFFFCFFFFFFFFFCFFFFFFFFFFFFFFFFFFFFFFFFFCFCFFFFFCFCFFFFFFFCFCFFFFFFFCFCFFFFFCFCFFFFFFFFFFFFFFFFFFFFFFFFFCFCFFFFFCFCFFFF
310
FFFCFCFFFFFFFCFCFFFFFCFCFFFFFFFFFFFFFFFFFFFFFFFFFCFCFFFFFCFCFFFFFFFCFCFFFFFFFCFCFFFFFCFCFFFFFFFFFFFFFFFFFFFFFFFFFCFCFFFFFCFCFFFFFFFCFCFFFFFFFCFCFFFFFCFCFFFFFFFFFFFFFFFFFFFFFFFFFCFCFFFFFCFCFFFFFFFCFCFFFFFFFCFCFFFFFCFCFFFFFFFFFFFFFF0000000000FCFC0000FCFC00
310
0000FCFC000000FCFC0000FCFC0000000000FFFF00FFFFFFFFFCFCFFFFFFFFFFFFFFFFFCFFFFFFFFFFFFFFFFFFFFFFFFFF00FFFF00FFFFFFFFFFFFFFFFFFFFFFFFFFFFFFFFFFFFFFFFFFFFFFFFFFFFFFFF00FFFF00FFFFFFFFFFFFFFFFFFFFFFFFFFFFFFFFFFFFFFFFFFFFFFFFFFFFFFFF00FFFF00FFFFFFFFFFFFFFFFFFFF
310
FFFFFFFFFFFFFFFFFFFFFFFFFFFFFFFFFFFF00FFFF00FFFFFFFFFFFFFFFFFFFFFFFFFFFFFFFFFFFFFFFFFFFFFFFFFFFFFFFF00FFFF00FFFFFFFFFFFFFFFFFFFFFFFFFFFFFFFFFFFFFFFFFFFFFFFFFFFFFFFF00FFFF00FFFFFFFFFFFFFFFFFFFFFFFFFFFFFFFFFFFFFFFFFFFFFFFFFFFFFFFF00FFFF00FFFFFFFFFFFFFFFFFF
310
FFFFFFFFFFFFFFFFFFFFFFFFFFFFFFFFFFFFFF00FFFF00FFFFFFFFFFFFFFFFFFFFFFFFFFFFFFFFFFFFFFFFFFFFFFFFFFFFFFFF00FFFF00FFFFFFFFFFFFFFFFFFFFFFFFFFFFFFFFFFFFFFFFFFFFFFFFFFFFFFFF00FFFF00FFFFFFFFFFFFFFFFFFFFFFFFFFFFFFFFFFFFFFFFFFFFFFFFFFFFFFFF00FFFF00FFFFFFFFFFFFFFFF
310
FFFFFFFFFFFFFFFFFFFFFFFFFFFFFFFFFFFFFFFF00FFFF00FFFFFFFFFFFFFFFFFFFFFFFFFFFFFFFFFFFFFFFFFFFFFFFFFFFFFFFF00FFFF00FFFFFF00000000000000000000000000000000000000000000FFFFFF00FFFF00FFFFFF00FFFFFFFFFFFFFFFFFFFFFFFFFFFFFFFFFFFFFFFF00FFFFFF00FFFF00FFFFFF00FFFFFF
310
FFFFFFFFFFFFFFFFFFFFFFFFFFFFFFFFFF00FFFFFF00FFFF0000000000FFFFFFFFFFFFFFFFFFFFFFFFFFFFFFFFFFFFFFFF0000000000FFFFFFFFFFFFFFFFFFFFFFFFFFFFFFFFFFFFFFFFFFFFFFFFFFFFFFFFFFFFFFFFFFFFFFFFFFFFFFFFFFFFFFFFFFFFFFFFFFFFFFFFFFFFFFFFFFFFFFFFFFFFFFFFFFFFFFFFFFFFFFFFFF
310
FFFFFFFFFFFFFFFFFFFFFFFFFFFFFFFFFFFFFFFFFFFFFFFFFFFFFFFFFFFFFFFFFFFFFFFFFFFFFFFFFFFFFFFFFFFFFFFFFFFFFFFFFFFFFFFF
102
{BLKREFS
331
A925
331
AF52
102
}
  0
BLOCK_RECORD
  5
A969
330
1
100
AcDbSymbolTableRecord
100
AcDbBlockTableRecord
  2
PH-5P-4
340
0
310
2800000020000000200000000100080000000000000400000000000000000000000000000000000000000000000080000080000000808000800000008000800080800000C0C0C000C0DCC000F0CAA6000020400000206000002080000020A0000020C0000020E00000400000004020000040400000406000004080000040A0
310
000040C0000040E00000600000006020000060400000606000006080000060A0000060C0000060E00000800000008020000080400000806000008080000080A0000080C0000080E00000A0000000A0200000A0400000A0600000A0800000A0A00000A0C00000A0E00000C0000000C0200000C0400000C0600000C0800000C0
310
A00000C0C00000C0E00000E0000000E0200000E0400000E0600000E0800000E0A00000E0C00000E0E00040000000400020004000400040006000400080004000A0004000C0004000E00040200000402020004020400040206000402080004020A0004020C0004020E000404000004040200040404000404060004040800040
310
40A0004040C0004040E00040600000406020004060400040606000406080004060A0004060C0004060E00040800000408020004080400040806000408080004080A0004080C0004080E00040A0000040A0200040A0400040A0600040A0800040A0A00040A0C00040A0E00040C0000040C0200040C0400040C0600040C08000
310
40C0A00040C0C00040C0E00040E0000040E0200040E0400040E0600040E0800040E0A00040E0C00040E0E00080000000800020008000400080006000800080008000A0008000C0008000E00080200000802020008020400080206000802080008020A0008020C0008020E00080400000804020008040400080406000804080
310
008040A0008040C0008040E00080600000806020008060400080606000806080008060A0008060C0008060E00080800000808020008080400080806000808080008080A0008080C0008080E00080A0000080A0200080A0400080A0600080A0800080A0A00080A0C00080A0E00080C0000080C0200080C0400080C0600080C0
310
800080C0A00080C0C00080C0E00080E0000080E0200080E0400080E0600080E0800080E0A00080E0C00080E0E000C0000000C0002000C0004000C0006000C0008000C000A000C000C000C000E000C0200000C0202000C0204000C0206000C0208000C020A000C020C000C020E000C0400000C0402000C0404000C0406000C0
310
408000C040A000C040C000C040E000C0600000C0602000C0604000C0606000C0608000C060A000C060C000C060E000C0800000C0802000C0804000C0806000C0808000C080A000C080C000C080E000C0A00000C0A02000C0A04000C0A06000C0A08000C0A0A000C0A0C000C0A0E000C0C00000C0C02000C0C04000C0C06000
310
C0C08000C0C0A000F0FBFF00A4A0A000808080000000FF0000FF000000FFFF00FF000000FF00FF00FFFF0000FFFFFF00FFFFFFFFFFFFFFFFFFFFFFFFFFFFFFFFFFFFFFFFFFFFFFFFFFFFFFFFFFFFFFFFFFFFFFFFFFFFFFFFFFFFFFFFFFFFFFFFFFFFFFFFFFFFFFFFFFFFFFFFFFFFFFFFFFFFFFFFFFFFFFFFFFFFFFFFFFFFFF
310
FFFFFFFFFFFFFFFFFFFFFFFFFFFFFFFFFFFFFFFFFFFFFFFFFFFFFFFFFFFFFFFFFFFFFFFFFFFFFFFFFFFFFFFFFFFFFFFFFFFFFFFFFFFFFFFCFFFFFFFCFCFFFFFFFCFCFFFFFFFCFCFFFFFFFCFFFFFFFFFFFFFFFFFFFFFFFCFCFCFFFFFCFCFFFFFFFCFCFFFFFFFCFCFFFFFCFCFCFFFFFFFFFFFFFFFFFFFFFCFFFCFFFFFCFCFFFF
310
FFFCFCFFFFFFFCFCFFFFFCFFFCFFFFFFFFFFFFFFFFFFFFFCFFFCFFFFFCFCFFFFFFFCFCFFFFFFFCFCFFFFFCFFFCFFFFFFFFFFFFFFFFFFFFFCFFFCFFFFFCFCFFFFFFFCFCFFFFFFFCFCFFFFFCFFFCFFFFFFFFFFFFFFFFFFFFFCFFFCFFFFFCFCFFFFFFFCFCFFFFFFFCFCFFFFFCFFFCFFFFFFFFFFFFFFFFFFFFFCFFFCFFFFFCFCFF
310
FFFFFCFCFFFFFFFCFCFFFFFCFFFCFFFFFFFFFFFFFFFFFFFFFCFFFCFFFFFCFCFFFFFFFCFCFFFFFFFCFCFFFFFCFFFCFFFFFFFFFFFF00000000FC00FC0000FCFC000000FCFC000000FCFC0000FC00FC00000000FFFF00FFFFFFFFFFFFFFFFFFFFFFFFFFFCFFFFFFFFFFFFFFFFFFFFFFFFFFFF00FFFF00FFFFFFFFFFFFFFFFFFFF
310
FFFFFFFCFFFFFFFFFFFFFFFFFFFFFFFFFFFF00FFFF00FFFFFF000000FFFFFFFFFFFFFFFFFFFFFFFFFFFFFFFFFFFFFFFFFFFF00FFFF00FFFFFFFFFFFFFFFFFFFFFFFFFFFFFFFFFFFFFFFFFFFFFFFFFFFFFFFF00FFFF00FFFFFFFFFFFFFFFFFFFFFFFFFFFFFFFFFFFFFFFFFFFFFFFFFFFFFFFF00FFFF00FFFFFFFFFFFFFFFFFF
310
FFFFFFFFFFFFFFFFFFFFFFFFFFFFFFFFFFFFFF00FFFF00FFFFFFFFFFFFFFFFFFFFFFFFFFFFFFFFFFFFFFFFFFFFFFFFFFFFFFFF00FFFF00FFFFFFFFFFFFFFFFFFFFFFFFFFFFFFFFFFFFFFFFFFFFFFFFFFFFFFFF00FFFF00FFFFFFFFFFFFFFFFFFFFFFFFFFFFFFFFFFFFFFFFFFFFFFFFFFFFFFFF00FFFF00FFFFFFFFFFFFFFFF
310
FFFFFFFFFFFFFFFFFFFFFFFFFFFFFFFFFFFFFFFF00FFFF00FFFFFFFFFFFFFFFFFFFFFFFFFFFFFFFFFFFFFFFFFFFFFFFFFFFFFFFF00FFFF00FFFFFFFFFFFFFFFFFFFFFFFFFFFFFFFFFFFFFFFFFFFFFFFFFFFFFFFF00FFFF00FFFFFFFFFFFFFFFFFFFFFFFFFFFFFFFFFFFFFFFFFFFFFFFFFFFFFFFF00FFFF00FFFFFFFFFFFFFF
310
FFFFFFFFFFFFFFFFFFFFFFFFFFFFFFFFFFFFFFFFFF00FFFF000000000000000000000000000000000000000000000000000000000000FFFFFFFFFFFFFFFFFFFFFFFFFFFFFFFFFFFFFFFFFFFFFFFFFFFFFFFFFFFFFFFFFFFFFFFFFFFFFFFFFFFFFFFFFFFFFFFFFFFFFFFFFFFFFFFFFFFFFFFFFFFFFFFFFFFFFFFFFFFFFFFFFF
310
FFFFFFFFFFFFFFFFFFFFFFFFFFFFFFFFFFFFFFFFFFFFFFFFFFFFFFFFFFFFFFFFFFFFFFFFFFFFFFFFFFFFFFFFFFFFFFFFFFFFFFFFFFFFFFFF
102
{BLKREFS
331
A990
331
AF51
102
}
  0
BLOCK_RECORD
  5
A9AA
330
1
100
AcDbSymbolTableRecord
100
AcDbBlockTableRecord
  2
M3-1
340
0
310
28000000200000002000000001000800000000000004000000000000000000000000000000000000000000004000000080000000FF000000002000004020000080200000FF200000004000004040000080400000FF400000006000004060000080600000FF600000008000004080000080800000FF80000000A0000040A000
310
0080A00000FFA0000000C0000040C0000080C00000FFC0000000FF000040FF000080FF0000FFFF0000000020004000200080002000FF002000002020004020200080202000FF202000004020004040200080402000FF402000006020004060200080602000FF602000008020004080200080802000FF80200000A0200040A0
310
200080A02000FFA0200000C0200040C0200080C02000FFC0200000FF200040FF200080FF2000FFFF2000000040004000400080004000FF004000002040004020400080204000FF204000004040004040400080404000FF404000006040004060400080604000FF604000008040004080400080804000FF80400000A0400040
310
A0400080A04000FFA0400000C0400040C0400080C04000FFC0400000FF400040FF400080FF4000FFFF4000000060004000600080006000FF006000002060004020600080206000FF206000004060004040600080406000FF406000006060004060600080606000FF606000008060004080600080806000FF80600000A06000
310
40A0600080A06000FFA0600000C0600040C0600080C06000FFC0600000FF600040FF600080FF6000FFFF6000000080004000800080008000FF008000002080004020800080208000FF208000004080004040800080408000FF408000006080004060800080608000FF608000008080004080800080808000FF80800000A080
310
0040A0800080A08000FFA0800000C0800040C0800080C08000FFC0800000FF800040FF800080FF8000FFFF80000000A0004000A0008000A000FF00A0000020A0004020A0008020A000FF20A0000040A0004040A0008040A000FF40A0000060A0004060A0008060A000FF60A0000080A0004080A0008080A000FF80A00000A0
310
A00040A0A00080A0A000FFA0A00000C0A00040C0A00080C0A000FFC0A00000FFA00040FFA00080FFA000FFFFA0000000C0004000C0008000C000FF00C0000020C0004020C0008020C000FF20C0000040C0004040C0008040C000FF40C0000060C0004060C0008060C000FF60C0000080C0004080C0008080C000FF80C00000
310
A0C00040A0C00080A0C000FFA0C00000C0C00040C0C00080C0C000FFC0C00000FFC00040FFC00080FFC000FFFFC0000000FF004000FF008000FF00FF00FF000020FF004020FF008020FF00FF20FF000040FF004040FF008040FF00FF40FF000060FF004060FF008060FF00FF60FF000080FF004080FF008080FF00FF80FF00
310
00A0FF0040A0FF0080A0FF00FFA0FF0000C0FF0040C0FF0080C0FF00FFC0FF0000FFFF0040FFFF0080FFFF00FFFFFF00FFFFFFFFFFFFFFFFFFFFFFFFFFFFFFFFFFFFFFFFFFFFFFFFFFFFFFFFFFFFFFFFFFFFFFFFFFFFFFFFFFFFFFFFFFFFFFFFFFFFFFFFFFFFFFFFFFFFFFFFFFFFFFFFFFFFFFFFFFFFFFFFFFFFFFFFFFFFFF
310
FFFFFFFFFFFFFFFFFFFFFFFFFFFFFFFFFFFFFFFFFFFFFFFFFFFFFFFFFFFFFFFFFFFFFFFFFFFFFFFFFFFFFFFFFFFFFFFFFFFFFFFFFFFFFFFFFFFFFFFFFFFFFFFFFFFFFFFFFFFFFFFFFFFFFFFFFFFFFFFFFFFFFFFFFFFFFFFFFFFFFFFFFFFFFFFFFFFFFFFFFFFFFFFFFFFFFFFFFFFFFFFFFFFFFFFFFFFFFFFFFFFFFFFFFFFFFF
310
FFFFFFFFFFFFFFFFFFFFFFFFFFFFFFFFFFFFFFFFFFFFFFFFFFFFFFFFFFFFFFFFFFFFFFFFFFFFFFFFFFFFFFFFFFFFFFFFFFFFFF000000000000000000000000000000000000000000000000000000000000FFFF00FFFFFFFFFFFFFFFFFFFFFFFFFFFFFFFFFFFFFFFFFFFFFFFFFFFFFFFF00FFFF000000000000000000000000
310
000000000000000000000000000000000000FFFFFFFF00FFFFFFFFFFFFFFFFFFFFFF00FF00FFFFFFFFFFFFFFFFFFFF00FFFFFFFFFFFF00FFFFFFFFFFFFFFFFFFFF00FF00FFFFFFFFFFFFFFFFFFFFFF00FFFFFFFFFFFF0000000000000000000000000000000000000000000000000000FFFFFFFFFFFF00FFFFFFFFFFFFFFFF
310
FFFFFFFFFFFFFFFFFFFFFFFFFFFFFFFF00FFFFFFFFFFFF00FFFFFFFFFFFFFFFFFFFFFFFFFFFFFFFFFFFFFFFFFFFFFFFF00FFFFFFFFFFFF00FFFFFFFFFFFFFFFFFFFFFFFFFFFFFFFFFFFFFFFFFFFFFFFF00FFFFFFFFFFFF00FFFFFFFFFFFFFFFFFFFFFFFFFFFFFFFFFFFFFFFFFFFFFFFF00FFFFFFFFFFFFFF00FFFFFFFFFFFF
310
FFFFFFFFFFFFFFFFFFFFFFFFFFFFFFFFFF00FFFFFFFFFFFFFF00FFFFFFFFFFFFFFFFFFFFFFFFFFFFFFFFFFFFFFFFFFFF00FFFFFFFFFFFFFFFFFF00FFFFFFFFFFFFFFFFFFFFFFFFFFFFFFFFFFFFFFFF00FFFFFFFFFFFFFFFFFFFFFF00FFFFFFFFFFFFFFFFFFFFFFFFFFFFFFFFFFFF00FFFFFFFFFFFFFFFFFFFFFFFFFF0000FF
310
FFFFFFFFFFFFFFFFFFFFFFFFFF0000FFFFFFFFFFFFFFFFFFFFFFFFFFFFFFFF0000000000000000000000000000FFFFFFFFFFFFFFFFFFFFFFFFFFFFFFFFFFFFFFFFFFFFFFFFFFFFFFFFFFFFFFFFFFFFFFFFFFFFFFFFFFFFFFFFFFFFFFFFFFFFFFFFFFFFFFFFFFFFFFFFFFFFFFFFFFFFFFFFFFFFFFFFFFFFFFFFFFFFFFFFFFFF
310
FFFFFFFFFFFFFFFFFFFFFFFFFFFFFFFFFFFFFFFFFFFFFFFFFFFFFFFFFFFFFFFFFFFFFFFFFFFFFFFFFFFFFFFFFFFFFFFFFFFFFFFFFFFFFFFFFFFFFFFFFFFFFFFFFFFFFFFFFFFFFFFFFFFFFFFFFFFFFFFFFFFFFFFFFFFFFFFFFFFFFFFFFFFFFFFFFFFFFFFFFFFFFFFFFFFFFFFFFFFFFFFFFFFFFFFFFFFFFFFFFFFFFFFFFFFFFF
310
FFFFFFFFFFFFFFFFFFFFFFFFFFFFFFFFFFFFFFFFFFFFFFFFFFFFFFFFFFFFFFFFFFFFFFFFFFFFFFFFFFFFFFFFFFFFFFFFFFFFFFFFFFFFFFFF
102
{BLKREFS
331
A9C1
331
B051
331
B05D
331
B066
102
}
  0
BLOCK_RECORD
  5
A9B7
330
1
100
AcDbSymbolTableRecord
100
AcDbBlockTableRecord
  2
M3SWPW-L6
340
0
310
28000000200000002000000001000800000000000004000000000000000000000000000000000000000000004000000080000000FF000000002000004020000080200000FF200000004000004040000080400000FF400000006000004060000080600000FF600000008000004080000080800000FF80000000A0000040A000
310
0080A00000FFA0000000C0000040C0000080C00000FFC0000000FF000040FF000080FF0000FFFF0000000020004000200080002000FF002000002020004020200080202000FF202000004020004040200080402000FF402000006020004060200080602000FF602000008020004080200080802000FF80200000A0200040A0
310
200080A02000FFA0200000C0200040C0200080C02000FFC0200000FF200040FF200080FF2000FFFF2000000040004000400080004000FF004000002040004020400080204000FF204000004040004040400080404000FF404000006040004060400080604000FF604000008040004080400080804000FF80400000A0400040
310
A0400080A04000FFA0400000C0400040C0400080C04000FFC0400000FF400040FF400080FF4000FFFF4000000060004000600080006000FF006000002060004020600080206000FF206000004060004040600080406000FF406000006060004060600080606000FF606000008060004080600080806000FF80600000A06000
310
40A0600080A06000FFA0600000C0600040C0600080C06000FFC0600000FF600040FF600080FF6000FFFF6000000080004000800080008000FF008000002080004020800080208000FF208000004080004040800080408000FF408000006080004060800080608000FF608000008080004080800080808000FF80800000A080
310
0040A0800080A08000FFA0800000C0800040C0800080C08000FFC0800000FF800040FF800080FF8000FFFF80000000A0004000A0008000A000FF00A0000020A0004020A0008020A000FF20A0000040A0004040A0008040A000FF40A0000060A0004060A0008060A000FF60A0000080A0004080A0008080A000FF80A00000A0
310
A00040A0A00080A0A000FFA0A00000C0A00040C0A00080C0A000FFC0A00000FFA00040FFA00080FFA000FFFFA0000000C0004000C0008000C000FF00C0000020C0004020C0008020C000FF20C0000040C0004040C0008040C000FF40C0000060C0004060C0008060C000FF60C0000080C0004080C0008080C000FF80C00000
310
A0C00040A0C00080A0C000FFA0C00000C0C00040C0C00080C0C000FFC0C00000FFC00040FFC00080FFC000FFFFC0000000FF004000FF008000FF00FF00FF000020FF004020FF008020FF00FF20FF000040FF004040FF008040FF00FF40FF000060FF004060FF008060FF00FF60FF000080FF004080FF008080FF00FF80FF00
310
00A0FF0040A0FF0080A0FF00FFA0FF0000C0FF0040C0FF0080C0FF00FFC0FF0000FFFF0040FFFF0080FFFF00FFFFFF00FFFFFFFFFFFFFFFFFFFFFFFFFFFFFFFFFFFFFFFFFFFFFFFFFFFFFFFFFFFFFFFFFFFFFFFFFFFFFFFFFFFFFF03030303030303030303FFFFFFFFFFFFFFFFFFFFFFFFFFFFFFFFFFFFFFFFFF0303030303
310
03030303030303FFFFFFFFFFFFFFFFFFFFFFFFFFFFFFFFFFFFFFFF0303FFFFFFFFFFFFFFFF0303FFFFFFFFFFFFFFFFFFFFFFFFFFFFFFFFFFFFFFFF0303FFFFFFFFFFFFFFFF0303FFFFFFFFFFFFFFFFFFFFFFFFFFFFFFFFFFFFFFFF0303FFFFFFFFFFFFFFFF0303FFFFFFFFFFFFFFFFFFFFFFFFFFFFFFFFFFFFFFFF0303FFFF
310
FFFFFFFFFFFF0303FFFFFFFFFFFFFFFFFFFFFFFFFFFFFFFFFFFFFFFF0303FFFFFFFFFFFFFFFF0303FFFFFFFFFFFFFFFFFFFFFFFFFFFFFFFFFFFFFFFF0303FFFFFFFFFFFFFFFF0303FFFFFFFFFFFFFFFFFFFFFFFFFFFFFFFFFFFFFFFF0303FFFFFFFFFFFFFFFF0303FFFFFFFFFFFFFFFFFFFFFFFFFFFFFFFFFFFFFFFF0303FF
310
FFFFFFFFFFFFFF0303FFFFFFFFFFFFFFFFFFFFFFFFFFFFFFFFFFFFFFFF0303FFFFFFFFFFFFFFFF0303FFFFFFFFFFFFFFFFFFFFFFFFFFFFFFFFFFFFFFFF0303FFFFFFFFFFFFFFFF0303FFFFFFFFFFFFFFFFFFFFFFFFFFFFFFFFFFFFFFFF0303FFFFFFFFFFFFFFFF0303FFFFFFFFFFFFFFFFFFFFFFFFFFFFFFFFFFFFFFFF0303
310
FFFFFFFFFFFFFFFF0303FFFFFFFFFFFFFFFFFFFFFFFFFFFFFFFFFFFFFFFF0303FFFFFFFFFFFFFFFF0303FFFFFFFFFFFFFFFFFFFFFFFFFFFFFFFFFFFFFFFF0303FFFFFFFFFFFFFFFF0303FFFFFFFFFFFFFFFFFFFFFFFFFFFFFFFFFFFFFFFF0303FFFFFFFFFFFFFFFF0303FFFFFFFFFFFFFFFFFFFFFFFFFFFFFF000000000000
310
00000000000000000000000000000000FFFFFFFFFFFFFFFFFFFF00FFFFFFFFFFFFFFFFFFFFFFFFFFFFFFFFFFFFFFFF00FFFFFFFFFFFFFFFFFFFF00000000000000000000000000000000000000000000FFFFFFFFFFFFFFFFFFFFFF00FFFFFFFFFFFFFFFF0000FFFFFFFFFFFFFFFF00FFFFFFFFFFFFFFFFFFFFFFFF00000000
310
00000000000000000000000000000000FFFFFFFFFFFFFFFFFFFFFFFF00FFFFFFFFFFFFFFFFFFFFFFFFFFFFFFFFFFFF00FFFFFFFFFFFFFFFFFFFFFFFF00FFFFFFFFFFFFFFFFFFFFFFFFFFFFFFFFFFFF00FFFFFFFFFFFFFFFFFFFFFFFF00FFFFFFFFFFFFFFFFFFFFFFFFFFFFFFFFFFFF00FFFFFFFFFFFFFFFFFFFFFFFFFF00FF
310
FFFFFFFFFFFFFFFFFFFFFFFFFFFFFF00FFFFFFFFFFFFFFFFFFFFFFFFFFFFFF00FFFFFFFFFFFFFFFFFFFFFFFFFFFF00FFFFFFFFFFFFFFFFFFFFFFFFFFFFFFFFFF00FFFFFFFFFFFFFFFFFFFFFFFF00FFFFFFFFFFFFFFFFFFFFFFFFFFFFFFFFFFFFFF00000000FFFFFFFF00000000FFFFFFFFFFFFFFFFFFFFFFFFFFFFFFFFFFFF
310
FFFFFFFFFFFF00000000FFFFFFFFFFFFFFFFFFFFFFFFFFFFFFFFFFFFFFFFFFFFFFFFFFFFFFFFFFFFFFFFFFFFFFFFFFFFFFFFFFFFFFFFFFFF
102
{BLKREFS
331
A9C8
331
AA30
331
AA31
331
AC35
331
AC63
331
AC62
102
}
  0
BLOCK_RECORD
  5
A9D0
330
1
100
AcDbSymbolTableRecord
100
AcDbBlockTableRecord
  2
HEX-M3-L10-1
340
0
310
2800000020000000200000000100080000000000000400000000000000000000000000000000000000000000000080000080000000808000800000008000800080800000C0C0C000C0DCC000F0CAA6000020400000206000002080000020A0000020C0000020E00000400000004020000040400000406000004080000040A0
310
000040C0000040E00000600000006020000060400000606000006080000060A0000060C0000060E00000800000008020000080400000806000008080000080A0000080C0000080E00000A0000000A0200000A0400000A0600000A0800000A0A00000A0C00000A0E00000C0000000C0200000C0400000C0600000C0800000C0
310
A00000C0C00000C0E00000E0000000E0200000E0400000E0600000E0800000E0A00000E0C00000E0E00040000000400020004000400040006000400080004000A0004000C0004000E00040200000402020004020400040206000402080004020A0004020C0004020E000404000004040200040404000404060004040800040
310
40A0004040C0004040E00040600000406020004060400040606000406080004060A0004060C0004060E00040800000408020004080400040806000408080004080A0004080C0004080E00040A0000040A0200040A0400040A0600040A0800040A0A00040A0C00040A0E00040C0000040C0200040C0400040C0600040C08000
310
40C0A00040C0C00040C0E00040E0000040E0200040E0400040E0600040E0800040E0A00040E0C00040E0E00080000000800020008000400080006000800080008000A0008000C0008000E00080200000802020008020400080206000802080008020A0008020C0008020E00080400000804020008040400080406000804080
310
008040A0008040C0008040E00080600000806020008060400080606000806080008060A0008060C0008060E00080800000808020008080400080806000808080008080A0008080C0008080E00080A0000080A0200080A0400080A0600080A0800080A0A00080A0C00080A0E00080C0000080C0200080C0400080C0600080C0
310
800080C0A00080C0C00080C0E00080E0000080E0200080E0400080E0600080E0800080E0A00080E0C00080E0E000C0000000C0002000C0004000C0006000C0008000C000A000C000C000C000E000C0200000C0202000C0204000C0206000C0208000C020A000C020C000C020E000C0400000C0402000C0404000C0406000C0
310
408000C040A000C040C000C040E000C0600000C0602000C0604000C0606000C0608000C060A000C060C000C060E000C0800000C0802000C0804000C0806000C0808000C080A000C080C000C080E000C0A00000C0A02000C0A04000C0A06000C0A08000C0A0A000C0A0C000C0A0E000C0C00000C0C02000C0C04000C0C06000
310
C0C08000C0C0A000F0FBFF00A4A0A000808080000000FF0000FF000000FFFF00FF000000FF00FF00FFFF0000FFFFFF00FFFFFFFFFFFFFFFFFFFFFFFFFFFFFFFFFFFFFFFFFFFFFFFFFFFFFFFFFFFFFFFFFFFFFFFFFFFFFFFFFFFFFFFFFFFFFFFFFFFFFFFFFFFFFFFFFFFFFFFFFFFFFFFFFFFFFFFFFFFFFFFFFFFFFFFFFFFFFF
310
FFFFFFFFFFFFFFFFFFFFFFFFFFFFFFFFFFFFFFFFFFFFFFFFFFFFFFFFFFFFFFFFFFFFFFFFFFFFFFFFFFFFFFFFFFFFFFFFFFFFFFFFFFFFFFFFFFFFFFFFFFFFFFFFFFFFFFFFFFFFFFFFFFFFFFFFFFFFFFFFFFFFFFFFFFFFFFFFFFFFFFFFFFFFFFFFFFFFFFFFFFFFFFFFFFFFFFFFFFFFFFFFFFFFFFFFFFFFFFFFFFFFFFFFFFFFFF
310
FFFFFFFFFFFFFFFFFFFFFFFFFFFFFFFFFFFFFF000000000000000000000000000000000000000000000000000000000000FFFF00FFFFFFFFFFFFFFFFFFFFFFFFFFFFFFFFFFFFFFFFFFFFFFFFFFFFFFFF00FFFF00FFFFFFFFFFFFFFFFFFFFFFFFFFFFFFFFFFFFFFFFFFFFFFFFFFFFFFFF00FFFF00FFFFFFFFFFFFFFFFFFFFFF
310
FFFFFFFFFFFFFFFFFFFFFFFFFFFFFFFFFF00FFFF000000000000000000000000000000000000000000000000000000000000FFFF00FFFFFFFFFFFFFFFFFFFFFFFFFFFFFFFFFFFFFFFFFFFFFFFFFFFFFFFF00FFFF00FFFFFFFFFFFFFFFFFFFFFFFFFFFFFFFFFFFFFFFFFFFFFFFFFFFFFFFF00FFFF00FFFFFFFFFFFFFFFFFFFF
310
FFFFFFFFFFFFFFFFFFFFFFFFFFFFFFFFFFFF00FFFF00FFFFFFFFFFFFFFFFFFFFFFFFFFFFFFFFFFFFFFFFFFFFFFFFFFFFFFFF00FFFF00FFFFFFFFFFFFFFFFFFFFFFFFFFFFFFFFFFFFFFFFFFFFFFFFFFFFFFFF00FFFF00FFFFFFFFFFFFFFFFFFFFFFFFFFFFFFFFFFFFFFFFFFFFFFFFFFFFFFFF00FFFF00FFFFFFFFFFFFFFFFFF
310
FFFFFFFFFFFFFFFFFFFFFFFFFFFFFFFFFFFFFF00FFFF00FFFFFFFFFFFFFFFFFFFFFFFFFFFFFFFFFFFFFFFFFFFFFFFFFFFFFFFF00FFFF000000000000000000000000000000000000000000000000000000000000FFFF00FFFFFFFFFFFFFFFFFFFFFFFFFFFFFFFFFFFFFFFFFFFFFFFFFFFFFFFF00FFFF00FFFFFFFFFFFFFFFF
310
FFFFFFFFFFFFFFFFFFFFFFFFFFFFFFFFFFFFFFFF00FFFF00FFFFFFFFFFFFFFFFFFFFFFFFFFFFFFFFFFFFFFFFFFFFFFFFFFFFFFFF00FFFF000000000000000000000000000000000000000000000000000000000000FFFFFFFFFFFFFFFFFFFFFFFFFFFFFFFFFFFFFFFFFFFFFFFFFFFFFFFFFFFFFFFFFFFFFFFFFFFFFFFFFFFF
310
FFFFFFFFFFFFFFFFFFFFFFFFFFFFFFFFFFFFFFFFFFFFFFFFFFFFFFFFFFFFFFFFFFFFFFFFFFFFFFFFFFFFFFFFFFFFFFFFFFFFFFFFFFFFFFFFFFFFFFFFFFFFFFFFFFFFFFFFFFFFFFFFFFFFFFFFFFFFFFFFFFFFFFFFFFFFFFFFFFFFFFFFFFFFFFFFFFFFFFFFFFFFFFFFFFFFFFFFFFFFFFFFFFFFFFFFFFFFFFFFFFFFFFFFFFFFFF
310
FFFFFFFFFFFFFFFFFFFFFFFFFFFFFFFFFFFFFFFFFFFFFFFFFFFFFFFFFFFFFFFFFFFFFFFFFFFFFFFFFFFFFFFFFFFFFFFFFFFFFFFFFFFFFFFF
102
{BLKREFS
331
A9D9
331
AC37
102
}
  0
BLOCK_RECORD
  5
AA04
330
1
100
AcDbSymbolTableRecord
100
AcDbBlockTableRecord
  2
M3-ﾅｯﾄTOP
340
0
310
2800000020000000200000000100080000000000000400000000000000000000000000000000000000000000000080000080000000808000800000008000800080800000C0C0C000C0DCC000F0CAA6000020400000206000002080000020A0000020C0000020E00000400000004020000040400000406000004080000040A0
310
000040C0000040E00000600000006020000060400000606000006080000060A0000060C0000060E00000800000008020000080400000806000008080000080A0000080C0000080E00000A0000000A0200000A0400000A0600000A0800000A0A00000A0C00000A0E00000C0000000C0200000C0400000C0600000C0800000C0
310
A00000C0C00000C0E00000E0000000E0200000E0400000E0600000E0800000E0A00000E0C00000E0E00040000000400020004000400040006000400080004000A0004000C0004000E00040200000402020004020400040206000402080004020A0004020C0004020E000404000004040200040404000404060004040800040
310
40A0004040C0004040E00040600000406020004060400040606000406080004060A0004060C0004060E00040800000408020004080400040806000408080004080A0004080C0004080E00040A0000040A0200040A0400040A0600040A0800040A0A00040A0C00040A0E00040C0000040C0200040C0400040C0600040C08000
310
40C0A00040C0C00040C0E00040E0000040E0200040E0400040E0600040E0800040E0A00040E0C00040E0E00080000000800020008000400080006000800080008000A0008000C0008000E00080200000802020008020400080206000802080008020A0008020C0008020E00080400000804020008040400080406000804080
310
008040A0008040C0008040E00080600000806020008060400080606000806080008060A0008060C0008060E00080800000808020008080400080806000808080008080A0008080C0008080E00080A0000080A0200080A0400080A0600080A0800080A0A00080A0C00080A0E00080C0000080C0200080C0400080C0600080C0
310
800080C0A00080C0C00080C0E00080E0000080E0200080E0400080E0600080E0800080E0A00080E0C00080E0E000C0000000C0002000C0004000C0006000C0008000C000A000C000C000C000E000C0200000C0202000C0204000C0206000C0208000C020A000C020C000C020E000C0400000C0402000C0404000C0406000C0
310
408000C040A000C040C000C040E000C0600000C0602000C0604000C0606000C0608000C060A000C060C000C060E000C0800000C0802000C0804000C0806000C0808000C080A000C080C000C080E000C0A00000C0A02000C0A04000C0A06000C0A08000C0A0A000C0A0C000C0A0E000C0C00000C0C02000C0C04000C0C06000
310
C0C08000C0C0A000F0FBFF00A4A0A000808080000000FF0000FF000000FFFF00FF000000FF00FF00FFFF0000FFFFFF00FFFFFFFFFFFFFFFFFFFFFFFFFFFFFFFFFFFFFFFFFFFFFFFFFFFFFFFFFFFFFFFFFFFFFFFFFFFFFFFFFFFFFFFFFFFFFFFFFFFFFFFFFFFFFFFFFFFFFFFFFFFFFFFFFFFFFFFFFFFFFFFFFFFFFFFFFFFFFF
310
FFFFFFFFFFFFFFFFFFFFFFFFFFFFFFFFFFFFFFFFFFFFFFFFFF00000000000000000000000000000000FFFFFFFFFFFFFFFFFFFFFFFFFFFFFF00FFFFFFFF0000FFFFFFFF00000000FFFF00FFFFFFFFFFFFFFFFFFFFFFFFFFFF00FFFF0000FFFFFFFFFFFFFFFFFFFF00FF00FFFFFFFFFFFFFFFFFFFFFFFFFF00FF0000FFFFFFFF
310
FFFFFFFFFFFFFFFFFF00FF00FFFFFFFFFFFFFFFFFFFFFFFF0000FFFFFFFFFFFFFFFFFFFFFFFFFFFFFFFF0000FFFFFFFFFFFFFFFFFFFFFF00FF00FFFFFFFFFFFFFFFFFFFFFFFFFFFFFFFFFF0000FFFFFFFFFFFFFFFFFFFF0000FFFFFFFFFFFFFFFFFCFCFFFFFFFFFFFFFFFFFF00FFFFFFFFFFFFFFFFFF0000FFFFFFFFFFFFFF
310
FCFCFCFCFCFCFFFFFFFFFFFFFF0000FFFFFFFFFFFFFFFF0000FFFFFFFFFFFCFCFCFFFFFFFCFCFCFCFFFFFFFFFFFF00FFFFFFFFFFFFFF0000FFFFFFFFFFFFFCFCFFFFFFFFFFFFFCFCFFFFFFFFFFFF0000FFFFFFFFFFFF0000FFFFFFFFFFFCFCFFFFFFFFFFFFFFFFFCFCFFFFFFFFFF0000FFFFFFFFFF00FF00FFFFFFFFFFFCFC
310
FFFFFFFFFFFFFFFFFCFCFFFFFFFFFF00FF00FFFFFFFF00FF00FFFFFFFFFCFFFCFFFFFFFFFFFFFFFFFFFCFCFFFFFFFFFF0000FFFFFF00FFFF00FFFFFFFFFCFFFCFFFFFFFFFFFFFFFFFFFCFCFFFFFFFFFF00FF00FFFFFF00FF00FFFFFFFFFFFCFCFFFFFFFFFFFFFFFFFFFCFCFFFFFFFFFF0000FFFFFFFF00FF00FFFFFFFFFFFC
310
FCFFFFFFFFFFFFFFFFFCFCFFFFFFFFFF00FF00FFFFFFFFFF0000FFFFFFFFFFFFFCFCFFFFFFFFFFFFFFFCFCFFFFFFFFFF0000FFFFFFFFFFFF00FF00FFFFFFFFFFFCFCFCFFFFFFFCFCFCFCFFFFFFFFFFFF0000FFFFFFFFFFFFFF0000FFFFFFFFFFFFFFFCFCFCFCFFFCFCFFFFFFFFFFFF0000FFFFFFFFFFFFFFFF00FF00FFFFFF
310
FFFFFFFFFFFCFCFCFFFFFFFFFFFFFFFF00FFFFFFFFFFFFFFFFFFFF00FF00FFFFFFFFFFFFFFFFFFFFFFFFFFFFFFFFFF0000FFFFFFFFFFFFFFFFFFFFFF0000FFFFFFFFFFFFFFFFFFFFFFFFFFFFFFFF0000FFFFFFFFFFFFFFFFFFFFFFFF00FF00FFFFFFFFFFFFFFFFFFFFFFFFFFFF00FF00FFFFFFFFFFFFFFFFFFFFFFFFFF00FF
310
0000FFFFFFFFFFFFFFFFFFFFFF00FF00FFFFFFFFFFFFFFFFFFFFFFFFFFFF00FFFFFF0000FFFFFFFFFF00000000FFFF00FFFFFFFFFFFFFFFFFFFFFFFFFFFFFF00000000000000000000000000000000FFFFFFFFFFFFFFFFFFFFFFFFFFFFFFFFFFFFFFFFFFFFFFFFFFFFFFFFFFFFFFFFFFFFFFFFFFFFFFFFFFFFFFFFFFFFFFFF
310
FFFFFFFFFFFFFFFFFFFFFFFFFFFFFFFFFFFFFFFFFFFFFFFFFFFFFFFFFFFFFFFFFFFFFFFFFFFFFFFFFFFFFFFFFFFFFFFFFFFFFFFFFFFFFFFF
102
{BLKREFS
331
AA10
331
AC59
102
}
  0
BLOCK_RECORD
  5
AA1C
330
1
100
AcDbSymbolTableRecord
100
AcDbBlockTableRecord
  2
HEX-M3-L10-2
340
0
310
2800000020000000200000000100080000000000000400000000000000000000000000000000000000000000000080000080000000808000800000008000800080800000C0C0C000C0DCC000F0CAA6000020400000206000002080000020A0000020C0000020E00000400000004020000040400000406000004080000040A0
310
000040C0000040E00000600000006020000060400000606000006080000060A0000060C0000060E00000800000008020000080400000806000008080000080A0000080C0000080E00000A0000000A0200000A0400000A0600000A0800000A0A00000A0C00000A0E00000C0000000C0200000C0400000C0600000C0800000C0
310
A00000C0C00000C0E00000E0000000E0200000E0400000E0600000E0800000E0A00000E0C00000E0E00040000000400020004000400040006000400080004000A0004000C0004000E00040200000402020004020400040206000402080004020A0004020C0004020E000404000004040200040404000404060004040800040
310
40A0004040C0004040E00040600000406020004060400040606000406080004060A0004060C0004060E00040800000408020004080400040806000408080004080A0004080C0004080E00040A0000040A0200040A0400040A0600040A0800040A0A00040A0C00040A0E00040C0000040C0200040C0400040C0600040C08000
310
40C0A00040C0C00040C0E00040E0000040E0200040E0400040E0600040E0800040E0A00040E0C00040E0E00080000000800020008000400080006000800080008000A0008000C0008000E00080200000802020008020400080206000802080008020A0008020C0008020E00080400000804020008040400080406000804080
310
008040A0008040C0008040E00080600000806020008060400080606000806080008060A0008060C0008060E00080800000808020008080400080806000808080008080A0008080C0008080E00080A0000080A0200080A0400080A0600080A0800080A0A00080A0C00080A0E00080C0000080C0200080C0400080C0600080C0
310
800080C0A00080C0C00080C0E00080E0000080E0200080E0400080E0600080E0800080E0A00080E0C00080E0E000C0000000C0002000C0004000C0006000C0008000C000A000C000C000C000E000C0200000C0202000C0204000C0206000C0208000C020A000C020C000C020E000C0400000C0402000C0404000C0406000C0
310
408000C040A000C040C000C040E000C0600000C0602000C0604000C0606000C0608000C060A000C060C000C060E000C0800000C0802000C0804000C0806000C0808000C080A000C080C000C080E000C0A00000C0A02000C0A04000C0A06000C0A08000C0A0A000C0A0C000C0A0E000C0C00000C0C02000C0C04000C0C06000
310
C0C08000C0C0A000F0FBFF00A4A0A000808080000000FF0000FF000000FFFF00FF000000FF00FF00FFFF0000FFFFFF00FFFFFFFFFFFFFFFFFFFFFFFFFFFFFFFFFFFFFFFFFFFFFFFFFFFFFFFFFFFFFFFFFFFFFFFFFFFFFFFF00000000000000000000000000000000FFFFFFFFFFFFFFFFFFFFFFFFFFFFFFFF00FFFFFFFFFFFF
310
FF00FFFFFFFFFFFF00FFFFFFFFFFFFFFFFFFFFFFFFFFFFFFFF00FFFFFFFFFFFFFF00FFFFFFFFFFFF00FFFFFFFFFFFFFFFFFFFFFFFFFFFFFFFF00FFFFFFFFFFFFFF00FFFFFFFFFFFF00FFFFFFFFFFFFFFFFFFFFFFFFFFFFFFFF00FFFFFFFFFFFFFF00FFFFFFFFFFFF00FFFFFFFFFFFFFFFFFFFFFFFFFFFFFFFF00FFFFFFFFFF
310
FFFF00FFFFFFFFFFFF00FFFFFFFFFFFFFFFFFFFFFFFFFFFFFFFF00FFFFFFFFFFFFFF00FFFFFFFFFFFF00FFFFFFFFFFFFFFFFFFFFFFFFFFFFFFFF00FFFFFFFFFFFFFF00FFFFFFFFFFFF00FFFFFFFFFFFFFFFFFFFFFFFFFFFFFFFF00FFFFFFFFFFFFFF00FFFFFFFFFFFF00FFFFFFFFFFFFFFFFFFFFFFFFFFFFFFFF00FFFFFFFF
310
FFFFFF00FFFFFFFFFFFF00FFFFFFFFFFFFFFFFFFFFFFFFFFFFFFFF00FFFFFFFFFFFFFF00FFFFFFFFFFFF00FFFFFFFFFFFFFFFFFFFFFFFFFFFFFFFF00FFFFFFFFFFFFFF00FFFFFFFFFFFF00FFFFFFFFFFFFFFFFFFFFFFFFFFFFFFFF00FFFFFFFFFFFFFF00FFFFFFFFFFFF00FFFFFFFFFFFFFFFFFFFFFFFFFFFFFFFF00FFFFFF
310
FFFFFFFF00FFFFFFFFFFFF00FFFFFFFFFFFFFFFFFFFFFFFFFFFFFFFF00FFFFFFFFFFFFFF00FFFFFFFFFFFF00FFFFFFFFFFFFFFFFFFFFFFFFFFFFFFFF00FFFFFFFFFFFFFF00FFFFFFFFFFFF00FFFFFFFFFFFFFFFFFFFFFFFFFFFFFFFF00FFFFFFFFFFFFFF00FFFFFFFFFFFF00FFFFFFFFFFFFFFFFFFFFFFFFFFFFFFFF00FFFF
310
FFFFFFFFFF00FFFFFFFFFFFF00FFFFFFFFFFFFFFFFFFFFFFFFFFFFFFFF00FFFFFFFFFFFFFF00FFFFFFFFFFFF00FFFFFFFFFFFFFFFFFFFFFFFFFFFFFFFF00FFFFFFFFFFFFFF00FFFFFFFFFFFF00FFFFFFFFFFFFFFFFFFFFFFFFFFFFFFFF00FFFFFFFFFFFFFF00FFFFFFFFFFFF00FFFFFFFFFFFFFFFFFFFFFFFFFFFFFFFF00FF
310
FFFFFFFFFFFF00FFFFFFFFFFFF00FFFFFFFFFFFFFFFFFFFFFFFFFFFFFFFF00FFFFFFFFFFFFFF00FFFFFFFFFFFF00FFFFFFFFFFFFFFFFFFFFFFFFFFFFFFFF00FFFFFFFFFFFFFF00FFFFFFFFFFFF00FFFFFFFFFFFFFFFFFFFFFFFFFFFFFFFF00FFFFFFFFFFFFFF00FFFFFFFFFFFF00FFFFFFFFFFFFFFFFFFFFFFFFFFFFFFFF00
310
FFFFFFFFFFFFFF00FFFFFFFFFFFF00FFFFFFFFFFFFFFFFFFFFFFFFFFFFFFFF00FFFFFFFFFFFFFF00FFFFFFFFFFFF00FFFFFFFFFFFFFFFFFFFFFFFFFFFFFFFF00FFFFFFFFFFFFFF00FFFFFFFFFFFF00FFFFFFFFFFFFFFFFFFFFFFFFFFFFFFFF00FFFFFFFFFFFFFF00FFFFFFFFFFFF00FFFFFFFFFFFFFFFFFFFFFFFFFFFFFFFF
310
00000000000000000000000000000000FFFFFFFFFFFFFFFFFFFFFFFFFFFFFFFFFFFFFFFFFFFFFFFFFFFFFFFFFFFFFFFFFFFFFFFFFFFFFFFF
102
{BLKREFS
331
AA24
331
AA2F
331
AC65
331
AC64
331
AF4D
331
AF4C
102
}
  0
BLOCK_RECORD
  5
ABB9
330
1
100
AcDbSymbolTableRecord
100
AcDbBlockTableRecord
  2
ZU-1
340
0
310
2800000020000000200000000100080000000000000400000000000000000000000000000000000000000000000080000080000000808000800000008000800080800000C0C0C000C0DCC000F0CAA6000020400000206000002080000020A0000020C0000020E00000400000004020000040400000406000004080000040A0
310
000040C0000040E00000600000006020000060400000606000006080000060A0000060C0000060E00000800000008020000080400000806000008080000080A0000080C0000080E00000A0000000A0200000A0400000A0600000A0800000A0A00000A0C00000A0E00000C0000000C0200000C0400000C0600000C0800000C0
310
A00000C0C00000C0E00000E0000000E0200000E0400000E0600000E0800000E0A00000E0C00000E0E00040000000400020004000400040006000400080004000A0004000C0004000E00040200000402020004020400040206000402080004020A0004020C0004020E000404000004040200040404000404060004040800040
310
40A0004040C0004040E00040600000406020004060400040606000406080004060A0004060C0004060E00040800000408020004080400040806000408080004080A0004080C0004080E00040A0000040A0200040A0400040A0600040A0800040A0A00040A0C00040A0E00040C0000040C0200040C0400040C0600040C08000
310
40C0A00040C0C00040C0E00040E0000040E0200040E0400040E0600040E0800040E0A00040E0C00040E0E00080000000800020008000400080006000800080008000A0008000C0008000E00080200000802020008020400080206000802080008020A0008020C0008020E00080400000804020008040400080406000804080
310
008040A0008040C0008040E00080600000806020008060400080606000806080008060A0008060C0008060E00080800000808020008080400080806000808080008080A0008080C0008080E00080A0000080A0200080A0400080A0600080A0800080A0A00080A0C00080A0E00080C0000080C0200080C0400080C0600080C0
310
800080C0A00080C0C00080C0E00080E0000080E0200080E0400080E0600080E0800080E0A00080E0C00080E0E000C0000000C0002000C0004000C0006000C0008000C000A000C000C000C000E000C0200000C0202000C0204000C0206000C0208000C020A000C020C000C020E000C0400000C0402000C0404000C0406000C0
310
408000C040A000C040C000C040E000C0600000C0602000C0604000C0606000C0608000C060A000C060C000C060E000C0800000C0802000C0804000C0806000C0808000C080A000C080C000C080E000C0A00000C0A02000C0A04000C0A06000C0A08000C0A0A000C0A0C000C0A0E000C0C00000C0C02000C0C04000C0C06000
310
C0C08000C0C0A000F0FBFF00A4A0A000808080000000FF0000FF000000FFFF00FF000000FF00FF00FFFF0000FFFFFF00FFFFFFFFFFFFFFFFFFFFFFFFFFFFFFFFFFFFFFFFFFFFFFFFFFFFFFFFFFFFFFFFFFFFFFFFFFFFFFFFFFFFFFFFFFFFFFFFFFFFFFFFFFFFFFFFFFFFFFFFFFFFFFFFFFFFFFFFFFFFFFFFFFFFFFFFFFFFFF
310
FFFFFFFFFFFFFFFFFFFFFFFFFFFFFFFFFFFFFFFFFFFFFFFFFFFFFFFFFFFFFFFFFFFFFFFFFFFFFFFFFFFFFFFFFFFFFFFFFFFFFFFFFFFFFFFFFFFFFFFFFFFFFFFFFFFFFFFFFFFFFFFFFFFFFFFFFFFFFFFFFFFFFFFFFFFFFFFFFFFFFFFFFFFFFFFFFFFFFFFFFFFFFFFFFFFFFFFFFFFFFFFFFFFFFFFFFFFFFFFFFFFFFFFFFFFFFF
310
FFFFFFFFFFFFFFFFFFFFFFFFFFFFFFFFFFFFFFFFFFFFFFFFFFFFFFFFFFFFFFFFFFFFFFFFFFFFFFFFFFFFFFFFFFFFFFFFFFFFFFFFFFFFFFFFFFFFFFFFFFFFFFFFFFFFFFFFFFFFFFFFFFFFFFFFFFFFFFFFFFFFFFFFFFFFFFFFFFFFFFFFFFFFFFFFFFFFFFFFFFFFFFFFFFFFFFFFFFFFFFFFFFFFFFFFFFFFFFFFFFFFFFFFFFFFFF
310
FFFFFFFFFFFFFFFFFFFFFFFFFFFFFFFFFFFFFFFFFFFFFFFFFFFFFFFFFFFFFFFFFFFFFFFFFFFFFFFFFFFFFFFFFFFFFFFFFFFFFFFF000000FFFFFFFFFFFFFFFFFFFFFFFFFFFFFFFFFFFFFFFFFFFFFFFF000000FFFFFFFF00FFFFFFFFFFFFFFFFFFFFFFFFFFFFFFFFFFFFFFFFFFFFFFFF00FFFFFFFFFFFF00FFFFFFFFFFFFFFFF
310
FFFFFFFFFFFFFFFFFFFFFFFFFFFFFFFF00FFFFFFFFFFFF0000000000000000000000000000000000000000000000000000FFFFFFFFFFFF0000000000000000000000000000000000000000000000000000FFFFFFFFFFFFFFFFFFFFFFFFFF00FFFFFFFFFFFFFFFFFFFF00FFFFFFFFFFFFFFFFFFFFFFFFFFFFFFFFFFFFFFFF00
310
FFFFFFFFFFFFFFFFFFFF00FFFFFFFFFFFFFFFFFFFFFFFFFFFFFFFFFFFFFFFF000000000000000000000000FFFFFFFFFFFFFFFFFFFFFFFFFFFFFFFFFFFFFFFFFFFFFFFFFFFFFFFFFFFFFFFFFFFFFFFFFFFFFFFFFFFFFFFFFFFFFFFFFFFFFFFFFFFFFFFFFFFFFFFFFFFFFFFFFFFFFFFFFFFFFFFFFFFFFFFFFFFFFFFFFFFFFFFF
310
FFFFFFFFFFFFFFFFFFFFFFFFFFFFFFFFFFFFFFFFFFFFFFFFFFFFFFFFFFFFFFFFFFFFFFFFFFFFFFFFFFFFFFFFFFFFFFFFFFFFFFFFFFFFFFFFFFFFFFFFFFFFFFFFFFFFFFFFFFFFFFFFFFFFFFFFFFFFFFFFFFFFFFFFFFFFFFFFFFFFFFFFFFFFFFFFFFFFFFFFFFFFFFFFFFFFFFFFFFFFFFFFFFFFFFFFFFFFFFFFFFFFFFFFFFFFFF
310
FFFFFFFFFFFFFFFFFFFFFFFFFFFFFFFFFFFFFFFFFFFFFFFFFFFFFFFFFFFFFFFFFFFFFFFFFFFFFFFFFFFFFFFFFFFFFFFFFFFFFFFFFFFFFFFFFFFFFFFFFFFFFFFFFFFFFFFFFFFFFFFFFFFFFFFFFFFFFFFFFFFFFFFFFFFFFFFFFFFFFFFFFFFFFFFFFFFFFFFFFFFFFFFFFFFFFFFFFFFFFFFFFFFFFFFFFFFFFFFFFFFFFFFFFFFFFF
310
FFFFFFFFFFFFFFFFFFFFFFFFFFFFFFFFFFFFFFFFFFFFFFFFFFFFFFFFFFFFFFFFFFFFFFFFFFFFFFFFFFFFFFFFFFFFFFFFFFFFFFFFFFFFFFFF
102
{BLKREFS
331
ABCB
331
B664
331
B665
102
}
  0
BLOCK_RECORD
  5
AC39
330
1
100
AcDbSymbolTableRecord
100
AcDbBlockTableRecord
  2
*D24
340
0
  0
BLOCK_RECORD
  5
ACE2
330
1
100
AcDbSymbolTableRecord
100
AcDbBlockTableRecord
  2
RJ5-4
340
0
310
2800000020000000200000000100080000000000000400000000000000000000000000000000000000000000000080000080000000808000800000008000800080800000C0C0C000C0DCC000F0CAA6000020400000206000002080000020A0000020C0000020E00000400000004020000040400000406000004080000040A0
310
000040C0000040E00000600000006020000060400000606000006080000060A0000060C0000060E00000800000008020000080400000806000008080000080A0000080C0000080E00000A0000000A0200000A0400000A0600000A0800000A0A00000A0C00000A0E00000C0000000C0200000C0400000C0600000C0800000C0
310
A00000C0C00000C0E00000E0000000E0200000E0400000E0600000E0800000E0A00000E0C00000E0E00040000000400020004000400040006000400080004000A0004000C0004000E00040200000402020004020400040206000402080004020A0004020C0004020E000404000004040200040404000404060004040800040
310
40A0004040C0004040E00040600000406020004060400040606000406080004060A0004060C0004060E00040800000408020004080400040806000408080004080A0004080C0004080E00040A0000040A0200040A0400040A0600040A0800040A0A00040A0C00040A0E00040C0000040C0200040C0400040C0600040C08000
310
40C0A00040C0C00040C0E00040E0000040E0200040E0400040E0600040E0800040E0A00040E0C00040E0E00080000000800020008000400080006000800080008000A0008000C0008000E00080200000802020008020400080206000802080008020A0008020C0008020E00080400000804020008040400080406000804080
310
008040A0008040C0008040E00080600000806020008060400080606000806080008060A0008060C0008060E00080800000808020008080400080806000808080008080A0008080C0008080E00080A0000080A0200080A0400080A0600080A0800080A0A00080A0C00080A0E00080C0000080C0200080C0400080C0600080C0
310
800080C0A00080C0C00080C0E00080E0000080E0200080E0400080E0600080E0800080E0A00080E0C00080E0E000C0000000C0002000C0004000C0006000C0008000C000A000C000C000C000E000C0200000C0202000C0204000C0206000C0208000C020A000C020C000C020E000C0400000C0402000C0404000C0406000C0
310
408000C040A000C040C000C040E000C0600000C0602000C0604000C0606000C0608000C060A000C060C000C060E000C0800000C0802000C0804000C0806000C0808000C080A000C080C000C080E000C0A00000C0A02000C0A04000C0A06000C0A08000C0A0A000C0A0C000C0A0E000C0C00000C0C02000C0C04000C0C06000
310
C0C08000C0C0A000F0FBFF00A4A0A000808080000000FF0000FF000000FFFF00FF000000FF00FF00FFFF0000FFFFFF00FFFFFFFFFFFFFFFFFFFFFFFFFFFFFFFFFFFFFFFFFFFFFFFFFFFFFFFFFFFFFFFFFFFFFFFFFFFFFFFFFFFCFCFCFCFCFCFFFFFFFFFFFFFFFFFFFFFFFFFFFFFFFFFFFFFFFFFFFFFFFFFFFFFCFFFFFFFFFC
310
FFFFFFFFFFFFFFFFFFFFFFFFFFFFFFFFFFFFFFFFFFFFFFFFFFFFFCFFFFFFFFFCFFFFFFFFFFFFFFFFFFFFFFFFFFFFFFFFFFFFFFFFFFFFFFFFFFFFFCFFFFFFFFFCFFFFFFFFFFFFFFFFFFFFFFFFFFFFFFFFFFFFFFFFFFFFFFFFFFFCFCFCFCFCFCFCFCFCFCFCFCFCFCFCFCFFFFFFFFFFFFFFFFFFFFFFFFFFFFFFFFFCFFFFFFFFFF
310
FFFFFFFFFFFFFFFFFFFCFFFFFFFFFFFFFFFFFFFFFFFFFFFFFFFFFCFFFFFFFFFFFFFFFFFFFFFFFFFFFFFCFFFFFFFFFFFFFFFFFFFFFFFFFFFFFFFFFCFFFFFFFFFFFFFFFFFFFFFFFFFFFFFCFFFFFFFFFFFFFFFFFFFFFFFFFFFFFFFFFCFFFFFFFFFFFFFFFFFFFFFFFFFFFFFCFFFFFFFFFFFFFFFFFFFFFFFFFFFFFFFFFCFFFFFFFF
310
FFFFFFFFFFFFFFFFFFFFFCFFFFFFFFFFFFFFFFFFFFFFFFFFFFFFFFFCFFFFFFFFFFFFFFFFFFFFFFFFFFFFFCFFFFFFFFFFFFFFFFFFFFFFFFFFFFFFFFFCFFFFFFFFFFFFFFFFFFFFFFFFFFFFFCFFFFFFFFFFFFFFFFFFFFFFFFFFFFFFFFFCFFFFFFFFFFFFFFFFFFFFFFFFFFFFFCFFFFFFFFFFFFFFFFFFFFFFFFFFFFFFFFFCFFFFFF
310
FFFFFFFFFFFFFFFFFFFFFFFCFFFFFFFFFFFFFFFFFFFFFFFFFFFFFFFFFCFFFFFFFFFFFFFFFFFFFFFFFFFFFFFCFFFFFFFFFFFFFFFFFFFFFFFFFFFFFFFFFCFFFFFFFFFFFFFFFFFFFFFFFFFFFFFCFFFFFFFFFFFFFFFFFFFFFFFFFFFFFFFFFCFFFFFFFFFFFFFFFFFFFFFFFFFFFFFCFFFFFFFFFFFFFFFFFFFFFFFFFFFFFFFFFCFFFF
310
FFFFFFFFFFFFFFFFFFFFFFFFFCFFFFFFFFFFFFFFFFFFFFFFFFFFFFFFFFFCFFFFFFFFFFFFFFFFFFFFFFFFFFFFFCFFFFFFFFFFFFFFFFFFFFFFFFFFFFFFFFFCFFFFFFFFFFFFFFFFFFFFFFFFFFFFFCFFFFFFFFFFFFFFFFFFFFFFFFFFFFFFFFFCFFFFFFFFFFFFFFFFFFFFFFFFFFFFFCFFFFFFFFFFFFFFFFFFFFFFFFFFFFFFFFFCFF
310
FFFFFFFFFFFFFFFFFFFFFFFFFFFCFFFFFFFFFFFFFFFFFFFFFFFFFFFFFFFFFCFFFFFFFFFFFFFFFFFFFFFFFFFFFFFCFFFFFFFFFFFFFFFFFFFFFFFFFFFFFFFFFCFFFFFFFFFFFFFFFFFFFFFFFFFFFFFCFFFFFFFFFFFFFFFFFFFFFFFFFFFFFFFFFCFFFFFFFFFFFFFFFFFFFFFFFFFFFFFCFFFFFFFFFFFFFFFFFFFFFFFFFFFFFFFFFC
310
FFFFFFFFFFFFFFFCFFFFFFFFFFFFFCFFFFFFFFFFFFFFFFFFFFFFFFFFFFFFFFFCFFFFFFFFFFFFFFFCFFFFFFFFFFFFFCFFFFFFFFFFFFFFFFFFFFFFFFFFFFFFFFFCFCFCFCFCFCFCFCFCFCFCFCFCFCFCFCFFFFFFFFFFFFFFFFFFFFFFFFFFFFFFFFFFFFFFFFFFFFFFFFFCFFFFFFFFFFFFFFFFFFFFFFFFFFFFFFFFFFFFFFFFFFFFFF
310
FFFFFFFFFFFFFFFFFCFFFFFFFFFFFFFFFFFFFFFFFFFFFFFFFFFFFFFFFFFFFFFFFFFFFFFFFFFFFFFFFFFFFFFFFFFFFFFFFFFFFFFFFFFFFFFF
102
{BLKREFS
331
ACED
331
ACEE
102
}
  0
BLOCK_RECORD
  5
AFA7
330
1
100
AcDbSymbolTableRecord
100
AcDbBlockTableRecord
  2
*D26
340
0
  0
BLOCK_RECORD
  5
AFBF
330
1
100
AcDbSymbolTableRecord
100
AcDbBlockTableRecord
  2
*D27
340
0
  0
BLOCK_RECORD
  5
AFCB
330
1
100
AcDbSymbolTableRecord
100
AcDbBlockTableRecord
  2
*D28
340
0
  0
BLOCK_RECORD
  5
AFD8
330
1
100
AcDbSymbolTableRecord
100
AcDbBlockTableRecord
  2
*D29
340
0
  0
BLOCK_RECORD
  5
AFE5
330
1
100
AcDbSymbolTableRecord
100
AcDbBlockTableRecord
  2
*D30
340
0
  0
BLOCK_RECORD
  5
B07B
330
1
100
AcDbSymbolTableRecord
100
AcDbBlockTableRecord
  2
*D31
340
0
  0
BLOCK_RECORD
  5
B124
330
1
100
AcDbSymbolTableRecord
100
AcDbBlockTableRecord
  2
*D32
340
0
  0
BLOCK_RECORD
  5
B490
330
1
100
AcDbSymbolTableRecord
100
AcDbBlockTableRecord
  2
*D33
340
0
  0
BLOCK_RECORD
  5
B58F
330
1
100
AcDbSymbolTableRecord
100
AcDbBlockTableRecord
  2
*D34
340
0
  0
BLOCK_RECORD
  5
B5DA
330
1
100
AcDbSymbolTableRecord
100
AcDbBlockTableRecord
  2
M3-TOP
340
0
310
2800000020000000200000000100080000000000000400000000000000000000000000000000000000000000000080000080000000808000800000008000800080800000C0C0C000C0DCC000F0CAA6000020400000206000002080000020A0000020C0000020E00000400000004020000040400000406000004080000040A0
310
000040C0000040E00000600000006020000060400000606000006080000060A0000060C0000060E00000800000008020000080400000806000008080000080A0000080C0000080E00000A0000000A0200000A0400000A0600000A0800000A0A00000A0C00000A0E00000C0000000C0200000C0400000C0600000C0800000C0
310
A00000C0C00000C0E00000E0000000E0200000E0400000E0600000E0800000E0A00000E0C00000E0E00040000000400020004000400040006000400080004000A0004000C0004000E00040200000402020004020400040206000402080004020A0004020C0004020E000404000004040200040404000404060004040800040
310
40A0004040C0004040E00040600000406020004060400040606000406080004060A0004060C0004060E00040800000408020004080400040806000408080004080A0004080C0004080E00040A0000040A0200040A0400040A0600040A0800040A0A00040A0C00040A0E00040C0000040C0200040C0400040C0600040C08000
310
40C0A00040C0C00040C0E00040E0000040E0200040E0400040E0600040E0800040E0A00040E0C00040E0E00080000000800020008000400080006000800080008000A0008000C0008000E00080200000802020008020400080206000802080008020A0008020C0008020E00080400000804020008040400080406000804080
310
008040A0008040C0008040E00080600000806020008060400080606000806080008060A0008060C0008060E00080800000808020008080400080806000808080008080A0008080C0008080E00080A0000080A0200080A0400080A0600080A0800080A0A00080A0C00080A0E00080C0000080C0200080C0400080C0600080C0
310
800080C0A00080C0C00080C0E00080E0000080E0200080E0400080E0600080E0800080E0A00080E0C00080E0E000C0000000C0002000C0004000C0006000C0008000C000A000C000C000C000E000C0200000C0202000C0204000C0206000C0208000C020A000C020C000C020E000C0400000C0402000C0404000C0406000C0
310
408000C040A000C040C000C040E000C0600000C0602000C0604000C0606000C0608000C060A000C060C000C060E000C0800000C0802000C0804000C0806000C0808000C080A000C080C000C080E000C0A00000C0A02000C0A04000C0A06000C0A08000C0A0A000C0A0C000C0A0E000C0C00000C0C02000C0C04000C0C06000
310
C0C08000C0C0A000F0FBFF00A4A0A000808080000000FF0000FF000000FFFF00FF000000FF00FF00FFFF0000FFFFFF00FFFFFFFFFFFFFFFFFFFFFFFFFFFFFFFFFFFFFFFFFFFFFFFFFFFFFFFFFFFFFFFFFFFFFFFFFFFFFFFFFFFFFFFFFFFFFF000000FFFFFFFFFFFFFFFFFFFFFFFFFFFFFFFFFFFFFFFFFFFFFFFFFF00000000
310
FFFFFF00000000FFFFFFFFFFFFFFFFFFFFFFFFFFFFFFFFFFFF000000FFFFFFFFFFFFFFFFFFFFFF0000FFFFFFFFFFFFFFFFFFFFFFFFFFFFFF00FFFFFFFFFFFFFFFFFFFFFFFFFFFFFFFF00FFFFFFFFFFFFFFFFFFFFFFFFFF00FFFFFFFFFFFF000000000000FFFFFFFFFFFF00FFFFFFFFFFFFFFFFFFFFFF00FFFFFFFFFFFFFF00
310
FFFFFFFF00FFFFFFFFFFFFFF00FFFFFFFFFFFFFFFFFF00FFFFFFFFFFFFFFFF00FFFFFFFF00FFFFFFFFFFFFFFFF00FFFFFFFFFFFFFF00FFFFFFFFFFFFFFFFFF00FFFFFFFF00FFFFFFFFFFFFFFFFFF00FFFFFFFFFFFF00FFFFFFFFFFFFFFFFFF00FFFFFFFF00FFFFFFFFFFFFFFFFFF00FFFFFFFFFFFF00FFFFFFFFFFFFFFFFFF
310
00FFFFFFFF00FFFFFFFFFFFFFFFFFFFF00FFFFFFFF00FFFFFFFFFFFFFFFFFFFF00FFFFFFFF00FFFFFFFFFFFFFFFFFFFF00FFFFFFFF00FFFFFFFFFFFFFFFFFFFF00FFFFFFFF00FFFFFFFFFFFFFFFFFFFF00FFFFFFFF00FFFF000000000000000000FFFFFFFF000000000000000000FFFF00FFFFFFFF00FFFF00FFFFFFFFFFFF
310
FFFFFFFFFFFFFFFFFFFFFFFFFFFF00FFFFFF00FFFF00FFFFFF00FFFFFFFFFFFFFFFFFFFFFFFFFFFFFFFFFFFFFFFF00FFFFFF00FFFF00FFFFFF00FFFFFFFFFFFFFFFFFFFFFFFFFFFFFFFFFFFFFFFF00FFFFFF00FFFF00FFFFFF00FFFFFFFFFFFFFFFFFFFFFFFFFFFFFFFFFFFFFFFF00FFFFFF00FFFFFF00FFFF000000000000
310
000000FFFFFFFF000000000000000000FFFF00FFFFFFFF00FFFFFFFFFFFFFFFFFFFF00FFFFFFFF00FFFFFFFFFFFFFFFFFFFF00FFFFFFFF00FFFFFFFFFFFFFFFFFFFF00FFFFFFFF00FFFFFFFFFFFFFFFFFFFF00FFFFFFFF00FFFFFFFFFFFFFFFFFFFF00FFFFFFFF00FFFFFFFFFFFFFFFFFFFF00FFFFFFFFFF00FFFFFFFFFFFF
310
FFFFFF00FFFFFFFF00FFFFFFFFFFFFFFFFFF00FFFFFFFFFFFF00FFFFFFFFFFFFFFFFFF00FFFFFFFF00FFFFFFFFFFFFFFFFFF00FFFFFFFFFFFFFF00FFFFFFFFFFFFFFFF00FFFFFFFF00FFFFFFFFFFFFFFFF00FFFFFFFFFFFFFFFFFF00FFFFFFFFFFFFFF00FFFFFFFF00FFFFFFFFFFFFFF00FFFFFFFFFFFFFFFFFFFFFF00FFFF
310
FFFFFFFF000000000000FFFFFFFFFFFF00FFFFFFFFFFFFFFFFFFFFFFFFFF00FFFFFFFFFFFFFFFFFFFFFFFFFFFFFFFF00FFFFFFFFFFFFFFFFFFFFFFFFFFFFFF0000FFFFFFFFFFFFFFFFFFFFFFFF0000FFFFFFFFFFFFFFFFFFFFFFFFFFFFFFFFFFFF00000000FFFFFFFF00000000FFFFFFFFFFFFFFFFFFFFFFFFFFFFFFFFFFFF
310
FFFFFFFFFFFF00000000FFFFFFFFFFFFFFFFFFFFFFFFFFFFFFFFFFFFFFFFFFFFFFFFFFFFFFFFFFFFFFFFFFFFFFFFFFFFFFFFFFFFFFFFFFFF
102
{BLKREFS
331
B5DF
331
B5E0
102
}
  0
BLOCK_RECORD
  5
B685
330
1
100
AcDbSymbolTableRecord
100
AcDbBlockTableRecord
  2
*D36
340
0
  0
BLOCK_RECORD
  5
B691
330
1
100
AcDbSymbolTableRecord
100
AcDbBlockTableRecord
  2
*D37
340
0
  0
BLOCK_RECORD
  5
B70F
330
1
100
AcDbSymbolTableRecord
100
AcDbBlockTableRecord
  2
*D38
340
0
  0
BLOCK_RECORD
  5
B73E
330
1
100
AcDbSymbolTableRecord
100
AcDbBlockTableRecord
  2
*D39
340
0
  0
BLOCK_RECORD
  5
B74B
330
1
100
AcDbSymbolTableRecord
100
AcDbBlockTableRecord
  2
*D40
340
0
  0
BLOCK_RECORD
  5
B758
330
1
100
AcDbSymbolTableRecord
100
AcDbBlockTableRecord
  2
*D41
340
0
  0
ENDTAB
  0
ENDSEC
  0
SECTION
  2
BLOCKS
  0
BLOCK
  5
1B
330
1A
100
AcDbEntity
  8
0
100
AcDbBlockBegin
  2
*MODEL_SPACE
 70
     0
 10
0.0
 20
0.0
 30
0.0
  3
*MODEL_SPACE
  1

  0
ENDBLK
  5
1C
330
1A
100
AcDbEntity
  8
0
100
AcDbBlockEnd
  0
BLOCK
  5
18
330
17
100
AcDbEntity
 67
     1
  8
0
100
AcDbBlockBegin
  2
*PAPER_SPACE
 70
     0
 10
0.0
 20
0.0
 30
0.0
  3
*PAPER_SPACE
  1

  0
ENDBLK
  5
19
330
17
100
AcDbEntity
 67
     1
  8
0
100
AcDbBlockEnd
  0
BLOCK
  5
BB
330
BA
100
AcDbEntity
  8
0
100
AcDbBlockBegin
  2
_OPEN
 70
     0
 10
0.0
 20
0.0
 30
0.0
  3
_OPEN
  1

  0
LINE
  5
BC
330
BA
100
AcDbEntity
  8
0
  6
ByBlock
 62
     0
100
AcDbLine
 10
-1.0
 20
0.1666666666666666
 30
0.0
 11
0.0
 21
0.0
 31
0.0
  0
LINE
  5
BD
330
BA
100
AcDbEntity
  8
0
  6
ByBlock
 62
     0
100
AcDbLine
 10
0.0
 20
0.0
 30
0.0
 11
-1.0
 21
-0.1666666666666666
 31
0.0
  0
LINE
  5
BE
330
BA
100
AcDbEntity
  8
0
  6
ByBlock
 62
     0
100
AcDbLine
 10
0.0
 20
0.0
 30
0.0
 11
-1.0
 21
0.0
 31
0.0
  0
ENDBLK
  5
BF
330
BA
100
AcDbEntity
  8
0
100
AcDbBlockEnd
  0
BLOCK
  5
9CAE
330
9CAD
100
AcDbEntity
  8
0
100
AcDbBlockBegin
  2
A$C503A35A0
 70
     0
 10
0.0
 20
0.0
 30
0.0
  3
A$C503A35A0
  1

  0
LINE
  5
9CAF
330
9CAD
100
AcDbEntity
  8
SUNPOU
100
AcDbLine
 10
0.0000018342316253
 20
5.999998631677954
 30
0.0
 11
4.300001834231636
 21
5.999998631677954
 31
0.0
  0
LINE
  5
9CB0
330
9CAD
100
AcDbEntity
  8
SUNPOU
100
AcDbLine
 10
0.0000018342316253
 20
-0.0000013683220459
 30
0.0
 11
4.300001834231636
 21
-0.0000013683220459
 31
0.0
  0
LINE
  5
9CB1
330
9CAD
100
AcDbEntity
  8
SUNPOU
100
AcDbLine
 10
0.4343164092823884
 20
0.3343132067287229
 30
0.0
 11
1.565687259180862
 21
1.465684056627196
 31
0.0
  0
CIRCLE
  5
9CB2
330
9CAD
100
AcDbEntity
  8
SUNPOU
100
AcDbCircle
 10
1.000001834231625
 20
0.8999986316779597
 30
0.0
 40
0.8
  0
LINE
  5
9CB3
330
9CAD
100
AcDbEntity
  8
SUNPOU
100
AcDbLine
 10
0.0000018342316253
 20
-0.0000013683220459
 30
0.0
 11
0.0000018342316253
 21
5.999998631677954
 31
0.0
  0
LINE
  5
9CB4
330
9CAD
100
AcDbEntity
  8
SUNPOU
100
AcDbLine
 10
4.300001834231636
 20
-0.0000013683220459
 30
0.0
 11
4.300001834231636
 21
5.999998631677954
 31
0.0
  0
ENDBLK
  5
9CB5
330
9CAD
100
AcDbEntity
  8
0
100
AcDbBlockEnd
  0
BLOCK
  5
A197
330
A196
100
AcDbEntity
  8
0
100
AcDbBlockBegin
  2
RJ-5-2
 70
     0
 10
0.0
 20
0.0
 30
0.0
  3
RJ-5-2
  1

  0
LINE
  5
A199
330
A196
100
AcDbEntity
  8
SUNPOU
100
AcDbLine
 10
-7.749999999999971
 20
0.799999999999983
 30
0.0
 11
-6.749999999999943
 21
0.8000000000000113
 31
0.0
  0
LINE
  5
A19A
330
A196
100
AcDbEntity
  8
SUNPOU
100
AcDbLine
 10
-7.749999999999971
 20
-0.8000000000000397
 30
0.0
 11
-6.749999999999943
 21
-0.8000000000000397
 31
0.0
  0
LINE
  5
A19B
330
A196
100
AcDbEntity
  8
SUNPOU
100
AcDbLine
 10
-0.5
 20
0.0
 30
0.0
 11
0.5
 21
0.0
 31
0.0
  0
LINE
  5
A19C
330
A196
100
AcDbEntity
  8
SUNPOU
100
AcDbLine
 10
-7.749999999999971
 20
0.799999999999983
 30
0.0
 11
-7.749999999999971
 21
-0.8000000000000397
 31
0.0
  0
LINE
  5
A19D
330
A196
100
AcDbEntity
  8
SUNPOU
100
AcDbLine
 10
-6.749999999999971
 20
5.099999999999965
 30
0.0
 11
-6.749999999999971
 21
-0.9000000000000056
 31
0.0
  0
LINE
  5
A19E
330
A196
100
AcDbEntity
  8
SUNPOU
100
AcDbLine
 10
0.0000000000000284
 20
5.099999999999965
 30
0.0
 11
0.0
 21
-0.9000000000000056
 31
0.0
  0
LINE
  5
A19F
330
A196
100
AcDbEntity
  8
SUNPOU
100
AcDbLine
 10
-6.749999999999971
 20
-0.9000000000000056
 30
0.0
 11
0.0000000000000284
 21
-0.9000000000000056
 31
0.0
  0
LINE
  5
A1A0
330
A196
100
AcDbEntity
  8
SUNPOU
100
AcDbLine
 10
-6.749999999999943
 20
5.099999999999994
 30
0.0
 11
0.0
 21
5.099999999999965
 31
0.0
  0
ENDBLK
  5
A198
330
A196
100
AcDbEntity
  8
0
100
AcDbBlockEnd
  0
BLOCK
  5
A1E1
330
A1D6
100
AcDbEntity
  8
0
100
AcDbBlockBegin
  2
*D3
 70
     1
 10
0.0
 20
0.0
 30
0.0
  3
*D3
  1

  0
LINE
  5
AF19
330
A1D6
100
AcDbEntity
  8
SUNPOU
 62
     0
370
    -2
100
AcDbLine
 10
289.0
 20
110.0
 30
0.0
 11
274.5
 21
110.0
 31
0.0
  0
LINE
  5
AF1A
330
A1D6
100
AcDbEntity
  8
SUNPOU
 62
     0
370
    -2
100
AcDbLine
 10
289.0
 20
108.4
 30
0.0
 11
274.5
 21
108.4
 31
0.0
  0
LINE
  5
AF1B
330
A1D6
100
AcDbEntity
  8
SUNPOU
 62
     0
370
    -2
100
AcDbLine
 10
275.0
 20
112.5
 30
0.0
 11
275.0
 21
115.0
 31
0.0
  0
LINE
  5
AF1C
330
A1D6
100
AcDbEntity
  8
SUNPOU
 62
     0
370
    -2
100
AcDbLine
 10
275.0
 20
105.9
 30
0.0
 11
275.0
 21
97.51904761904764
 31
0.0
  0
INSERT
  5
AF1D
330
A1D6
100
AcDbEntity
  8
SUNPOU
 62
     0
370
    -2
100
AcDbBlockReference
  2
_OPEN
 10
275.0
 20
110.0
 30
0.0
 41
2.5
 42
2.5
 43
2.5
 50
270.0
  0
INSERT
  5
AF1E
330
A1D6
100
AcDbEntity
  8
SUNPOU
 62
     0
370
    -2
100
AcDbBlockReference
  2
_OPEN
 10
275.0
 20
108.4
 30
0.0
 41
2.5
 42
2.5
 43
2.5
 50
90.0
  0
MTEXT
  5
AF1F
330
A1D6
100
AcDbEntity
  8
SUNPOU
 62
     0
100
AcDbMText
 10
273.25
 20
100.4595238095238
 30
0.0
 40
2.5
 41
0.0
 71
     5
 72
     1
  1
\A1;1.6
 11
0.0000000000000001
 21
1.0
 31
0.0
 73
     1
 44
1.0
1001
ACAD
1000
MTEXTBEGIN
1070
    73
1070
     1
1070
    44
1040
1.0
1070
    74
1070
     0
1000
MTEXTEND
  0
POINT
  5
AF20
330
A1D6
100
AcDbEntity
  8
DEFPOINTS
 62
     0
100
AcDbPoint
 10
289.5
 20
110.0
 30
0.0
  0
POINT
  5
AF21
330
A1D6
100
AcDbEntity
  8
DEFPOINTS
 62
     0
100
AcDbPoint
 10
289.5
 20
108.4
 30
0.0
  0
POINT
  5
AF22
330
A1D6
100
AcDbEntity
  8
DEFPOINTS
 62
     0
100
AcDbPoint
 10
275.0
 20
108.4
 30
0.0
  0
ENDBLK
  5
A1E2
330
A1D6
100
AcDbEntity
  8
0
100
AcDbBlockEnd
  0
BLOCK
  5
A1F9
330
A1EE
100
AcDbEntity
  8
0
100
AcDbBlockBegin
  2
*D4
 70
     1
 10
0.0
 20
0.0
 30
0.0
  3
*D4
  1

  0
LINE
  5
AF0F
330
A1EE
100
AcDbEntity
  8
SUNPOU
 62
     0
370
    -2
100
AcDbLine
 10
335.0
 20
118.0
 30
0.0
 11
345.5
 21
118.0
 31
0.0
  0
LINE
  5
AF10
330
A1EE
100
AcDbEntity
  8
SUNPOU
 62
     0
370
    -2
100
AcDbLine
 10
335.0
 20
110.0
 30
0.0
 11
345.5
 21
110.0
 31
0.0
  0
LINE
  5
AF11
330
A1EE
100
AcDbEntity
  8
SUNPOU
 62
     0
370
    -2
100
AcDbLine
 10
345.0
 20
112.5
 30
0.0
 11
345.0
 21
115.5
 31
0.0
  0
LINE
  5
AF12
330
A1EE
100
AcDbEntity
  8
SUNPOU
 62
     0
370
    -2
100
AcDbLine
 10
345.0
 20
118.0
 30
0.0
 11
345.0
 21
127.9285714285714
 31
0.0
  0
INSERT
  5
AF13
330
A1EE
100
AcDbEntity
  8
SUNPOU
 62
     0
370
    -2
100
AcDbBlockReference
  2
_OPEN
 10
345.0
 20
110.0
 30
0.0
 41
2.5
 42
2.5
 43
2.5
 50
270.0
  0
INSERT
  5
AF14
330
A1EE
100
AcDbEntity
  8
SUNPOU
 62
     0
370
    -2
100
AcDbBlockReference
  2
_OPEN
 10
345.0
 20
118.0
 30
0.0
 41
2.5
 42
2.5
 43
2.5
 50
90.0
  0
MTEXT
  5
AF15
330
A1EE
100
AcDbEntity
  8
SUNPOU
 62
     0
100
AcDbMText
 10
343.25
 20
124.8095238095238
 30
0.0
 40
2.5
 41
0.0
 71
     5
 72
     1
  1
\A1;8.0
 11
0.0000000000000001
 21
1.0
 31
0.0
 73
     1
 44
1.0
1001
ACAD
1000
MTEXTBEGIN
1070
    73
1070
     1
1070
    44
1040
1.0
1070
    74
1070
     0
1000
MTEXTEND
  0
POINT
  5
AF16
330
A1EE
100
AcDbEntity
  8
DEFPOINTS
 62
     0
100
AcDbPoint
 10
334.5
 20
118.0
 30
0.0
  0
POINT
  5
AF17
330
A1EE
100
AcDbEntity
  8
DEFPOINTS
 62
     0
100
AcDbPoint
 10
334.5
 20
110.0
 30
0.0
  0
POINT
  5
AF18
330
A1EE
100
AcDbEntity
  8
DEFPOINTS
 62
     0
100
AcDbPoint
 10
345.0
 20
110.0
 30
0.0
  0
ENDBLK
  5
A1FA
330
A1EE
100
AcDbEntity
  8
0
100
AcDbBlockEnd
  0
BLOCK
  5
A21B
330
A210
100
AcDbEntity
  8
0
100
AcDbBlockBegin
  2
*D5
 70
     1
 10
0.0
 20
0.0
 30
0.0
  3
*D5
  1

  0
LINE
  5
AF06
330
A210
100
AcDbEntity
  8
SUNPOU
 62
     0
370
    -2
100
AcDbLine
 10
335.0
 20
108.4
 30
0.0
 11
350.5
 21
108.4
 31
0.0
  0
LINE
  5
AF07
330
A210
100
AcDbEntity
  8
SUNPOU
 62
     0
370
    -2
100
AcDbLine
 10
335.0
 20
101.9
 30
0.0
 11
350.5
 21
101.9
 31
0.0
  0
LINE
  5
AF08
330
A210
100
AcDbEntity
  8
SUNPOU
 62
     0
370
    -2
100
AcDbLine
 10
350.0
 20
105.8999999999999
 30
0.0
 11
350.0
 21
104.4
 31
0.0
  0
INSERT
  5
AF09
330
A210
100
AcDbEntity
  8
SUNPOU
 62
     0
370
    -2
100
AcDbBlockReference
  2
_OPEN
 10
350.0
 20
108.4
 30
0.0
 41
2.5
 42
2.5
 43
2.5
 50
90.0
  0
INSERT
  5
AF0A
330
A210
100
AcDbEntity
  8
SUNPOU
 62
     0
370
    -2
100
AcDbBlockReference
  2
_OPEN
 10
350.0
 20
101.9
 30
0.0
 41
2.5
 42
2.5
 43
2.5
 50
270.0
  0
MTEXT
  5
AF0B
330
A210
100
AcDbEntity
  8
SUNPOU
 62
     0
100
AcDbMText
 10
348.25
 20
105.15
 30
0.0
 40
2.5
 41
0.0
 71
     5
 72
     1
  1
\A1;6.5
 11
0.0000000000000001
 21
1.0
 31
0.0
 73
     1
 44
1.0
1001
ACAD
1000
MTEXTBEGIN
1070
    73
1070
     1
1070
    44
1040
1.0
1070
    74
1070
     0
1000
MTEXTEND
  0
POINT
  5
AF0C
330
A210
100
AcDbEntity
  8
DEFPOINTS
 62
     0
100
AcDbPoint
 10
334.5
 20
108.4
 30
0.0
  0
POINT
  5
AF0D
330
A210
100
AcDbEntity
  8
DEFPOINTS
 62
     0
100
AcDbPoint
 10
334.5
 20
101.9
 30
0.0
  0
POINT
  5
AF0E
330
A210
100
AcDbEntity
  8
DEFPOINTS
 62
     0
100
AcDbPoint
 10
350.0
 20
101.9
 30
0.0
  0
ENDBLK
  5
A21C
330
A210
100
AcDbEntity
  8
0
100
AcDbBlockEnd
  0
BLOCK
  5
A274
330
A26A
100
AcDbEntity
  8
0
100
AcDbBlockBegin
  2
*D6
 70
     1
 10
0.0
 20
0.0
 30
0.0
  3
*D6
  1

  0
LINE
  5
AEFD
330
A26A
100
AcDbEntity
  8
SUNPOU
 62
     0
370
    -2
100
AcDbLine
 10
289.5
 20
187.5
 30
0.0
 11
289.5
 21
210.0
 31
0.0
  0
LINE
  5
AEFE
330
A26A
100
AcDbEntity
  8
SUNPOU
 62
     0
370
    -2
100
AcDbLine
 10
334.5
 20
187.5
 30
0.0
 11
334.5
 21
210.0
 31
0.0
  0
LINE
  5
AEFF
330
A26A
100
AcDbEntity
  8
SUNPOU
 62
     0
370
    -2
100
AcDbLine
 10
292.0
 20
209.5
 30
0.0
 11
332.0
 21
209.5
 31
0.0
  0
INSERT
  5
AF00
330
A26A
100
AcDbEntity
  8
SUNPOU
 62
     0
370
    -2
100
AcDbBlockReference
  2
_OPEN
 10
289.5
 20
209.5
 30
0.0
 41
2.5
 42
2.5
 43
2.5
 50
180.0
  0
INSERT
  5
AF01
330
A26A
100
AcDbEntity
  8
SUNPOU
 62
     0
370
    -2
100
AcDbBlockReference
  2
_OPEN
 10
334.5
 20
209.5
 30
0.0
 41
2.5
 42
2.5
 43
2.5
  0
MTEXT
  5
AF02
330
A26A
100
AcDbEntity
  8
SUNPOU
 62
     0
100
AcDbMText
 10
312.0
 20
211.25
 30
0.0
 40
2.5
 41
0.0
 71
     5
 72
     1
  1
\A1;45.0
 73
     1
 44
1.0
1001
ACAD
1000
MTEXTBEGIN
1070
    73
1070
     1
1070
    44
1040
1.0
1070
    74
1070
     0
1000
MTEXTEND
  0
POINT
  5
AF03
330
A26A
100
AcDbEntity
  8
DEFPOINTS
 62
     0
100
AcDbPoint
 10
289.5
 20
187.0
 30
0.0
  0
POINT
  5
AF04
330
A26A
100
AcDbEntity
  8
DEFPOINTS
 62
     0
100
AcDbPoint
 10
334.5
 20
187.0
 30
0.0
  0
POINT
  5
AF05
330
A26A
100
AcDbEntity
  8
DEFPOINTS
 62
     0
100
AcDbPoint
 10
334.5
 20
209.5
 30
0.0
  0
ENDBLK
  5
A275
330
A26A
100
AcDbEntity
  8
0
100
AcDbBlockEnd
  0
BLOCK
  5
A281
330
A277
100
AcDbEntity
  8
0
100
AcDbBlockBegin
  2
*D7
 70
     1
 10
0.0
 20
0.0
 30
0.0
  3
*D7
  1

  0
LINE
  5
B099
330
A277
100
AcDbEntity
  8
SUNPOU
 62
     0
370
    -2
100
AcDbLine
 10
248.9
 20
187.0
 30
0.0
 11
229.5
 21
187.0
 31
0.0
  0
LINE
  5
B09A
330
A277
100
AcDbEntity
  8
SUNPOU
 62
     0
370
    -2
100
AcDbLine
 10
248.9
 20
143.0
 30
0.0
 11
229.5
 21
143.0
 31
0.0
  0
LINE
  5
B09B
330
A277
100
AcDbEntity
  8
SUNPOU
 62
     0
370
    -2
100
AcDbLine
 10
230.0
 20
184.5
 30
0.0
 11
230.0
 21
145.5
 31
0.0
  0
INSERT
  5
B09C
330
A277
100
AcDbEntity
  8
SUNPOU
 62
     0
370
    -2
100
AcDbBlockReference
  2
_OPEN
 10
230.0
 20
187.0
 30
0.0
 41
2.5
 42
2.5
 43
2.5
 50
90.0
  0
INSERT
  5
B09D
330
A277
100
AcDbEntity
  8
SUNPOU
 62
     0
370
    -2
100
AcDbBlockReference
  2
_OPEN
 10
230.0
 20
143.0
 30
0.0
 41
2.5
 42
2.5
 43
2.5
 50
270.0
  0
MTEXT
  5
B09E
330
A277
100
AcDbEntity
  8
SUNPOU
 62
     0
100
AcDbMText
 10
228.25
 20
165.0000000000001
 30
0.0
 40
2.5
 41
0.0
 71
     5
 72
     1
  1
\A1;44.0
 11
0.0000000000000001
 21
1.0
 31
0.0
 73
     1
 44
1.0
1001
ACAD
1000
MTEXTBEGIN
1070
    73
1070
     1
1070
    44
1040
1.0
1070
    74
1070
     0
1000
MTEXTEND
  0
POINT
  5
B09F
330
A277
100
AcDbEntity
  8
DEFPOINTS
 62
     0
100
AcDbPoint
 10
249.4
 20
187.0
 30
0.0
  0
POINT
  5
B0A0
330
A277
100
AcDbEntity
  8
DEFPOINTS
 62
     0
100
AcDbPoint
 10
249.4
 20
143.0
 30
0.0
  0
POINT
  5
B0A1
330
A277
100
AcDbEntity
  8
DEFPOINTS
 62
     0
100
AcDbPoint
 10
230.0
 20
143.0
 30
0.0
  0
ENDBLK
  5
A282
330
A277
100
AcDbEntity
  8
0
100
AcDbBlockEnd
  0
BLOCK
  5
A28E
330
A284
100
AcDbEntity
  8
0
100
AcDbBlockBegin
  2
*D8
 70
     1
 10
0.0
 20
0.0
 30
0.0
  3
*D8
  1

  0
LINE
  5
AEEB
330
A284
100
AcDbEntity
  8
SUNPOU
 62
     0
370
    -2
100
AcDbLine
 10
293.5
 20
170.0
 30
0.0
 11
293.5
 21
202.5
 31
0.0
  0
LINE
  5
AEEC
330
A284
100
AcDbEntity
  8
SUNPOU
 62
     0
370
    -2
100
AcDbLine
 10
330.5
 20
170.0
 30
0.0
 11
330.5
 21
202.5
 31
0.0
  0
LINE
  5
AEED
330
A284
100
AcDbEntity
  8
SUNPOU
 62
     0
370
    -2
100
AcDbLine
 10
296.0
 20
202.0
 30
0.0
 11
328.0
 21
202.0
 31
0.0
  0
INSERT
  5
AEEE
330
A284
100
AcDbEntity
  8
SUNPOU
 62
     0
370
    -2
100
AcDbBlockReference
  2
_OPEN
 10
293.5
 20
202.0
 30
0.0
 41
2.5
 42
2.5
 43
2.5
 50
180.0
  0
INSERT
  5
AEEF
330
A284
100
AcDbEntity
  8
SUNPOU
 62
     0
370
    -2
100
AcDbBlockReference
  2
_OPEN
 10
330.5
 20
202.0
 30
0.0
 41
2.5
 42
2.5
 43
2.5
  0
MTEXT
  5
AEF0
330
A284
100
AcDbEntity
  8
SUNPOU
 62
     0
100
AcDbMText
 10
312.0
 20
203.75
 30
0.0
 40
2.5
 41
0.0
 71
     5
 72
     1
  1
\A1;37.0
 73
     1
 44
1.0
1001
ACAD
1000
MTEXTBEGIN
1070
    73
1070
     1
1070
    44
1040
1.0
1070
    74
1070
     0
1000
MTEXTEND
  0
POINT
  5
AEF1
330
A284
100
AcDbEntity
  8
DEFPOINTS
 62
     0
100
AcDbPoint
 10
293.5
 20
169.5
 30
0.0
  0
POINT
  5
AEF2
330
A284
100
AcDbEntity
  8
DEFPOINTS
 62
     0
100
AcDbPoint
 10
330.5
 20
169.5
 30
0.0
  0
POINT
  5
AEF3
330
A284
100
AcDbEntity
  8
DEFPOINTS
 62
     0
100
AcDbPoint
 10
330.5
 20
202.0
 30
0.0
  0
ENDBLK
  5
A28F
330
A284
100
AcDbEntity
  8
0
100
AcDbBlockEnd
  0
BLOCK
  5
A746
330
A745
100
AcDbEntity
  8
0
100
AcDbBlockBegin
  2
PH-5P-1
 70
     0
 10
0.0
 20
0.0
 30
0.0
  3
PH-5P-1
  1

  0
CIRCLE
  5
A748
330
A745
100
AcDbEntity
  8
0
100
AcDbCircle
 10
4.0
 20
1.0
 30
0.0
 40
0.25
  0
LINE
  5
A749
330
A745
100
AcDbEntity
  8
SUNPOU
100
AcDbLine
 10
0.0
 20
0.5
 30
0.0
 11
0.0
 21
-0.5
 31
0.0
  0
LINE
  5
A74A
330
A745
100
AcDbEntity
  8
SUNPOU
100
AcDbLine
 10
3.699999999999931
 20
-3.250000000000028
 30
0.0
 11
4.299999999999954
 21
-3.250000000000028
 31
0.0
  0
LINE
  5
A74B
330
A745
100
AcDbEntity
  8
SUNPOU
100
AcDbLine
 10
3.699999999999988
 20
0.0
 30
0.0
 11
3.699999999999931
 21
-3.250000000000028
 31
0.0
  0
LINE
  5
A74C
330
A745
100
AcDbEntity
  8
SUNPOU
100
AcDbLine
 10
4.299999999999954
 20
-3.25
 30
0.0
 11
4.299999999999982
 21
0.0
 31
0.0
  0
LINE
  5
A74D
330
A745
100
AcDbEntity
  8
SUNPOU
100
AcDbLine
 10
4.149999999999977
 20
-3.400000000000005
 30
0.0
 11
4.299999999999954
 21
-3.25
 31
0.0
  0
LINE
  5
A74E
330
A745
100
AcDbEntity
  8
SUNPOU
100
AcDbLine
 10
3.849999999999965
 20
-3.400000000000034
 30
0.0
 11
4.149999999999977
 21
-3.400000000000005
 31
0.0
  0
LINE
  5
A74F
330
A745
100
AcDbEntity
  8
SUNPOU
100
AcDbLine
 10
3.699999999999931
 20
-3.250000000000028
 30
0.0
 11
3.849999999999965
 21
-3.400000000000034
 31
0.0
  0
LINE
  5
A750
330
A745
100
AcDbEntity
  8
SUNPOU
100
AcDbLine
 10
-4.300000000000068
 20
-3.250000000000028
 30
0.0
 11
-4.150000000000034
 21
-3.400000000000034
 31
0.0
  0
LINE
  5
A751
330
A745
100
AcDbEntity
  8
SUNPOU
100
AcDbLine
 10
-4.150000000000034
 20
-3.400000000000034
 30
0.0
 11
-3.850000000000022
 21
-3.400000000000005
 31
0.0
  0
LINE
  5
A752
330
A745
100
AcDbEntity
  8
SUNPOU
100
AcDbLine
 10
-3.850000000000022
 20
-3.400000000000005
 30
0.0
 11
-3.700000000000045
 21
-3.25
 31
0.0
  0
LINE
  5
A753
330
A745
100
AcDbEntity
  8
SUNPOU
100
AcDbLine
 10
-3.700000000000045
 20
-3.25
 30
0.0
 11
-3.699999999999988
 21
0.0
 31
0.0
  0
LINE
  5
A754
330
A745
100
AcDbEntity
  8
SUNPOU
100
AcDbLine
 10
-4.300000000000096
 20
0.0
 30
0.0
 11
-4.300000000000068
 21
-3.250000000000028
 31
0.0
  0
LINE
  5
A755
330
A745
100
AcDbEntity
  8
SUNPOU
100
AcDbLine
 10
-4.300000000000068
 20
-3.250000000000028
 30
0.0
 11
-3.700000000000045
 21
-3.250000000000028
 31
0.0
  0
LINE
  5
A756
330
A745
100
AcDbEntity
  8
SUNPOU
100
AcDbLine
 10
-2.300000000000068
 20
-3.250000000000028
 30
0.0
 11
-1.700000000000045
 21
-3.250000000000028
 31
0.0
  0
LINE
  5
A757
330
A745
100
AcDbEntity
  8
SUNPOU
100
AcDbLine
 10
-2.300000000000096
 20
0.0
 30
0.0
 11
-2.300000000000068
 21
-3.250000000000028
 31
0.0
  0
LINE
  5
A758
330
A745
100
AcDbEntity
  8
SUNPOU
100
AcDbLine
 10
-1.700000000000045
 20
-3.25
 30
0.0
 11
-1.699999999999988
 21
0.0
 31
0.0
  0
LINE
  5
A759
330
A745
100
AcDbEntity
  8
SUNPOU
100
AcDbLine
 10
-1.850000000000022
 20
-3.400000000000005
 30
0.0
 11
-1.700000000000045
 21
-3.25
 31
0.0
  0
LINE
  5
A75A
330
A745
100
AcDbEntity
  8
SUNPOU
100
AcDbLine
 10
-2.150000000000034
 20
-3.400000000000034
 30
0.0
 11
-1.850000000000022
 21
-3.400000000000005
 31
0.0
  0
LINE
  5
A75B
330
A745
100
AcDbEntity
  8
SUNPOU
100
AcDbLine
 10
-2.300000000000068
 20
-3.250000000000028
 30
0.0
 11
-2.150000000000034
 21
-3.400000000000034
 31
0.0
  0
LINE
  5
A75C
330
A745
100
AcDbEntity
  8
SUNPOU
100
AcDbLine
 10
1.699999999999931
 20
-3.250000000000028
 30
0.0
 11
1.849999999999965
 21
-3.400000000000034
 31
0.0
  0
LINE
  5
A75D
330
A745
100
AcDbEntity
  8
SUNPOU
100
AcDbLine
 10
1.849999999999965
 20
-3.400000000000034
 30
0.0
 11
2.149999999999977
 21
-3.400000000000005
 31
0.0
  0
LINE
  5
A75E
330
A745
100
AcDbEntity
  8
SUNPOU
100
AcDbLine
 10
2.149999999999977
 20
-3.400000000000005
 30
0.0
 11
2.299999999999954
 21
-3.25
 31
0.0
  0
LINE
  5
A75F
330
A745
100
AcDbEntity
  8
SUNPOU
100
AcDbLine
 10
2.299999999999954
 20
-3.25
 30
0.0
 11
2.299999999999982
 21
0.0
 31
0.0
  0
LINE
  5
A760
330
A745
100
AcDbEntity
  8
SUNPOU
100
AcDbLine
 10
1.699999999999988
 20
0.0
 30
0.0
 11
1.699999999999931
 21
-3.250000000000028
 31
0.0
  0
LINE
  5
A761
330
A745
100
AcDbEntity
  8
SUNPOU
100
AcDbLine
 10
1.699999999999931
 20
-3.250000000000028
 30
0.0
 11
2.299999999999954
 21
-3.250000000000028
 31
0.0
  0
LINE
  5
A762
330
A745
100
AcDbEntity
  8
SUNPOU
100
AcDbLine
 10
-0.3000000000000682
 20
-3.250000000000028
 30
0.0
 11
0.2999999999999545
 21
-3.250000000000028
 31
0.0
  0
LINE
  5
A763
330
A745
100
AcDbEntity
  8
SUNPOU
100
AcDbLine
 10
-0.3000000000000398
 20
0.0
 30
0.0
 11
-0.3000000000000682
 21
-3.250000000000028
 31
0.0
  0
LINE
  5
A764
330
A745
100
AcDbEntity
  8
SUNPOU
100
AcDbLine
 10
0.2999999999999545
 20
-3.25
 30
0.0
 11
0.3000000000000114
 21
0.0
 31
0.0
  0
LINE
  5
A765
330
A745
100
AcDbEntity
  8
SUNPOU
100
AcDbLine
 10
0.1499999999999773
 20
-3.400000000000005
 30
0.0
 11
0.2999999999999545
 21
-3.25
 31
0.0
  0
LINE
  5
A766
330
A745
100
AcDbEntity
  8
SUNPOU
100
AcDbLine
 10
-0.1500000000000341
 20
-3.400000000000034
 30
0.0
 11
0.1499999999999773
 21
-3.400000000000005
 31
0.0
  0
LINE
  5
A767
330
A745
100
AcDbEntity
  8
SUNPOU
100
AcDbLine
 10
-0.3000000000000682
 20
-3.250000000000028
 30
0.0
 11
-0.1500000000000341
 21
-3.400000000000034
 31
0.0
  0
LINE
  5
A768
330
A745
100
AcDbEntity
  8
SUNPOU
100
AcDbLine
 10
-3.69999999999996
 20
4.849999999999994
 30
0.0
 11
-3.849999999999994
 21
5.0
 31
0.0
  0
LINE
  5
A769
330
A745
100
AcDbEntity
  8
SUNPOU
100
AcDbLine
 10
-3.849999999999994
 20
5.0
 30
0.0
 11
-3.94999999999996
 21
4.999999999999971
 31
0.0
  0
LINE
  5
A76A
330
A745
100
AcDbEntity
  8
SUNPOU
100
AcDbLine
 10
-3.69999999999996
 20
2.0
 30
0.0
 11
-3.69999999999996
 21
4.849999999999994
 31
0.0
  0
LINE
  5
A76B
330
A745
100
AcDbEntity
  8
SUNPOU
100
AcDbLine
 10
-3.69999999999996
 20
4.849999999999994
 30
0.0
 11
-3.94999999999996
 21
4.849999999999994
 31
0.0
  0
LINE
  5
A76C
330
A745
100
AcDbEntity
  8
SUNPOU
100
AcDbLine
 10
0.3000000000000398
 20
4.849999999999994
 30
0.0
 11
0.1500000000000057
 21
5.0
 31
0.0
  0
LINE
  5
A76D
330
A745
100
AcDbEntity
  8
SUNPOU
100
AcDbLine
 10
0.1500000000000057
 20
5.0
 30
0.0
 11
-0.1500000000000057
 21
4.999999999999971
 31
0.0
  0
LINE
  5
A76E
330
A745
100
AcDbEntity
  8
SUNPOU
100
AcDbLine
 10
-0.1500000000000057
 20
4.999999999999971
 30
0.0
 11
-0.2999999999999829
 21
4.849999999999965
 31
0.0
  0
LINE
  5
A76F
330
A745
100
AcDbEntity
  8
SUNPOU
100
AcDbLine
 10
-0.2999999999999829
 20
4.849999999999965
 30
0.0
 11
-0.2999999999999545
 21
2.0
 31
0.0
  0
LINE
  5
A770
330
A745
100
AcDbEntity
  8
SUNPOU
100
AcDbLine
 10
0.3000000000000114
 20
1.999999999999971
 30
0.0
 11
0.3000000000000398
 21
4.849999999999994
 31
0.0
  0
LINE
  5
A771
330
A745
100
AcDbEntity
  8
SUNPOU
100
AcDbLine
 10
0.3000000000000398
 20
4.849999999999994
 30
0.0
 11
-0.2999999999999829
 21
4.849999999999994
 31
0.0
  0
LINE
  5
A772
330
A745
100
AcDbEntity
  8
SUNPOU
100
AcDbLine
 10
-1.69999999999996
 20
4.849999999999994
 30
0.0
 11
-2.299999999999982
 21
4.849999999999994
 31
0.0
  0
LINE
  5
A773
330
A745
100
AcDbEntity
  8
SUNPOU
100
AcDbLine
 10
-1.699999999999988
 20
2.0
 30
0.0
 11
-1.69999999999996
 21
4.849999999999994
 31
0.0
  0
LINE
  5
A774
330
A745
100
AcDbEntity
  8
SUNPOU
100
AcDbLine
 10
-2.299999999999982
 20
4.849999999999965
 30
0.0
 11
-2.299999999999982
 21
2.0
 31
0.0
  0
LINE
  5
A775
330
A745
100
AcDbEntity
  8
SUNPOU
100
AcDbLine
 10
-2.150000000000005
 20
4.999999999999971
 30
0.0
 11
-2.299999999999982
 21
4.849999999999965
 31
0.0
  0
LINE
  5
A776
330
A745
100
AcDbEntity
  8
SUNPOU
100
AcDbLine
 10
-1.849999999999994
 20
5.0
 30
0.0
 11
-2.150000000000005
 21
4.999999999999971
 31
0.0
  0
LINE
  5
A777
330
A745
100
AcDbEntity
  8
SUNPOU
100
AcDbLine
 10
-1.69999999999996
 20
4.849999999999994
 30
0.0
 11
-1.849999999999994
 21
5.0
 31
0.0
  0
LINE
  5
A778
330
A745
100
AcDbEntity
  8
SUNPOU
100
AcDbLine
 10
2.300000000000039
 20
4.849999999999994
 30
0.0
 11
2.150000000000005
 21
5.0
 31
0.0
  0
LINE
  5
A779
330
A745
100
AcDbEntity
  8
SUNPOU
100
AcDbLine
 10
2.150000000000005
 20
5.0
 30
0.0
 11
1.849999999999994
 21
4.999999999999971
 31
0.0
  0
LINE
  5
A77A
330
A745
100
AcDbEntity
  8
SUNPOU
100
AcDbLine
 10
1.849999999999994
 20
4.999999999999971
 30
0.0
 11
1.700000000000017
 21
4.849999999999965
 31
0.0
  0
LINE
  5
A77B
330
A745
100
AcDbEntity
  8
SUNPOU
100
AcDbLine
 10
1.700000000000017
 20
4.849999999999965
 30
0.0
 11
1.699999999999988
 21
2.0
 31
0.0
  0
LINE
  5
A77C
330
A745
100
AcDbEntity
  8
SUNPOU
100
AcDbLine
 10
2.300000000000039
 20
1.999999999999971
 30
0.0
 11
2.300000000000039
 21
4.849999999999994
 31
0.0
  0
LINE
  5
A77D
330
A745
100
AcDbEntity
  8
SUNPOU
100
AcDbLine
 10
2.300000000000039
 20
4.849999999999994
 30
0.0
 11
1.700000000000017
 21
4.849999999999994
 31
0.0
  0
LINE
  5
A77E
330
A745
100
AcDbEntity
  8
SUNPOU
100
AcDbLine
 10
3.949999999999988
 20
4.850000000000022
 30
0.0
 11
3.700000000000017
 21
4.849999999999994
 31
0.0
  0
LINE
  5
A77F
330
A745
100
AcDbEntity
  8
SUNPOU
100
AcDbLine
 10
3.700000000000017
 20
4.849999999999965
 30
0.0
 11
3.700000000000045
 21
2.0
 31
0.0
  0
LINE
  5
A780
330
A745
100
AcDbEntity
  8
SUNPOU
100
AcDbLine
 10
3.849999999999994
 20
4.999999999999971
 30
0.0
 11
3.700000000000017
 21
4.849999999999965
 31
0.0
  0
LINE
  5
A781
330
A745
100
AcDbEntity
  8
SUNPOU
100
AcDbLine
 10
3.949999999999988
 20
4.999999999999971
 30
0.0
 11
3.849999999999994
 21
4.999999999999971
 31
0.0
  0
LINE
  5
A782
330
A745
100
AcDbEntity
  8
0
100
AcDbLine
 10
-3.94999999999996
 20
2.0
 30
0.0
 11
3.949999999999988
 21
1.999999999999971
 31
0.0
  0
LINE
  5
A783
330
A745
100
AcDbEntity
  8
0
100
AcDbLine
 10
3.949999999999988
 20
6.0
 30
0.0
 11
3.949999999999988
 21
1.999999999999971
 31
0.0
  0
LINE
  5
A784
330
A745
100
AcDbEntity
  8
0
100
AcDbLine
 10
-3.94999999999996
 20
6.0
 30
0.0
 11
-3.94999999999996
 21
2.0
 31
0.0
  0
LINE
  5
A785
330
A745
100
AcDbEntity
  8
0
100
AcDbLine
 10
-5.94999999999996
 20
6.0
 30
0.0
 11
5.949999999999988
 21
6.0
 31
0.0
  0
LINE
  5
A786
330
A745
100
AcDbEntity
  8
0
100
AcDbLine
 10
5.949999999999988
 20
6.0
 30
0.0
 11
5.949999999999988
 21
0.0
 31
0.0
  0
LINE
  5
A787
330
A745
100
AcDbEntity
  8
0
100
AcDbLine
 10
-5.94999999999996
 20
6.0
 30
0.0
 11
-5.94999999999996
 21
0.0
 31
0.0
  0
LINE
  5
A788
330
A745
100
AcDbEntity
  8
0
100
AcDbLine
 10
-5.94999999999996
 20
0.0
 30
0.0
 11
5.949999999999988
 21
0.0
 31
0.0
  0
ENDBLK
  5
A747
330
A745
100
AcDbEntity
  8
0
100
AcDbBlockEnd
  0
BLOCK
  5
A78B
330
A78A
100
AcDbEntity
  8
0
100
AcDbBlockBegin
  2
PH-5P-2
 70
     0
 10
0.0
 20
0.0
 30
0.0
  3
PH-5P-2
  1

  0
LINE
  5
A78D
330
A78A
100
AcDbEntity
  8
SUNPOU
100
AcDbLine
 10
0.3000000000000682
 20
4.849999999999994
 30
0.0
 11
-0.1999999999999886
 21
4.849999999999994
 31
0.0
  0
LINE
  5
A78E
330
A78A
100
AcDbEntity
  8
SUNPOU
100
AcDbLine
 10
0.3000000000000682
 20
4.0
 30
0.0
 11
0.3000000000000682
 21
4.849999999999994
 31
0.0
  0
LINE
  5
A78F
330
A78A
100
AcDbEntity
  8
SUNPOU
100
AcDbLine
 10
-0.1499999999999773
 20
4.999999999999971
 30
0.0
 11
-0.2000000000000455
 21
4.949999999999931
 31
0.0
  0
LINE
  5
A790
330
A78A
100
AcDbEntity
  8
SUNPOU
100
AcDbLine
 10
0.1499999999999773
 20
5.0
 30
0.0
 11
-0.1499999999999773
 21
4.999999999999971
 31
0.0
  0
LINE
  5
A791
330
A78A
100
AcDbEntity
  8
SUNPOU
100
AcDbLine
 10
0.3000000000000682
 20
4.849999999999994
 30
0.0
 11
0.1499999999999773
 21
5.0
 31
0.0
  0
LINE
  5
A792
330
A78A
100
AcDbEntity
  8
0
100
AcDbLine
 10
0.8000000000000113
 20
6.0
 30
0.0
 11
2.800000000000011
 21
6.0
 31
0.0
  0
LINE
  5
A793
330
A78A
100
AcDbEntity
  8
0
100
AcDbLine
 10
0.8000000000000113
 20
4.5
 30
0.0
 11
0.8000000000000113
 21
6.0
 31
0.0
  0
LINE
  5
A794
330
A78A
100
AcDbEntity
  8
0
100
AcDbLine
 10
-0.1999999999999886
 20
4.5
 30
0.0
 11
-0.1999999999999886
 21
6.0
 31
0.0
  0
ARC
  5
A795
330
A78A
100
AcDbEntity
  8
0
100
AcDbCircle
 10
0.3000000000000114
 20
4.5
 30
0.0
 40
0.5
100
AcDbArc
 50
180.0
 51
0.0
  0
LINE
  5
A796
330
A78A
100
AcDbEntity
  8
SUNPOU
100
AcDbLine
 10
-0.3000000000000682
 20
-3.250000000000028
 30
0.0
 11
-0.1500000000000341
 21
-3.400000000000034
 31
0.0
  0
LINE
  5
A797
330
A78A
100
AcDbEntity
  8
SUNPOU
100
AcDbLine
 10
-0.1500000000000341
 20
-3.400000000000034
 30
0.0
 11
0.1499999999999773
 21
-3.400000000000005
 31
0.0
  0
LINE
  5
A798
330
A78A
100
AcDbEntity
  8
SUNPOU
100
AcDbLine
 10
0.1499999999999773
 20
-3.400000000000005
 30
0.0
 11
0.2999999999999545
 21
-3.25
 31
0.0
  0
LINE
  5
A799
330
A78A
100
AcDbEntity
  8
SUNPOU
100
AcDbLine
 10
0.2999999999999545
 20
-3.25
 30
0.0
 11
0.3000000000000114
 21
0.0
 31
0.0
  0
LINE
  5
A79A
330
A78A
100
AcDbEntity
  8
SUNPOU
100
AcDbLine
 10
-0.3000000000000114
 20
0.0
 30
0.0
 11
-0.3000000000000682
 21
-3.250000000000028
 31
0.0
  0
LINE
  5
A79B
330
A78A
100
AcDbEntity
  8
SUNPOU
100
AcDbLine
 10
-0.3000000000000682
 20
-3.250000000000028
 30
0.0
 11
0.2999999999999545
 21
-3.250000000000028
 31
0.0
  0
LINE
  5
A79C
330
A78A
100
AcDbEntity
  8
SUNPOU
100
AcDbLine
 10
0.0
 20
0.5
 30
0.0
 11
0.0
 21
-0.5
 31
0.0
  0
LINE
  5
A79D
330
A78A
100
AcDbEntity
  8
0
100
AcDbLine
 10
-1.699999999999988
 20
0.0
 30
0.0
 11
2.800000000000011
 21
0.0
 31
0.0
  0
LINE
  5
A79E
330
A78A
100
AcDbEntity
  8
0
100
AcDbLine
 10
-1.699999999999988
 20
6.0
 30
0.0
 11
-0.1999999999999886
 21
6.0
 31
0.0
  0
LINE
  5
A79F
330
A78A
100
AcDbEntity
  8
0
100
AcDbLine
 10
2.800000000000011
 20
6.0
 30
0.0
 11
2.800000000000011
 21
0.0
 31
0.0
  0
LINE
  5
A7A0
330
A78A
100
AcDbEntity
  8
0
100
AcDbLine
 10
-1.699999999999988
 20
6.0
 30
0.0
 11
-1.699999999999988
 21
0.0
 31
0.0
  0
ENDBLK
  5
A78C
330
A78A
100
AcDbEntity
  8
0
100
AcDbBlockEnd
  0
BLOCK
  5
A7A3
330
A7A2
100
AcDbEntity
  8
0
100
AcDbBlockBegin
  2
PH-5P-3
 70
     0
 10
0.0
 20
0.0
 30
0.0
  3
PH-5P-3
  1

  0
LINE
  5
A7A5
330
A7A2
100
AcDbEntity
  8
SUNPOU
100
AcDbLine
 10
-0.25
 20
0.25
 30
0.0
 11
0.25
 21
-0.25
 31
0.0
  0
LINE
  5
A7A6
330
A7A2
100
AcDbEntity
  8
SUNPOU
100
AcDbLine
 10
-0.25
 20
-0.25
 30
0.0
 11
0.25
 21
0.25
 31
0.0
  0
LINE
  5
A7A7
330
A7A2
100
AcDbEntity
  8
SUNPOU
100
AcDbLine
 10
3.749999999999971
 20
0.25
 30
0.0
 11
3.749999999999971
 21
-0.25
 31
0.0
  0
LINE
  5
A7A8
330
A7A2
100
AcDbEntity
  8
SUNPOU
100
AcDbLine
 10
3.749999999999971
 20
-0.25
 30
0.0
 11
4.249999999999971
 21
-0.25
 31
0.0
  0
LINE
  5
A7A9
330
A7A2
100
AcDbEntity
  8
SUNPOU
100
AcDbLine
 10
4.249999999999971
 20
-0.25
 30
0.0
 11
4.249999999999971
 21
0.25
 31
0.0
  0
LINE
  5
A7AA
330
A7A2
100
AcDbEntity
  8
SUNPOU
100
AcDbLine
 10
4.249999999999971
 20
0.25
 30
0.0
 11
3.749999999999971
 21
0.25
 31
0.0
  0
LINE
  5
A7AB
330
A7A2
100
AcDbEntity
  8
SUNPOU
100
AcDbLine
 10
2.249999999999943
 20
0.25
 30
0.0
 11
1.749999999999943
 21
0.25
 31
0.0
  0
LINE
  5
A7AC
330
A7A2
100
AcDbEntity
  8
SUNPOU
100
AcDbLine
 10
2.249999999999943
 20
-0.25
 30
0.0
 11
2.249999999999943
 21
0.25
 31
0.0
  0
LINE
  5
A7AD
330
A7A2
100
AcDbEntity
  8
SUNPOU
100
AcDbLine
 10
1.749999999999943
 20
-0.25
 30
0.0
 11
2.249999999999943
 21
-0.25
 31
0.0
  0
LINE
  5
A7AE
330
A7A2
100
AcDbEntity
  8
SUNPOU
100
AcDbLine
 10
1.749999999999943
 20
0.25
 30
0.0
 11
1.749999999999943
 21
-0.25
 31
0.0
  0
LINE
  5
A7AF
330
A7A2
100
AcDbEntity
  8
SUNPOU
100
AcDbLine
 10
-3.750000000000056
 20
0.25
 30
0.0
 11
-4.250000000000056
 21
0.25
 31
0.0
  0
LINE
  5
A7B0
330
A7A2
100
AcDbEntity
  8
SUNPOU
100
AcDbLine
 10
-3.750000000000056
 20
-0.25
 30
0.0
 11
-3.750000000000056
 21
0.25
 31
0.0
  0
LINE
  5
A7B1
330
A7A2
100
AcDbEntity
  8
SUNPOU
100
AcDbLine
 10
-4.250000000000056
 20
-0.25
 30
0.0
 11
-3.750000000000056
 21
-0.25
 31
0.0
  0
LINE
  5
A7B2
330
A7A2
100
AcDbEntity
  8
SUNPOU
100
AcDbLine
 10
-4.250000000000056
 20
0.25
 30
0.0
 11
-4.250000000000056
 21
-0.25
 31
0.0
  0
LINE
  5
A7B3
330
A7A2
100
AcDbEntity
  8
SUNPOU
100
AcDbLine
 10
-2.250000000000028
 20
0.25
 30
0.0
 11
-2.250000000000028
 21
-0.25
 31
0.0
  0
LINE
  5
A7B4
330
A7A2
100
AcDbEntity
  8
SUNPOU
100
AcDbLine
 10
-2.250000000000028
 20
-0.25
 30
0.0
 11
-1.750000000000028
 21
-0.25
 31
0.0
  0
LINE
  5
A7B5
330
A7A2
100
AcDbEntity
  8
SUNPOU
100
AcDbLine
 10
-1.750000000000028
 20
-0.25
 30
0.0
 11
-1.750000000000028
 21
0.25
 31
0.0
  0
LINE
  5
A7B6
330
A7A2
100
AcDbEntity
  8
SUNPOU
100
AcDbLine
 10
-1.750000000000028
 20
0.25
 30
0.0
 11
-2.250000000000028
 21
0.25
 31
0.0
  0
LINE
  5
A7B7
330
A7A2
100
AcDbEntity
  8
SUNPOU
100
AcDbLine
 10
0.25
 20
0.25
 30
0.0
 11
-0.25
 21
0.25
 31
0.0
  0
LINE
  5
A7B8
330
A7A2
100
AcDbEntity
  8
SUNPOU
100
AcDbLine
 10
0.25
 20
-0.25
 30
0.0
 11
0.25
 21
0.25
 31
0.0
  0
LINE
  5
A7B9
330
A7A2
100
AcDbEntity
  8
SUNPOU
100
AcDbLine
 10
-0.25
 20
-0.25
 30
0.0
 11
0.25
 21
-0.25
 31
0.0
  0
LINE
  5
A7BA
330
A7A2
100
AcDbEntity
  8
SUNPOU
100
AcDbLine
 10
-0.25
 20
0.25
 30
0.0
 11
-0.25
 21
-0.25
 31
0.0
  0
LINE
  5
A7BB
330
A7A2
100
AcDbEntity
  8
SUNPOU
100
AcDbLine
 10
3.949999999999988
 20
-1.699999999999988
 30
0.0
 11
3.949999999999988
 21
-1.199999999999988
 31
0.0
  0
LINE
  5
A7BC
330
A7A2
100
AcDbEntity
  8
SUNPOU
100
AcDbLine
 10
-3.94999999999996
 20
-1.699999999999988
 30
0.0
 11
-3.94999999999996
 21
-1.199999999999988
 31
0.0
  0
LINE
  5
A7BD
330
A7A2
100
AcDbEntity
  8
SUNPOU
100
AcDbLine
 10
5.44999999999996
 20
-1.199999999999988
 30
0.0
 11
5.450000000000017
 21
2.300000000000011
 31
0.0
  0
LINE
  5
A7BE
330
A7A2
100
AcDbEntity
  8
SUNPOU
100
AcDbLine
 10
-5.44999999999996
 20
-1.19999999999996
 30
0.0
 11
-5.449999999999988
 21
2.299999999999982
 31
0.0
  0
LINE
  5
A7BF
330
A7A2
100
AcDbEntity
  8
SUNPOU
100
AcDbLine
 10
-5.449999999999988
 20
-1.199999999999988
 30
0.0
 11
5.449999999999988
 21
-1.199999999999988
 31
0.0
  0
LINE
  5
A7C0
330
A7A2
100
AcDbEntity
  8
SUNPOU
100
AcDbLine
 10
-5.449999999999988
 20
2.299999999999982
 30
0.0
 11
5.449999999999988
 21
2.300000000000011
 31
0.0
  0
LINE
  5
A7C1
330
A7A2
100
AcDbEntity
  8
0
100
AcDbLine
 10
-5.94999999999996
 20
-1.699999999999988
 30
0.0
 11
5.949999999999988
 21
-1.699999999999988
 31
0.0
  0
LINE
  5
A7C2
330
A7A2
100
AcDbEntity
  8
0
100
AcDbLine
 10
5.949999999999988
 20
-1.699999999999988
 30
0.0
 11
5.949999999999988
 21
2.800000000000011
 31
0.0
  0
LINE
  5
A7C3
330
A7A2
100
AcDbEntity
  8
0
100
AcDbLine
 10
-5.94999999999996
 20
2.800000000000011
 30
0.0
 11
5.949999999999988
 21
2.800000000000011
 31
0.0
  0
LINE
  5
A7C4
330
A7A2
100
AcDbEntity
  8
0
100
AcDbLine
 10
-5.94999999999996
 20
-1.699999999999988
 30
0.0
 11
-5.94999999999996
 21
2.800000000000011
 31
0.0
  0
ENDBLK
  5
A7A4
330
A7A2
100
AcDbEntity
  8
0
100
AcDbBlockEnd
  0
BLOCK
  5
A7C8
330
A7C7
100
AcDbEntity
  8
0
100
AcDbBlockBegin
  2
XA-5P-1
 70
     0
 10
0.0
 20
0.0
 30
0.0
  3
XA-5P-1
  1

  0
LINE
  5
A7CA
330
A7C7
100
AcDbEntity
  8
SUNPOU
100
AcDbLine
 10
0.0
 20
0.5
 30
0.0
 11
0.0
 21
-0.5
 31
0.0
  0
CIRCLE
  5
A7CB
330
A7C7
100
AcDbEntity
  8
SUNPOU
100
AcDbCircle
 10
5.0
 20
0.5
 30
0.0
 40
0.25
  0
LINE
  5
A7CC
330
A7C7
100
AcDbEntity
  8
SUNPOU
100
AcDbLine
 10
4.699999999999988
 20
-3.050000000000011
 30
0.0
 11
4.850000000000022
 21
-3.200000000000017
 31
0.0
  0
LINE
  5
A7CD
330
A7C7
100
AcDbEntity
  8
SUNPOU
100
AcDbLine
 10
4.850000000000022
 20
-3.200000000000017
 30
0.0
 11
5.150000000000034
 21
-3.199999999999988
 31
0.0
  0
LINE
  5
A7CE
330
A7C7
100
AcDbEntity
  8
SUNPOU
100
AcDbLine
 10
5.150000000000034
 20
-3.199999999999988
 30
0.0
 11
5.300000000000011
 21
-3.049999999999982
 31
0.0
  0
LINE
  5
A7CF
330
A7C7
100
AcDbEntity
  8
SUNPOU
100
AcDbLine
 10
5.300000000000011
 20
-3.049999999999982
 30
0.0
 11
5.300000000000011
 21
0.0
 31
0.0
  0
LINE
  5
A7D0
330
A7C7
100
AcDbEntity
  8
SUNPOU
100
AcDbLine
 10
4.699999999999988
 20
0.0
 30
0.0
 11
4.699999999999988
 21
-3.050000000000011
 31
0.0
  0
LINE
  5
A7D1
330
A7C7
100
AcDbEntity
  8
SUNPOU
100
AcDbLine
 10
4.699999999999988
 20
-3.050000000000011
 30
0.0
 11
5.300000000000011
 21
-3.050000000000011
 31
0.0
  0
LINE
  5
A7D2
330
A7C7
100
AcDbEntity
  8
SUNPOU
100
AcDbLine
 10
-0.3000000000000114
 20
-3.050000000000039
 30
0.0
 11
-0.1499999999999773
 21
-3.200000000000045
 31
0.0
  0
LINE
  5
A7D3
330
A7C7
100
AcDbEntity
  8
SUNPOU
100
AcDbLine
 10
-0.1499999999999773
 20
-3.200000000000045
 30
0.0
 11
0.1500000000000341
 21
-3.200000000000017
 31
0.0
  0
LINE
  5
A7D4
330
A7C7
100
AcDbEntity
  8
SUNPOU
100
AcDbLine
 10
0.1500000000000341
 20
-3.200000000000017
 30
0.0
 11
0.3000000000000114
 21
-3.050000000000011
 31
0.0
  0
LINE
  5
A7D5
330
A7C7
100
AcDbEntity
  8
SUNPOU
100
AcDbLine
 10
0.3000000000000114
 20
-3.050000000000011
 30
0.0
 11
0.3000000000000114
 21
-0.0000000000000284
 31
0.0
  0
LINE
  5
A7D6
330
A7C7
100
AcDbEntity
  8
SUNPOU
100
AcDbLine
 10
-0.3000000000000114
 20
-0.0000000000000284
 30
0.0
 11
-0.3000000000000114
 21
-3.050000000000039
 31
0.0
  0
LINE
  5
A7D7
330
A7C7
100
AcDbEntity
  8
SUNPOU
100
AcDbLine
 10
-0.3000000000000114
 20
-3.050000000000039
 30
0.0
 11
0.3000000000000114
 21
-3.050000000000039
 31
0.0
  0
LINE
  5
A7D8
330
A7C7
100
AcDbEntity
  8
SUNPOU
100
AcDbLine
 10
2.199999999999988
 20
-3.050000000000039
 30
0.0
 11
2.800000000000011
 21
-3.050000000000039
 31
0.0
  0
LINE
  5
A7D9
330
A7C7
100
AcDbEntity
  8
SUNPOU
100
AcDbLine
 10
2.199999999999988
 20
-0.0000000000000284
 30
0.0
 11
2.199999999999988
 21
-3.050000000000039
 31
0.0
  0
LINE
  5
A7DA
330
A7C7
100
AcDbEntity
  8
SUNPOU
100
AcDbLine
 10
2.800000000000011
 20
-3.050000000000011
 30
0.0
 11
2.800000000000011
 21
-0.0000000000000284
 31
0.0
  0
LINE
  5
A7DB
330
A7C7
100
AcDbEntity
  8
SUNPOU
100
AcDbLine
 10
2.650000000000034
 20
-3.200000000000017
 30
0.0
 11
2.800000000000011
 21
-3.050000000000011
 31
0.0
  0
LINE
  5
A7DC
330
A7C7
100
AcDbEntity
  8
SUNPOU
100
AcDbLine
 10
2.350000000000022
 20
-3.200000000000045
 30
0.0
 11
2.650000000000034
 21
-3.200000000000017
 31
0.0
  0
LINE
  5
A7DD
330
A7C7
100
AcDbEntity
  8
SUNPOU
100
AcDbLine
 10
2.199999999999988
 20
-3.050000000000039
 30
0.0
 11
2.350000000000022
 21
-3.200000000000045
 31
0.0
  0
LINE
  5
A7DE
330
A7C7
100
AcDbEntity
  8
SUNPOU
100
AcDbLine
 10
-2.800000000000011
 20
-3.050000000000011
 30
0.0
 11
-2.649999999999977
 21
-3.200000000000017
 31
0.0
  0
LINE
  5
A7DF
330
A7C7
100
AcDbEntity
  8
SUNPOU
100
AcDbLine
 10
-2.649999999999977
 20
-3.200000000000017
 30
0.0
 11
-2.349999999999965
 21
-3.199999999999988
 31
0.0
  0
LINE
  5
A7E0
330
A7C7
100
AcDbEntity
  8
SUNPOU
100
AcDbLine
 10
-2.349999999999965
 20
-3.199999999999988
 30
0.0
 11
-2.199999999999988
 21
-3.049999999999982
 31
0.0
  0
LINE
  5
A7E1
330
A7C7
100
AcDbEntity
  8
SUNPOU
100
AcDbLine
 10
-2.199999999999988
 20
-3.049999999999982
 30
0.0
 11
-2.199999999999988
 21
0.0
 31
0.0
  0
LINE
  5
A7E2
330
A7C7
100
AcDbEntity
  8
SUNPOU
100
AcDbLine
 10
-2.800000000000011
 20
0.0
 30
0.0
 11
-2.800000000000011
 21
-3.050000000000011
 31
0.0
  0
LINE
  5
A7E3
330
A7C7
100
AcDbEntity
  8
SUNPOU
100
AcDbLine
 10
-2.800000000000011
 20
-3.050000000000011
 30
0.0
 11
-2.199999999999988
 21
-3.050000000000011
 31
0.0
  0
LINE
  5
A7E4
330
A7C7
100
AcDbEntity
  8
SUNPOU
100
AcDbLine
 10
-5.300000000000011
 20
-3.050000000000011
 30
0.0
 11
-4.699999999999988
 21
-3.050000000000011
 31
0.0
  0
LINE
  5
A7E5
330
A7C7
100
AcDbEntity
  8
SUNPOU
100
AcDbLine
 10
-5.300000000000011
 20
0.0
 30
0.0
 11
-5.300000000000011
 21
-3.050000000000011
 31
0.0
  0
LINE
  5
A7E6
330
A7C7
100
AcDbEntity
  8
SUNPOU
100
AcDbLine
 10
-4.699999999999988
 20
-3.049999999999982
 30
0.0
 11
-4.699999999999988
 21
0.0
 31
0.0
  0
LINE
  5
A7E7
330
A7C7
100
AcDbEntity
  8
SUNPOU
100
AcDbLine
 10
-4.849999999999965
 20
-3.199999999999988
 30
0.0
 11
-4.699999999999988
 21
-3.049999999999982
 31
0.0
  0
LINE
  5
A7E8
330
A7C7
100
AcDbEntity
  8
SUNPOU
100
AcDbLine
 10
-5.149999999999977
 20
-3.200000000000017
 30
0.0
 11
-4.849999999999965
 21
-3.199999999999988
 31
0.0
  0
LINE
  5
A7E9
330
A7C7
100
AcDbEntity
  8
SUNPOU
100
AcDbLine
 10
-5.300000000000011
 20
-3.050000000000011
 30
0.0
 11
-5.149999999999977
 21
-3.200000000000017
 31
0.0
  0
LINE
  5
A7EA
330
A7C7
100
AcDbEntity
  8
SUNPOU
100
AcDbLine
 10
2.699999999999988
 20
1.499999999999943
 30
0.0
 11
4.699999999999988
 21
1.499999999999971
 31
0.0
  0
LINE
  5
A7EB
330
A7C7
100
AcDbEntity
  8
SUNPOU
100
AcDbLine
 10
5.0
 20
1.5
 30
0.0
 11
7.5
 21
1.5
 31
0.0
  0
LINE
  5
A7EC
330
A7C7
100
AcDbEntity
  8
SUNPOU
100
AcDbLine
 10
-4.700000000000045
 20
1.5
 30
0.0
 11
-2.700000000000102
 21
1.499999999999971
 31
0.0
  0
LINE
  5
A7ED
330
A7C7
100
AcDbEntity
  8
SUNPOU
100
AcDbLine
 10
0.8999999999999772
 20
6.800000000000011
 30
0.0
 11
-0.9000000000000341
 21
6.800000000000011
 31
0.0
  0
LINE
  5
A7EE
330
A7C7
100
AcDbEntity
  8
SUNPOU
100
AcDbLine
 10
0.8999999999999772
 20
5.300000000000011
 30
0.0
 11
0.8999999999999772
 21
6.800000000000011
 31
0.0
  0
LINE
  5
A7EF
330
A7C7
100
AcDbEntity
  8
SUNPOU
100
AcDbLine
 10
-0.9000000000000341
 20
5.300000000000011
 30
0.0
 11
0.8999999999999772
 21
5.300000000000011
 31
0.0
  0
LINE
  5
A7F0
330
A7C7
100
AcDbEntity
  8
SUNPOU
100
AcDbLine
 10
-0.9000000000000341
 20
6.800000000000011
 30
0.0
 11
-0.9000000000000341
 21
5.300000000000011
 31
0.0
  0
LINE
  5
A7F1
330
A7C7
100
AcDbEntity
  8
SUNPOU
100
AcDbLine
 10
5.0
 20
8.800000000000011
 30
0.0
 11
5.0
 21
1.5
 31
0.0
  0
LINE
  5
A7F2
330
A7C7
100
AcDbEntity
  8
SUNPOU
100
AcDbLine
 10
4.699999999999988
 20
8.799999999999982
 30
0.0
 11
4.699999999999988
 21
1.5
 31
0.0
  0
LINE
  5
A7F3
330
A7C7
100
AcDbEntity
  8
SUNPOU
100
AcDbLine
 10
-4.700000000000045
 20
8.799999999999982
 30
0.0
 11
-4.699999999999988
 21
1.5
 31
0.0
  0
LINE
  5
A7F4
330
A7C7
100
AcDbEntity
  8
SUNPOU
100
AcDbLine
 10
-5.0
 20
8.800000000000011
 30
0.0
 11
-5.0
 21
1.5
 31
0.0
  0
LINE
  5
A7F5
330
A7C7
100
AcDbEntity
  8
SUNPOU
100
AcDbLine
 10
2.699999999999931
 20
8.799999999999982
 30
0.0
 11
2.699999999999988
 21
1.5
 31
0.0
  0
LINE
  5
A7F6
330
A7C7
100
AcDbEntity
  8
SUNPOU
100
AcDbLine
 10
-2.700000000000102
 20
8.799999999999982
 30
0.0
 11
-2.700000000000045
 21
1.5
 31
0.0
  0
LINE
  5
A7F7
330
A7C7
100
AcDbEntity
  8
SUNPOU
100
AcDbLine
 10
-7.5
 20
1.5
 30
0.0
 11
-5.0
 21
1.5
 31
0.0
  0
LINE
  5
A7F8
330
A7C7
100
AcDbEntity
  8
0
100
AcDbLine
 10
7.5
 20
8.800000000000011
 30
0.0
 11
7.5
 21
0.0
 31
0.0
  0
LINE
  5
A7F9
330
A7C7
100
AcDbEntity
  8
0
100
AcDbLine
 10
-7.5
 20
8.800000000000011
 30
0.0
 11
-7.5
 21
0.0
 31
0.0
  0
LINE
  5
A7FA
330
A7C7
100
AcDbEntity
  8
0
100
AcDbLine
 10
-7.499999999999943
 20
0.0
 30
0.0
 11
7.5
 21
0.0
 31
0.0
  0
LINE
  5
A7FB
330
A7C7
100
AcDbEntity
  8
0
100
AcDbLine
 10
-7.499999999999943
 20
8.800000000000011
 30
0.0
 11
7.5
 21
8.800000000000011
 31
0.0
  0
ENDBLK
  5
A7C9
330
A7C7
100
AcDbEntity
  8
0
100
AcDbBlockEnd
  0
BLOCK
  5
A7FE
330
A7FD
100
AcDbEntity
  8
0
100
AcDbBlockBegin
  2
XA-5P-2
 70
     0
 10
0.0
 20
0.0
 30
0.0
  3
XA-5P-2
  1

  0
LINE
  5
A800
330
A7FD
100
AcDbEntity
  8
SUNPOU
100
AcDbLine
 10
-0.3000000000000114
 20
-3.050000000000011
 30
0.0
 11
-0.1499999999999773
 21
-3.200000000000017
 31
0.0
  0
LINE
  5
A801
330
A7FD
100
AcDbEntity
  8
SUNPOU
100
AcDbLine
 10
-0.1499999999999773
 20
-3.200000000000017
 30
0.0
 11
0.1500000000000341
 21
-3.199999999999988
 31
0.0
  0
LINE
  5
A802
330
A7FD
100
AcDbEntity
  8
SUNPOU
100
AcDbLine
 10
0.1500000000000341
 20
-3.199999999999988
 30
0.0
 11
0.3000000000000114
 21
-3.049999999999982
 31
0.0
  0
LINE
  5
A803
330
A7FD
100
AcDbEntity
  8
SUNPOU
100
AcDbLine
 10
0.3000000000000114
 20
-3.049999999999982
 30
0.0
 11
0.3000000000000114
 21
0.0
 31
0.0
  0
LINE
  5
A804
330
A7FD
100
AcDbEntity
  8
SUNPOU
100
AcDbLine
 10
-0.3000000000000114
 20
0.0
 30
0.0
 11
-0.3000000000000114
 21
-3.050000000000011
 31
0.0
  0
LINE
  5
A805
330
A7FD
100
AcDbEntity
  8
SUNPOU
100
AcDbLine
 10
-0.3000000000000114
 20
-3.050000000000011
 30
0.0
 11
0.3000000000000114
 21
-3.050000000000011
 31
0.0
  0
LINE
  5
A806
330
A7FD
100
AcDbEntity
  8
SUNPOU
100
AcDbLine
 10
0.0
 20
0.5
 30
0.0
 11
0.0
 21
-0.5
 31
0.0
  0
LINE
  5
A807
330
A7FD
100
AcDbEntity
  8
0
100
AcDbLine
 10
-3.200000000000045
 20
1.5
 30
0.0
 11
-2.200000000000045
 21
1.5
 31
0.0
  0
LINE
  5
A808
330
A7FD
100
AcDbEntity
  8
0
100
AcDbLine
 10
-2.200000000000045
 20
1.5
 30
0.0
 11
-2.200000000000045
 21
0.0
 31
0.0
  0
ARC
  5
A809
330
A7FD
100
AcDbEntity
  8
0
100
AcDbCircle
 10
0.9999999999999431
 20
7.799999999999982
 30
0.0
 40
1.0
100
AcDbArc
 50
90.0
 51
180.0
  0
LINE
  5
A80A
330
A7FD
100
AcDbEntity
  8
0
100
AcDbLine
 10
3.199999999999931
 20
8.800000000000011
 30
0.0
 11
3.199999999999931
 21
0.0
 31
0.0
  0
LINE
  5
A80B
330
A7FD
100
AcDbEntity
  8
0
100
AcDbLine
 10
-0.0000000000000568
 20
7.799999999999982
 30
0.0
 11
0.0
 21
6.5
 31
0.0
  0
LINE
  5
A80C
330
A7FD
100
AcDbEntity
  8
0
100
AcDbLine
 10
0.9999999999999431
 20
8.799999999999982
 30
0.0
 11
3.199999999999931
 21
8.800000000000011
 31
0.0
  0
LINE
  5
A80D
330
A7FD
100
AcDbEntity
  8
0
100
AcDbLine
 10
-3.200000000000045
 20
6.5
 30
0.0
 11
0.0
 21
6.5
 31
0.0
  0
LINE
  5
A80E
330
A7FD
100
AcDbEntity
  8
0
100
AcDbLine
 10
-2.200000000000045
 20
0.0
 30
0.0
 11
3.199999999999931
 21
0.0
 31
0.0
  0
LINE
  5
A80F
330
A7FD
100
AcDbEntity
  8
0
100
AcDbLine
 10
-3.200000000000045
 20
6.5
 30
0.0
 11
-3.200000000000045
 21
1.5
 31
0.0
  0
ENDBLK
  5
A7FF
330
A7FD
100
AcDbEntity
  8
0
100
AcDbBlockEnd
  0
BLOCK
  5
A812
330
A811
100
AcDbEntity
  8
0
100
AcDbBlockBegin
  2
XA-5P-3
 70
     0
 10
0.0
 20
0.0
 30
0.0
  3
XA-5P-3
  1

  0
LINE
  5
A814
330
A811
100
AcDbEntity
  8
SUNPOU
100
AcDbLine
 10
2.699999999999988
 20
6.999999999999971
 30
0.0
 11
2.699999999999988
 21
-7.000000000000028
 31
0.0
  0
LINE
  5
A815
330
A811
100
AcDbEntity
  8
0
100
AcDbLine
 10
3.199999999999988
 20
7.499999999999971
 30
0.0
 11
3.199999999999988
 21
-7.500000000000028
 31
0.0
  0
TEXT
  5
A816
330
A811
100
AcDbEntity
  8
SUNPOU
100
AcDbText
 10
0.2999995251518612
 20
-5.453571871872987
 30
0.0
 40
1.5
  1
1
 50
270.0
 41
0.9
 72
     1
 11
1.799999525151861
 21
-6.000000443301559
 31
0.0
100
AcDbText
 73
     3
  0
LINE
  5
A817
330
A811
100
AcDbEntity
  8
SUNPOU
100
AcDbLine
 10
0.0000000000000568
 20
7.499999999999943
 30
0.0
 11
0.0000000000001137
 21
6.999999999999886
 31
0.0
  0
LINE
  5
A818
330
A811
100
AcDbEntity
  8
SUNPOU
100
AcDbLine
 10
0.0000000000000568
 20
-7.000000000000028
 30
0.0
 11
0.0000000000000568
 21
-7.500000000000028
 31
0.0
  0
ARC
  5
A819
330
A811
100
AcDbEntity
  8
0
100
AcDbCircle
 10
-2.699999999999874
 20
6.999999999999943
 30
0.0
 40
0.5
100
AcDbArc
 50
90.0
 51
179.9999999999984
  0
ARC
  5
A81A
330
A811
100
AcDbEntity
  8
0
100
AcDbCircle
 10
-2.699999999999931
 20
-7.000000000000028
 30
0.0
 40
0.5
100
AcDbArc
 50
180.0
 51
270.0
  0
CIRCLE
  5
A81B
330
A811
100
AcDbEntity
  8
SUNPOU
100
AcDbCircle
 10
0.0000000000000568
 20
2.5
 30
0.0
 40
0.3
  0
CIRCLE
  5
A81C
330
A811
100
AcDbEntity
  8
SUNPOU
100
AcDbCircle
 10
0.0000000000000568
 20
2.5
 30
0.0
 40
0.15
  0
CIRCLE
  5
A81D
330
A811
100
AcDbEntity
  8
SUNPOU
100
AcDbCircle
 10
0.0000000000000568
 20
5.0
 30
0.0
 40
0.15
  0
CIRCLE
  5
A81E
330
A811
100
AcDbEntity
  8
SUNPOU
100
AcDbCircle
 10
0.0000000000000568
 20
5.0
 30
0.0
 40
0.3
  0
CIRCLE
  5
A81F
330
A811
100
AcDbEntity
  8
SUNPOU
100
AcDbCircle
 10
0.0000000000000568
 20
-5.0
 30
0.0
 40
0.3
  0
CIRCLE
  5
A820
330
A811
100
AcDbEntity
  8
SUNPOU
100
AcDbCircle
 10
0.0000000000000568
 20
-5.0
 30
0.0
 40
0.15
  0
CIRCLE
  5
A821
330
A811
100
AcDbEntity
  8
SUNPOU
100
AcDbCircle
 10
0.0
 20
-2.5
 30
0.0
 40
0.3
  0
CIRCLE
  5
A822
330
A811
100
AcDbEntity
  8
SUNPOU
100
AcDbCircle
 10
0.0
 20
-2.5
 30
0.0
 40
0.15
  0
CIRCLE
  5
A823
330
A811
100
AcDbEntity
  8
SUNPOU
100
AcDbCircle
 10
0.0
 20
0.0
 30
0.0
 40
0.15
  0
CIRCLE
  5
A824
330
A811
100
AcDbEntity
  8
SUNPOU
100
AcDbCircle
 10
0.0
 20
0.0
 30
0.0
 40
0.3
  0
LINE
  5
A825
330
A811
100
AcDbEntity
  8
SUNPOU
100
AcDbLine
 10
-2.0
 20
-4.200000000000017
 30
0.0
 11
-1.999999999999943
 21
-3.200000000000017
 31
0.0
  0
LINE
  5
A826
330
A811
100
AcDbEntity
  8
0
100
AcDbLine
 10
-1.999999999999943
 20
-2.700000000000017
 30
0.0
 11
-1.999999999999886
 21
2.699999999999988
 31
0.0
  0
LINE
  5
A827
330
A811
100
AcDbEntity
  8
SUNPOU
100
AcDbLine
 10
-1.999999999999886
 20
3.19999999999996
 30
0.0
 11
-1.999999999999943
 21
4.199999999999988
 31
0.0
  0
LINE
  5
A828
330
A811
100
AcDbEntity
  8
0
100
AcDbLine
 10
-1.999999999999943
 20
4.699999999999988
 30
0.0
 11
-1.999999999999943
 21
4.999999999999971
 31
0.0
  0
LINE
  5
A829
330
A811
100
AcDbEntity
  8
SUNPOU
100
AcDbLine
 10
-1.499999999999943
 20
-3.200000000000017
 30
0.0
 11
-1.499999999999886
 21
3.199999999999988
 31
0.0
  0
LINE
  5
A82A
330
A811
100
AcDbEntity
  8
SUNPOU
100
AcDbLine
 10
-1.499999999999886
 20
4.199999999999988
 30
0.0
 11
-1.499999999999943
 21
5.499999999999971
 31
0.0
  0
LINE
  5
A82B
330
A811
100
AcDbEntity
  8
0
100
AcDbLine
 10
-2.699999999999931
 20
-0.9000000000000341
 30
0.0
 11
-2.699999999999931
 21
0.8999999999999772
 31
0.0
  0
LINE
  5
A82C
330
A811
100
AcDbEntity
  8
0
100
AcDbLine
 10
-2.699999999999931
 20
0.8999999999999772
 30
0.0
 11
-1.999999999999943
 21
0.8999999999999772
 31
0.0
  0
LINE
  5
A82D
330
A811
100
AcDbEntity
  8
0
100
AcDbLine
 10
-2.699999999999931
 20
-0.9000000000000341
 30
0.0
 11
-1.999999999999943
 21
-0.9000000000000341
 31
0.0
  0
LINE
  5
A82E
330
A811
100
AcDbEntity
  8
SUNPOU
100
AcDbLine
 10
-2.699999999999931
 20
5.499999999999971
 30
0.0
 11
-1.499999999999943
 21
5.499999999999971
 31
0.0
  0
LINE
  5
A82F
330
A811
100
AcDbEntity
  8
SUNPOU
100
AcDbLine
 10
-1.999999999999943
 20
4.199999999999988
 30
0.0
 11
-1.499999999999943
 21
4.199999999999988
 31
0.0
  0
LINE
  5
A830
330
A811
100
AcDbEntity
  8
SUNPOU
100
AcDbLine
 10
-1.999999999999943
 20
3.199999999999988
 30
0.0
 11
-1.499999999999943
 21
3.199999999999988
 31
0.0
  0
LINE
  5
A831
330
A811
100
AcDbEntity
  8
SUNPOU
100
AcDbLine
 10
-1.999999999999943
 20
-3.199999999999988
 30
0.0
 11
-1.499999999999943
 21
-3.200000000000017
 31
0.0
  0
LINE
  5
A832
330
A811
100
AcDbEntity
  8
SUNPOU
100
AcDbLine
 10
-1.999999999999943
 20
-4.200000000000017
 30
0.0
 11
-1.499999999999943
 21
-4.200000000000017
 31
0.0
  0
LINE
  5
A833
330
A811
100
AcDbEntity
  8
SUNPOU
100
AcDbLine
 10
-2.699999999999931
 20
-5.5
 30
0.0
 11
-1.499999999999943
 21
-5.5
 31
0.0
  0
LINE
  5
A834
330
A811
100
AcDbEntity
  8
SUNPOU
100
AcDbLine
 10
-1.499999999999943
 20
-5.5
 30
0.0
 11
-1.499999999999943
 21
-4.200000000000017
 31
0.0
  0
LINE
  5
A835
330
A811
100
AcDbEntity
  8
0
100
AcDbLine
 10
-3.199999999999931
 20
2.699999999999988
 30
0.0
 11
-3.199999999999931
 21
4.699999999999988
 31
0.0
  0
LINE
  5
A836
330
A811
100
AcDbEntity
  8
SUNPOU
100
AcDbLine
 10
-2.699999999999931
 20
5.499999999999971
 30
0.0
 11
-2.699999999999931
 21
6.999999999999971
 31
0.0
  0
LINE
  5
A837
330
A811
100
AcDbEntity
  8
0
100
AcDbLine
 10
-3.199999999999931
 20
5.0
 30
0.0
 11
-3.199999999999874
 21
6.999999999999943
 31
0.0
  0
LINE
  5
A838
330
A811
100
AcDbEntity
  8
0
100
AcDbLine
 10
-3.199999999999931
 20
-4.700000000000017
 30
0.0
 11
-3.199999999999931
 21
-2.700000000000017
 31
0.0
  0
LINE
  5
A839
330
A811
100
AcDbEntity
  8
0
100
AcDbLine
 10
-3.199999999999931
 20
2.699999999999988
 30
0.0
 11
-1.999999999999886
 21
2.699999999999988
 31
0.0
  0
LINE
  5
A83A
330
A811
100
AcDbEntity
  8
0
100
AcDbLine
 10
-3.199999999999931
 20
-2.700000000000017
 30
0.0
 11
-1.999999999999943
 21
-2.700000000000017
 31
0.0
  0
LINE
  5
A83B
330
A811
100
AcDbEntity
  8
0
100
AcDbLine
 10
-3.199999999999931
 20
4.699999999999988
 30
0.0
 11
-1.999999999999943
 21
4.699999999999988
 31
0.0
  0
LINE
  5
A83C
330
A811
100
AcDbEntity
  8
0
100
AcDbLine
 10
-3.199999999999931
 20
-4.700000000000017
 30
0.0
 11
-1.999999999999886
 21
-4.700000000000017
 31
0.0
  0
LINE
  5
A83D
330
A811
100
AcDbEntity
  8
0
100
AcDbLine
 10
-1.999999999999943
 20
-5.0
 30
0.0
 11
-1.999999999999943
 21
-4.700000000000017
 31
0.0
  0
LINE
  5
A83E
330
A811
100
AcDbEntity
  8
SUNPOU
100
AcDbLine
 10
-2.699999999999931
 20
-7.000000000000028
 30
0.0
 11
2.699999999999988
 21
-7.000000000000028
 31
0.0
  0
LINE
  5
A83F
330
A811
100
AcDbEntity
  8
SUNPOU
100
AcDbLine
 10
-2.699999999999931
 20
-7.000000000000028
 30
0.0
 11
-2.699999999999931
 21
-5.5
 31
0.0
  0
LINE
  5
A840
330
A811
100
AcDbEntity
  8
SUNPOU
100
AcDbLine
 10
-2.699999999999931
 20
6.999999999999971
 30
0.0
 11
2.699999999999988
 21
6.999999999999971
 31
0.0
  0
LINE
  5
A841
330
A811
100
AcDbEntity
  8
0
100
AcDbLine
 10
-3.199999999999931
 20
-7.000000000000028
 30
0.0
 11
-3.199999999999931
 21
-5.0
 31
0.0
  0
LINE
  5
A842
330
A811
100
AcDbEntity
  8
0
100
AcDbLine
 10
-2.699999999999874
 20
7.499999999999943
 30
0.0
 11
3.199999999999988
 21
7.499999999999971
 31
0.0
  0
LINE
  5
A843
330
A811
100
AcDbEntity
  8
0
100
AcDbLine
 10
-2.699999999999931
 20
-7.500000000000028
 30
0.0
 11
3.199999999999988
 21
-7.500000000000028
 31
0.0
  0
LINE
  5
A844
330
A811
100
AcDbEntity
  8
0
100
AcDbLine
 10
-3.199999999999874
 20
4.999999999999971
 30
0.0
 11
-1.999999999999943
 21
4.999999999999971
 31
0.0
  0
LINE
  5
A845
330
A811
100
AcDbEntity
  8
0
100
AcDbLine
 10
-3.199999999999931
 20
-5.0
 30
0.0
 11
-1.999999999999943
 21
-5.0
 31
0.0
  0
ENDBLK
  5
A813
330
A811
100
AcDbEntity
  8
0
100
AcDbBlockEnd
  0
BLOCK
  5
A883
330
A882
100
AcDbEntity
  8
0
100
AcDbBlockBegin
  2
SUS3
 70
     0
 10
0.0
 20
0.0
 30
0.0
  3
SUS3
  1

  0
CIRCLE
  5
A884
330
A882
100
AcDbEntity
  8
KAGESEN
100
AcDbCircle
 10
0.0
 20
-1.799999999999997
 30
0.0
 40
3.0
  0
LINE
  5
A885
330
A882
100
AcDbEntity
  8
SUNPOU
100
AcDbLine
 10
5.0
 20
3.200000000000002
 30
0.0
 11
5.0
 21
-6.799999999999997
 31
0.0
  0
LINE
  5
A886
330
A882
100
AcDbEntity
  8
SUNPOU
100
AcDbLine
 10
-5.0
 20
3.200000000000002
 30
0.0
 11
-5.0
 21
-6.799999999999997
 31
0.0
  0
LINE
  5
A887
330
A882
100
AcDbEntity
  8
SUNPOU
100
AcDbLine
 10
-5.0
 20
3.200000000000002
 30
0.0
 11
5.0
 21
3.200000000000002
 31
0.0
  0
LINE
  5
A888
330
A882
100
AcDbEntity
  8
SUNPOU
100
AcDbLine
 10
-5.0
 20
-6.799999999999997
 30
0.0
 11
5.0
 21
-6.799999999999997
 31
0.0
  0
LINE
  5
A889
330
A882
100
AcDbEntity
  8
KAGESEN
100
AcDbLine
 10
-1.0
 20
-1.799999999999997
 30
0.0
 11
1.0
 21
-1.799999999999997
 31
0.0
  0
TEXT
  5
A88A
330
A882
100
AcDbEntity
  8
0
100
AcDbText
 10
3.47047619047618
 20
-4.810000000000002
 30
0.0
 40
2.0
  1
-Vout
 41
0.8
 72
     2
 11
10.47999999999999
 21
-3.810000000000002
 31
0.0
100
AcDbText
 73
     2
  0
TEXT
  5
A88B
330
A882
100
AcDbEntity
  8
0
100
AcDbText
 10
6.137142857142846
 20
-2.270000000000003
 30
0.0
 40
2.0
  1
TRM
 41
0.8
 72
     2
 11
10.47999999999999
 21
-1.270000000000003
 31
0.0
100
AcDbText
 73
     2
  0
TEXT
  5
A88C
330
A882
100
AcDbEntity
  8
0
100
AcDbText
 10
3.47047619047618
 20
2.810000000000002
 30
0.0
 40
2.0
  1
+Vout
 41
0.8
 72
     2
 11
10.47999999999999
 21
3.810000000000002
 31
0.0
100
AcDbText
 73
     2
  0
TEXT
  5
A88D
330
A882
100
AcDbEntity
  8
0
100
AcDbText
 10
-10.47999999999999
 20
-4.810000000000002
 30
0.0
 40
2.0
  1
-Vin
 41
0.8
 11
-10.47999999999999
 21
-3.810000000000002
 31
0.0
100
AcDbText
 73
     2
  0
TEXT
  5
A88E
330
A882
100
AcDbEntity
  8
0
100
AcDbText
 10
-10.47999999999999
 20
-2.270000000000003
 30
0.0
 40
2.0
  1
RC
 41
0.8
 11
-10.47999999999999
 21
-1.270000000000003
 31
0.0
100
AcDbText
 73
     2
  0
TEXT
  5
A88F
330
A882
100
AcDbEntity
  8
0
100
AcDbText
 10
-10.47999999999999
 20
2.810000000000002
 30
0.0
 40
2.0
  1
+Vin
 41
0.8
 11
-10.47999999999999
 21
3.810000000000002
 31
0.0
100
AcDbText
 73
     2
  0
LINE
  5
A890
330
A882
100
AcDbEntity
  8
0
100
AcDbLine
 10
13.08000000000001
 20
-1.57
 30
0.0
 11
13.08000000000001
 21
-0.9699999999999988
 31
0.0
  0
LINE
  5
A891
330
A882
100
AcDbEntity
  8
0
100
AcDbLine
 10
12.0
 20
-0.9700000000000059
 30
0.0
 11
13.08000000000001
 21
-0.9699999999999988
 31
0.0
  0
LINE
  5
A892
330
A882
100
AcDbEntity
  8
0
100
AcDbLine
 10
12.0
 20
-1.57
 30
0.0
 11
13.08000000000001
 21
-1.57
 31
0.0
  0
LINE
  5
A893
330
A882
100
AcDbEntity
  8
0
100
AcDbLine
 10
12.0
 20
3.510000000000005
 30
0.0
 11
13.08000000000001
 21
3.510000000000005
 31
0.0
  0
LINE
  5
A894
330
A882
100
AcDbEntity
  8
0
100
AcDbLine
 10
12.0
 20
4.109999999999999
 30
0.0
 11
13.08000000000001
 21
4.110000000000006
 31
0.0
  0
LINE
  5
A895
330
A882
100
AcDbEntity
  8
0
100
AcDbLine
 10
13.08000000000001
 20
3.510000000000005
 30
0.0
 11
13.08000000000001
 21
4.110000000000006
 31
0.0
  0
LINE
  5
A896
330
A882
100
AcDbEntity
  8
0
100
AcDbLine
 10
13.08000000000001
 20
-4.109999999999999
 30
0.0
 11
13.08000000000001
 21
-3.509999999999998
 31
0.0
  0
LINE
  5
A897
330
A882
100
AcDbEntity
  8
0
100
AcDbLine
 10
12.0
 20
-3.510000000000005
 30
0.0
 11
13.08000000000001
 21
-3.509999999999998
 31
0.0
  0
LINE
  5
A898
330
A882
100
AcDbEntity
  8
0
100
AcDbLine
 10
12.0
 20
-4.109999999999999
 30
0.0
 11
13.08000000000001
 21
-4.109999999999999
 31
0.0
  0
LINE
  5
A899
330
A882
100
AcDbEntity
  8
0
100
AcDbLine
 10
-12.0
 20
-4.109999999999999
 30
0.0
 11
-13.08000000000001
 21
-4.109999999999999
 31
0.0
  0
LINE
  5
A89A
330
A882
100
AcDbEntity
  8
0
100
AcDbLine
 10
-12.0
 20
-3.510000000000005
 30
0.0
 11
-13.08000000000001
 21
-3.509999999999998
 31
0.0
  0
LINE
  5
A89B
330
A882
100
AcDbEntity
  8
0
100
AcDbLine
 10
-13.08000000000001
 20
-4.109999999999999
 30
0.0
 11
-13.08000000000001
 21
-3.509999999999998
 31
0.0
  0
LINE
  5
A89C
330
A882
100
AcDbEntity
  8
0
100
AcDbLine
 10
-13.08000000000001
 20
3.510000000000005
 30
0.0
 11
-13.08000000000001
 21
4.110000000000006
 31
0.0
  0
LINE
  5
A89D
330
A882
100
AcDbEntity
  8
0
100
AcDbLine
 10
-12.0
 20
4.109999999999999
 30
0.0
 11
-13.08000000000001
 21
4.110000000000006
 31
0.0
  0
LINE
  5
A89E
330
A882
100
AcDbEntity
  8
0
100
AcDbLine
 10
-12.0
 20
3.510000000000005
 30
0.0
 11
-13.08000000000001
 21
3.510000000000005
 31
0.0
  0
LINE
  5
A89F
330
A882
100
AcDbEntity
  8
0
100
AcDbLine
 10
-12.0
 20
-1.57
 30
0.0
 11
-13.08000000000001
 21
-1.57
 31
0.0
  0
LINE
  5
A8A0
330
A882
100
AcDbEntity
  8
0
100
AcDbLine
 10
-12.0
 20
-0.9700000000000059
 30
0.0
 11
-13.08000000000001
 21
-0.9699999999999988
 31
0.0
  0
LINE
  5
A8A1
330
A882
100
AcDbEntity
  8
0
100
AcDbLine
 10
-13.08000000000001
 20
-1.57
 30
0.0
 11
-13.08000000000001
 21
-0.9699999999999988
 31
0.0
  0
CIRCLE
  5
A8A2
330
A882
100
AcDbEntity
  8
0
100
AcDbCircle
 10
11.42999999999998
 20
-3.810000000000002
 30
0.0
 40
0.45
  0
CIRCLE
  5
A8A3
330
A882
100
AcDbEntity
  8
0
100
AcDbCircle
 10
11.42999999999998
 20
-1.270000000000003
 30
0.0
 40
0.45
  0
CIRCLE
  5
A8A4
330
A882
100
AcDbEntity
  8
0
100
AcDbCircle
 10
11.42999999999998
 20
3.810000000000002
 30
0.0
 40
0.45
  0
CIRCLE
  5
A8A5
330
A882
100
AcDbEntity
  8
0
100
AcDbCircle
 10
-11.42999999999998
 20
3.810000000000002
 30
0.0
 40
0.45
  0
CIRCLE
  5
A8A6
330
A882
100
AcDbEntity
  8
0
100
AcDbCircle
 10
-11.42999999999998
 20
-1.270000000000003
 30
0.0
 40
0.45
  0
CIRCLE
  5
A8A7
330
A882
100
AcDbEntity
  8
0
100
AcDbCircle
 10
-11.42999999999998
 20
-3.810000000000002
 30
0.0
 40
0.45
  0
LINE
  5
A8A8
330
A882
100
AcDbEntity
  8
KAGESEN
100
AcDbLine
 10
0.0
 20
7.549999999999997
 30
0.0
 11
0.0
 21
-7.550000000000004
 31
0.0
  0
LINE
  5
A8A9
330
A882
100
AcDbEntity
  8
KAGESEN
100
AcDbLine
 10
-12.0
 20
0.0
 30
0.0
 11
12.0
 21
0.0
 31
0.0
  0
LWPOLYLINE
  5
A8AA
330
A882
100
AcDbEntity
  8
0
100
AcDbPolyline
 90
        4
 70
     1
 43
0.0
 10
-12.0
 20
7.549999999999997
 10
12.0
 20
7.549999999999997
 10
12.0
 20
-7.550000000000004
 10
-12.0
 20
-7.550000000000004
  0
ENDBLK
  5
A8AB
330
A882
100
AcDbEntity
  8
0
100
AcDbBlockEnd
  0
BLOCK
  5
A8FB
330
A8FA
100
AcDbEntity
  8
0
100
AcDbBlockBegin
  2
XA-5P-4
 70
     0
 10
0.0
 20
0.0
 30
0.0
  3
XA-5P-4
  1

  0
LINE
  5
A8FD
330
A8FA
100
AcDbEntity
  8
0
100
AcDbLine
 10
5.5
 20
8.800000000000011
 30
0.0
 11
7.5
 21
8.800000000000011
 31
0.0
  0
LINE
  5
A8FE
330
A8FA
100
AcDbEntity
  8
0
100
AcDbLine
 10
5.5
 20
7.300000000000011
 30
0.0
 11
5.5
 21
8.800000000000011
 31
0.0
  0
LINE
  5
A8FF
330
A8FA
100
AcDbEntity
  8
0
100
AcDbLine
 10
-5.5
 20
7.300000000000011
 30
0.0
 11
5.5
 21
7.300000000000011
 31
0.0
  0
LINE
  5
A900
330
A8FA
100
AcDbEntity
  8
0
100
AcDbLine
 10
-5.5
 20
8.800000000000011
 30
0.0
 11
-5.5
 21
7.300000000000011
 31
0.0
  0
LINE
  5
A901
330
A8FA
100
AcDbEntity
  8
0
100
AcDbLine
 10
-7.499999999999943
 20
8.800000000000011
 30
0.0
 11
-5.5
 21
8.800000000000011
 31
0.0
  0
LINE
  5
A902
330
A8FA
100
AcDbEntity
  8
0
100
AcDbLine
 10
-7.499999999999943
 20
0.0
 30
0.0
 11
7.5
 21
0.0
 31
0.0
  0
LINE
  5
A903
330
A8FA
100
AcDbEntity
  8
0
100
AcDbLine
 10
-7.5
 20
8.800000000000011
 30
0.0
 11
-7.5
 21
0.0
 31
0.0
  0
LINE
  5
A904
330
A8FA
100
AcDbEntity
  8
0
100
AcDbLine
 10
7.5
 20
8.800000000000011
 30
0.0
 11
7.5
 21
0.0
 31
0.0
  0
LINE
  5
A905
330
A8FA
100
AcDbEntity
  8
SUNPOU
100
AcDbLine
 10
-5.300000000000011
 20
-3.050000000000011
 30
0.0
 11
-5.149999999999977
 21
-3.200000000000017
 31
0.0
  0
LINE
  5
A906
330
A8FA
100
AcDbEntity
  8
SUNPOU
100
AcDbLine
 10
-5.149999999999977
 20
-3.200000000000017
 30
0.0
 11
-4.849999999999965
 21
-3.199999999999988
 31
0.0
  0
LINE
  5
A907
330
A8FA
100
AcDbEntity
  8
SUNPOU
100
AcDbLine
 10
-4.849999999999965
 20
-3.199999999999988
 30
0.0
 11
-4.699999999999988
 21
-3.049999999999982
 31
0.0
  0
LINE
  5
A908
330
A8FA
100
AcDbEntity
  8
SUNPOU
100
AcDbLine
 10
-4.699999999999988
 20
-3.049999999999982
 30
0.0
 11
-4.699999999999988
 21
0.0
 31
0.0
  0
LINE
  5
A909
330
A8FA
100
AcDbEntity
  8
SUNPOU
100
AcDbLine
 10
-5.300000000000011
 20
0.0
 30
0.0
 11
-5.300000000000011
 21
-3.050000000000011
 31
0.0
  0
LINE
  5
A90A
330
A8FA
100
AcDbEntity
  8
SUNPOU
100
AcDbLine
 10
-5.300000000000011
 20
-3.050000000000011
 30
0.0
 11
-4.699999999999988
 21
-3.050000000000011
 31
0.0
  0
LINE
  5
A90B
330
A8FA
100
AcDbEntity
  8
SUNPOU
100
AcDbLine
 10
-2.800000000000011
 20
-3.050000000000011
 30
0.0
 11
-2.199999999999988
 21
-3.050000000000011
 31
0.0
  0
LINE
  5
A90C
330
A8FA
100
AcDbEntity
  8
SUNPOU
100
AcDbLine
 10
-2.800000000000011
 20
0.0
 30
0.0
 11
-2.800000000000011
 21
-3.050000000000011
 31
0.0
  0
LINE
  5
A90D
330
A8FA
100
AcDbEntity
  8
SUNPOU
100
AcDbLine
 10
-2.199999999999988
 20
-3.049999999999982
 30
0.0
 11
-2.199999999999988
 21
0.0
 31
0.0
  0
LINE
  5
A90E
330
A8FA
100
AcDbEntity
  8
SUNPOU
100
AcDbLine
 10
-2.349999999999965
 20
-3.199999999999988
 30
0.0
 11
-2.199999999999988
 21
-3.049999999999982
 31
0.0
  0
LINE
  5
A90F
330
A8FA
100
AcDbEntity
  8
SUNPOU
100
AcDbLine
 10
-2.649999999999977
 20
-3.200000000000017
 30
0.0
 11
-2.349999999999965
 21
-3.199999999999988
 31
0.0
  0
LINE
  5
A910
330
A8FA
100
AcDbEntity
  8
SUNPOU
100
AcDbLine
 10
-2.800000000000011
 20
-3.050000000000011
 30
0.0
 11
-2.649999999999977
 21
-3.200000000000017
 31
0.0
  0
LINE
  5
A911
330
A8FA
100
AcDbEntity
  8
SUNPOU
100
AcDbLine
 10
2.199999999999988
 20
-3.050000000000039
 30
0.0
 11
2.350000000000022
 21
-3.200000000000045
 31
0.0
  0
LINE
  5
A912
330
A8FA
100
AcDbEntity
  8
SUNPOU
100
AcDbLine
 10
2.350000000000022
 20
-3.200000000000045
 30
0.0
 11
2.650000000000034
 21
-3.200000000000017
 31
0.0
  0
LINE
  5
A913
330
A8FA
100
AcDbEntity
  8
SUNPOU
100
AcDbLine
 10
2.650000000000034
 20
-3.200000000000017
 30
0.0
 11
2.800000000000011
 21
-3.050000000000011
 31
0.0
  0
LINE
  5
A914
330
A8FA
100
AcDbEntity
  8
SUNPOU
100
AcDbLine
 10
2.800000000000011
 20
-3.050000000000011
 30
0.0
 11
2.800000000000011
 21
-0.0000000000000284
 31
0.0
  0
LINE
  5
A915
330
A8FA
100
AcDbEntity
  8
SUNPOU
100
AcDbLine
 10
2.199999999999988
 20
-0.0000000000000284
 30
0.0
 11
2.199999999999988
 21
-3.050000000000039
 31
0.0
  0
LINE
  5
A916
330
A8FA
100
AcDbEntity
  8
SUNPOU
100
AcDbLine
 10
2.199999999999988
 20
-3.050000000000039
 30
0.0
 11
2.800000000000011
 21
-3.050000000000039
 31
0.0
  0
LINE
  5
A917
330
A8FA
100
AcDbEntity
  8
SUNPOU
100
AcDbLine
 10
-0.3000000000000114
 20
-3.050000000000039
 30
0.0
 11
0.3000000000000114
 21
-3.050000000000039
 31
0.0
  0
LINE
  5
A918
330
A8FA
100
AcDbEntity
  8
SUNPOU
100
AcDbLine
 10
-0.3000000000000114
 20
-0.0000000000000284
 30
0.0
 11
-0.3000000000000114
 21
-3.050000000000039
 31
0.0
  0
LINE
  5
A919
330
A8FA
100
AcDbEntity
  8
SUNPOU
100
AcDbLine
 10
0.3000000000000114
 20
-3.050000000000011
 30
0.0
 11
0.3000000000000114
 21
-0.0000000000000284
 31
0.0
  0
LINE
  5
A91A
330
A8FA
100
AcDbEntity
  8
SUNPOU
100
AcDbLine
 10
0.1500000000000341
 20
-3.200000000000017
 30
0.0
 11
0.3000000000000114
 21
-3.050000000000011
 31
0.0
  0
LINE
  5
A91B
330
A8FA
100
AcDbEntity
  8
SUNPOU
100
AcDbLine
 10
-0.1499999999999773
 20
-3.200000000000045
 30
0.0
 11
0.1500000000000341
 21
-3.200000000000017
 31
0.0
  0
LINE
  5
A91C
330
A8FA
100
AcDbEntity
  8
SUNPOU
100
AcDbLine
 10
-0.3000000000000114
 20
-3.050000000000039
 30
0.0
 11
-0.1499999999999773
 21
-3.200000000000045
 31
0.0
  0
LINE
  5
A91D
330
A8FA
100
AcDbEntity
  8
SUNPOU
100
AcDbLine
 10
4.699999999999988
 20
-3.050000000000011
 30
0.0
 11
5.300000000000011
 21
-3.050000000000011
 31
0.0
  0
LINE
  5
A91E
330
A8FA
100
AcDbEntity
  8
SUNPOU
100
AcDbLine
 10
4.699999999999988
 20
0.0
 30
0.0
 11
4.699999999999988
 21
-3.050000000000011
 31
0.0
  0
LINE
  5
A91F
330
A8FA
100
AcDbEntity
  8
SUNPOU
100
AcDbLine
 10
5.300000000000011
 20
-3.049999999999982
 30
0.0
 11
5.300000000000011
 21
0.0
 31
0.0
  0
LINE
  5
A920
330
A8FA
100
AcDbEntity
  8
SUNPOU
100
AcDbLine
 10
5.150000000000034
 20
-3.199999999999988
 30
0.0
 11
5.300000000000011
 21
-3.049999999999982
 31
0.0
  0
LINE
  5
A921
330
A8FA
100
AcDbEntity
  8
SUNPOU
100
AcDbLine
 10
4.850000000000022
 20
-3.200000000000017
 30
0.0
 11
5.150000000000034
 21
-3.199999999999988
 31
0.0
  0
LINE
  5
A922
330
A8FA
100
AcDbEntity
  8
SUNPOU
100
AcDbLine
 10
4.699999999999988
 20
-3.050000000000011
 30
0.0
 11
4.850000000000022
 21
-3.200000000000017
 31
0.0
  0
CIRCLE
  5
A923
330
A8FA
100
AcDbEntity
  8
SUNPOU
100
AcDbCircle
 10
-5.0
 20
0.5
 30
0.0
 40
0.25
  0
LINE
  5
A924
330
A8FA
100
AcDbEntity
  8
SUNPOU
100
AcDbLine
 10
0.0
 20
0.5
 30
0.0
 11
0.0
 21
-0.5
 31
0.0
  0
ENDBLK
  5
A8FC
330
A8FA
100
AcDbEntity
  8
0
100
AcDbBlockEnd
  0
BLOCK
  5
A96A
330
A969
100
AcDbEntity
  8
0
100
AcDbBlockBegin
  2
PH-5P-4
 70
     0
 10
0.0
 20
0.0
 30
0.0
  3
PH-5P-4
  1

  0
LINE
  5
A96C
330
A969
100
AcDbEntity
  8
0
100
AcDbLine
 10
-5.94999999999996
 20
0.0
 30
0.0
 11
5.949999999999988
 21
0.0
 31
0.0
  0
LINE
  5
A96D
330
A969
100
AcDbEntity
  8
0
100
AcDbLine
 10
-5.94999999999996
 20
6.0
 30
0.0
 11
-5.94999999999996
 21
0.0
 31
0.0
  0
LINE
  5
A96E
330
A969
100
AcDbEntity
  8
0
100
AcDbLine
 10
5.949999999999988
 20
6.0
 30
0.0
 11
5.949999999999988
 21
0.0
 31
0.0
  0
LINE
  5
A96F
330
A969
100
AcDbEntity
  8
0
100
AcDbLine
 10
-5.94999999999996
 20
6.0
 30
0.0
 11
5.949999999999988
 21
6.0
 31
0.0
  0
LINE
  5
A970
330
A969
100
AcDbEntity
  8
SUNPOU
100
AcDbLine
 10
-0.3000000000000682
 20
-3.250000000000028
 30
0.0
 11
-0.1500000000000341
 21
-3.400000000000034
 31
0.0
  0
LINE
  5
A971
330
A969
100
AcDbEntity
  8
SUNPOU
100
AcDbLine
 10
-0.1500000000000341
 20
-3.400000000000034
 30
0.0
 11
0.1499999999999773
 21
-3.400000000000005
 31
0.0
  0
LINE
  5
A972
330
A969
100
AcDbEntity
  8
SUNPOU
100
AcDbLine
 10
0.1499999999999773
 20
-3.400000000000005
 30
0.0
 11
0.2999999999999545
 21
-3.25
 31
0.0
  0
LINE
  5
A973
330
A969
100
AcDbEntity
  8
SUNPOU
100
AcDbLine
 10
0.2999999999999545
 20
-3.25
 30
0.0
 11
0.3000000000000114
 21
0.0
 31
0.0
  0
LINE
  5
A974
330
A969
100
AcDbEntity
  8
SUNPOU
100
AcDbLine
 10
-0.3000000000000398
 20
0.0
 30
0.0
 11
-0.3000000000000682
 21
-3.250000000000028
 31
0.0
  0
LINE
  5
A975
330
A969
100
AcDbEntity
  8
SUNPOU
100
AcDbLine
 10
-0.3000000000000682
 20
-3.250000000000028
 30
0.0
 11
0.2999999999999545
 21
-3.250000000000028
 31
0.0
  0
LINE
  5
A976
330
A969
100
AcDbEntity
  8
SUNPOU
100
AcDbLine
 10
1.699999999999931
 20
-3.250000000000028
 30
0.0
 11
2.299999999999954
 21
-3.250000000000028
 31
0.0
  0
LINE
  5
A977
330
A969
100
AcDbEntity
  8
SUNPOU
100
AcDbLine
 10
1.699999999999988
 20
0.0
 30
0.0
 11
1.699999999999931
 21
-3.250000000000028
 31
0.0
  0
LINE
  5
A978
330
A969
100
AcDbEntity
  8
SUNPOU
100
AcDbLine
 10
2.299999999999954
 20
-3.25
 30
0.0
 11
2.299999999999982
 21
0.0
 31
0.0
  0
LINE
  5
A979
330
A969
100
AcDbEntity
  8
SUNPOU
100
AcDbLine
 10
2.149999999999977
 20
-3.400000000000005
 30
0.0
 11
2.299999999999954
 21
-3.25
 31
0.0
  0
LINE
  5
A97A
330
A969
100
AcDbEntity
  8
SUNPOU
100
AcDbLine
 10
1.849999999999965
 20
-3.400000000000034
 30
0.0
 11
2.149999999999977
 21
-3.400000000000005
 31
0.0
  0
LINE
  5
A97B
330
A969
100
AcDbEntity
  8
SUNPOU
100
AcDbLine
 10
1.699999999999931
 20
-3.250000000000028
 30
0.0
 11
1.849999999999965
 21
-3.400000000000034
 31
0.0
  0
LINE
  5
A97C
330
A969
100
AcDbEntity
  8
SUNPOU
100
AcDbLine
 10
-2.300000000000068
 20
-3.250000000000028
 30
0.0
 11
-2.150000000000034
 21
-3.400000000000034
 31
0.0
  0
LINE
  5
A97D
330
A969
100
AcDbEntity
  8
SUNPOU
100
AcDbLine
 10
-2.150000000000034
 20
-3.400000000000034
 30
0.0
 11
-1.850000000000022
 21
-3.400000000000005
 31
0.0
  0
LINE
  5
A97E
330
A969
100
AcDbEntity
  8
SUNPOU
100
AcDbLine
 10
-1.850000000000022
 20
-3.400000000000005
 30
0.0
 11
-1.700000000000045
 21
-3.25
 31
0.0
  0
LINE
  5
A97F
330
A969
100
AcDbEntity
  8
SUNPOU
100
AcDbLine
 10
-1.700000000000045
 20
-3.25
 30
0.0
 11
-1.699999999999988
 21
0.0
 31
0.0
  0
LINE
  5
A980
330
A969
100
AcDbEntity
  8
SUNPOU
100
AcDbLine
 10
-2.300000000000096
 20
0.0
 30
0.0
 11
-2.300000000000068
 21
-3.250000000000028
 31
0.0
  0
LINE
  5
A981
330
A969
100
AcDbEntity
  8
SUNPOU
100
AcDbLine
 10
-2.300000000000068
 20
-3.250000000000028
 30
0.0
 11
-1.700000000000045
 21
-3.250000000000028
 31
0.0
  0
LINE
  5
A982
330
A969
100
AcDbEntity
  8
SUNPOU
100
AcDbLine
 10
-4.300000000000068
 20
-3.250000000000028
 30
0.0
 11
-3.700000000000045
 21
-3.250000000000028
 31
0.0
  0
LINE
  5
A983
330
A969
100
AcDbEntity
  8
SUNPOU
100
AcDbLine
 10
-4.300000000000096
 20
0.0
 30
0.0
 11
-4.300000000000068
 21
-3.250000000000028
 31
0.0
  0
LINE
  5
A984
330
A969
100
AcDbEntity
  8
SUNPOU
100
AcDbLine
 10
-3.700000000000045
 20
-3.25
 30
0.0
 11
-3.699999999999988
 21
0.0
 31
0.0
  0
LINE
  5
A985
330
A969
100
AcDbEntity
  8
SUNPOU
100
AcDbLine
 10
-3.850000000000022
 20
-3.400000000000005
 30
0.0
 11
-3.700000000000045
 21
-3.25
 31
0.0
  0
LINE
  5
A986
330
A969
100
AcDbEntity
  8
SUNPOU
100
AcDbLine
 10
-4.150000000000034
 20
-3.400000000000034
 30
0.0
 11
-3.850000000000022
 21
-3.400000000000005
 31
0.0
  0
LINE
  5
A987
330
A969
100
AcDbEntity
  8
SUNPOU
100
AcDbLine
 10
-4.300000000000068
 20
-3.250000000000028
 30
0.0
 11
-4.150000000000034
 21
-3.400000000000034
 31
0.0
  0
LINE
  5
A988
330
A969
100
AcDbEntity
  8
SUNPOU
100
AcDbLine
 10
3.699999999999931
 20
-3.250000000000028
 30
0.0
 11
3.849999999999965
 21
-3.400000000000034
 31
0.0
  0
LINE
  5
A989
330
A969
100
AcDbEntity
  8
SUNPOU
100
AcDbLine
 10
3.849999999999965
 20
-3.400000000000034
 30
0.0
 11
4.149999999999977
 21
-3.400000000000005
 31
0.0
  0
LINE
  5
A98A
330
A969
100
AcDbEntity
  8
SUNPOU
100
AcDbLine
 10
4.149999999999977
 20
-3.400000000000005
 30
0.0
 11
4.299999999999954
 21
-3.25
 31
0.0
  0
LINE
  5
A98B
330
A969
100
AcDbEntity
  8
SUNPOU
100
AcDbLine
 10
4.299999999999954
 20
-3.25
 30
0.0
 11
4.299999999999982
 21
0.0
 31
0.0
  0
LINE
  5
A98C
330
A969
100
AcDbEntity
  8
SUNPOU
100
AcDbLine
 10
3.699999999999988
 20
0.0
 30
0.0
 11
3.699999999999931
 21
-3.250000000000028
 31
0.0
  0
LINE
  5
A98D
330
A969
100
AcDbEntity
  8
SUNPOU
100
AcDbLine
 10
3.699999999999931
 20
-3.250000000000028
 30
0.0
 11
4.299999999999954
 21
-3.250000000000028
 31
0.0
  0
LINE
  5
A98E
330
A969
100
AcDbEntity
  8
SUNPOU
100
AcDbLine
 10
0.0
 20
0.5
 30
0.0
 11
0.0
 21
-0.5
 31
0.0
  0
CIRCLE
  5
A98F
330
A969
100
AcDbEntity
  8
0
100
AcDbCircle
 10
-4.0
 20
1.0
 30
0.0
 40
0.25
  0
ENDBLK
  5
A96B
330
A969
100
AcDbEntity
  8
0
100
AcDbBlockEnd
  0
BLOCK
  5
A9AB
330
A9AA
100
AcDbEntity
  8
0
100
AcDbBlockBegin
  2
M3-1
 70
     0
 10
0.0
 20
0.0
 30
0.0
  3
M3-1
  1

  0
LINE
  5
A9AC
330
A9AA
100
AcDbEntity
  8
0
100
AcDbLine
 10
2.650000000000005
 20
1.200000000000059
 30
0.0
 11
-2.649999999999977
 21
1.200000000000002
 31
0.0
  0
LINE
  5
A9AD
330
A9AA
100
AcDbEntity
  8
0
100
AcDbLine
 10
2.900000000000034
 20
0.4999999999999432
 30
0.0
 11
-2.899999999999977
 21
0.5
 31
0.0
  0
LINE
  5
A9AE
330
A9AA
100
AcDbEntity
  8
0
100
AcDbLine
 10
2.900000000000005
 20
0.0
 30
0.0
 11
-2.900000000000005
 21
0.0
 31
0.0
  0
ELLIPSE
  5
A9AF
330
A9AA
100
AcDbEntity
  8
0
100
AcDbEllipse
 10
0.0
 20
1.699999883902833
 30
0.0
 11
-2.650000000000005
 21
0.0000000000000002
 31
0.0
210
0.0
220
0.0
230
1.0
 40
0.596226458904585
 41
2.81960193203065
 42
6.605176028738728
  0
LINE
  5
A9B0
330
A9AA
100
AcDbEntity
  8
0
100
AcDbLine
 10
-2.649999999999977
 20
1.200000000000002
 30
0.0
 11
-2.649999999999948
 21
0.5
 31
0.0
  0
LINE
  5
A9B1
330
A9AA
100
AcDbEntity
  8
0
100
AcDbLine
 10
-2.899999999999977
 20
0.5
 30
0.0
 11
-2.900000000000005
 21
0.0
 31
0.0
  0
LINE
  5
A9B2
330
A9AA
100
AcDbEntity
  8
0
100
AcDbLine
 10
0.5248024564464516
 20
0.4999999999999858
 30
0.0
 11
-0.1751975435536792
 21
1.200000000000002
 31
0.0
  0
LINE
  5
A9B3
330
A9AA
100
AcDbEntity
  8
0
100
AcDbLine
 10
0.1712490658532033
 20
0.4999999999999858
 30
0.0
 11
-0.5287509341469275
 21
1.200000000000002
 31
0.0
  0
LINE
  5
A9B4
330
A9AA
100
AcDbEntity
  8
0
100
AcDbLine
 10
2.650000000000005
 20
1.200000000000002
 30
0.0
 11
2.650000000000005
 21
0.4999999999999432
 31
0.0
  0
LINE
  5
A9B5
330
A9AA
100
AcDbEntity
  8
0
100
AcDbLine
 10
2.900000000000034
 20
0.4999999999999432
 30
0.0
 11
2.900000000000034
 21
0.0000000000000568
 31
0.0
  0
ENDBLK
  5
A9B6
330
A9AA
100
AcDbEntity
  8
0
100
AcDbBlockEnd
  0
BLOCK
  5
A9B8
330
A9B7
100
AcDbEntity
  8
0
100
AcDbBlockBegin
  2
M3SWPW-L6
 70
     0
 10
0.0
 20
0.0
 30
0.0
  3
M3SWPW-L6
  1

  0
LINE
  5
A9B9
330
A9B7
100
AcDbEntity
  8
SUNPOU
100
AcDbLine
 10
1.25
 20
-4.799999999999997
 30
0.0
 11
1.25
 21
-0.0499999999999972
 31
0.0
  0
LINE
  5
A9BA
330
A9B7
100
AcDbEntity
  8
SUNPOU
100
AcDbLine
 10
1.5
 20
-4.549999999999997
 30
0.0
 11
1.5
 21
-0.0499999999999972
 31
0.0
  0
LINE
  5
A9BB
330
A9B7
100
AcDbEntity
  8
SUNPOU
100
AcDbLine
 10
-1.5
 20
-4.549999999999997
 30
0.0
 11
-1.5
 21
-0.0499999999999972
 31
0.0
  0
LINE
  5
A9BC
330
A9B7
100
AcDbEntity
  8
SUNPOU
100
AcDbLine
 10
-1.25
 20
-4.799999999999997
 30
0.0
 11
-1.25
 21
-0.0499999999999972
 31
0.0
  0
LINE
  5
A9BD
330
A9B7
100
AcDbEntity
  8
SUNPOU
100
AcDbLine
 10
1.25
 20
-4.799999999999997
 30
0.0
 11
-1.25
 21
-4.799999999999997
 31
0.0
  0
LINE
  5
A9BE
330
A9B7
100
AcDbEntity
  8
SUNPOU
100
AcDbLine
 10
1.5
 20
-4.549999999999997
 30
0.0
 11
-1.5
 21
-4.549999999999997
 31
0.0
  0
LINE
  5
A9BF
330
A9B7
100
AcDbEntity
  8
SUNPOU
100
AcDbLine
 10
-1.25
 20
-4.799999999999997
 30
0.0
 11
-1.5
 21
-4.549999999999997
 31
0.0
  0
LINE
  5
A9C0
330
A9B7
100
AcDbEntity
  8
SUNPOU
100
AcDbLine
 10
1.25
 20
-4.799999999999997
 30
0.0
 11
1.5
 21
-4.549999999999997
 31
0.0
  0
INSERT
  5
A9C1
330
A9B7
100
AcDbEntity
  8
0
100
AcDbBlockReference
  2
M3-1
 10
0.0
 20
0.0
 30
0.0
  0
ENDBLK
  5
A9C2
330
A9B7
100
AcDbEntity
  8
0
100
AcDbBlockEnd
  0
BLOCK
  5
A9D1
330
A9D0
100
AcDbEntity
  8
0
100
AcDbBlockBegin
  2
HEX-M3-L10-1
 70
     0
 10
0.0
 20
0.0
 30
0.0
  3
HEX-M3-L10-1
  1

  0
LINE
  5
A9D3
330
A9D0
100
AcDbEntity
  8
0
100
AcDbLine
 10
0.0
 20
-1.590514974030924
 30
0.0
 11
-9.999999999999985
 21
-1.590514974030895
 31
0.0
  0
LINE
  5
A9D4
330
A9D0
100
AcDbEntity
  8
0
100
AcDbLine
 10
0.0
 20
-3.181029948061961
 30
0.0
 11
-9.999999999999985
 21
-3.181029948061933
 31
0.0
  0
LINE
  5
A9D5
330
A9D0
100
AcDbEntity
  8
0
100
AcDbLine
 10
0.0
 20
1.590514974031066
 30
0.0
 11
-9.999999999999985
 21
1.590514974031094
 31
0.0
  0
LINE
  5
A9D6
330
A9D0
100
AcDbEntity
  8
0
100
AcDbLine
 10
0.0
 20
3.181029948062018
 30
0.0
 11
-9.999999999999985
 21
3.181029948062018
 31
0.0
  0
LINE
  5
A9D7
330
A9D0
100
AcDbEntity
  8
0
100
AcDbLine
 10
0.0
 20
3.181029948061961
 30
0.0
 11
0.0
 21
-3.181029948061961
 31
0.0
  0
LINE
  5
A9D8
330
A9D0
100
AcDbEntity
  8
0
100
AcDbLine
 10
-10.0
 20
3.181029948061961
 30
0.0
 11
-10.0
 21
-3.181029948061961
 31
0.0
  0
ENDBLK
  5
A9D2
330
A9D0
100
AcDbEntity
  8
0
100
AcDbBlockEnd
  0
BLOCK
  5
AA05
330
AA04
100
AcDbEntity
  8
0
100
AcDbBlockBegin
  2
M3-ﾅｯﾄTOP
 70
     0
 10
0.0
 20
0.0
 30
0.0
  3
M3-ﾅｯﾄTOP
  1

  0
CIRCLE
  5
AA06
330
AA04
100
AcDbEntity
  8
SUNPOU
100
AcDbCircle
 10
0.0
 20
0.0
 30
0.0
 40
1.25
  0
LWPOLYLINE
  5
AA07
330
AA04
100
AcDbEntity
  8
0
100
AcDbPolyline
 90
        6
 70
     1
 43
0.0
 10
1.59051497403098
 20
2.754852745220773
 10
3.181029948061933
 20
0.0
 10
1.59051497403098
 20
-2.754852745220773
 10
-1.590514974031037
 20
-2.754852745220773
 10
-3.18102994806199
 20
0.0
 10
-1.590514974031037
 20
2.754852745220773
  0
CIRCLE
  5
AA08
330
AA04
100
AcDbEntity
  8
0
100
AcDbCircle
 10
0.0
 20
0.0
 30
0.0
 40
2.75
  0
CIRCLE
  5
AA09
330
AA04
100
AcDbEntity
  8
SUNPOU
100
AcDbCircle
 10
0.0
 20
0.0
 30
0.0
 40
1.5
  0
ENDBLK
  5
AA0A
330
AA04
100
AcDbEntity
  8
0
100
AcDbBlockEnd
  0
BLOCK
  5
AA1D
330
AA1C
100
AcDbEntity
  8
0
100
AcDbBlockBegin
  2
HEX-M3-L10-2
 70
     0
 10
0.0
 20
0.0
 30
0.0
  3
HEX-M3-L10-2
  1

  0
LINE
  5
AA1F
330
AA1C
100
AcDbEntity
  8
0
100
AcDbLine
 10
2.754852745220773
 20
0.0000000000000284
 30
0.0
 11
-2.754852745220773
 21
0.0000000000000284
 31
0.0
  0
LINE
  5
AA20
330
AA1C
100
AcDbEntity
  8
0
100
AcDbLine
 10
2.754852745220773
 20
-9.999999999999971
 30
0.0
 11
-2.754852745220773
 21
-9.999999999999971
 31
0.0
  0
LINE
  5
AA21
330
AA1C
100
AcDbEntity
  8
0
100
AcDbLine
 10
2.754852745220773
 20
0.0
 30
0.0
 11
2.754852745220773
 21
-9.999999999999971
 31
0.0
  0
LINE
  5
AA22
330
AA1C
100
AcDbEntity
  8
0
100
AcDbLine
 10
-2.754852745220745
 20
0.0
 30
0.0
 11
-2.754852745220773
 21
-9.999999999999971
 31
0.0
  0
LINE
  5
AA23
330
AA1C
100
AcDbEntity
  8
0
100
AcDbLine
 10
0.0
 20
0.0
 30
0.0
 11
0.0
 21
-9.999999999999971
 31
0.0
  0
ENDBLK
  5
AA1E
330
AA1C
100
AcDbEntity
  8
0
100
AcDbBlockEnd
  0
BLOCK
  5
ABBA
330
ABB9
100
AcDbEntity
  8
0
100
AcDbBlockBegin
  2
ZU-1
 70
     0
 10
0.0
 20
0.0
 30
0.0
  3
ZU-1
  1

  0
LINE
  5
ABBC
330
ABB9
100
AcDbEntity
  8
0
100
AcDbLine
 10
13.08000000000001
 20
-6.300000000000011
 30
0.0
 11
13.08000000000001
 21
-6.5
 31
0.0
  0
LINE
  5
ABBD
330
ABB9
100
AcDbEntity
  8
0
100
AcDbLine
 10
11.47999999999999
 20
-6.300000000000011
 30
0.0
 11
13.08000000000001
 21
-6.300000000000011
 31
0.0
  0
LINE
  5
ABBE
330
ABB9
100
AcDbEntity
  8
0
100
AcDbLine
 10
11.47999999999999
 20
-4.000000000000028
 30
0.0
 11
11.47999999999999
 21
-6.300000000000011
 31
0.0
  0
LINE
  5
ABBF
330
ABB9
100
AcDbEntity
  8
0
100
AcDbLine
 10
11.28
 20
-6.5
 30
0.0
 11
11.28
 21
-4.000000000000028
 31
0.0
  0
LINE
  5
ABC0
330
ABB9
100
AcDbEntity
  8
0
100
AcDbLine
 10
-11.28
 20
-3.999999999999971
 30
0.0
 11
-11.28
 21
-6.5
 31
0.0
  0
LINE
  5
ABC1
330
ABB9
100
AcDbEntity
  8
0
100
AcDbLine
 10
-11.47999999999999
 20
-6.300000000000011
 30
0.0
 11
-11.47999999999999
 21
-3.999999999999971
 31
0.0
  0
LINE
  5
ABC2
330
ABB9
100
AcDbEntity
  8
0
100
AcDbLine
 10
-13.08000000000001
 20
-6.300000000000011
 30
0.0
 11
-11.47999999999999
 21
-6.300000000000011
 31
0.0
  0
LINE
  5
ABC3
330
ABB9
100
AcDbEntity
  8
0
100
AcDbLine
 10
-13.08000000000001
 20
-6.5
 30
0.0
 11
-13.08000000000001
 21
-6.300000000000011
 31
0.0
  0
LINE
  5
ABC4
330
ABB9
100
AcDbEntity
  8
0
100
AcDbLine
 10
-11.99999999999997
 20
-3.19999999999996
 30
0.0
 11
-12.0
 21
-4.0
 31
0.0
  0
LINE
  5
ABC5
330
ABB9
100
AcDbEntity
  8
0
100
AcDbLine
 10
12.0
 20
-3.199999999999988
 30
0.0
 11
12.0
 21
-4.0
 31
0.0
  0
LINE
  5
ABC6
330
ABB9
100
AcDbEntity
  8
0
100
AcDbLine
 10
-5.0
 20
0.0
 30
0.0
 11
5.0
 21
0.0
 31
0.0
  0
LINE
  5
ABC7
330
ABB9
100
AcDbEntity
  8
0
100
AcDbLine
 10
5.0
 20
0.0
 30
0.0
 11
5.0
 21
-3.199999999999988
 31
0.0
  0
LINE
  5
ABC8
330
ABB9
100
AcDbEntity
  8
0
100
AcDbLine
 10
-5.0
 20
0.0
 30
0.0
 11
-5.0
 21
-3.199999999999988
 31
0.0
  0
LINE
  5
ABC9
330
ABB9
100
AcDbEntity
  8
0
100
AcDbLine
 10
-11.99999999999997
 20
-3.19999999999996
 30
0.0
 11
11.99999999999997
 21
-3.200000000000017
 31
0.0
  0
LINE
  5
ABCA
330
ABB9
100
AcDbEntity
  8
0
100
AcDbLine
 10
-11.99999999999997
 20
-3.999999999999971
 30
0.0
 11
11.99999999999997
 21
-4.000000000000028
 31
0.0
  0
ENDBLK
  5
ABBB
330
ABB9
100
AcDbEntity
  8
0
100
AcDbBlockEnd
  0
BLOCK
  5
AC44
330
AC39
100
AcDbEntity
  8
0
100
AcDbBlockBegin
  2
*D24
 70
     1
 10
0.0
 20
0.0
 30
0.0
  3
*D24
  1

  0
LINE
  5
AEE2
330
AC39
100
AcDbEntity
  8
SUNPOU
 62
     0
370
    -2
100
AcDbLine
 10
239.4000000000001
 20
161.3189700519381
 30
0.0
 11
239.4000000000001
 21
134.5
 31
0.0
  0
LINE
  5
AEE3
330
AC39
100
AcDbEntity
  8
SUNPOU
 62
     0
370
    -2
100
AcDbLine
 10
249.4
 20
143.0
 30
0.0
 11
249.4
 21
134.5
 31
0.0
  0
LINE
  5
AEE4
330
AC39
100
AcDbEntity
  8
SUNPOU
 62
     0
370
    -2
100
AcDbLine
 10
241.9
 20
135.0
 30
0.0
 11
246.9
 21
135.0
 31
0.0
  0
INSERT
  5
AEE5
330
AC39
100
AcDbEntity
  8
SUNPOU
 62
     0
370
    -2
100
AcDbBlockReference
  2
_OPEN
 10
239.4000000000001
 20
135.0
 30
0.0
 41
2.5
 42
2.5
 43
2.5
 50
180.0
  0
INSERT
  5
AEE6
330
AC39
100
AcDbEntity
  8
SUNPOU
 62
     0
370
    -2
100
AcDbBlockReference
  2
_OPEN
 10
249.4
 20
135.0
 30
0.0
 41
2.5
 42
2.5
 43
2.5
  0
MTEXT
  5
AEE7
330
AC39
100
AcDbEntity
  8
SUNPOU
 62
     0
100
AcDbMText
 10
244.4
 20
136.75
 30
0.0
 40
2.5
 41
0.0
 71
     5
 72
     1
  1
\A1;10.0
 73
     1
 44
1.0
1001
ACAD
1000
MTEXTBEGIN
1070
    73
1070
     1
1070
    44
1040
1.0
1070
    74
1070
     0
1000
MTEXTEND
  0
POINT
  5
AEE8
330
AC39
100
AcDbEntity
  8
DEFPOINTS
 62
     0
100
AcDbPoint
 10
239.4000000000001
 20
161.8189700519381
 30
0.0
  0
POINT
  5
AEE9
330
AC39
100
AcDbEntity
  8
DEFPOINTS
 62
     0
100
AcDbPoint
 10
249.4
 20
143.5
 30
0.0
  0
POINT
  5
AEEA
330
AC39
100
AcDbEntity
  8
DEFPOINTS
 62
     0
100
AcDbPoint
 10
249.4
 20
135.0
 30
0.0
  0
ENDBLK
  5
AC45
330
AC39
100
AcDbEntity
  8
0
100
AcDbBlockEnd
  0
BLOCK
  5
ACE3
330
ACE2
100
AcDbEntity
  8
0
100
AcDbBlockBegin
  2
RJ5-4
 70
     0
 10
0.0
 20
0.0
 30
0.0
  3
RJ5-4
  1

  0
LINE
  5
ACE5
330
ACE2
100
AcDbEntity
  8
SUNPOU
100
AcDbLine
 10
-0.3499999999999943
 20
-7.75
 30
0.0
 11
-1.950000000000017
 21
-7.75
 31
0.0
  0
LINE
  5
ACE6
330
ACE2
100
AcDbEntity
  8
SUNPOU
100
AcDbLine
 10
0.0
 20
-0.5
 30
0.0
 11
0.0
 21
0.5
 31
0.0
  0
LINE
  5
ACE7
330
ACE2
100
AcDbEntity
  8
SUNPOU
100
AcDbLine
 10
-1.950000000000017
 20
-7.75
 30
0.0
 11
-1.950000000000017
 21
-6.749999999999971
 31
0.0
  0
LINE
  5
ACE8
330
ACE2
100
AcDbEntity
  8
SUNPOU
100
AcDbLine
 10
-0.3499999999999943
 20
-7.75
 30
0.0
 11
-0.3499999999999659
 21
-6.749999999999971
 31
0.0
  0
LINE
  5
ACE9
330
ACE2
100
AcDbEntity
  8
SUNPOU
100
AcDbLine
 10
-2.150000000000005
 20
-6.749999999999971
 30
0.0
 11
2.150000000000005
 21
-6.749999999999971
 31
0.0
  0
LINE
  5
ACEA
330
ACE2
100
AcDbEntity
  8
SUNPOU
100
AcDbLine
 10
-2.150000000000005
 20
0.0
 30
0.0
 11
2.150000000000005
 21
0.0
 31
0.0
  0
LINE
  5
ACEB
330
ACE2
100
AcDbEntity
  8
SUNPOU
100
AcDbLine
 10
2.150000000000005
 20
0.0
 30
0.0
 11
2.150000000000005
 21
-6.749999999999971
 31
0.0
  0
LINE
  5
ACEC
330
ACE2
100
AcDbEntity
  8
SUNPOU
100
AcDbLine
 10
-2.150000000000005
 20
0.0
 30
0.0
 11
-2.150000000000005
 21
-6.749999999999971
 31
0.0
  0
ENDBLK
  5
ACE4
330
ACE2
100
AcDbEntity
  8
0
100
AcDbBlockEnd
  0
BLOCK
  5
AFB1
330
AFA7
100
AcDbEntity
  8
0
100
AcDbBlockBegin
  2
*D26
 70
     1
 10
0.0
 20
0.0
 30
0.0
  3
*D26
  1

  0
LINE
  5
B37A
330
AFA7
100
AcDbEntity
  8
SUNPOU
 62
     0
370
    -2
100
AcDbLine
 10
79.5
 20
212.5
 30
0.0
 11
79.5
 21
235.0
 31
0.0
  0
LINE
  5
B37B
330
AFA7
100
AcDbEntity
  8
SUNPOU
 62
     0
370
    -2
100
AcDbLine
 10
124.5
 20
212.5
 30
0.0
 11
124.5
 21
235.0
 31
0.0
  0
LINE
  5
B37C
330
AFA7
100
AcDbEntity
  8
SUNPOU
 62
     0
370
    -2
100
AcDbLine
 10
82.0
 20
234.5
 30
0.0
 11
122.0
 21
234.5
 31
0.0
  0
INSERT
  5
B37D
330
AFA7
100
AcDbEntity
  8
SUNPOU
 62
     0
370
    -2
100
AcDbBlockReference
  2
_OPEN
 10
79.5
 20
234.5
 30
0.0
 41
2.5
 42
2.5
 43
2.5
 50
180.0
  0
INSERT
  5
B37E
330
AFA7
100
AcDbEntity
  8
SUNPOU
 62
     0
370
    -2
100
AcDbBlockReference
  2
_OPEN
 10
124.5
 20
234.5
 30
0.0
 41
2.5
 42
2.5
 43
2.5
  0
MTEXT
  5
B37F
330
AFA7
100
AcDbEntity
  8
SUNPOU
 62
     0
100
AcDbMText
 10
102.0
 20
237.0
 30
0.0
 40
4.0
 41
0.0
 71
     5
 72
     1
  1
\A1;45
 73
     1
 44
1.0
1001
ACAD
1000
MTEXTBEGIN
1070
    73
1070
     1
1070
    44
1040
1.0
1070
    74
1070
     0
1000
MTEXTEND
  0
POINT
  5
B380
330
AFA7
100
AcDbEntity
  8
DEFPOINTS
 62
     0
100
AcDbPoint
 10
79.5
 20
212.0
 30
0.0
  0
POINT
  5
B381
330
AFA7
100
AcDbEntity
  8
DEFPOINTS
 62
     0
100
AcDbPoint
 10
124.5
 20
212.0
 30
0.0
  0
POINT
  5
B382
330
AFA7
100
AcDbEntity
  8
DEFPOINTS
 62
     0
100
AcDbPoint
 10
124.5
 20
234.5
 30
0.0
  0
ENDBLK
  5
AFB2
330
AFA7
100
AcDbEntity
  8
0
100
AcDbBlockEnd
  0
BLOCK
  5
AFC9
330
AFBF
100
AcDbEntity
  8
0
100
AcDbBlockBegin
  2
*D27
 70
     1
 10
0.0
 20
0.0
 30
0.0
  3
*D27
  1

  0
LINE
  5
B67A
330
AFBF
100
AcDbEntity
  8
SUNPOU
 62
     0
370
    -2
100
AcDbLine
 10
83.49999999999999
 20
190.5
 30
0.0
 11
83.49999999999999
 21
227.5
 31
0.0
  0
LINE
  5
B67B
330
AFBF
100
AcDbEntity
  8
SUNPOU
 62
     0
370
    -2
100
AcDbLine
 10
120.5
 20
190.5
 30
0.0
 11
120.5
 21
227.5
 31
0.0
  0
LINE
  5
B67C
330
AFBF
100
AcDbEntity
  8
SUNPOU
 62
     0
370
    -2
100
AcDbLine
 10
86.0
 20
227.0
 30
0.0
 11
118.0
 21
227.0
 31
0.0
  0
INSERT
  5
B67D
330
AFBF
100
AcDbEntity
  8
SUNPOU
 62
     0
370
    -2
100
AcDbBlockReference
  2
_OPEN
 10
83.49999999999999
 20
227.0
 30
0.0
 41
2.5
 42
2.5
 43
2.5
 50
180.0
  0
INSERT
  5
B67E
330
AFBF
100
AcDbEntity
  8
SUNPOU
 62
     0
370
    -2
100
AcDbBlockReference
  2
_OPEN
 10
120.5
 20
227.0
 30
0.0
 41
2.5
 42
2.5
 43
2.5
  0
MTEXT
  5
B67F
330
AFBF
100
AcDbEntity
  8
SUNPOU
 62
     0
100
AcDbMText
 10
102.0
 20
229.5
 30
0.0
 40
4.0
 41
0.0
 71
     5
 72
     1
  1
\A1;37
 73
     1
 44
1.0
1001
ACAD
1000
MTEXTBEGIN
1070
    73
1070
     1
1070
    44
1040
1.0
1070
    74
1070
     0
1000
MTEXTEND
  0
POINT
  5
B680
330
AFBF
100
AcDbEntity
  8
DEFPOINTS
 62
     0
100
AcDbPoint
 10
83.49999999999999
 20
190.0
 30
0.0
  0
POINT
  5
B681
330
AFBF
100
AcDbEntity
  8
DEFPOINTS
 62
     0
100
AcDbPoint
 10
120.5
 20
190.0
 30
0.0
  0
POINT
  5
B682
330
AFBF
100
AcDbEntity
  8
DEFPOINTS
 62
     0
100
AcDbPoint
 10
120.5
 20
227.0
 30
0.0
  0
ENDBLK
  5
AFCA
330
AFBF
100
AcDbEntity
  8
0
100
AcDbBlockEnd
  0
BLOCK
  5
AFD6
330
AFCB
100
AcDbEntity
  8
0
100
AcDbBlockBegin
  2
*D28
 70
     1
 10
0.0
 20
0.0
 30
0.0
  3
*D28
  1

  0
LINE
  5
B7F7
330
AFCB
100
AcDbEntity
  8
SUNPOU
 62
     0
370
    -2
100
AcDbLine
 10
79.0
 20
120.4
 30
0.0
 11
64.5
 21
120.4
 31
0.0
  0
LINE
  5
B7F8
330
AFCB
100
AcDbEntity
  8
SUNPOU
 62
     0
370
    -2
100
AcDbLine
 10
80.24514725477922
 20
110.4
 30
0.0
 11
64.5
 21
110.4
 31
0.0
  0
LINE
  5
B7F9
330
AFCB
100
AcDbEntity
  8
SUNPOU
 62
     0
370
    -2
100
AcDbLine
 10
65.0
 20
117.9
 30
0.0
 11
65.0
 21
112.9
 31
0.0
  0
INSERT
  5
B7FA
330
AFCB
100
AcDbEntity
  8
SUNPOU
 62
     0
370
    -2
100
AcDbBlockReference
  2
_OPEN
 10
65.0
 20
120.4
 30
0.0
 41
2.5
 42
2.5
 43
2.5
 50
90.0
  0
INSERT
  5
B7FB
330
AFCB
100
AcDbEntity
  8
SUNPOU
 62
     0
370
    -2
100
AcDbBlockReference
  2
_OPEN
 10
65.0
 20
110.4
 30
0.0
 41
2.5
 42
2.5
 43
2.5
 50
270.0
  0
MTEXT
  5
B7FC
330
AFCB
100
AcDbEntity
  8
SUNPOU
 62
     0
100
AcDbMText
 10
62.49999999999998
 20
115.4
 30
0.0
 40
4.0
 41
0.0
 71
     5
 72
     1
  1
\A1;10
 11
0.0000000000000001
 21
1.0
 31
0.0
 73
     1
 44
1.0
1001
ACAD
1000
MTEXTBEGIN
1070
    73
1070
     1
1070
    44
1040
1.0
1070
    74
1070
     0
1000
MTEXTEND
  0
POINT
  5
B7FD
330
AFCB
100
AcDbEntity
  8
DEFPOINTS
 62
     0
100
AcDbPoint
 10
79.5
 20
120.4
 30
0.0
  0
POINT
  5
B7FE
330
AFCB
100
AcDbEntity
  8
DEFPOINTS
 62
     0
100
AcDbPoint
 10
80.74514725477923
 20
110.4
 30
0.0
  0
POINT
  5
B7FF
330
AFCB
100
AcDbEntity
  8
DEFPOINTS
 62
     0
100
AcDbPoint
 10
65.0
 20
110.4
 30
0.0
  0
ENDBLK
  5
AFD7
330
AFCB
100
AcDbEntity
  8
0
100
AcDbBlockEnd
  0
BLOCK
  5
AFE3
330
AFD8
100
AcDbEntity
  8
0
100
AcDbBlockBegin
  2
*D29
 70
     1
 10
0.0
 20
0.0
 30
0.0
  3
*D29
  1

  0
LINE
  5
B515
330
AFD8
100
AcDbEntity
  8
SUNPOU
 62
     0
370
    -2
100
AcDbLine
 10
125.0
 20
131.0
 30
0.0
 11
135.5
 21
131.0
 31
0.0
  0
LINE
  5
B516
330
AFD8
100
AcDbEntity
  8
SUNPOU
 62
     0
370
    -2
100
AcDbLine
 10
125.0
 20
122.0
 30
0.0
 11
135.5
 21
122.0
 31
0.0
  0
LINE
  5
B517
330
AFD8
100
AcDbEntity
  8
SUNPOU
 62
     0
370
    -2
100
AcDbLine
 10
135.0
 20
124.5
 30
0.0
 11
135.0
 21
128.5
 31
0.0
  0
LINE
  5
B518
330
AFD8
100
AcDbEntity
  8
SUNPOU
 62
     0
370
    -2
100
AcDbLine
 10
135.0
 20
131.0
 30
0.0
 11
135.0
 21
137.0714285714285
 31
0.0
  0
INSERT
  5
B519
330
AFD8
100
AcDbEntity
  8
SUNPOU
 62
     0
370
    -2
100
AcDbBlockReference
  2
_OPEN
 10
135.0
 20
122.0
 30
0.0
 41
2.5
 42
2.5
 43
2.5
 50
270.0
  0
INSERT
  5
B51A
330
AFD8
100
AcDbEntity
  8
SUNPOU
 62
     0
370
    -2
100
AcDbBlockReference
  2
_OPEN
 10
135.0
 20
131.0
 30
0.0
 41
2.5
 42
2.5
 43
2.5
 50
90.0
  0
MTEXT
  5
B51B
330
AFD8
100
AcDbEntity
  8
SUNPOU
 62
     0
100
AcDbMText
 10
132.5
 20
135.3333333333333
 30
0.0
 40
4.0
 41
0.0
 71
     5
 72
     1
  1
\A1;9
 11
0.0000000000000001
 21
1.0
 31
0.0
 73
     1
 44
1.0
1001
ACAD
1000
MTEXTBEGIN
1070
    73
1070
     1
1070
    44
1040
1.0
1070
    74
1070
     0
1000
MTEXTEND
  0
POINT
  5
B51C
330
AFD8
100
AcDbEntity
  8
DEFPOINTS
 62
     0
100
AcDbPoint
 10
124.5
 20
131.0
 30
0.0
  0
POINT
  5
B51D
330
AFD8
100
AcDbEntity
  8
DEFPOINTS
 62
     0
100
AcDbPoint
 10
124.5
 20
122.0
 30
0.0
  0
POINT
  5
B51E
330
AFD8
100
AcDbEntity
  8
DEFPOINTS
 62
     0
100
AcDbPoint
 10
135.0
 20
122.0
 30
0.0
  0
ENDBLK
  5
AFE4
330
AFD8
100
AcDbEntity
  8
0
100
AcDbBlockEnd
  0
BLOCK
  5
AFEF
330
AFE5
100
AcDbEntity
  8
0
100
AcDbBlockBegin
  2
*D30
 70
     1
 10
0.0
 20
0.0
 30
0.0
  3
*D30
  1

  0
LINE
  5
B51F
330
AFE5
100
AcDbEntity
  8
SUNPOU
 62
     0
370
    -2
100
AcDbLine
 10
125.0
 20
120.3999999999999
 30
0.0
 11
135.570946479922
 21
120.3999999999999
 31
0.0
  0
LINE
  5
B520
330
AFE5
100
AcDbEntity
  8
SUNPOU
 62
     0
370
    -2
100
AcDbLine
 10
125.0
 20
113.9
 30
0.0
 11
135.570946479922
 21
113.9
 31
0.0
  0
LINE
  5
B521
330
AFE5
100
AcDbEntity
  8
SUNPOU
 62
     0
370
    -2
100
AcDbLine
 10
135.070946479922
 20
117.9
 30
0.0
 11
135.070946479922
 21
116.4
 31
0.0
  0
LINE
  5
B522
330
AFE5
100
AcDbEntity
  8
SUNPOU
 62
     0
370
    -2
100
AcDbLine
 10
135.070946479922
 20
113.9
 30
0.0
 11
135.070946479922
 21
102.2095238095238
 31
0.0
  0
INSERT
  5
B523
330
AFE5
100
AcDbEntity
  8
SUNPOU
 62
     0
370
    -2
100
AcDbBlockReference
  2
_OPEN
 10
135.070946479922
 20
120.3999999999999
 30
0.0
 41
2.5
 42
2.5
 43
2.5
 50
90.0
  0
INSERT
  5
B524
330
AFE5
100
AcDbEntity
  8
SUNPOU
 62
     0
370
    -2
100
AcDbBlockReference
  2
_OPEN
 10
135.070946479922
 20
113.9
 30
0.0
 41
2.5
 42
2.5
 43
2.5
 50
270.0
  0
MTEXT
  5
B525
330
AFE5
100
AcDbEntity
  8
SUNPOU
 62
     0
100
AcDbMText
 10
132.5709464799219
 20
106.8047619047619
 30
0.0
 40
4.0
 41
0.0
 71
     5
 72
     1
  1
\A1;6.5
 11
0.0000000000000001
 21
1.0
 31
0.0
 73
     1
 44
1.0
1001
ACAD
1000
MTEXTBEGIN
1070
    73
1070
     1
1070
    44
1040
1.0
1070
    74
1070
     0
1000
MTEXTEND
  0
POINT
  5
B526
330
AFE5
100
AcDbEntity
  8
DEFPOINTS
 62
     0
100
AcDbPoint
 10
124.5
 20
120.3999999999999
 30
0.0
  0
POINT
  5
B527
330
AFE5
100
AcDbEntity
  8
DEFPOINTS
 62
     0
100
AcDbPoint
 10
124.5
 20
113.9
 30
0.0
  0
POINT
  5
B528
330
AFE5
100
AcDbEntity
  8
DEFPOINTS
 62
     0
100
AcDbPoint
 10
135.070946479922
 20
113.9
 30
0.0
  0
ENDBLK
  5
AFF0
330
AFE5
100
AcDbEntity
  8
0
100
AcDbBlockEnd
  0
BLOCK
  5
B085
330
B07B
100
AcDbEntity
  8
0
100
AcDbBlockBegin
  2
*D31
 70
     1
 10
0.0
 20
0.0
 30
0.0
  3
*D31
  1

  0
LINE
  5
B353
330
B07B
100
AcDbEntity
  8
SUNPOU
 62
     0
370
    -2
100
AcDbLine
 10
79.0
 20
212.0
 30
0.0
 11
59.6
 21
212.0
 31
0.0
  0
LINE
  5
B354
330
B07B
100
AcDbEntity
  8
SUNPOU
 62
     0
370
    -2
100
AcDbLine
 10
79.0
 20
168.0
 30
0.0
 11
59.59999999999999
 21
168.0
 31
0.0
  0
LINE
  5
B355
330
B07B
100
AcDbEntity
  8
SUNPOU
 62
     0
370
    -2
100
AcDbLine
 10
60.10000000000001
 20
209.5
 30
0.0
 11
60.09999999999999
 21
170.5
 31
0.0
  0
INSERT
  5
B356
330
B07B
100
AcDbEntity
  8
SUNPOU
 62
     0
370
    -2
100
AcDbBlockReference
  2
_OPEN
 10
60.10000000000001
 20
212.0
 30
0.0
 41
2.5
 42
2.5
 43
2.5
 50
90.0
  0
INSERT
  5
B357
330
B07B
100
AcDbEntity
  8
SUNPOU
 62
     0
370
    -2
100
AcDbBlockReference
  2
_OPEN
 10
60.09999999999999
 20
168.0
 30
0.0
 41
2.5
 42
2.5
 43
2.5
 50
270.0
  0
MTEXT
  5
B358
330
B07B
100
AcDbEntity
  8
SUNPOU
 62
     0
100
AcDbMText
 10
57.59999999999998
 20
190.0
 30
0.0
 40
4.0
 41
0.0
 71
     5
 72
     1
  1
\A1;44
 11
0.0000000000000001
 21
1.0
 31
0.0
 73
     1
 44
1.0
1001
ACAD
1000
MTEXTBEGIN
1070
    73
1070
     1
1070
    44
1040
1.0
1070
    74
1070
     0
1000
MTEXTEND
  0
POINT
  5
B359
330
B07B
100
AcDbEntity
  8
DEFPOINTS
 62
     0
100
AcDbPoint
 10
79.5
 20
212.0
 30
0.0
  0
POINT
  5
B35A
330
B07B
100
AcDbEntity
  8
DEFPOINTS
 62
     0
100
AcDbPoint
 10
79.5
 20
168.0
 30
0.0
  0
POINT
  5
B35B
330
B07B
100
AcDbEntity
  8
DEFPOINTS
 62
     0
100
AcDbPoint
 10
60.09999999999999
 20
168.0
 30
0.0
  0
ENDBLK
  5
B086
330
B07B
100
AcDbEntity
  8
0
100
AcDbBlockEnd
  0
BLOCK
  5
B12F
330
B124
100
AcDbEntity
  8
0
100
AcDbBlockBegin
  2
*D32
 70
     1
 10
0.0
 20
0.0
 30
0.0
  3
*D32
  1

  0
LINE
  5
B349
330
B124
100
AcDbEntity
  8
SUNPOU
 62
     0
370
    -2
100
AcDbLine
 10
150.0
 20
167.5
 30
0.0
 11
150.0
 21
159.5
 31
0.0
  0
LINE
  5
B34A
330
B124
100
AcDbEntity
  8
SUNPOU
 62
     0
370
    -2
100
AcDbLine
 10
151.6
 20
167.5
 30
0.0
 11
151.6
 21
159.5
 31
0.0
  0
LINE
  5
B34B
330
B124
100
AcDbEntity
  8
SUNPOU
 62
     0
370
    -2
100
AcDbLine
 10
147.5
 20
160.0
 30
0.0
 11
145.0
 21
160.0
 31
0.0
  0
LINE
  5
B34C
330
B124
100
AcDbEntity
  8
SUNPOU
 62
     0
370
    -2
100
AcDbLine
 10
154.0999999999999
 20
160.0
 30
0.0
 11
165.4095238095238
 21
160.0
 31
0.0
  0
INSERT
  5
B34D
330
B124
100
AcDbEntity
  8
SUNPOU
 62
     0
370
    -2
100
AcDbBlockReference
  2
_OPEN
 10
150.0
 20
160.0
 30
0.0
 41
2.5
 42
2.5
 43
2.5
  0
INSERT
  5
B34E
330
B124
100
AcDbEntity
  8
SUNPOU
 62
     0
370
    -2
100
AcDbBlockReference
  2
_OPEN
 10
151.6
 20
160.0
 30
0.0
 41
2.5
 42
2.5
 43
2.5
 50
180.0
  0
MTEXT
  5
B34F
330
B124
100
AcDbEntity
  8
SUNPOU
 62
     0
100
AcDbMText
 10
161.0047619047618
 20
162.5
 30
0.0
 40
4.0
 41
0.0
 71
     5
 72
     1
  1
\A1;1.6
 73
     1
 44
1.0
1001
ACAD
1000
MTEXTBEGIN
1070
    73
1070
     1
1070
    44
1040
1.0
1070
    74
1070
     0
1000
MTEXTEND
  0
POINT
  5
B350
330
B124
100
AcDbEntity
  8
DEFPOINTS
 62
     0
100
AcDbPoint
 10
150.0
 20
168.0
 30
0.0
  0
POINT
  5
B351
330
B124
100
AcDbEntity
  8
DEFPOINTS
 62
     0
100
AcDbPoint
 10
151.6
 20
168.0
 30
0.0
  0
POINT
  5
B352
330
B124
100
AcDbEntity
  8
DEFPOINTS
 62
     0
100
AcDbPoint
 10
151.6
 20
160.0
 30
0.0
  0
ENDBLK
  5
B130
330
B124
100
AcDbEntity
  8
0
100
AcDbBlockEnd
  0
BLOCK
  5
B49A
330
B490
100
AcDbEntity
  8
0
100
AcDbBlockBegin
  2
*D33
 70
     1
 10
0.0
 20
0.0
 30
0.0
  3
*D33
  1

  0
LINE
  5
B5BD
330
B490
100
AcDbEntity
  8
SUNPOU
 62
     0
370
    -2
100
AcDbLine
 10
157.5
 20
41.9
 30
0.0
 11
157.5
 21
49.0
 31
0.0
  0
LINE
  5
B5BE
330
B490
100
AcDbEntity
  8
SUNPOU
 62
     0
370
    -2
100
AcDbLine
 10
77.49999999999999
 20
41.90000000000003
 30
0.0
 11
77.49999999999999
 21
49.0
 31
0.0
  0
LINE
  5
B5BF
330
B490
100
AcDbEntity
  8
SUNPOU
 62
     0
370
    -2
100
AcDbLine
 10
155.0
 20
48.5
 30
0.0
 11
79.99999999999999
 21
48.5
 31
0.0
  0
INSERT
  5
B5C0
330
B490
100
AcDbEntity
  8
SUNPOU
 62
     0
370
    -2
100
AcDbBlockReference
  2
_OPEN
 10
157.5
 20
48.5
 30
0.0
 41
2.5
 42
2.5
 43
2.5
  0
INSERT
  5
B5C1
330
B490
100
AcDbEntity
  8
SUNPOU
 62
     0
370
    -2
100
AcDbBlockReference
  2
_OPEN
 10
77.49999999999999
 20
48.5
 30
0.0
 41
2.5
 42
2.5
 43
2.5
 50
180.0
  0
MTEXT
  5
B5C2
330
B490
100
AcDbEntity
  8
SUNPOU
 62
     0
100
AcDbMText
 10
117.5
 20
50.5
 30
0.0
 40
3.0
 41
0.0
 71
     5
 72
     1
  1
\A1;200
 73
     1
 44
1.0
1001
ACAD
1000
MTEXTBEGIN
1070
    73
1070
     1
1070
    44
1040
1.0
1070
    74
1070
     0
1000
MTEXTEND
  0
POINT
  5
B5C3
330
B490
100
AcDbEntity
  8
DEFPOINTS
 62
     0
100
AcDbPoint
 10
157.5
 20
41.4
 30
0.0
  0
POINT
  5
B5C4
330
B490
100
AcDbEntity
  8
DEFPOINTS
 62
     0
100
AcDbPoint
 10
77.49999999999999
 20
41.40000000000003
 30
0.0
  0
POINT
  5
B5C5
330
B490
100
AcDbEntity
  8
DEFPOINTS
 62
     0
100
AcDbPoint
 10
77.49999999999999
 20
48.5
 30
0.0
  0
ENDBLK
  5
B49B
330
B490
100
AcDbEntity
  8
0
100
AcDbBlockEnd
  0
BLOCK
  5
B599
330
B58F
100
AcDbEntity
  8
0
100
AcDbBlockBegin
  2
*D34
 70
     1
 10
0.0
 20
0.0
 30
0.0
  3
*D34
  1

  0
LINE
  5
B667
330
B58F
100
AcDbEntity
  8
SUNPOU
 62
     0
370
    -2
100
AcDbLine
 10
124.3
 20
79.25000000000004
 30
0.0
 11
124.3
 21
88.10000000000002
 31
0.0
  0
LINE
  5
B668
330
B58F
100
AcDbEntity
  8
SUNPOU
 62
     0
370
    -2
100
AcDbLine
 10
74.50000000000001
 20
81.00000000000006
 30
0.0
 11
74.50000000000001
 21
88.10000000000002
 31
0.0
  0
LINE
  5
B669
330
B58F
100
AcDbEntity
  8
SUNPOU
 62
     0
370
    -2
100
AcDbLine
 10
121.8
 20
87.60000000000003
 30
0.0
 11
77.00000000000001
 21
87.60000000000003
 31
0.0
  0
INSERT
  5
B66A
330
B58F
100
AcDbEntity
  8
SUNPOU
 62
     0
370
    -2
100
AcDbBlockReference
  2
_OPEN
 10
124.3
 20
87.60000000000003
 30
0.0
 41
2.5
 42
2.5
 43
2.5
  0
INSERT
  5
B66B
330
B58F
100
AcDbEntity
  8
SUNPOU
 62
     0
370
    -2
100
AcDbBlockReference
  2
_OPEN
 10
74.50000000000001
 20
87.60000000000003
 30
0.0
 41
2.5
 42
2.5
 43
2.5
 50
180.0
  0
MTEXT
  5
B66C
330
B58F
100
AcDbEntity
  8
SUNPOU
 62
     0
100
AcDbMText
 10
99.40000000000001
 20
89.60000000000002
 30
0.0
 40
3.0
 41
0.0
 71
     5
 72
     1
  1
\A1;50
 73
     1
 44
1.0
1001
ACAD
1000
MTEXTBEGIN
1070
    73
1070
     1
1070
    44
1040
1.0
1070
    74
1070
     0
1000
MTEXTEND
  0
POINT
  5
B66D
330
B58F
100
AcDbEntity
  8
DEFPOINTS
 62
     0
100
AcDbPoint
 10
124.3
 20
78.75000000000004
 30
0.0
  0
POINT
  5
B66E
330
B58F
100
AcDbEntity
  8
DEFPOINTS
 62
     0
100
AcDbPoint
 10
74.50000000000001
 20
80.50000000000006
 30
0.0
  0
POINT
  5
B66F
330
B58F
100
AcDbEntity
  8
DEFPOINTS
 62
     0
100
AcDbPoint
 10
74.50000000000001
 20
87.60000000000003
 30
0.0
  0
ENDBLK
  5
B59A
330
B58F
100
AcDbEntity
  8
0
100
AcDbBlockEnd
  0
BLOCK
  5
B5DB
330
B5DA
100
AcDbEntity
  8
0
100
AcDbBlockBegin
  2
M3-TOP
 70
     0
 10
0.0
 20
0.0
 30
0.0
  3
M3-TOP
  1

  0
LWPOLYLINE
  5
B5DD
330
B5DA
100
AcDbEntity
  8
0
100
AcDbPolyline
 90
       13
 70
     0
 43
0.0
 10
-0.5
 20
2.0
 10
0.5
 20
2.0
 10
0.5
 20
0.5
 10
2.0
 20
0.5
 10
2.0
 20
-0.5
 10
0.5
 20
-0.5
 10
0.5
 20
-2.0
 10
-0.5
 20
-2.0
 10
-0.5
 20
-0.5
 10
-2.0
 20
-0.5
 10
-2.0
 20
0.5
 10
-0.5
 20
0.5
 10
-0.5
 20
2.0
  0
CIRCLE
  5
B5DE
330
B5DA
100
AcDbEntity
  8
0
100
AcDbCircle
 10
0.0
 20
0.0
 30
0.0
 40
2.75
  0
ENDBLK
  5
B5DC
330
B5DA
100
AcDbEntity
  8
0
100
AcDbBlockEnd
  0
BLOCK
  5
B68F
330
B685
100
AcDbEntity
  8
0
100
AcDbBlockBegin
  2
*D36
 70
     1
 10
0.0
 20
0.0
 30
0.0
  3
*D36
  1

  0
LINE
  5
B6FA
330
B685
100
AcDbEntity
  8
SUNPOU
 62
     0
370
    -2
100
AcDbLine
 10
107.0
 20
206.0
 30
0.0
 11
107.0
 21
218.0
 31
0.0
  0
LINE
  5
B6FB
330
B685
100
AcDbEntity
  8
SUNPOU
 62
     0
370
    -2
100
AcDbLine
 10
113.0
 20
206.0
 30
0.0
 11
113.0
 21
218.0
 31
0.0
  0
LINE
  5
B6FC
330
B685
100
AcDbEntity
  8
SUNPOU
 62
     0
370
    -2
100
AcDbLine
 10
104.5
 20
217.5
 30
0.0
 11
102.0
 21
217.5
 31
0.0
  0
LINE
  5
B6FD
330
B685
100
AcDbEntity
  8
SUNPOU
 62
     0
370
    -2
100
AcDbLine
 10
115.5
 20
217.5
 30
0.0
 11
118.0
 21
217.5
 31
0.0
  0
INSERT
  5
B6FE
330
B685
100
AcDbEntity
  8
SUNPOU
 62
     0
370
    -2
100
AcDbBlockReference
  2
_OPEN
 10
107.0
 20
217.5
 30
0.0
 41
2.5
 42
2.5
 43
2.5
  0
INSERT
  5
B6FF
330
B685
100
AcDbEntity
  8
SUNPOU
 62
     0
370
    -2
100
AcDbBlockReference
  2
_OPEN
 10
113.0
 20
217.5
 30
0.0
 41
2.5
 42
2.5
 43
2.5
 50
180.0
  0
MTEXT
  5
B700
330
B685
100
AcDbEntity
  8
SUNPOU
 62
     0
100
AcDbMText
 10
110.0
 20
220.0
 30
0.0
 40
4.0
 41
0.0
 71
     5
 72
     1
  1
\A1;6
 73
     1
 44
1.0
1001
ACAD
1000
MTEXTBEGIN
1070
    73
1070
     1
1070
    44
1040
1.0
1070
    74
1070
     0
1000
MTEXTEND
  0
POINT
  5
B701
330
B685
100
AcDbEntity
  8
DEFPOINTS
 62
     0
100
AcDbPoint
 10
107.0
 20
205.5
 30
0.0
  0
POINT
  5
B702
330
B685
100
AcDbEntity
  8
DEFPOINTS
 62
     0
100
AcDbPoint
 10
113.0
 20
205.5
 30
0.0
  0
POINT
  5
B703
330
B685
100
AcDbEntity
  8
DEFPOINTS
 62
     0
100
AcDbPoint
 10
113.0
 20
217.5
 30
0.0
  0
ENDBLK
  5
B690
330
B685
100
AcDbEntity
  8
0
100
AcDbBlockEnd
  0
BLOCK
  5
B69B
330
B691
100
AcDbEntity
  8
0
100
AcDbBlockBegin
  2
*D37
 70
     1
 10
0.0
 20
0.0
 30
0.0
  3
*D37
  1

  0
LINE
  5
B704
330
B691
100
AcDbEntity
  8
SUNPOU
 62
     0
370
    -2
100
AcDbLine
 10
113.0
 20
206.0
 30
0.0
 11
113.0
 21
218.0
 31
0.0
  0
LINE
  5
B705
330
B691
100
AcDbEntity
  8
SUNPOU
 62
     0
370
    -2
100
AcDbLine
 10
124.5
 20
212.5
 30
0.0
 11
124.5
 21
218.0
 31
0.0
  0
LINE
  5
B706
330
B691
100
AcDbEntity
  8
SUNPOU
 62
     0
370
    -2
100
AcDbLine
 10
115.5
 20
217.5
 30
0.0
 11
122.0
 21
217.5
 31
0.0
  0
LINE
  5
B707
330
B691
100
AcDbEntity
  8
SUNPOU
 62
     0
370
    -2
100
AcDbLine
 10
124.5
 20
217.5
 30
0.0
 11
139.6190476190476
 21
217.5
 31
0.0
  0
INSERT
  5
B708
330
B691
100
AcDbEntity
  8
SUNPOU
 62
     0
370
    -2
100
AcDbBlockReference
  2
_OPEN
 10
113.0
 20
217.5
 30
0.0
 41
2.5
 42
2.5
 43
2.5
 50
180.0
  0
INSERT
  5
B709
330
B691
100
AcDbEntity
  8
SUNPOU
 62
     0
370
    -2
100
AcDbBlockReference
  2
_OPEN
 10
124.5
 20
217.5
 30
0.0
 41
2.5
 42
2.5
 43
2.5
  0
MTEXT
  5
B70A
330
B691
100
AcDbEntity
  8
SUNPOU
 62
     0
100
AcDbMText
 10
133.3095238095238
 20
220.0
 30
0.0
 40
4.0
 41
0.0
 71
     5
 72
     1
  1
\A1;11.5
 73
     1
 44
1.0
1001
ACAD
1000
MTEXTBEGIN
1070
    73
1070
     1
1070
    44
1040
1.0
1070
    74
1070
     0
1000
MTEXTEND
  0
POINT
  5
B70B
330
B691
100
AcDbEntity
  8
DEFPOINTS
 62
     0
100
AcDbPoint
 10
113.0
 20
205.5
 30
0.0
  0
POINT
  5
B70C
330
B691
100
AcDbEntity
  8
DEFPOINTS
 62
     0
100
AcDbPoint
 10
124.5
 20
212.0
 30
0.0
  0
POINT
  5
B70D
330
B691
100
AcDbEntity
  8
DEFPOINTS
 62
     0
100
AcDbPoint
 10
124.5
 20
217.5
 30
0.0
  0
ENDBLK
  5
B69C
330
B691
100
AcDbEntity
  8
0
100
AcDbBlockEnd
  0
BLOCK
  5
B71A
330
B70F
100
AcDbEntity
  8
0
100
AcDbBlockBegin
  2
*D38
 70
     1
 10
0.0
 20
0.0
 30
0.0
  3
*D38
  1

  0
LINE
  5
B730
330
B70F
100
AcDbEntity
  8
SUNPOU
 62
     0
370
    -2
100
AcDbLine
 10
113.5
 20
205.5
 30
0.0
 11
134.0
 21
205.5
 31
0.0
  0
LINE
  5
B731
330
B70F
100
AcDbEntity
  8
SUNPOU
 62
     0
370
    -2
100
AcDbLine
 10
125.0
 20
212.0
 30
0.0
 11
134.0
 21
212.0
 31
0.0
  0
LINE
  5
B732
330
B70F
100
AcDbEntity
  8
SUNPOU
 62
     0
370
    -2
100
AcDbLine
 10
133.5
 20
209.5
 30
0.0
 11
133.5
 21
208.0
 31
0.0
  0
LINE
  5
B733
330
B70F
100
AcDbEntity
  8
SUNPOU
 62
     0
370
    -2
100
AcDbLine
 10
133.5
 20
205.5
 30
0.0
 11
133.5
 21
193.8095238095238
 31
0.0
  0
INSERT
  5
B734
330
B70F
100
AcDbEntity
  8
SUNPOU
 62
     0
370
    -2
100
AcDbBlockReference
  2
_OPEN
 10
133.5
 20
212.0
 30
0.0
 41
2.5
 42
2.5
 43
2.5
 50
90.0
  0
INSERT
  5
B735
330
B70F
100
AcDbEntity
  8
SUNPOU
 62
     0
370
    -2
100
AcDbBlockReference
  2
_OPEN
 10
133.5
 20
205.5
 30
0.0
 41
2.5
 42
2.5
 43
2.5
 50
270.0
  0
MTEXT
  5
B736
330
B70F
100
AcDbEntity
  8
SUNPOU
 62
     0
100
AcDbMText
 10
131.0
 20
198.4047619047619
 30
0.0
 40
4.0
 41
0.0
 71
     5
 72
     1
  1
\A1;6.5
 11
0.0000000000000001
 21
1.0
 31
0.0
 73
     1
 44
1.0
1001
ACAD
1000
MTEXTBEGIN
1070
    73
1070
     1
1070
    44
1040
1.0
1070
    74
1070
     0
1000
MTEXTEND
  0
POINT
  5
B737
330
B70F
100
AcDbEntity
  8
DEFPOINTS
 62
     0
100
AcDbPoint
 10
113.0
 20
205.5
 30
0.0
  0
POINT
  5
B738
330
B70F
100
AcDbEntity
  8
DEFPOINTS
 62
     0
100
AcDbPoint
 10
124.5
 20
212.0
 30
0.0
  0
POINT
  5
B739
330
B70F
100
AcDbEntity
  8
DEFPOINTS
 62
     0
100
AcDbPoint
 10
133.5
 20
212.0
 30
0.0
  0
ENDBLK
  5
B71B
330
B70F
100
AcDbEntity
  8
0
100
AcDbBlockEnd
  0
BLOCK
  5
B749
330
B73E
100
AcDbEntity
  8
0
100
AcDbBlockBegin
  2
*D39
 70
     1
 10
0.0
 20
0.0
 30
0.0
  3
*D39
  1

  0
LINE
  5
B7BE
330
B73E
100
AcDbEntity
  8
SUNPOU
 62
     0
370
    -2
100
AcDbLine
 10
323.0
 20
181.0
 30
0.0
 11
323.0
 21
193.0
 31
0.0
  0
LINE
  5
B7BF
330
B73E
100
AcDbEntity
  8
SUNPOU
 62
     0
370
    -2
100
AcDbLine
 10
334.5
 20
187.5
 30
0.0
 11
334.5
 21
193.0
 31
0.0
  0
LINE
  5
B7C0
330
B73E
100
AcDbEntity
  8
SUNPOU
 62
     0
370
    -2
100
AcDbLine
 10
325.5
 20
192.5
 30
0.0
 11
332.0
 21
192.5
 31
0.0
  0
INSERT
  5
B7C1
330
B73E
100
AcDbEntity
  8
SUNPOU
 62
     0
370
    -2
100
AcDbBlockReference
  2
_OPEN
 10
323.0
 20
192.5
 30
0.0
 41
2.5
 42
2.5
 43
2.5
 50
180.0
  0
INSERT
  5
B7C2
330
B73E
100
AcDbEntity
  8
SUNPOU
 62
     0
370
    -2
100
AcDbBlockReference
  2
_OPEN
 10
334.5
 20
192.5
 30
0.0
 41
2.5
 42
2.5
 43
2.5
  0
MTEXT
  5
B7C3
330
B73E
100
AcDbEntity
  8
SUNPOU
 62
     0
100
AcDbMText
 10
328.75
 20
194.25
 30
0.0
 40
2.5
 41
0.0
 71
     5
 72
     1
  1
\A1;11.5
 73
     1
 44
1.0
1001
ACAD
1000
MTEXTBEGIN
1070
    73
1070
     1
1070
    44
1040
1.0
1070
    74
1070
     0
1000
MTEXTEND
  0
POINT
  5
B7C4
330
B73E
100
AcDbEntity
  8
DEFPOINTS
 62
     0
100
AcDbPoint
 10
323.0
 20
180.5
 30
0.0
  0
POINT
  5
B7C5
330
B73E
100
AcDbEntity
  8
DEFPOINTS
 62
     0
100
AcDbPoint
 10
334.5
 20
187.0
 30
0.0
  0
POINT
  5
B7C6
330
B73E
100
AcDbEntity
  8
DEFPOINTS
 62
     0
100
AcDbPoint
 10
334.5
 20
192.5
 30
0.0
  0
ENDBLK
  5
B74A
330
B73E
100
AcDbEntity
  8
0
100
AcDbBlockEnd
  0
BLOCK
  5
B756
330
B74B
100
AcDbEntity
  8
0
100
AcDbBlockBegin
  2
*D40
 70
     1
 10
0.0
 20
0.0
 30
0.0
  3
*D40
  1

  0
LINE
  5
B7ED
330
B74B
100
AcDbEntity
  8
SUNPOU
 62
     0
370
    -2
100
AcDbLine
 10
317.0
 20
181.0
 30
0.0
 11
317.0
 21
193.0
 31
0.0
  0
LINE
  5
B7EE
330
B74B
100
AcDbEntity
  8
SUNPOU
 62
     0
370
    -2
100
AcDbLine
 10
323.0
 20
181.0
 30
0.0
 11
323.0
 21
193.0
 31
0.0
  0
LINE
  5
B7EF
330
B74B
100
AcDbEntity
  8
SUNPOU
 62
     0
370
    -2
100
AcDbLine
 10
319.5
 20
192.5
 30
0.0
 11
320.5
 21
192.5
 31
0.0
  0
INSERT
  5
B7F0
330
B74B
100
AcDbEntity
  8
SUNPOU
 62
     0
370
    -2
100
AcDbBlockReference
  2
_OPEN
 10
317.0
 20
192.5
 30
0.0
 41
2.5
 42
2.5
 43
2.5
 50
180.0
  0
INSERT
  5
B7F1
330
B74B
100
AcDbEntity
  8
SUNPOU
 62
     0
370
    -2
100
AcDbBlockReference
  2
_OPEN
 10
323.0
 20
192.5
 30
0.0
 41
2.5
 42
2.5
 43
2.5
  0
MTEXT
  5
B7F2
330
B74B
100
AcDbEntity
  8
SUNPOU
 62
     0
100
AcDbMText
 10
320.0
 20
194.25
 30
0.0
 40
2.5
 41
0.0
 71
     5
 72
     1
  1
\A1;6.0
 73
     1
 44
1.0
1001
ACAD
1000
MTEXTBEGIN
1070
    73
1070
     1
1070
    44
1040
1.0
1070
    74
1070
     0
1000
MTEXTEND
  0
POINT
  5
B7F3
330
B74B
100
AcDbEntity
  8
DEFPOINTS
 62
     0
100
AcDbPoint
 10
317.0
 20
180.5
 30
0.0
  0
POINT
  5
B7F4
330
B74B
100
AcDbEntity
  8
DEFPOINTS
 62
     0
100
AcDbPoint
 10
323.0
 20
180.5
 30
0.0
  0
POINT
  5
B7F5
330
B74B
100
AcDbEntity
  8
DEFPOINTS
 62
     0
100
AcDbPoint
 10
323.0
 20
192.5
 30
0.0
  0
ENDBLK
  5
B757
330
B74B
100
AcDbEntity
  8
0
100
AcDbBlockEnd
  0
BLOCK
  5
B763
330
B758
100
AcDbEntity
  8
0
100
AcDbBlockBegin
  2
*D41
 70
     1
 10
0.0
 20
0.0
 30
0.0
  3
*D41
  1

  0
LINE
  5
B7C7
330
B758
100
AcDbEntity
  8
SUNPOU
 62
     0
370
    -2
100
AcDbLine
 10
323.5
 20
180.5
 30
0.0
 11
344.0000000000001
 21
180.5
 31
0.0
  0
LINE
  5
B7C8
330
B758
100
AcDbEntity
  8
SUNPOU
 62
     0
370
    -2
100
AcDbLine
 10
335.0
 20
187.0
 30
0.0
 11
344.0000000000001
 21
187.0
 31
0.0
  0
LINE
  5
B7C9
330
B758
100
AcDbEntity
  8
SUNPOU
 62
     0
370
    -2
100
AcDbLine
 10
343.5
 20
184.5
 30
0.0
 11
343.5
 21
183.0
 31
0.0
  0
LINE
  5
B7CA
330
B758
100
AcDbEntity
  8
SUNPOU
 62
     0
370
    -2
100
AcDbLine
 10
343.5
 20
180.5
 30
0.0
 11
343.5
 21
170.345238095238
 31
0.0
  0
INSERT
  5
B7CB
330
B758
100
AcDbEntity
  8
SUNPOU
 62
     0
370
    -2
100
AcDbBlockReference
  2
_OPEN
 10
343.5
 20
187.0
 30
0.0
 41
2.5
 42
2.5
 43
2.5
 50
90.0
  0
INSERT
  5
B7CC
330
B758
100
AcDbEntity
  8
SUNPOU
 62
     0
370
    -2
100
AcDbBlockReference
  2
_OPEN
 10
343.5
 20
180.5
 30
0.0
 41
2.5
 42
2.5
 43
2.5
 50
270.0
  0
MTEXT
  5
B7CD
330
B758
100
AcDbEntity
  8
SUNPOU
 62
     0
100
AcDbMText
 10
341.75
 20
173.4047619047619
 30
0.0
 40
2.5
 41
0.0
 71
     5
 72
     1
  1
\A1;6.5
 11
0.0000000000000001
 21
1.0
 31
0.0
 73
     1
 44
1.0
1001
ACAD
1000
MTEXTBEGIN
1070
    73
1070
     1
1070
    44
1040
1.0
1070
    74
1070
     0
1000
MTEXTEND
  0
POINT
  5
B7CE
330
B758
100
AcDbEntity
  8
DEFPOINTS
 62
     0
100
AcDbPoint
 10
323.0
 20
180.5
 30
0.0
  0
POINT
  5
B7CF
330
B758
100
AcDbEntity
  8
DEFPOINTS
 62
     0
100
AcDbPoint
 10
334.5
 20
187.0
 30
0.0
  0
POINT
  5
B7D0
330
B758
100
AcDbEntity
  8
DEFPOINTS
 62
     0
100
AcDbPoint
 10
343.5
 20
187.0
 30
0.0
  0
ENDBLK
  5
B764
330
B758
100
AcDbEntity
  8
0
100
AcDbBlockEnd
  0
ENDSEC
  0
SECTION
  2
ENTITIES
  0
LINE
  5
C9
330
1A
100
AcDbEntity
  8
WAKU
 62
     7
100
AcDbLine
 10
405.0
 20
280.0
 30
0.0
 11
20.0
 21
280.0
 31
0.0
  0
LINE
  5
CB
330
1A
100
AcDbEntity
  8
WAKU
 62
     7
100
AcDbLine
 10
20.0
 20
5.0
 30
0.0
 11
405.0
 21
5.0
 31
0.0
  0
LINE
  5
D4
330
1A
100
AcDbEntity
  8
WAKU
100
AcDbLine
 10
405.0
 20
5.0
 30
0.0
 11
405.0
 21
280.0
 31
0.0
  0
LINE
  5
D5
330
1A
100
AcDbEntity
  8
WAKU
100
AcDbLine
 10
20.0
 20
280.0
 30
0.0
 11
20.0
 21
5.0
 31
0.0
  0
MTEXT
  5
E9
330
1A
100
AcDbEntity
  8
WAKU
100
AcDbMText
 10
345.0
 20
43.0
 30
0.0
 40
4.0
 41
15.0
 71
     1
 72
     5
  1

 73
     1
 44
1.0
1001
ACAD
1000
MTEXTBEGIN
1070
    73
1070
     1
1070
    44
1040
1.0
1070
    74
1070
     0
1000
MTEXTEND
  0
MTEXT
  5
EA
330
1A
100
AcDbEntity
  8
WAKU
100
AcDbMText
 10
345.0
 20
49.0
 30
0.0
 40
4.0
 41
14.0
 71
     1
 72
     5
  1

 73
     1
 44
1.0
1001
ACAD
1000
MTEXTBEGIN
1070
    73
1070
     1
1070
    44
1040
1.0
1070
    74
1070
     0
1000
MTEXTEND
  0
MTEXT
  5
EE
330
1A
100
AcDbEntity
  8
WAKU
100
AcDbMText
 10
327.0
 20
82.0
 30
0.0
 40
3.0
 41
37.0
 71
     1
 72
     5
  1

 73
     1
 44
1.0
1001
ACAD
1000
MTEXTBEGIN
1070
    73
1070
     1
1070
    44
1040
1.0
1070
    74
1070
     0
1000
MTEXTEND
  0
MTEXT
  5
F5
330
1A
100
AcDbEntity
  8
WAKU
100
AcDbMText
 10
330.0
 20
85.0
 30
0.0
 40
3.0
 41
12.0
 71
     1
 72
     5
  1

 73
     1
 44
1.0
1001
ACAD
1000
MTEXTBEGIN
1070
    73
1070
     1
1070
    44
1040
1.0
1070
    74
1070
     0
1000
MTEXTEND
  0
MTEXT
  5
FF
330
1A
100
AcDbEntity
  8
WAKU
100
AcDbMText
 10
271.0
 20
82.0
 30
0.0
 40
3.0
 41
74.0
 71
     1
 72
     5
  1

 73
     1
 44
1.0
1001
ACAD
1000
MTEXTBEGIN
1070
    73
1070
     1
1070
    44
1040
1.0
1070
    74
1070
     0
1000
MTEXTEND
  0
INSERT
  5
9D50
330
1A
100
AcDbEntity
  8
0
100
AcDbBlockReference
  2
A$C503A35A0
 10
321.9999981657684
 20
179.600001368322
 30
0.0
  0
LINE
  5
9E02
330
1A
100
AcDbEntity
  8
0
100
AcDbLine
 10
334.5
 20
187.0
 30
0.0
 11
334.5
 21
143.0
 31
0.0
  0
LINE
  5
9E03
330
1A
100
AcDbEntity
  8
0
100
AcDbLine
 10
289.5
 20
187.0
 30
0.0
 11
289.5
 21
143.0
 31
0.0
  0
LINE
  5
9E04
330
1A
100
AcDbEntity
  8
0
100
AcDbLine
 10
289.5
 20
187.0
 30
0.0
 11
334.5
 21
187.0
 31
0.0
  0
LINE
  5
9E05
330
1A
100
AcDbEntity
  8
0
100
AcDbLine
 10
289.5
 20
143.0
 30
0.0
 11
334.5
 21
143.0
 31
0.0
  0
CIRCLE
  5
9E08
330
1A
100
AcDbEntity
  8
0
100
AcDbCircle
 10
293.5
 20
165.0
 30
0.0
 40
1.6
  0
CIRCLE
  5
9E09
330
1A
100
AcDbEntity
  8
0
100
AcDbCircle
 10
330.5
 20
165.0
 30
0.0
 40
1.6
  0
LINE
  5
A0DC
102
{ACAD_REACTORS
330
A0E0
102
}
330
1A
100
AcDbEntity
  8
0
100
AcDbLine
 10
289.5
 20
110.0
 30
0.0
 11
334.5
 21
109.9999999999999
 31
0.0
  0
LINE
  5
A0DD
102
{ACAD_REACTORS
330
A0E0
102
}
330
1A
100
AcDbEntity
  8
0
100
AcDbLine
 10
289.5
 20
108.4
 30
0.0
 11
334.5
 21
108.4
 31
0.0
  0
LINE
  5
A0DE
102
{ACAD_REACTORS
330
A0E0
102
}
330
1A
100
AcDbEntity
  8
0
100
AcDbLine
 10
289.5
 20
110.0
 30
0.0
 11
289.5
 21
108.4
 31
0.0
  0
LINE
  5
A0DF
102
{ACAD_REACTORS
330
A0E0
102
}
330
1A
100
AcDbEntity
  8
0
100
AcDbLine
 10
334.5
 20
109.9999999999999
 30
0.0
 11
334.5
 21
108.4
 31
0.0
  0
HATCH
  5
A0E0
330
1A
100
AcDbEntity
  8
SUNPOU
100
AcDbHatch
 10
0.0
 20
0.0
 30
0.0
210
0.0
220
0.0
230
1.0
  2
ANSI31
 70
     0
 71
     1
 91
        1
 92
        1
 93
        4
 72
     1
 10
289.5
 20
108.4
 11
334.5
 21
108.4
 72
     1
 10
334.5
 20
108.4
 11
334.5
 21
109.9999999999999
 72
     1
 10
334.5
 20
109.9999999999999
 11
289.5
 21
110.0
 72
     1
 10
289.5
 20
110.0
 11
289.5
 21
108.4
 97
        4
330
A0DD
330
A0DF
330
A0DC
330
A0DE
 75
     0
 76
     1
 52
0.0
 41
1.0
 77
     0
 78
     1
 53
45.0
 43
202.0
 44
-47.50000000000002
 45
-2.245064030267287
 46
2.245064030267288
 79
     0
 98
        1
 10
202.0
 20
-47.50000000000002
  0
INSERT
  5
A10E
330
1A
100
AcDbEntity
  8
0
100
AcDbBlockReference
  2
A$C503A35A0
 10
315.9999981657684
 20
179.600001368322
 30
0.0
  0
CIRCLE
  5
A10F
330
1A
100
AcDbEntity
  8
SUNPOU
100
AcDbCircle
 10
293.5
 20
165.0
 30
0.0
 40
3.5
  0
CIRCLE
  5
A110
330
1A
100
AcDbEntity
  8
SUNPOU
100
AcDbCircle
 10
330.5
 20
165.0
 30
0.0
 40
3.5
  0
LINE
  5
A186
330
1A
100
AcDbEntity
  8
0
100
AcDbLine
 10
375.0
 20
187.0
 30
0.0
 11
375.0
 21
143.0
 31
0.0
  0
LINE
  5
A187
330
1A
100
AcDbEntity
  8
0
100
AcDbLine
 10
376.6
 20
187.0
 30
0.0
 11
376.6
 21
143.0
 31
0.0
  0
LINE
  5
A188
330
1A
100
AcDbEntity
  8
0
100
AcDbLine
 10
375.0
 20
187.0
 30
0.0
 11
376.6
 21
187.0
 31
0.0
  0
LINE
  5
A189
330
1A
100
AcDbEntity
  8
0
100
AcDbLine
 10
375.0
 20
143.0
 30
0.0
 11
376.6
 21
143.0
 31
0.0
  0
INSERT
  5
A1A1
330
1A
100
AcDbEntity
  8
0
100
AcDbBlockReference
  2
RJ-5-2
 10
375.0
 20
180.93
 30
0.0
  0
INSERT
  5
A1AC
330
1A
100
AcDbEntity
  8
0
100
AcDbBlockReference
  2
RJ-5-2
 10
251.0
 20
180.5
 30
0.0
 41
-1.0
  0
LINE
  5
A1AD
330
1A
100
AcDbEntity
  8
0
100
AcDbLine
 10
251.0
 20
143.0
 30
0.0
 11
249.4
 21
143.0
 31
0.0
  0
LINE
  5
A1AE
330
1A
100
AcDbEntity
  8
0
100
AcDbLine
 10
251.0
 20
187.0
 30
0.0
 11
249.4
 21
187.0
 31
0.0
  0
LINE
  5
A1AF
330
1A
100
AcDbEntity
  8
0
100
AcDbLine
 10
249.4
 20
187.0
 30
0.0
 11
249.4
 21
143.0
 31
0.0
  0
LINE
  5
A1B0
330
1A
100
AcDbEntity
  8
0
100
AcDbLine
 10
251.0
 20
187.0
 30
0.0
 11
251.0
 21
143.0
 31
0.0
  0
LINE
  5
A1CF
330
1A
100
AcDbEntity
  8
KAGESEN
100
AcDbLine
 10
289.5
 20
110.0
 30
0.0
 11
289.5
 21
118.0
 31
0.0
  0
LINE
  5
A1D0
330
1A
100
AcDbEntity
  8
KAGESEN
100
AcDbLine
 10
289.5
 20
118.0
 30
0.0
 11
334.5
 21
118.0
 31
0.0
  0
LINE
  5
A1D1
330
1A
100
AcDbEntity
  8
KAGESEN
100
AcDbLine
 10
334.5
 20
118.0
 30
0.0
 11
334.5
 21
110.0
 31
0.0
  0
LINE
  5
A1D2
330
1A
100
AcDbEntity
  8
KAGESEN
100
AcDbLine
 10
289.5
 20
108.4
 30
0.0
 11
289.5
 21
101.9
 31
0.0
  0
LINE
  5
A1D3
330
1A
100
AcDbEntity
  8
KAGESEN
100
AcDbLine
 10
289.5
 20
101.9
 30
0.0
 11
334.5
 21
101.9
 31
0.0
  0
LINE
  5
A1D4
330
1A
100
AcDbEntity
  8
KAGESEN
100
AcDbLine
 10
334.5
 20
101.9
 30
0.0
 11
334.5
 21
108.4
 31
0.0
  0
DIMENSION
  5
A1D5
330
1A
100
AcDbEntity
  8
SUNPOU
100
AcDbDimension
  2
*D3
 10
275.0
 20
108.4
 30
0.0
 11
273.25
 21
100.4595238095238
 31
0.0
 70
    32
 71
     5
 42
1.599999999999994
  3
STANDARD
100
AcDbAlignedDimension
 13
289.5
 23
110.0
 33
0.0
 14
289.5
 24
108.4
 34
0.0
 50
90.0
100
AcDbRotatedDimension
1001
ACAD
1000
DSTYLE
1002
{
1070
    41
1040
2.5
1070
    42
1040
0.5
1070
    43
1040
10.0
1070
    44
1040
0.5
1070
    73
1070
     0
1070
    74
1070
     0
1070
    77
1070
     1
1070
   140
1040
2.5
1070
   141
1040
0.0
1070
   147
1040
0.5
1070
   173
1070
     1
1070
   271
1070
     1
1070
   272
1070
     0
1070
   341
1005
BA
1070
   343
1005
BA
1070
   344
1005
BA
1002
}
  0
DIMENSION
  5
A1ED
330
1A
100
AcDbEntity
  8
SUNPOU
100
AcDbDimension
  2
*D4
 10
345.0
 20
110.0
 30
0.0
 11
345.0
 21
124.8095238095238
 31
0.0
 70
   160
 71
     5
 42
8.0
  3
STANDARD
100
AcDbAlignedDimension
 13
334.5
 23
118.0
 33
0.0
 14
334.5
 24
110.0
 34
0.0
 50
90.0
100
AcDbRotatedDimension
1001
ACAD
1000
DSTYLE
1002
{
1070
    41
1040
2.5
1070
    42
1040
0.5
1070
    43
1040
10.0
1070
    44
1040
0.5
1070
    73
1070
     0
1070
    74
1070
     0
1070
    77
1070
     1
1070
   140
1040
2.5
1070
   141
1040
0.0
1070
   147
1040
0.5
1070
   173
1070
     1
1070
   271
1070
     1
1070
   272
1070
     0
1070
   341
1005
BA
1070
   343
1005
BA
1070
   344
1005
BA
1002
}
  0
DIMENSION
  5
A20F
330
1A
100
AcDbEntity
  8
SUNPOU
100
AcDbDimension
  2
*D5
 10
350.0
 20
101.9
 30
0.0
 11
348.25
 21
105.15
 31
0.0
 70
    32
 71
     5
 42
6.499999999999971
  3
STANDARD
100
AcDbAlignedDimension
 13
334.5
 23
108.4
 33
0.0
 14
334.5
 24
101.9
 34
0.0
 50
90.0
100
AcDbRotatedDimension
1001
ACAD
1000
DSTYLE
1002
{
1070
    41
1040
2.5
1070
    42
1040
0.5
1070
    43
1040
10.0
1070
    44
1040
0.5
1070
    73
1070
     0
1070
    74
1070
     0
1070
    77
1070
     1
1070
   140
1040
2.5
1070
   141
1040
0.0
1070
   147
1040
0.5
1070
   173
1070
     1
1070
   271
1070
     1
1070
   272
1070
     0
1070
   341
1005
BA
1070
   343
1005
BA
1070
   344
1005
BA
1002
}
  0
LEADER
  5
A227
330
1A
100
AcDbEntity
  8
SUNPOU
100
AcDbLeader
  3
STANDARD
 73
     0
 74
     0
 75
     1
 40
2.5
 41
18.0
 76
     3
 10
310.0
 20
112.9999999999999
 30
0.0
 10
322.5
 20
87.49999999999998
 30
0.0
 10
325.0
 20
87.49999999999998
 30
0.0
340
A228
213
0.0
223
-1.25
233
0.0
1001
ACAD
1000
DSTYLE
1002
{
1070
    41
1040
2.5
1070
    42
1040
0.5
1070
    43
1040
10.0
1070
    44
1040
0.5
1070
    73
1070
     0
1070
    74
1070
     0
1070
    77
1070
     0
1070
   140
1040
2.5
1070
   141
1040
0.0
1070
   147
1040
0.5
1070
   173
1070
     1
1070
   271
1070
     2
1070
   272
1070
     0
1070
   341
1005
BA
1070
   343
1005
BA
1070
   344
1005
BA
1002
}
  0
MTEXT
  5
A228
102
{ACAD_REACTORS
330
A227
102
}
330
1A
100
AcDbEntity
  8
SUNPOU
100
AcDbMText
 10
325.5
 20
88.74999999999998
 30
0.0
 40
2.5
 41
0.0
 71
     1
 72
     1
  1
\A1;部品実装領域
 73
     1
 44
1.0
1001
ACAD
1000
MTEXTBEGIN
1070
    73
1070
     1
1070
    44
1040
1.0
1070
    74
1070
     0
1000
MTEXTEND
  0
LEADER
  5
A22A
330
1A
100
AcDbEntity
  8
SUNPOU
100
AcDbLeader
  3
STANDARD
 40
2.5
 41
18.0
 76
     2
 10
308.5
 20
107.4999999999999
 30
0.0
 10
322.5
 20
87.49999999999998
 30
0.0
213
0.0
223
-1.25
233
0.0
1001
ACAD
1000
DSTYLE
1002
{
1070
    41
1040
2.5
1070
    42
1040
0.5
1070
    43
1040
10.0
1070
    44
1040
0.5
1070
    73
1070
     0
1070
    74
1070
     0
1070
    77
1070
     0
1070
   140
1040
2.5
1070
   141
1040
0.0
1070
   147
1040
0.5
1070
   173
1070
     1
1070
   271
1070
     2
1070
   272
1070
     0
1070
   341
1005
BA
1070
   343
1005
BA
1070
   344
1005
BA
1002
}
  0
DIMENSION
  5
A269
330
1A
100
AcDbEntity
  8
SUNPOU
100
AcDbDimension
  2
*D6
 10
334.5
 20
209.5
 30
0.0
 11
312.0
 21
211.25
 31
0.0
 70
    32
 71
     5
 42
45.0
  3
STANDARD
100
AcDbAlignedDimension
 13
289.5
 23
187.0
 33
0.0
 14
334.5
 24
187.0
 34
0.0
100
AcDbRotatedDimension
1001
ACAD
1000
DSTYLE
1002
{
1070
    41
1040
2.5
1070
    42
1040
0.5
1070
    43
1040
10.0
1070
    44
1040
0.5
1070
    73
1070
     0
1070
    74
1070
     0
1070
    77
1070
     1
1070
   140
1040
2.5
1070
   141
1040
0.0
1070
   147
1040
0.5
1070
   173
1070
     1
1070
   271
1070
     1
1070
   272
1070
     0
1070
   341
1005
BA
1070
   343
1005
BA
1070
   344
1005
BA
1002
}
  0
DIMENSION
  5
A276
330
1A
100
AcDbEntity
  8
SUNPOU
100
AcDbDimension
  2
*D7
 10
230.0
 20
143.0
 30
0.0
 11
228.25
 21
165.0000000000001
 31
0.0
 70
    32
 71
     5
 42
44.0
  3
STANDARD
100
AcDbAlignedDimension
 13
249.4
 23
187.0
 33
0.0
 14
249.4
 24
143.0
 34
0.0
 50
90.0
100
AcDbRotatedDimension
1001
ACAD
1000
DSTYLE
1002
{
1070
    41
1040
2.5
1070
    42
1040
0.5
1070
    43
1040
10.0
1070
    44
1040
0.5
1070
    73
1070
     0
1070
    74
1070
     0
1070
    77
1070
     1
1070
   140
1040
2.5
1070
   141
1040
0.0
1070
   147
1040
0.5
1070
   173
1070
     1
1070
   271
1070
     1
1070
   272
1070
     0
1070
   341
1005
BA
1070
   343
1005
BA
1070
   344
1005
BA
1002
}
  0
DIMENSION
  5
A283
330
1A
100
AcDbEntity
  8
SUNPOU
100
AcDbDimension
  2
*D8
 10
330.5
 20
202.0
 30
0.0
 11
312.0
 21
203.75
 31
0.0
 70
    32
 71
     5
 42
37.0
  3
STANDARD
100
AcDbAlignedDimension
 13
293.5
 23
169.5
 33
0.0
 14
330.5
 24
169.5
 34
0.0
100
AcDbRotatedDimension
1001
ACAD
1000
DSTYLE
1002
{
1070
    41
1040
2.5
1070
    42
1040
0.5
1070
    43
1040
10.0
1070
    44
1040
0.5
1070
    73
1070
     0
1070
    74
1070
     0
1070
    77
1070
     1
1070
   140
1040
2.5
1070
   141
1040
0.0
1070
   147
1040
0.5
1070
   173
1070
     1
1070
   271
1070
     1
1070
   272
1070
     0
1070
   341
1005
BA
1070
   343
1005
BA
1070
   344
1005
BA
1002
}
  0
LINE
  5
A290
330
1A
100
AcDbEntity
  8
CENTER
100
AcDbLine
 10
285.0
 20
165.0
 30
0.0
 11
339.0
 21
165.0
 31
0.0
  0
TEXT
  5
A291
330
1A
100
AcDbEntity
  8
WAKU
100
AcDbText
 10
289.3523809523809
 20
144.715
 30
0.0
 40
2.0
  1
1
 41
0.8
 72
     1
 11
290.0
 21
144.715
 31
0.0
100
AcDbText
  0
TEXT
  5
A292
330
1A
100
AcDbEntity
  8
WAKU
100
AcDbText
 10
317.352380952381
 20
144.715
 30
0.0
 40
2.0
  1
1
 41
0.8
 72
     1
 11
318.0
 21
144.715
 31
0.0
100
AcDbText
  0
TEXT
  5
A294
330
1A
100
AcDbEntity
  8
SUNPOU
100
AcDbText
 10
299.83
 20
133.9
 30
0.0
 40
2.0
  1
-SIG
 50
90.0
 11
298.83
 21
133.9
 31
0.0
100
AcDbText
 73
     2
  0
TEXT
  5
A295
330
1A
100
AcDbEntity
  8
SUNPOU
100
AcDbText
 10
294.83
 20
133.9
 30
0.0
 40
2.0
  1
-EXC
 50
90.0
 11
293.83
 21
133.9
 31
0.0
100
AcDbText
 73
     2
  0
TEXT
  5
A299
330
1A
100
AcDbEntity
  8
SUNPOU
100
AcDbText
 10
302.33
 20
133.9
 30
0.0
 40
2.0
  1
SHL
 50
90.0
 11
301.33
 21
133.9
 31
0.0
100
AcDbText
 73
     2
  0
TEXT
  5
A29A
330
1A
100
AcDbEntity
  8
SUNPOU
100
AcDbText
 10
297.33
 20
133.9
 30
0.0
 40
2.0
  1
+SIG
 50
90.0
 11
296.33
 21
133.9
 31
0.0
100
AcDbText
 73
     2
  0
TEXT
  5
A29B
330
1A
100
AcDbEntity
  8
SUNPOU
100
AcDbText
 10
292.33
 20
133.9
 30
0.0
 40
2.0
  1
+EXC
 50
90.0
 11
291.33
 21
133.9
 31
0.0
100
AcDbText
 73
     2
  0
TEXT
  5
A29D
330
1A
100
AcDbEntity
  8
SUNPOU
100
AcDbText
 10
322.83
 20
133.9
 30
0.0
 40
2.0
  1
OUT
 50
90.0
 11
321.83
 21
133.9
 31
0.0
100
AcDbText
 73
     2
  0
TEXT
  5
A29E
330
1A
100
AcDbEntity
  8
SUNPOU
100
AcDbText
 10
327.83
 20
133.9
 30
0.0
 40
2.0
  1
NC
 50
90.0
 11
326.83
 21
133.9
 31
0.0
100
AcDbText
 73
     2
  0
TEXT
  5
A29F
330
1A
100
AcDbEntity
  8
SUNPOU
100
AcDbText
 10
332.83
 20
133.9
 30
0.0
 40
2.0
  1
0V
 50
90.0
 11
331.83
 21
133.9
 31
0.0
100
AcDbText
 73
     2
  0
TEXT
  5
A2A0
330
1A
100
AcDbEntity
  8
SUNPOU
100
AcDbText
 10
325.33
 20
133.9
 30
0.0
 40
2.0
  1
COM
 50
90.0
 11
324.33
 21
133.9
 31
0.0
100
AcDbText
 73
     2
  0
TEXT
  5
A2A1
330
1A
100
AcDbEntity
  8
SUNPOU
100
AcDbText
 10
330.33
 20
133.9
 30
0.0
 40
2.0
  1
+24V
 50
90.0
 11
329.33
 21
133.9
 31
0.0
100
AcDbText
 73
     2
  0
LEADER
  5
A2A2
330
1A
100
AcDbEntity
  8
SUNPOU
100
AcDbLeader
  3
STANDARD
 73
     0
 40
3.809523809523809
 41
27.30952380952384
 76
     3
 10
297.0
 20
116.0
 30
0.0
 10
291.5
 20
123.5
 30
0.0
 10
290.5
 20
123.5
 30
0.0
340
A2A3
213
0.0
223
1.25
233
0.0
1001
ACAD
1000
DSTYLE
1002
{
1070
    41
1040
2.5
1070
    42
1040
0.5
1070
    43
1040
10.0
1070
    44
1040
0.5
1070
    73
1070
     0
1070
    74
1070
     0
1070
    77
1070
     0
1070
   140
1040
2.5
1070
   141
1040
0.0
1070
   147
1040
0.5
1070
   173
1070
     1
1070
   271
1070
     2
1070
   272
1070
     0
1070
   341
1005
BA
1070
   343
1005
BA
1070
   344
1005
BA
1002
}
  0
MTEXT
  5
A2A3
102
{ACAD_REACTORS
330
A2A2
102
}
330
1A
100
AcDbEntity
  8
SUNPOU
100
AcDbMText
 10
290.0
 20
122.25
 30
0.0
 40
2.5
 41
0.0
 71
     9
 72
     1
  1
\A1;L/C接続用コネクタ
 73
     1
 44
1.0
1001
ACAD
1000
MTEXTBEGIN
1070
    73
1070
     1
1070
    44
1040
1.0
1070
    74
1070
     0
1000
MTEXTEND
  0
LEADER
  5
A2A4
330
1A
100
AcDbEntity
  8
SUNPOU
100
AcDbLeader
  3
STANDARD
 73
     0
 74
     0
 75
     1
 40
2.5
 41
41.64285714285717
 76
     4
 10
325.5
 20
115.0
 30
0.0
 10
337.0
 20
134.0
 30
0.0
 10
335.5
 20
130.5
 30
0.0
 10
338.0
 20
130.5
 30
0.0
340
A2A5
213
0.0
223
-1.25
233
0.0
1001
ACAD
1000
DSTYLE
1002
{
1070
    41
1040
2.5
1070
    42
1040
0.5
1070
    43
1040
10.0
1070
    44
1040
0.5
1070
    73
1070
     0
1070
    74
1070
     0
1070
    77
1070
     0
1070
   140
1040
2.5
1070
   141
1040
0.0
1070
   147
1040
0.5
1070
   173
1070
     1
1070
   271
1070
     2
1070
   272
1070
     0
1070
   341
1005
BA
1070
   343
1005
BA
1070
   344
1005
BA
1002
}
  0
MTEXT
  5
A2A5
102
{ACAD_REACTORS
330
A2A4
102
}
330
1A
100
AcDbEntity
  8
SUNPOU
100
AcDbMText
 10
338.5
 20
131.75
 30
0.0
 40
2.5
 41
0.0
 71
     1
 72
     1
  1
\A1;電源及びアンプ出力用コネクタ
 73
     1
 44
1.0
1001
ACAD
1000
MTEXTBEGIN
1070
    73
1070
     1
1070
    44
1040
1.0
1070
    74
1070
     0
1000
MTEXTEND
  0
LEADER
  5
A34C
330
1A
100
AcDbEntity
  8
SUNPOU
100
AcDbLeader
  3
STANDARD
 73
     0
 40
2.5
 41
23.45238095238095
 76
     3
 10
239.4000000000001
 20
161.8189700519381
 30
0.0
 10
226.4
 20
140.3189700519381
 30
0.0
 10
224.9
 20
140.3189700519381
 30
0.0
340
A34D
213
0.0
223
1.25
233
0.0
1001
ACAD
1000
DSTYLE
1002
{
1070
    41
1040
2.5
1070
    42
1040
0.5
1070
    43
1040
10.0
1070
    44
1040
0.5
1070
    73
1070
     0
1070
    74
1070
     0
1070
    77
1070
     0
1070
   140
1040
2.5
1070
   141
1040
0.0
1070
   147
1040
0.5
1070
   173
1070
     1
1070
   271
1070
     2
1070
   272
1070
     0
1070
   341
1005
BA
1070
   343
1005
BA
1070
   344
1005
BA
1002
}
  0
MTEXT
  5
A34D
102
{ACAD_REACTORS
330
A34C
102
}
330
1A
100
AcDbEntity
  8
SUNPOU
100
AcDbMText
 10
224.4
 20
139.0689700519381
 30
0.0
 40
2.5
 41
0.0
 71
     9
 72
     1
  1
2-M3 深さ5.0
 73
     1
 44
1.0
1001
ACAD
1000
MTEXTBEGIN
1070
    73
1070
     1
1070
    44
1040
1.0
1070
    74
1070
     0
1000
MTEXTEND
  0
TEXT
  5
A34F
330
1A
100
AcDbEntity
  8
SUNPOU
100
AcDbText
 10
205.4
 20
134.8189700519381
 30
0.0
 40
3.0
  1
(基板固定用穴)
100
AcDbText
  0
LEADER
  5
A352
330
1A
100
AcDbEntity
  8
SUNPOU
100
AcDbLeader
  3
STANDARD
 73
     0
 74
     0
 75
     1
 40
2.5
 41
23.52380952380953
 76
     3
 10
324.5
 20
184.0
 30
0.0
 10
342.5
 20
204.5
 30
0.0
 10
345.0
 20
204.5
 30
0.0
340
A353
213
0.0
223
-1.25
233
0.0
1001
ACAD
1000
DSTYLE
1002
{
1070
    41
1040
2.5
1070
    42
1040
0.5
1070
    43
1040
10.0
1070
    44
1040
0.5
1070
    73
1070
     0
1070
    74
1070
     0
1070
    77
1070
     0
1070
   140
1040
2.5
1070
   141
1040
0.0
1070
   147
1040
0.5
1070
   173
1070
     1
1070
   271
1070
     2
1070
   272
1070
     0
1070
   341
1005
BA
1070
   343
1005
BA
1070
   344
1005
BA
1002
}
  0
MTEXT
  5
A353
102
{ACAD_REACTORS
330
A352
102
}
330
1A
100
AcDbEntity
  8
SUNPOU
100
AcDbMText
 10
345.5
 20
205.75
 30
0.0
 40
2.5
 41
0.0
 71
     1
 72
     1
  1
\A1;零点調整用トリマ
 73
     1
 44
1.0
1001
ACAD
1000
MTEXTBEGIN
1070
    73
1070
     1
1070
    44
1040
1.0
1070
    74
1070
     0
1000
MTEXTEND
  0
MTEXT
  5
A354
102
{ACAD_REACTORS
330
A355
102
}
330
1A
100
AcDbEntity
  8
SUNPOU
100
AcDbMText
 10
347.0
 20
214.25
 30
0.0
 40
2.5
 41
0.0
 71
     1
 72
     1
  1
感度調整用トリマ
 73
     1
 44
1.0
1001
ACAD
1000
MTEXTBEGIN
1070
    73
1070
     1
1070
    44
1040
1.0
1070
    74
1070
     0
1000
MTEXTEND
  0
LEADER
  5
A355
330
1A
100
AcDbEntity
  8
SUNPOU
100
AcDbLeader
  3
STANDARD
 73
     0
 74
     0
 75
     1
 40
2.5
 41
23.52380952380953
 76
     3
 10
318.5
 20
184.0
 30
0.0
 10
344.0
 20
213.0
 30
0.0
 10
346.5
 20
213.0
 30
0.0
340
A354
213
0.0
223
-1.25
233
0.0
1001
ACAD
1000
DSTYLE
1002
{
1070
    41
1040
2.5
1070
    42
1040
0.5
1070
    43
1040
10.0
1070
    44
1040
0.5
1070
    73
1070
     0
1070
    74
1070
     0
1070
    77
1070
     0
1070
   140
1040
2.5
1070
   141
1040
0.0
1070
   147
1040
0.5
1070
   173
1070
     1
1070
   271
1070
     2
1070
   272
1070
     0
1070
   341
1005
BA
1070
   343
1005
BA
1070
   344
1005
BA
1002
}
  0
TEXT
  5
A357
330
1A
100
AcDbEntity
  8
SUNPOU
100
AcDbText
 10
289.9625
 20
150.215
 30
0.0
 40
2.0
  1
CN2
 41
0.8
 72
     1
 11
292.3624999999999
 21
150.215
 31
0.0
100
AcDbText
  0
TEXT
  5
A358
330
1A
100
AcDbEntity
  8
SUNPOU
100
AcDbText
 10
318.6910714285714
 20
150.215
 30
0.0
 40
2.0
  1
CN1
 41
0.8
 72
     1
 11
320.8625
 21
150.215
 31
0.0
100
AcDbText
  0
TEXT
  5
A3CF
330
1A
100
AcDbEntity
  8
WAKU
100
AcDbText
 10
332.6
 20
29.5
 30
0.0
 40
3.0
  1
製　図
 72
     4
 11
337.5
 21
31.0
 31
0.0
100
AcDbText
  0
TEXT
  5
A3D0
330
1A
100
AcDbEntity
  8
WAKU
100
AcDbText
 10
333.0
 20
19.0
 30
0.0
 40
4.0
  1
大野
100
AcDbText
  0
TEXT
  5
A3D1
330
1A
100
AcDbEntity
  8
WAKU
100
AcDbText
 10
331.0
 20
14.0
 30
0.0
 40
2.0
  1
11.02.25
100
AcDbText
  0
LINE
  5
A3D2
330
1A
100
AcDbEntity
  8
WAKU
100
AcDbLine
 10
345.0
 20
13.0
 30
0.0
 11
225.0
 21
13.0
 31
0.0
  0
LINE
  5
A3D3
330
1A
100
AcDbEntity
  8
WAKU
100
AcDbLine
 10
345.0
 20
28.0
 30
0.0
 11
285.0
 21
28.0
 31
0.0
  0
LINE
  5
A3D4
330
1A
100
AcDbEntity
  8
WAKU
100
AcDbLine
 10
345.0
 20
34.0
 30
0.0
 11
285.0
 21
34.0
 31
0.0
  0
LINE
  5
A3D5
330
1A
100
AcDbEntity
  8
WAKU
100
AcDbLine
 10
345.0
 20
40.0
 30
0.0
 11
285.0
 21
40.0
 31
0.0
  0
LINE
  5
A3D6
330
1A
100
AcDbEntity
  8
WAKU
 62
     7
100
AcDbLine
 10
225.0
 20
50.0
 30
0.0
 11
405.0
 21
50.0
 31
0.0
  0
TEXT
  5
A3D7
330
1A
100
AcDbEntity
  8
WAKU
100
AcDbText
 10
256.5
 20
6.0
 30
0.0
 40
6.0
  1
東洋測器株式会社
100
AcDbText
  0
TEXT
  5
A3D8
330
1A
100
AcDbEntity
  8
WAKU
100
AcDbText
 10
263.5
 20
46.0
 30
0.0
 40
3.0
  1
改連No.
100
AcDbText
  0
LINE
  5
A3D9
330
1A
100
AcDbEntity
  8
WAKU
100
AcDbLine
 10
285.0
 20
45.0
 30
0.0
 11
225.0
 21
45.0
 31
0.0
  0
LINE
  5
A3DA
330
1A
100
AcDbEntity
  8
WAKU
100
AcDbLine
 10
285.0
 20
41.0
 30
0.0
 11
225.0
 21
41.0
 31
0.0
  0
LINE
  5
A3DB
330
1A
100
AcDbEntity
  8
WAKU
100
AcDbLine
 10
285.0
 20
37.0
 30
0.0
 11
225.0
 21
37.0
 31
0.0
  0
LINE
  5
A3DC
330
1A
100
AcDbEntity
  8
WAKU
100
AcDbLine
 10
285.0
 20
33.0
 30
0.0
 11
225.0
 21
33.0
 31
0.0
  0
LINE
  5
A3DD
330
1A
100
AcDbEntity
  8
WAKU
100
AcDbLine
 10
285.0
 20
29.0
 30
0.0
 11
225.0
 21
29.0
 31
0.0
  0
LINE
  5
A3DE
330
1A
100
AcDbEntity
  8
WAKU
100
AcDbLine
 10
285.0
 20
25.0
 30
0.0
 11
225.0
 21
25.0
 31
0.0
  0
LINE
  5
A3DF
330
1A
100
AcDbEntity
  8
WAKU
100
AcDbLine
 10
285.0
 20
21.0
 30
0.0
 11
225.0
 21
21.0
 31
0.0
  0
LINE
  5
A3E0
330
1A
100
AcDbEntity
  8
WAKU
100
AcDbLine
 10
285.0
 20
17.0
 30
0.0
 11
225.0
 21
17.0
 31
0.0
  0
LINE
  5
A3E1
330
1A
100
AcDbEntity
  8
WAKU
100
AcDbLine
 10
225.0
 20
5.0
 30
0.0
 11
225.0
 21
50.0
 31
0.0
  0
TEXT
  5
A3E2
330
1A
100
AcDbEntity
  8
WAKU
100
AcDbText
 10
234.0
 20
14.0
 30
0.0
 40
1.8
  1
11.02.25
 41
0.9
100
AcDbText
  0
TEXT
  5
A3E3
330
1A
100
AcDbEntity
  8
WAKU
100
AcDbText
 10
234.5
 20
46.0
 30
0.0
 40
3.0
  1
年月日
100
AcDbText
  0
LWPOLYLINE
  5
A3E4
330
1A
100
AcDbEntity
  8
0
100
AcDbPolyline
 90
        3
 70
     1
 43
0.0
 10
229.0
 20
33.0
 10
226.8349364905389
 20
29.25
 10
231.1650635094611
 20
29.25
  0
LINE
  5
A3E5
330
1A
100
AcDbEntity
  8
WAKU
100
AcDbLine
 10
233.0
 20
13.0
 30
0.0
 11
233.0
 21
50.0
 31
0.0
  0
TEXT
  5
A3E6
330
1A
100
AcDbEntity
  8
WAKU
100
AcDbText
 10
226.0
 20
13.5
 30
0.0
 40
3.0
  1
設置
100
AcDbText
  0
LWPOLYLINE
  5
A3E7
330
1A
100
AcDbEntity
  8
0
100
AcDbPolyline
 90
        3
 70
     1
 43
0.0
 10
229.0
 20
21.0
 10
226.8349364905389
 20
17.25
 10
231.1650635094611
 20
17.25
  0
TEXT
  5
A3E8
330
1A
100
AcDbEntity
  8
WAKU
100
AcDbText
 10
228.0
 20
17.5
 30
0.0
 40
2.0
  1
1
100
AcDbText
  0
TEXT
  5
A3E9
330
1A
100
AcDbEntity
  8
WAKU
100
AcDbText
 10
228.0
 20
25.5
 30
0.0
 40
2.0
  1
3
100
AcDbText
  0
LWPOLYLINE
  5
A3EA
330
1A
100
AcDbEntity
  8
0
100
AcDbPolyline
 90
        3
 70
     1
 43
0.0
 10
229.0
 20
29.0
 10
226.8349364905389
 20
25.25
 10
231.1650635094611
 20
25.25
  0
LWPOLYLINE
  5
A3EB
330
1A
100
AcDbEntity
  8
0
100
AcDbPolyline
 90
        3
 70
     1
 43
0.0
 10
229.0
 20
25.0
 10
226.8349364905389
 20
21.25
 10
231.1650635094611
 20
21.25
  0
TEXT
  5
A3EC
330
1A
100
AcDbEntity
  8
WAKU
100
AcDbText
 10
228.0
 20
21.5
 30
0.0
 40
2.0
  1
2
100
AcDbText
  0
TEXT
  5
A3ED
330
1A
100
AcDbEntity
  8
WAKU
100
AcDbText
 10
228.0
 20
29.5
 30
0.0
 40
2.0
  1
4
100
AcDbText
  0
TEXT
  5
A3EE
330
1A
100
AcDbEntity
  8
WAKU
100
AcDbText
 10
226.0
 20
46.0
 30
0.0
 40
3.0
  1
記号
100
AcDbText
  0
LWPOLYLINE
  5
A3EF
330
1A
100
AcDbEntity
  8
0
100
AcDbPolyline
 90
        3
 70
     1
 43
0.0
 10
229.0
 20
45.0
 10
226.8349364905389
 20
41.25
 10
231.1650635094611
 20
41.25
  0
TEXT
  5
A3F0
330
1A
100
AcDbEntity
  8
WAKU
100
AcDbText
 10
228.0
 20
37.5
 30
0.0
 40
2.0
  1
6
100
AcDbText
  0
LWPOLYLINE
  5
A3F1
330
1A
100
AcDbEntity
  8
0
100
AcDbPolyline
 90
        3
 70
     1
 43
0.0
 10
229.0
 20
41.0
 10
226.8349364905389
 20
37.25
 10
231.1650635094611
 20
37.25
  0
LWPOLYLINE
  5
A3F2
330
1A
100
AcDbEntity
  8
0
100
AcDbPolyline
 90
        3
 70
     1
 43
0.0
 10
229.0
 20
37.0
 10
226.8349364905389
 20
33.25
 10
231.1650635094611
 20
33.25
  0
TEXT
  5
A3F3
330
1A
100
AcDbEntity
  8
WAKU
100
AcDbText
 10
228.0
 20
33.5
 30
0.0
 40
2.0
  1
5
100
AcDbText
  0
TEXT
  5
A3F4
330
1A
100
AcDbEntity
  8
WAKU
100
AcDbText
 10
228.0
 20
41.5
 30
0.0
 40
2.0
  1
7
100
AcDbText
  0
LINE
  5
A3F5
330
1A
100
AcDbEntity
  8
WAKU
100
AcDbLine
 10
256.0
 20
13.0
 30
0.0
 11
256.0
 21
50.0
 31
0.0
  0
LINE
  5
A3F6
330
1A
100
AcDbEntity
  8
WAKU
100
AcDbLine
 10
246.0
 20
13.0
 30
0.0
 11
246.0
 21
50.0
 31
0.0
  0
TEXT
  5
A3F7
330
1A
100
AcDbEntity
  8
WAKU
100
AcDbText
 10
248.0
 20
13.5
 30
0.0
 40
3.0
  1
大野
100
AcDbText
  0
TEXT
  5
A3F8
330
1A
100
AcDbEntity
  8
WAKU
100
AcDbText
 10
248.0
 20
46.0
 30
0.0
 40
3.0
  1
担当
100
AcDbText
  0
TEXT
  5
A3F9
330
1A
100
AcDbEntity
  8
WAKU
100
AcDbText
 10
302.6
 20
29.5
 30
0.0
 40
3.0
  1
検　図
 72
     4
 11
307.5
 21
31.0
 31
0.0
100
AcDbText
  0
TEXT
  5
A3FA
330
1A
100
AcDbEntity
  8
WAKU
100
AcDbText
 10
303.0
 20
19.0
 30
0.0
 40
4.0
  1
奥野
100
AcDbText
  0
TEXT
  5
A3FB
330
1A
100
AcDbEntity
  8
WAKU
100
AcDbText
 10
301.0
 20
14.0
 30
0.0
 40
2.0
  1
11.02.25
100
AcDbText
  0
TEXT
  5
A3FC
330
1A
100
AcDbEntity
  8
WAKU
100
AcDbText
 10
287.5
 20
29.5
 30
0.0
 40
3.0
  1
承　認
 72
     4
 11
292.5
 21
31.0
 31
0.0
100
AcDbText
  0
LINE
  5
A3FD
330
1A
100
AcDbEntity
  8
WAKU
100
AcDbLine
 10
285.0
 20
13.0
 30
0.0
 11
285.0
 21
50.0
 31
0.0
  0
LINE
  5
A3FE
330
1A
100
AcDbEntity
  8
WAKU
100
AcDbLine
 10
300.0
 20
13.0
 30
0.0
 11
300.0
 21
50.0
 31
0.0
  0
TEXT
  5
A3FF
330
1A
100
AcDbEntity
  8
WAKU
100
AcDbText
 10
288.0
 20
19.0
 30
0.0
 40
4.0
  1
鎌田
100
AcDbText
  0
TEXT
  5
A400
330
1A
100
AcDbEntity
  8
WAKU
100
AcDbText
 10
286.0
 20
14.0
 30
0.0
 40
2.0
  1
11.02.25
100
AcDbText
  0
LINE
  5
A401
330
1A
100
AcDbEntity
  8
WAKU
100
AcDbLine
 10
298.0
 20
48.0
 30
0.0
 11
287.0
 21
42.0
 31
0.0
  0
TEXT
  5
A402
330
1A
100
AcDbEntity
  8
WAKU
100
AcDbText
 10
287.5
 20
35.5
 30
0.0
 40
3.0
  1
尺　度
 72
     4
 11
292.5
 21
37.0
 31
0.0
100
AcDbText
  0
TEXT
  5
A403
330
1A
100
AcDbEntity
  8
0
100
AcDbText
 10
287.5
 20
44.5
 30
0.0
 40
3.0
  1
1
100
AcDbText
  0
TEXT
  5
A404
330
1A
100
AcDbEntity
  8
0
100
AcDbText
 10
293.0
 20
41.5
 30
0.0
 40
3.0
  1
1
100
AcDbText
  0
TEXT
  5
A405
330
1A
100
AcDbEntity
  8
WAKU
100
AcDbText
 10
317.5
 20
29.5
 30
0.0
 40
3.0
  1
設　計
 72
     4
 11
322.5
 21
31.0
 31
0.0
100
AcDbText
  0
LINE
  5
A406
330
1A
100
AcDbEntity
  8
WAKU
100
AcDbLine
 10
315.0
 20
13.0
 30
0.0
 11
315.0
 21
34.0
 31
0.0
  0
LINE
  5
A407
330
1A
100
AcDbEntity
  8
WAKU
100
AcDbLine
 10
330.0
 20
13.0
 30
0.0
 11
330.0
 21
34.0
 31
0.0
  0
TEXT
  5
A408
330
1A
100
AcDbEntity
  8
WAKU
100
AcDbText
 10
316.0
 20
14.0
 30
0.0
 40
2.0
  1
11.02.25
100
AcDbText
  0
TEXT
  5
A409
330
1A
100
AcDbEntity
  8
WAKU
100
AcDbText
 10
318.0
 20
19.0
 30
0.0
 40
4.0
  1
大野
100
AcDbText
  0
MTEXT
  5
A40B
330
1A
100
AcDbEntity
  8
WAKU
100
AcDbMText
 10
314.791664707496
 20
38.86071114661275
 30
0.0
 40
3.0
 41
13.6217958711934
 71
     1
 72
     5
  1
名　　称
 73
     1
 44
1.0
1001
ACAD
1000
MTEXTBEGIN
1070
    73
1070
     1
1070
    44
1040
1.0
1070
    74
1070
     0
1000
MTEXTEND
  0
LWPOLYLINE
  5
A40C
330
1A
100
AcDbEntity
  8
0
100
AcDbPolyline
 90
        3
 70
     1
 43
0.0
 10
398.0002991937029
 20
13.75002575180714
 10
393.6701721747807
 20
6.250025751807143
 10
402.330426212625
 20
6.250025751807143
  0
TEXT
  5
A40D
330
1A
100
AcDbEntity
  8
0
100
AcDbText
 10
358.0
 20
7.5
 30
0.0
 40
3.0
  1
EA3-00104
100
AcDbText
  0
LINE
  5
A40E
330
1A
100
AcDbEntity
  8
WAKU
100
AcDbLine
 10
352.0
 20
5.0
 30
0.0
 11
352.0
 21
15.0
 31
0.0
  0
LINE
  5
A40F
330
1A
100
AcDbEntity
  8
WAKU
100
AcDbLine
 10
345.0
 20
5.0
 30
0.0
 11
345.0
 21
50.0
 31
0.0
  0
TEXT
  5
A410
330
1A
100
AcDbEntity
  8
WAKU
100
AcDbText
 10
346.5
 20
6.0
 30
0.0
 40
3.0
  1
番
100
AcDbText
  0
TEXT
  5
A411
330
1A
100
AcDbEntity
  8
0
100
AcDbText
 10
396.5
 20
7.5
 30
0.0
 40
3.0
  1
3
100
AcDbText
  0
TEXT
  5
A412
330
1A
100
AcDbEntity
  8
0
100
AcDbText
 10
363.5
 20
16.5
 30
0.0
 40
3.0
  1
2011/03～
100
AcDbText
  0
TEXT
  5
A413
330
1A
100
AcDbEntity
  8
0
100
AcDbText
 10
363.5
 20
44.5
 30
0.0
 40
3.0
  1
LA-1041
100
AcDbText
  0
LINE
  5
A414
330
1A
100
AcDbEntity
  8
WAKU
 62
     7
100
AcDbLine
 10
345.0
 20
43.0
 30
0.0
 11
405.0
 21
43.0
 31
0.0
  0
LINE
  5
A415
330
1A
100
AcDbEntity
  8
WAKU
 62
     7
100
AcDbLine
 10
345.0
 20
36.0
 30
0.0
 11
405.0
 21
36.0
 31
0.0
  0
LINE
  5
A416
330
1A
100
AcDbEntity
  8
WAKU
 62
     7
100
AcDbLine
 10
345.0
 20
29.0
 30
0.0
 11
405.0
 21
29.0
 31
0.0
  0
LINE
  5
A417
330
1A
100
AcDbEntity
  8
WAKU
 62
     7
100
AcDbLine
 10
345.0
 20
22.0
 30
0.0
 11
405.0
 21
22.0
 31
0.0
  0
LINE
  5
A418
330
1A
100
AcDbEntity
  8
WAKU
 62
     7
100
AcDbLine
 10
345.0
 20
15.0
 30
0.0
 11
405.0
 21
15.0
 31
0.0
  0
MTEXT
  5
A419
330
1A
100
AcDbEntity
  8
WAKU
100
AcDbMText
 10
347.3192310662242
 20
34.48051906497278
 30
0.0
 40
3.0
 41
11.0
 71
     1
 72
     5
  1
部品表
 73
     1
 44
1.0
1001
ACAD
1000
MTEXTBEGIN
1070
    73
1070
     1
1070
    44
1040
1.0
1070
    74
1070
     0
1000
MTEXTEND
  0
LINE
  5
A41A
330
1A
100
AcDbEntity
  8
WAKU
100
AcDbLine
 10
360.0
 20
15.0
 30
0.0
 11
360.0
 21
50.0
 31
0.0
  0
MTEXT
  5
A41B
330
1A
100
AcDbEntity
  8
WAKU
100
AcDbMText
 10
347.0
 20
20.0
 30
0.0
 40
3.0
 41
12.0
 71
     1
 72
     5
  1
適用ﾛｯﾄ
 73
     1
 44
1.0
1001
ACAD
1000
MTEXTBEGIN
1070
    73
1070
     1
1070
    44
1040
1.0
1070
    74
1070
     0
1000
MTEXTEND
  0
MTEXT
  5
A41C
330
1A
100
AcDbEntity
  8
WAKU
100
AcDbMText
 10
346.0
 20
27.0
 30
0.0
 40
3.0
 41
10.0
 71
     1
 72
     5
  1
ｽﾄｯｸNo.
 73
     1
 44
1.0
1001
ACAD
1000
MTEXTBEGIN
1070
    73
1070
     1
1070
    44
1040
1.0
1070
    74
1070
     0
1000
MTEXTEND
  0
TEXT
  5
A41D
330
1A
100
AcDbEntity
  8
WAKU
100
AcDbText
 10
346.5
 20
10.5
 30
0.0
 40
3.0
  1
図
100
AcDbText
  0
MTEXT
  5
A41E
330
1A
100
AcDbEntity
  8
WAKU
100
AcDbMText
 10
347.2999999999999
 20
40.69999999999999
 30
0.0
 40
3.0
 41
10.0
 71
     1
 72
     5
  1
部　名
 73
     1
 44
1.0
1001
ACAD
1000
MTEXTBEGIN
1070
    73
1070
     1
1070
    44
1040
1.0
1070
    74
1070
     0
1000
MTEXTEND
  0
MTEXT
  5
A41F
330
1A
100
AcDbEntity
  8
WAKU
100
AcDbMText
 10
347.2
 20
47.7
 30
0.0
 40
3.0
 41
10.0
 71
     1
 72
     5
  1
機種名
 73
     1
 44
1.0
1001
ACAD
1000
MTEXTBEGIN
1070
    73
1070
     1
1070
    44
1040
1.0
1070
    74
1070
     0
1000
MTEXTEND
  0
TEXT
  5
A420
330
1A
100
AcDbEntity
  8
0
100
AcDbText
 10
294.5
 20
76.5
 30
0.0
 40
3.0
  1
（組立構造図）
100
AcDbText
  0
TEXT
  5
A422
330
1A
100
AcDbEntity
  8
0
100
AcDbText
 10
301.5
 20
42.5
 30
0.0
 40
3.5
  1
小型L/Cアンプ外形図
100
AcDbText
  0
INSERT
  5
A789
330
1A
100
AcDbEntity
  8
0
100
AcDbBlockReference
  2
PH-5P-1
 10
297.0
 20
230.0
 30
0.0
 50
180.0
  0
INSERT
  5
A7A1
330
1A
100
AcDbEntity
  8
0
100
AcDbBlockReference
  2
PH-5P-2
 10
251.0
 20
146.5
 30
0.0
 50
270.0
  0
INSERT
  5
A7C5
330
1A
100
AcDbEntity
  8
0
100
AcDbBlockReference
  2
PH-5P-3
 10
297.0
 20
146.5
 30
0.0
 50
180.0
  0
INSERT
  5
A7FC
330
1A
100
AcDbEntity
  8
0
100
AcDbBlockReference
  2
XA-5P-1
 10
326.5
 20
230.0
 30
0.0
 50
180.0
  0
INSERT
  5
A810
330
1A
100
AcDbEntity
  8
0
100
AcDbBlockReference
  2
XA-5P-2
 10
375.0
 20
146.4999999999999
 30
0.0
 41
-1.0
 50
90.0
  0
INSERT
  5
A846
330
1A
100
AcDbEntity
  8
0
100
AcDbBlockReference
  2
XA-5P-3
 10
326.5
 20
146.5
 30
0.0
 50
270.0
  0
INSERT
  5
A925
330
1A
100
AcDbEntity
  8
0
100
AcDbBlockReference
  2
XA-5P-4
 10
326.5
 20
110.0
 30
0.0
  0
INSERT
  5
A990
330
1A
100
AcDbEntity
  8
0
100
AcDbBlockReference
  2
PH-5P-4
 10
297.0
 20
110.0
 30
0.0
  0
INSERT
  5
A9C8
330
1A
100
AcDbEntity
  8
0
100
AcDbBlockReference
  2
M3SWPW-L6
 10
251.0
 20
165.0
 30
0.0
 50
270.0
  0
INSERT
  5
A9D9
330
1A
100
AcDbEntity
  8
0
100
AcDbBlockReference
  2
HEX-M3-L10-1
 10
249.4
 20
165.0
 30
0.0
  0
INSERT
  5
AA10
330
1A
100
AcDbEntity
  8
SUNPOU
100
AcDbBlockReference
  2
M3-ﾅｯﾄTOP
 10
293.5
 20
165.0
 30
0.0
 41
-1.0
 50
270.0
  0
INSERT
  5
AA24
330
1A
100
AcDbEntity
  8
0
100
AcDbBlockReference
  2
HEX-M3-L10-2
 10
293.5
 20
108.4
 30
0.0
  0
INSERT
  5
AA2F
330
1A
100
AcDbEntity
  8
0
100
AcDbBlockReference
  2
HEX-M3-L10-2
 10
330.5
 20
108.4
 30
0.0
  0
INSERT
  5
AA30
330
1A
100
AcDbEntity
  8
0
100
AcDbBlockReference
  2
M3SWPW-L6
 10
293.5
 20
110.0
 30
0.0
  0
INSERT
  5
AA31
330
1A
100
AcDbEntity
  8
0
100
AcDbBlockReference
  2
M3SWPW-L6
 10
330.5
 20
110.0
 30
0.0
  0
INSERT
  5
ABCB
330
1A
100
AcDbEntity
  8
SUNPOU
100
AcDbBlockReference
  2
ZU-1
 10
312.5
 20
238.1
 30
0.0
  0
INSERT
  5
ABD2
330
1A
100
AcDbEntity
  8
KAGESEN
100
AcDbBlockReference
  2
SUS3
 10
312.5
 20
157.55
 30
0.0
 41
-1.0
  0
INSERT
  5
AC35
330
1A
100
AcDbEntity
  8
0
100
AcDbBlockReference
  2
M3SWPW-L6
 10
375.0
 20
165.0
 30
0.0
 41
-1.0
 50
90.0
  0
INSERT
  5
AC37
330
1A
100
AcDbEntity
  8
0
100
AcDbBlockReference
  2
HEX-M3-L10-1
 10
376.6
 20
165.0
 30
0.0
 41
-1.0
  0
DIMENSION
  5
AC38
330
1A
100
AcDbEntity
  8
SUNPOU
100
AcDbDimension
  2
*D24
 10
249.4
 20
135.0
 30
0.0
 11
244.4
 21
136.75
 31
0.0
 70
    32
 71
     5
 42
10.0
  3
STANDARD
100
AcDbAlignedDimension
 13
239.4000000000001
 23
161.8189700519381
 33
0.0
 14
249.4
 24
143.5
 34
0.0
100
AcDbRotatedDimension
1001
ACAD
1000
DSTYLE
1002
{
1070
    41
1040
2.5
1070
    42
1040
0.5
1070
    43
1040
10.0
1070
    44
1040
0.5
1070
    73
1070
     0
1070
    74
1070
     0
1070
    77
1070
     1
1070
   140
1040
2.5
1070
   141
1040
0.0
1070
   147
1040
0.5
1070
   173
1070
     1
1070
   271
1070
     1
1070
   272
1070
     0
1070
   341
1005
BA
1070
   343
1005
BA
1070
   344
1005
BA
1002
}
  0
INSERT
  5
AC59
330
1A
100
AcDbEntity
  8
SUNPOU
100
AcDbBlockReference
  2
M3-ﾅｯﾄTOP
 10
330.5
 20
165.0
 30
0.0
 41
-1.0
 50
270.0
  0
LINE
  5
AC5B
102
{ACAD_REACTORS
330
AC73
102
}
330
1A
100
AcDbEntity
  8
SUNPOU
100
AcDbLine
 10
246.1
 20
165.1
 30
0.0
 11
246.9
 21
165.1
 31
0.0
  0
LINE
  5
AC5C
102
{ACAD_REACTORS
330
AC73
102
}
330
1A
100
AcDbEntity
  8
SUNPOU
100
AcDbLine
 10
246.1
 20
150.0
 30
0.0
 11
246.9
 21
150.0
 31
0.0
  0
LINE
  5
AC5D
102
{ACAD_REACTORS
330
AC73
102
}
330
1A
100
AcDbEntity
  8
SUNPOU
100
AcDbLine
 10
242.9
 20
162.55
 30
0.0
 11
242.9
 21
152.55
 31
0.0
  0
LINE
  5
AC5E
102
{ACAD_REACTORS
330
AC73
102
}
330
1A
100
AcDbEntity
  8
SUNPOU
100
AcDbLine
 10
242.9
 20
152.55
 30
0.0
 11
246.1
 21
152.55
 31
0.0
  0
LINE
  5
AC5F
102
{ACAD_REACTORS
330
AC73
102
}
330
1A
100
AcDbEntity
  8
SUNPOU
100
AcDbLine
 10
242.9
 20
162.55
 30
0.0
 11
246.1
 21
162.55
 31
0.0
  0
LINE
  5
AC60
102
{ACAD_REACTORS
330
AC73
102
}
330
1A
100
AcDbEntity
  8
SUNPOU
100
AcDbLine
 10
246.0999999999999
 20
165.1
 30
0.0
 11
246.1000000000001
 21
150.0000000000001
 31
0.0
  0
LINE
  5
AC61
102
{ACAD_REACTORS
330
AC73
102
}
330
1A
100
AcDbEntity
  8
SUNPOU
100
AcDbLine
 10
246.9
 20
165.1
 30
0.0
 11
246.9
 21
150.0000000000001
 31
0.0
  0
INSERT
  5
AC62
330
1A
100
AcDbEntity
  8
0
100
AcDbBlockReference
  2
M3SWPW-L6
 10
330.5
 20
230.0
 30
0.0
 41
-1.0
 50
180.0
  0
INSERT
  5
AC63
330
1A
100
AcDbEntity
  8
0
100
AcDbBlockReference
  2
M3SWPW-L6
 10
293.5
 20
230.0
 30
0.0
 41
-1.0
 50
180.0
  0
INSERT
  5
AC64
330
1A
100
AcDbEntity
  8
0
100
AcDbBlockReference
  2
HEX-M3-L10-2
 10
330.5
 20
231.6
 30
0.0
 41
-1.0
 50
180.0
  0
INSERT
  5
AC65
330
1A
100
AcDbEntity
  8
0
100
AcDbBlockReference
  2
HEX-M3-L10-2
 10
293.5
 20
231.6
 30
0.0
 41
-1.0
 50
180.0
  0
LINE
  5
AC68
330
1A
100
AcDbEntity
  8
KAGESEN
100
AcDbLine
 10
334.5
 20
238.1
 30
0.0
 11
334.5
 21
231.6
 31
0.0
  0
LINE
  5
AC69
330
1A
100
AcDbEntity
  8
KAGESEN
100
AcDbLine
 10
289.5
 20
238.1
 30
0.0
 11
334.5
 21
238.1
 31
0.0
  0
LINE
  5
AC6A
330
1A
100
AcDbEntity
  8
KAGESEN
100
AcDbLine
 10
289.5
 20
231.6
 30
0.0
 11
289.5
 21
238.1
 31
0.0
  0
LINE
  5
AC6B
330
1A
100
AcDbEntity
  8
KAGESEN
100
AcDbLine
 10
334.5
 20
222.0
 30
0.0
 11
334.5
 21
230.0
 31
0.0
  0
LINE
  5
AC6C
330
1A
100
AcDbEntity
  8
KAGESEN
100
AcDbLine
 10
289.5
 20
222.0
 30
0.0
 11
334.5
 21
222.0
 31
0.0
  0
LINE
  5
AC6D
330
1A
100
AcDbEntity
  8
KAGESEN
100
AcDbLine
 10
289.5
 20
230.0
 30
0.0
 11
289.5
 21
222.0
 31
0.0
  0
HATCH
  5
AC6E
330
1A
100
AcDbEntity
  8
SUNPOU
100
AcDbHatch
 10
0.0
 20
0.0
 30
0.0
210
0.0
220
0.0
230
1.0
  2
ANSI31
 70
     0
 71
     1
 91
        1
 92
        1
 93
        4
 72
     1
 10
289.5
 20
231.6
 11
334.5
 21
231.6
 72
     1
 10
334.5
 20
231.6
 11
334.5
 21
230.0
 72
     1
 10
334.5
 20
230.0
 11
289.5
 21
230.0
 72
     1
 10
289.5
 20
230.0
 11
289.5
 21
231.6
 97
        4
330
AC71
330
AC6F
330
AC72
330
AC70
 75
     0
 76
     1
 52
0.0
 41
1.0
 77
     0
 78
     1
 53
315.0
 43
202.0
 44
387.5
 45
-2.245064030267287
 46
-2.245064030267288
 79
     0
 98
        1
 10
202.0
 20
387.5
  0
LINE
  5
AC6F
102
{ACAD_REACTORS
330
AC6E
102
}
330
1A
100
AcDbEntity
  8
0
100
AcDbLine
 10
334.5
 20
230.0
 30
0.0
 11
334.5
 21
231.6
 31
0.0
  0
LINE
  5
AC70
102
{ACAD_REACTORS
330
AC6E
102
}
330
1A
100
AcDbEntity
  8
0
100
AcDbLine
 10
289.5
 20
230.0
 30
0.0
 11
289.5
 21
231.6
 31
0.0
  0
LINE
  5
AC71
102
{ACAD_REACTORS
330
AC6E
102
}
330
1A
100
AcDbEntity
  8
0
100
AcDbLine
 10
289.5
 20
231.6
 30
0.0
 11
334.5
 21
231.6
 31
0.0
  0
LINE
  5
AC72
102
{ACAD_REACTORS
330
AC6E
102
}
330
1A
100
AcDbEntity
  8
0
100
AcDbLine
 10
289.5
 20
230.0
 30
0.0
 11
334.5
 21
230.0
 31
0.0
  0
INSERT
  5
ACED
330
1A
100
AcDbEntity
  8
0
100
AcDbBlockReference
  2
RJ5-4
 10
318.15
 20
230.0
 30
0.0
  0
INSERT
  5
ACEE
330
1A
100
AcDbEntity
  8
0
100
AcDbBlockReference
  2
RJ5-4
 10
324.15
 20
230.0
 30
0.0
  0
INSERT
  5
AF4C
330
1A
100
AcDbEntity
  8
0
100
AcDbBlockReference
  2
HEX-M3-L10-2
 10
120.5
 20
120.4
 30
0.0
  0
INSERT
  5
AF4D
330
1A
100
AcDbEntity
  8
0
100
AcDbBlockReference
  2
HEX-M3-L10-2
 10
83.49999999999999
 20
120.4
 30
0.0
  0
INSERT
  5
AF51
330
1A
100
AcDbEntity
  8
0
100
AcDbBlockReference
  2
PH-5P-4
 10
87.0
 20
122.0
 30
0.0
  0
INSERT
  5
AF52
330
1A
100
AcDbEntity
  8
0
100
AcDbBlockReference
  2
XA-5P-4
 10
116.5
 20
122.0
 30
0.0
  0
INSERT
  5
AF53
330
1A
100
AcDbEntity
  8
0
100
AcDbBlockReference
  2
XA-5P-3
 10
116.5
 20
171.5
 30
0.0
 50
270.0
  0
INSERT
  5
AF54
330
1A
100
AcDbEntity
  8
0
100
AcDbBlockReference
  2
XA-5P-2
 10
150.0
 20
171.4999999999999
 30
0.0
 41
-1.0
 50
90.0
  0
INSERT
  5
AF56
330
1A
100
AcDbEntity
  8
0
100
AcDbBlockReference
  2
PH-5P-3
 10
87.0
 20
171.5
 30
0.0
 50
180.0
  0
TEXT
  5
AF59
330
1A
100
AcDbEntity
  8
SUNPOU
100
AcDbText
 10
108.6910714285713
 20
175.215
 30
0.0
 40
2.0
  1
CN1
 41
0.8
 72
     1
 11
110.8624999999999
 21
175.215
 31
0.0
100
AcDbText
  0
TEXT
  5
AF5A
330
1A
100
AcDbEntity
  8
SUNPOU
100
AcDbText
 10
79.96249999999995
 20
175.215
 30
0.0
 40
2.0
  1
CN2
 41
0.8
 72
     1
 11
82.36249999999996
 21
175.215
 31
0.0
100
AcDbText
  0
LEADER
  5
AF5B
330
1A
100
AcDbEntity
  8
SUNPOU
100
AcDbLeader
  3
STANDARD
 73
     0
 74
     0
 75
     1
 40
4.000000000000001
 41
37.63809523809525
 76
     3
 10
108.5
 20
209.0
 30
0.0
 10
134.0
 20
238.0
 30
0.0
 10
136.5
 20
238.0
 30
0.0
340
AF5C
213
0.0
223
-1.25
233
0.0
1001
ACAD
1000
DSTYLE
1002
{
1070
    41
1040
2.5
1070
    42
1040
0.5
1070
    43
1040
10.0
1070
    44
1040
0.5
1070
    73
1070
     0
1070
    74
1070
     0
1070
    77
1070
     0
1070
   140
1040
2.5
1070
   141
1040
0.0
1070
   147
1040
0.5
1070
   173
1070
     1
1070
   271
1070
     2
1070
   272
1070
     0
1070
   341
1005
BA
1070
   343
1005
BA
1070
   344
1005
BA
1002
}
  0
MTEXT
  5
AF5C
102
{ACAD_REACTORS
330
AF5B
102
}
330
1A
100
AcDbEntity
  8
SUNPOU
100
AcDbMText
 10
137.0
 20
239.25
 30
0.0
 40
4.0
 41
0.0
 71
     1
 72
     1
  1
感度調整用トリマ
 73
     1
 44
1.0
1001
ACAD
1000
MTEXTBEGIN
1070
    73
1070
     1
1070
    44
1040
1.0
1070
    74
1070
     0
1000
MTEXTEND
  0
MTEXT
  5
AF5D
102
{ACAD_REACTORS
330
AF5E
102
}
330
1A
100
AcDbEntity
  8
SUNPOU
100
AcDbMText
 10
135.5
 20
230.75
 30
0.0
 40
4.0
 41
0.0
 71
     1
 72
     1
  1
\A1;零点調整用トリマ
 73
     1
 44
1.0
1001
ACAD
1000
MTEXTBEGIN
1070
    73
1070
     1
1070
    44
1040
1.0
1070
    74
1070
     0
1000
MTEXTEND
  0
LEADER
  5
AF5E
330
1A
100
AcDbEntity
  8
SUNPOU
100
AcDbLeader
  3
STANDARD
 73
     0
 74
     0
 75
     1
 40
4.0
 41
37.63809523809525
 76
     3
 10
114.5
 20
209.0
 30
0.0
 10
132.5
 20
229.5
 30
0.0
 10
135.0
 20
229.5
 30
0.0
340
AF5D
213
0.0
223
-1.25
233
0.0
1001
ACAD
1000
DSTYLE
1002
{
1070
    41
1040
2.5
1070
    42
1040
0.5
1070
    43
1040
10.0
1070
    44
1040
0.5
1070
    73
1070
     0
1070
    74
1070
     0
1070
    77
1070
     0
1070
   140
1040
2.5
1070
   141
1040
0.0
1070
   147
1040
0.5
1070
   173
1070
     1
1070
   271
1070
     2
1070
   272
1070
     0
1070
   341
1005
BA
1070
   343
1005
BA
1070
   344
1005
BA
1002
}
  0
MTEXT
  5
AF62
102
{ACAD_REACTORS
330
AF63
102
}
330
1A
100
AcDbEntity
  8
SUNPOU
100
AcDbMText
 10
128.5
 20
143.75
 30
0.0
 40
2.5
 41
0.0
 71
     1
 72
     1
  1
\A1;電源及びアンプ出力用コネクタ
 73
     1
 44
1.0
1001
ACAD
1000
MTEXTBEGIN
1070
    73
1070
     1
1070
    44
1040
1.0
1070
    74
1070
     0
1000
MTEXTEND
  0
LEADER
  5
AF63
330
1A
100
AcDbEntity
  8
SUNPOU
100
AcDbLeader
  3
STANDARD
 73
     0
 40
2.5
 41
41.64285714285717
 76
     3
 10
116.5
 20
129.3
 30
0.0
 10
125.5
 20
142.5
 30
0.0
 10
128.0
 20
142.5
 30
0.0
340
AF62
213
0.0
223
-1.25
233
0.0
1001
ACAD
1000
DSTYLE
1002
{
1070
    41
1040
2.5
1070
    42
1040
0.5
1070
    43
1040
10.0
1070
    44
1040
0.5
1070
    73
1070
     0
1070
    74
1070
     0
1070
    77
1070
     0
1070
   140
1040
2.5
1070
   141
1040
0.0
1070
   147
1040
0.5
1070
   173
1070
     1
1070
   271
1070
     2
1070
   272
1070
     0
1070
   341
1005
BA
1070
   343
1005
BA
1070
   344
1005
BA
1002
}
  0
MTEXT
  5
AF64
102
{ACAD_REACTORS
330
AF65
102
}
330
1A
100
AcDbEntity
  8
SUNPOU
100
AcDbMText
 10
80.0
 20
134.25
 30
0.0
 40
2.5
 41
0.0
 71
     9
 72
     1
  1
\A1;L/C接続用コネクタ
 73
     1
 44
1.0
1001
ACAD
1000
MTEXTBEGIN
1070
    73
1070
     1
1070
    44
1040
1.0
1070
    74
1070
     0
1000
MTEXTEND
  0
LEADER
  5
AF65
330
1A
100
AcDbEntity
  8
SUNPOU
100
AcDbLeader
  3
STANDARD
 73
     0
 40
3.809523809523809
 41
27.30952380952384
 76
     3
 10
87.0
 20
128.0
 30
0.0
 10
81.5
 20
135.5
 30
0.0
 10
80.5
 20
135.5
 30
0.0
340
AF64
213
0.0
223
1.25
233
0.0
1001
ACAD
1000
DSTYLE
1002
{
1070
    41
1040
2.5
1070
    42
1040
0.5
1070
    43
1040
10.0
1070
    44
1040
0.5
1070
    73
1070
     0
1070
    74
1070
     0
1070
    77
1070
     0
1070
   140
1040
2.5
1070
   141
1040
0.0
1070
   147
1040
0.5
1070
   173
1070
     1
1070
   271
1070
     2
1070
   272
1070
     0
1070
   341
1005
BA
1070
   343
1005
BA
1070
   344
1005
BA
1002
}
  0
TEXT
  5
AF66
330
1A
100
AcDbEntity
  8
SUNPOU
100
AcDbText
 10
120.33
 20
158.9
 30
0.0
 40
2.0
  1
+24V
 50
90.0
 11
119.33
 21
158.9
 31
0.0
100
AcDbText
 73
     2
  0
TEXT
  5
AF67
330
1A
100
AcDbEntity
  8
SUNPOU
100
AcDbText
 10
115.3299999999999
 20
158.9
 30
0.0
 40
2.0
  1
COM
 50
90.0
 11
114.3299999999999
 21
158.9
 31
0.0
100
AcDbText
 73
     2
  0
TEXT
  5
AF68
330
1A
100
AcDbEntity
  8
SUNPOU
100
AcDbText
 10
122.83
 20
158.9
 30
0.0
 40
2.0
  1
0V
 50
90.0
 11
121.83
 21
158.9
 31
0.0
100
AcDbText
 73
     2
  0
TEXT
  5
AF69
330
1A
100
AcDbEntity
  8
SUNPOU
100
AcDbText
 10
117.83
 20
158.9
 30
0.0
 40
2.0
  1
NC
 50
90.0
 11
116.83
 21
158.9
 31
0.0
100
AcDbText
 73
     2
  0
TEXT
  5
AF6A
330
1A
100
AcDbEntity
  8
SUNPOU
100
AcDbText
 10
112.83
 20
158.9
 30
0.0
 40
2.0
  1
OUT
 50
90.0
 11
111.83
 21
158.9
 31
0.0
100
AcDbText
 73
     2
  0
TEXT
  5
AF6B
330
1A
100
AcDbEntity
  8
SUNPOU
100
AcDbText
 10
82.32999999999998
 20
158.9
 30
0.0
 40
2.0
  1
+EXC
 50
90.0
 11
81.32999999999999
 21
158.9
 31
0.0
100
AcDbText
 73
     2
  0
TEXT
  5
AF6C
330
1A
100
AcDbEntity
  8
SUNPOU
100
AcDbText
 10
87.32999999999998
 20
158.9
 30
0.0
 40
2.0
  1
+SIG
 50
90.0
 11
86.32999999999999
 21
158.9
 31
0.0
100
AcDbText
 73
     2
  0
TEXT
  5
AF6D
330
1A
100
AcDbEntity
  8
SUNPOU
100
AcDbText
 10
92.32999999999998
 20
158.9
 30
0.0
 40
2.0
  1
SHL
 50
90.0
 11
91.32999999999999
 21
158.9
 31
0.0
100
AcDbText
 73
     2
  0
TEXT
  5
AF6E
330
1A
100
AcDbEntity
  8
SUNPOU
100
AcDbText
 10
84.82999999999998
 20
158.9
 30
0.0
 40
2.0
  1
-EXC
 50
90.0
 11
83.82999999999999
 21
158.9
 31
0.0
100
AcDbText
 73
     2
  0
TEXT
  5
AF6F
330
1A
100
AcDbEntity
  8
SUNPOU
100
AcDbText
 10
89.82999999999998
 20
158.9
 30
0.0
 40
2.0
  1
-SIG
 50
90.0
 11
88.82999999999999
 21
158.9
 31
0.0
100
AcDbText
 73
     2
  0
TEXT
  5
AF70
330
1A
100
AcDbEntity
  8
WAKU
100
AcDbText
 10
107.3523809523809
 20
169.715
 30
0.0
 40
2.0
  1
1
 41
0.8
 72
     1
 11
108.0
 21
169.715
 31
0.0
100
AcDbText
  0
TEXT
  5
AF71
330
1A
100
AcDbEntity
  8
WAKU
100
AcDbText
 10
79.35238095238095
 20
169.715
 30
0.0
 40
2.0
  1
1
 41
0.8
 72
     1
 11
80.0
 21
169.715
 31
0.0
100
AcDbText
  0
LINE
  5
AF72
330
1A
100
AcDbEntity
  8
CENTER
100
AcDbLine
 10
75.0
 20
190.0
 30
0.0
 11
129.0
 21
190.0
 31
0.0
  0
DIMENSION
  5
AF73
330
1A
100
AcDbEntity
  8
SUNPOU
100
AcDbDimension
  2
*D27
 10
120.5
 20
227.0
 30
0.0
 11
102.0
 21
229.5
 31
0.0
 70
    32
 71
     5
 42
37.0
  3
STANDARD
100
AcDbAlignedDimension
 13
83.49999999999999
 23
190.0
 33
0.0
 14
120.5
 24
190.0
 34
0.0
100
AcDbRotatedDimension
1001
ACAD
1000
DSTYLE
1002
{
1070
    41
1040
2.5
1070
    42
1040
0.5
1070
    43
1040
10.0
1070
    44
1040
0.5
1070
    73
1070
     0
1070
    74
1070
     0
1070
    77
1070
     1
1070
   140
1040
4.0
1070
   141
1040
0.0
1070
   147
1040
0.5
1070
   173
1070
     1
1070
   271
1070
     0
1070
   272
1070
     0
1070
   341
1005
BA
1070
   343
1005
BA
1070
   344
1005
BA
1002
}
  0
DIMENSION
  5
AF75
330
1A
100
AcDbEntity
  8
SUNPOU
100
AcDbDimension
  2
*D26
 10
124.5
 20
234.5
 30
0.0
 11
102.0
 21
237.0
 31
0.0
 70
    32
 71
     5
 42
45.0
  3
STANDARD
100
AcDbAlignedDimension
 13
79.5
 23
212.0
 33
0.0
 14
124.5
 24
212.0
 34
0.0
100
AcDbRotatedDimension
1001
ACAD
1000
DSTYLE
1002
{
1070
    41
1040
2.5
1070
    42
1040
0.5
1070
    43
1040
10.0
1070
    44
1040
0.5
1070
    73
1070
     0
1070
    74
1070
     0
1070
    77
1070
     1
1070
   140
1040
4.0
1070
   141
1040
0.0
1070
   147
1040
0.5
1070
   173
1070
     1
1070
   271
1070
     0
1070
   272
1070
     0
1070
   341
1005
BA
1070
   343
1005
BA
1070
   344
1005
BA
1002
}
  0
LEADER
  5
AF76
330
1A
100
AcDbEntity
  8
SUNPOU
100
AcDbLeader
  3
STANDARD
 40
2.5
 41
18.0
 76
     2
 10
98.50000000000001
 20
119.5
 30
0.0
 10
112.5
 20
99.49999999999997
 30
0.0
213
0.0
223
-1.25
233
0.0
1001
ACAD
1000
DSTYLE
1002
{
1070
    41
1040
2.5
1070
    42
1040
0.5
1070
    43
1040
10.0
1070
    44
1040
0.5
1070
    73
1070
     0
1070
    74
1070
     0
1070
    77
1070
     0
1070
   140
1040
2.5
1070
   141
1040
0.0
1070
   147
1040
0.5
1070
   173
1070
     1
1070
   271
1070
     2
1070
   272
1070
     0
1070
   341
1005
BA
1070
   343
1005
BA
1070
   344
1005
BA
1002
}
  0
MTEXT
  5
AF77
102
{ACAD_REACTORS
330
AF78
102
}
330
1A
100
AcDbEntity
  8
SUNPOU
100
AcDbMText
 10
115.5
 20
100.75
 30
0.0
 40
2.5
 41
0.0
 71
     1
 72
     1
  1
\A1;部品実装領域
 73
     1
 44
1.0
1001
ACAD
1000
MTEXTBEGIN
1070
    73
1070
     1
1070
    44
1040
1.0
1070
    74
1070
     0
1000
MTEXTEND
  0
LEADER
  5
AF78
330
1A
100
AcDbEntity
  8
SUNPOU
100
AcDbLeader
  3
STANDARD
 73
     0
 74
     0
 75
     1
 40
2.5
 41
18.0
 76
     3
 10
100.0
 20
125.0
 30
0.0
 10
112.5
 20
99.49999999999997
 30
0.0
 10
115.0
 20
99.49999999999997
 30
0.0
340
AF77
213
0.0
223
-1.25
233
0.0
1001
ACAD
1000
DSTYLE
1002
{
1070
    41
1040
2.5
1070
    42
1040
0.5
1070
    43
1040
10.0
1070
    44
1040
0.5
1070
    73
1070
     0
1070
    74
1070
     0
1070
    77
1070
     0
1070
   140
1040
2.5
1070
   141
1040
0.0
1070
   147
1040
0.5
1070
   173
1070
     1
1070
   271
1070
     2
1070
   272
1070
     0
1070
   341
1005
BA
1070
   343
1005
BA
1070
   344
1005
BA
1002
}
  0
DIMENSION
  5
AF79
330
1A
100
AcDbEntity
  8
SUNPOU
100
AcDbDimension
  2
*D30
 10
135.070946479922
 20
113.9
 30
0.0
 11
132.5709464799219
 21
106.8047619047619
 31
0.0
 70
    32
 71
     5
 42
6.499999999999971
  3
STANDARD
100
AcDbAlignedDimension
 13
124.5
 23
120.3999999999999
 33
0.0
 14
124.5
 24
113.9
 34
0.0
 50
90.0
100
AcDbRotatedDimension
1001
ACAD
1000
DSTYLE
1002
{
1070
    41
1040
2.5
1070
    42
1040
0.5
1070
    43
1040
10.0
1070
    44
1040
0.5
1070
    73
1070
     0
1070
    74
1070
     0
1070
    77
1070
     1
1070
   140
1040
4.0
1070
   141
1040
0.0
1070
   147
1040
0.5
1070
   173
1070
     1
1070
   271
1070
     1
1070
   272
1070
     0
1070
   341
1005
BA
1070
   343
1005
BA
1070
   344
1005
BA
1002
}
  0
DIMENSION
  5
AF7A
330
1A
100
AcDbEntity
  8
SUNPOU
100
AcDbDimension
  2
*D29
 10
135.0
 20
122.0
 30
0.0
 11
135.0
 21
135.3333333333333
 31
0.0
 70
   160
 71
     5
 42
9.0
  3
STANDARD
100
AcDbAlignedDimension
 13
124.5
 23
131.0
 33
0.0
 14
124.5
 24
122.0
 34
0.0
 50
90.0
100
AcDbRotatedDimension
1001
ACAD
1000
DSTYLE
1002
{
1070
    41
1040
2.5
1070
    42
1040
0.5
1070
    43
1040
10.0
1070
    44
1040
0.5
1070
    73
1070
     0
1070
    74
1070
     0
1070
    77
1070
     1
1070
   140
1040
4.0
1070
   141
1040
0.0
1070
   147
1040
0.5
1070
   173
1070
     1
1070
   271
1070
     0
1070
   272
1070
     0
1070
   341
1005
BA
1070
   343
1005
BA
1070
   344
1005
BA
1002
}
  0
DIMENSION
  5
AF7B
330
1A
100
AcDbEntity
  8
SUNPOU
100
AcDbDimension
  2
*D28
 10
65.0
 20
110.4
 30
0.0
 11
62.49999999999998
 21
115.4
 31
0.0
 70
    32
 71
     5
 42
9.999999999999971
  3
STANDARD
100
AcDbAlignedDimension
 13
79.5
 23
120.4
 33
0.0
 14
80.74514725477923
 24
110.4
 34
0.0
 50
90.0
100
AcDbRotatedDimension
1001
ACAD
1000
DSTYLE
1002
{
1070
    41
1040
2.5
1070
    42
1040
0.5
1070
    43
1040
10.0
1070
    44
1040
0.5
1070
    73
1070
     0
1070
    74
1070
     0
1070
    77
1070
     1
1070
   140
1040
4.0
1070
   141
1040
0.0
1070
   147
1040
0.5
1070
   173
1070
     1
1070
   271
1070
     0
1070
   272
1070
     0
1070
   341
1005
BA
1070
   343
1005
BA
1070
   344
1005
BA
1002
}
  0
LINE
  5
AF7C
330
1A
100
AcDbEntity
  8
KAGESEN
100
AcDbLine
 10
124.5
 20
113.9
 30
0.0
 11
124.5
 21
120.4
 31
0.0
  0
LINE
  5
AF7D
330
1A
100
AcDbEntity
  8
KAGESEN
100
AcDbLine
 10
79.5
 20
113.9
 30
0.0
 11
124.5
 21
113.9
 31
0.0
  0
LINE
  5
AF7E
330
1A
100
AcDbEntity
  8
KAGESEN
100
AcDbLine
 10
79.5
 20
120.4
 30
0.0
 11
79.5
 21
113.9
 31
0.0
  0
LINE
  5
AF7F
330
1A
100
AcDbEntity
  8
KAGESEN
100
AcDbLine
 10
124.5
 20
131.0
 30
0.0
 11
124.5
 21
122.0
 31
0.0
  0
LINE
  5
AF80
330
1A
100
AcDbEntity
  8
KAGESEN
100
AcDbLine
 10
79.5
 20
131.0
 30
0.0
 11
124.5
 21
131.0
 31
0.0
  0
LINE
  5
AF81
330
1A
100
AcDbEntity
  8
KAGESEN
100
AcDbLine
 10
79.5
 20
122.0
 30
0.0
 11
79.5
 21
131.0
 31
0.0
  0
INSERT
  5
AF87
330
1A
100
AcDbEntity
  8
0
100
AcDbBlockReference
  2
RJ-5-2
 10
150.0
 20
205.5
 30
0.0
  0
LINE
  5
AF88
102
{ACAD_REACTORS
330
B186
102
}
330
1A
100
AcDbEntity
  8
0
100
AcDbLine
 10
150.0
 20
168.0
 30
0.0
 11
151.6
 21
168.0
 31
0.0
  0
LINE
  5
AF89
102
{ACAD_REACTORS
330
B186
102
}
330
1A
100
AcDbEntity
  8
0
100
AcDbLine
 10
150.0
 20
212.0
 30
0.0
 11
151.6
 21
212.0
 31
0.0
  0
LINE
  5
AF8A
102
{ACAD_REACTORS
330
B186
102
}
330
1A
100
AcDbEntity
  8
0
100
AcDbLine
 10
151.6
 20
212.0
 30
0.0
 11
151.6
 21
168.0
 31
0.0
  0
LINE
  5
AF8B
102
{ACAD_REACTORS
330
B186
102
}
330
1A
100
AcDbEntity
  8
0
100
AcDbLine
 10
150.0
 20
212.0
 30
0.0
 11
150.0
 21
168.0
 31
0.0
  0
CIRCLE
  5
AF8C
330
1A
100
AcDbEntity
  8
SUNPOU
100
AcDbCircle
 10
120.5
 20
190.0
 30
0.0
 40
3.5
  0
CIRCLE
  5
AF8D
330
1A
100
AcDbEntity
  8
SUNPOU
100
AcDbCircle
 10
83.49999999999999
 20
190.0
 30
0.0
 40
3.5
  0
INSERT
  5
AF8E
330
1A
100
AcDbEntity
  8
0
100
AcDbBlockReference
  2
A$C503A35A0
 10
105.9999981657683
 20
204.6000013683221
 30
0.0
  0
HATCH
  5
AF8F
330
1A
100
AcDbEntity
  8
SUNPOU
100
AcDbHatch
 10
0.0
 20
0.0
 30
0.0
210
0.0
220
0.0
230
1.0
  2
ANSI31
 70
     0
 71
     1
 91
        1
 92
        1
 93
        4
 72
     1
 10
79.5
 20
120.4
 11
124.5
 21
120.3999999999999
 72
     1
 10
124.5
 20
120.3999999999999
 11
124.5
 21
121.9999999999999
 72
     1
 10
124.5
 20
121.9999999999999
 11
79.5
 21
122.0
 72
     1
 10
79.5
 20
122.0
 11
79.5
 21
120.4
 97
        4
330
AF92
330
AF90
330
AF93
330
AF91
 75
     0
 76
     1
 52
0.0
 41
1.0
 77
     0
 78
     1
 53
45.0
 43
-8.0
 44
-35.50000000000003
 45
-2.245064030267287
 46
2.245064030267288
 79
     0
 98
        1
 10
-8.0
 20
-35.50000000000003
  0
LINE
  5
AF90
102
{ACAD_REACTORS
330
AF8F
102
}
330
1A
100
AcDbEntity
  8
0
100
AcDbLine
 10
124.5
 20
121.9999999999999
 30
0.0
 11
124.5
 21
120.3999999999999
 31
0.0
  0
LINE
  5
AF91
102
{ACAD_REACTORS
330
AF8F
102
}
330
1A
100
AcDbEntity
  8
0
100
AcDbLine
 10
79.5
 20
122.0
 30
0.0
 11
79.5
 21
120.4
 31
0.0
  0
LINE
  5
AF92
102
{ACAD_REACTORS
330
AF8F
102
}
330
1A
100
AcDbEntity
  8
0
100
AcDbLine
 10
79.5
 20
120.4
 30
0.0
 11
124.5
 21
120.3999999999999
 31
0.0
  0
LINE
  5
AF93
102
{ACAD_REACTORS
330
AF8F
102
}
330
1A
100
AcDbEntity
  8
0
100
AcDbLine
 10
79.5
 20
122.0
 30
0.0
 11
124.5
 21
121.9999999999999
 31
0.0
  0
LINE
  5
AF96
330
1A
100
AcDbEntity
  8
0
100
AcDbLine
 10
79.5
 20
168.0
 30
0.0
 11
124.5
 21
168.0
 31
0.0
  0
LINE
  5
AF97
330
1A
100
AcDbEntity
  8
0
100
AcDbLine
 10
79.5
 20
212.0
 30
0.0
 11
124.5
 21
212.0
 31
0.0
  0
LINE
  5
AF98
330
1A
100
AcDbEntity
  8
0
100
AcDbLine
 10
79.5
 20
212.0
 30
0.0
 11
79.5
 21
168.0
 31
0.0
  0
LINE
  5
AF99
330
1A
100
AcDbEntity
  8
0
100
AcDbLine
 10
124.5
 20
212.0
 30
0.0
 11
124.5
 21
168.0
 31
0.0
  0
INSERT
  5
AF9A
330
1A
100
AcDbEntity
  8
0
100
AcDbBlockReference
  2
A$C503A35A0
 10
111.9999981657683
 20
204.6000013683221
 30
0.0
  0
LINE
  5
B043
330
1A
100
AcDbEntity
  8
0
100
AcDbLine
 10
151.6
 20
188.4094850259691
 30
0.0
 11
161.6
 21
188.4094850259691
 31
0.0
  0
LINE
  5
B044
330
1A
100
AcDbEntity
  8
0
100
AcDbLine
 10
151.6
 20
186.8189700519381
 30
0.0
 11
161.6
 21
186.8189700519381
 31
0.0
  0
LINE
  5
B045
330
1A
100
AcDbEntity
  8
0
100
AcDbLine
 10
151.6
 20
191.5905149740311
 30
0.0
 11
161.6
 21
191.5905149740311
 31
0.0
  0
LINE
  5
B046
330
1A
100
AcDbEntity
  8
0
100
AcDbLine
 10
151.6
 20
193.1810299480621
 30
0.0
 11
161.6
 21
193.1810299480621
 31
0.0
  0
LINE
  5
B047
330
1A
100
AcDbEntity
  8
0
100
AcDbLine
 10
151.6
 20
193.181029948062
 30
0.0
 11
151.6
 21
186.8189700519381
 31
0.0
  0
LINE
  5
B048
330
1A
100
AcDbEntity
  8
0
100
AcDbLine
 10
161.6
 20
193.181029948062
 30
0.0
 11
161.6
 21
186.8189700519381
 31
0.0
  0
INSERT
  5
B051
330
1A
100
AcDbEntity
  8
0
100
AcDbBlockReference
  2
M3-1
 10
-150.0
 20
190.0
 30
0.0
 43
-1.0
 50
270.0
210
0.0
220
0.0
230
-1.0
  0
INSERT
  5
B05D
330
1A
100
AcDbEntity
  8
0
100
AcDbBlockReference
  2
M3-1
 10
83.49999999999999
 20
122.0
 30
0.0
  0
INSERT
  5
B066
330
1A
100
AcDbEntity
  8
0
100
AcDbBlockReference
  2
M3-1
 10
120.5
 20
122.0
 30
0.0
  0
DIMENSION
  5
B07A
330
1A
100
AcDbEntity
  8
SUNPOU
100
AcDbDimension
  2
*D31
 10
60.09999999999999
 20
168.0
 30
0.0
 11
57.59999999999998
 21
190.0
 31
0.0
 70
    32
 71
     5
 42
43.99999999999997
  3
STANDARD
100
AcDbAlignedDimension
 13
79.5
 23
212.0
 33
0.0
 14
79.5
 24
168.0
 34
0.0
 50
90.0
100
AcDbRotatedDimension
1001
ACAD
1000
DSTYLE
1002
{
1070
    41
1040
2.5
1070
    42
1040
0.5
1070
    43
1040
10.0
1070
    44
1040
0.5
1070
    73
1070
     0
1070
    74
1070
     0
1070
    77
1070
     1
1070
   140
1040
4.0
1070
   141
1040
0.0
1070
   147
1040
0.5
1070
   173
1070
     1
1070
   271
1070
     0
1070
   272
1070
     0
1070
   341
1005
BA
1070
   343
1005
BA
1070
   344
1005
BA
1002
}
  0
DIMENSION
  5
B123
330
1A
100
AcDbEntity
  8
SUNPOU
100
AcDbDimension
  2
*D32
 10
151.6
 20
160.0
 30
0.0
 11
161.0047619047618
 21
162.5
 31
0.0
 70
    32
 71
     5
 42
1.599999999999965
  3
STANDARD
100
AcDbAlignedDimension
 13
150.0
 23
168.0
 33
0.0
 14
151.6
 24
168.0
 34
0.0
100
AcDbRotatedDimension
1001
ACAD
1000
DSTYLE
1002
{
1070
    41
1040
2.5
1070
    42
1040
0.5
1070
    43
1040
10.0
1070
    44
1040
0.5
1070
    73
1070
     0
1070
    74
1070
     0
1070
    77
1070
     1
1070
   140
1040
4.0
1070
   141
1040
0.0
1070
   147
1040
0.5
1070
   173
1070
     1
1070
   271
1070
     1
1070
   272
1070
     0
1070
   341
1005
BA
1070
   343
1005
BA
1070
   344
1005
BA
1002
}
  0
HATCH
  5
B186
330
1A
100
AcDbEntity
  8
SUNPOU
100
AcDbHatch
 10
0.0
 20
0.0
 30
0.0
210
0.0
220
0.0
230
1.0
  2
ANSI31
 70
     0
 71
     1
 91
        1
 92
        1
 93
        4
 72
     1
 10
150.0
 20
212.0
 11
151.6
 21
212.0
 72
     1
 10
151.6
 20
212.0
 11
151.6
 21
168.0
 72
     1
 10
151.6
 20
168.0
 11
150.0
 21
168.0
 72
     1
 10
150.0
 20
168.0
 11
150.0
 21
212.0
 97
        4
330
AF89
330
AF8A
330
AF88
330
AF8B
 75
     0
 76
     1
 52
0.0
 41
1.0
 77
     0
 78
     1
 53
45.0
 43
0.0
 44
25.0
 45
-2.245064030267287
 46
2.245064030267288
 79
     0
 98
        1
 10
0.0
 20
25.0
  0
TEXT
  5
B1E0
330
1A
100
AcDbEntity
  8
0
100
AcDbText
 10
65.5
 20
63.0
 30
0.0
 40
3.0
  1
PHコネクタ
100
AcDbText
  0
LINE
  5
B38C
330
1A
100
AcDbEntity
  8
0
100
AcDbLine
 10
158.0
 20
81.5
 30
0.0
 11
140.0
 21
81.50000000000003
 31
0.0
  0
LINE
  5
B38D
330
1A
100
AcDbEntity
  8
0
100
AcDbLine
 10
140.0
 20
81.50000000000003
 30
0.0
 11
140.0
 21
68.50000000000003
 31
0.0
  0
LINE
  5
B38E
102
{ACAD_REACTORS
330
B585
102
}
330
1A
100
AcDbEntity
  8
0
100
AcDbLine
 10
140.0
 20
68.50000000000003
 30
0.0
 11
150.0
 21
68.5
 31
0.0
  0
LINE
  5
B38F
330
1A
100
AcDbEntity
  8
0
100
AcDbLine
 10
158.0
 20
71.0
 30
0.0
 11
158.0
 21
81.5
 31
0.0
  0
LINE
  5
B391
330
1A
100
AcDbEntity
  8
SUNPOU
100
AcDbLine
 10
144.55
 20
79.75000000000003
 30
0.0
 11
144.55
 21
70.25000000000003
 31
0.0
  0
LINE
  5
B392
330
1A
100
AcDbEntity
  8
SUNPOU
100
AcDbLine
 10
144.55
 20
70.25000000000003
 30
0.0
 11
140.5
 21
70.25000000000003
 31
0.0
  0
LINE
  5
B393
330
1A
100
AcDbEntity
  8
SUNPOU
100
AcDbLine
 10
140.5
 20
70.25000000000003
 30
0.0
 11
140.5
 21
79.75000000000003
 31
0.0
  0
LINE
  5
B394
330
1A
100
AcDbEntity
  8
SUNPOU
100
AcDbLine
 10
140.5
 20
79.75000000000003
 30
0.0
 11
144.55
 21
79.75000000000003
 31
0.0
  0
ARC
  5
B395
330
1A
100
AcDbEntity
  8
0
100
AcDbCircle
 10
155.0
 20
80.0
 30
0.0
 40
0.4
100
AcDbArc
 50
90.0
 51
270.0
  0
ARC
  5
B396
330
1A
100
AcDbEntity
  8
0
100
AcDbCircle
 10
156.5
 20
80.0
 30
0.0
 40
0.4
100
AcDbArc
 50
270.0
 51
90.0
  0
LINE
  5
B397
330
1A
100
AcDbEntity
  8
0
100
AcDbLine
 10
155.0
 20
80.4
 30
0.0
 11
156.5
 21
80.4
 31
0.0
  0
LINE
  5
B399
330
1A
100
AcDbEntity
  8
0
100
AcDbLine
 10
156.5
 20
79.59999999999999
 30
0.0
 11
155.0
 21
79.59999999999999
 31
0.0
  0
ARC
  5
B39E
330
1A
100
AcDbEntity
  8
0
100
AcDbCircle
 10
154.0
 20
72.0
 30
0.0
 40
0.75
100
AcDbArc
 50
90.0
 51
270.0
  0
ARC
  5
B39F
330
1A
100
AcDbEntity
  8
0
100
AcDbCircle
 10
156.5
 20
72.0
 30
0.0
 40
0.75
100
AcDbArc
 50
270.0
 51
90.0
  0
LINE
  5
B3A1
330
1A
100
AcDbEntity
  8
0
100
AcDbLine
 10
154.0
 20
72.75
 30
0.0
 11
156.5
 21
72.75
 31
0.0
  0
LINE
  5
B3A3
330
1A
100
AcDbEntity
  8
0
100
AcDbLine
 10
156.5
 20
71.25
 30
0.0
 11
154.0
 21
71.25
 31
0.0
  0
LINE
  5
B3CF
330
1A
100
AcDbEntity
  8
0
100
AcDbLine
 10
156.5
 20
77.59999999999999
 30
0.0
 11
155.0
 21
77.59999999999999
 31
0.0
  0
LINE
  5
B3D0
330
1A
100
AcDbEntity
  8
0
100
AcDbLine
 10
155.0
 20
78.4
 30
0.0
 11
156.5
 21
78.4
 31
0.0
  0
ARC
  5
B3D1
330
1A
100
AcDbEntity
  8
0
100
AcDbCircle
 10
156.5
 20
78.0
 30
0.0
 40
0.4
100
AcDbArc
 50
270.0
 51
90.0
  0
ARC
  5
B3D2
330
1A
100
AcDbEntity
  8
0
100
AcDbCircle
 10
155.0
 20
78.0
 30
0.0
 40
0.4
100
AcDbArc
 50
90.0
 51
270.0
  0
ARC
  5
B3D3
330
1A
100
AcDbEntity
  8
0
100
AcDbCircle
 10
155.0
 20
74.0
 30
0.0
 40
0.4
100
AcDbArc
 50
90.0
 51
270.0
  0
ARC
  5
B3D4
330
1A
100
AcDbEntity
  8
0
100
AcDbCircle
 10
156.5
 20
74.0
 30
0.0
 40
0.4
100
AcDbArc
 50
270.0
 51
90.0
  0
LINE
  5
B3D5
330
1A
100
AcDbEntity
  8
0
100
AcDbLine
 10
155.0
 20
74.40000000000001
 30
0.0
 11
156.5
 21
74.40000000000001
 31
0.0
  0
LINE
  5
B3D6
330
1A
100
AcDbEntity
  8
0
100
AcDbLine
 10
156.5
 20
73.59999999999999
 30
0.0
 11
155.0
 21
73.59999999999999
 31
0.0
  0
LINE
  5
B3D7
330
1A
100
AcDbEntity
  8
0
100
AcDbLine
 10
156.5
 20
75.59999999999999
 30
0.0
 11
155.0
 21
75.59999999999999
 31
0.0
  0
LINE
  5
B3D8
330
1A
100
AcDbEntity
  8
0
100
AcDbLine
 10
155.0
 20
76.4
 30
0.0
 11
156.5
 21
76.4
 31
0.0
  0
ARC
  5
B3D9
330
1A
100
AcDbEntity
  8
0
100
AcDbCircle
 10
156.5
 20
76.0
 30
0.0
 40
0.4
100
AcDbArc
 50
270.0
 51
90.0
  0
ARC
  5
B3DA
330
1A
100
AcDbEntity
  8
0
100
AcDbCircle
 10
155.0
 20
76.0
 30
0.0
 40
0.4
100
AcDbArc
 50
90.0
 51
270.0
  0
LINE
  5
B3DC
330
1A
100
AcDbEntity
  8
0
100
AcDbLine
 10
124.3
 20
75.40000000000005
 30
0.0
 11
87.30000000000002
 21
75.40000000000006
 31
0.0
  0
LINE
  5
B3DD
330
1A
100
AcDbEntity
  8
0
100
AcDbLine
 10
124.3
 20
74.60000000000004
 30
0.0
 11
87.30000000000002
 21
74.60000000000005
 31
0.0
  0
LINE
  5
B3DE
330
1A
100
AcDbEntity
  8
0
100
AcDbLine
 10
124.3
 20
75.85000000000004
 30
0.0
 11
86.45000000000001
 21
75.85000000000005
 31
0.0
  0
LINE
  5
B3DF
330
1A
100
AcDbEntity
  8
0
100
AcDbLine
 10
124.3
 20
76.65000000000005
 30
0.0
 11
86.78137084989847
 21
76.65000000000006
 31
0.0
  0
LINE
  5
B3E2
330
1A
100
AcDbEntity
  8
0
100
AcDbLine
 10
124.3
 20
77.90000000000005
 30
0.0
 11
88.35979797464469
 21
77.90000000000006
 31
0.0
  0
LINE
  5
B3E3
330
1A
100
AcDbEntity
  8
0
100
AcDbLine
 10
124.3
 20
77.10000000000004
 30
0.0
 11
88.02842712474619
 21
77.10000000000005
 31
0.0
  0
LINE
  5
B3E5
330
1A
100
AcDbEntity
  8
0
100
AcDbLine
 10
124.3
 20
74.15000000000006
 30
0.0
 11
86.45000000000001
 21
74.15000000000006
 31
0.0
  0
LINE
  5
B3E6
330
1A
100
AcDbEntity
  8
0
100
AcDbLine
 10
124.3
 20
73.35000000000005
 30
0.0
 11
86.78137084989847
 21
73.35000000000005
 31
0.0
  0
LINE
  5
B3E7
330
1A
100
AcDbEntity
  8
0
100
AcDbLine
 10
124.3
 20
72.10000000000005
 30
0.0
 11
88.35979797464469
 21
72.10000000000005
 31
0.0
  0
LINE
  5
B3E8
330
1A
100
AcDbEntity
  8
0
100
AcDbLine
 10
124.3
 20
72.90000000000006
 30
0.0
 11
88.02842712474619
 21
72.90000000000006
 31
0.0
  0
LINE
  5
B3EA
330
1A
100
AcDbEntity
  8
0
100
AcDbLine
 10
130.0
 20
78.75000000000004
 30
0.0
 11
124.3
 21
78.75000000000004
 31
0.0
  0
LINE
  5
B3EB
330
1A
100
AcDbEntity
  8
0
100
AcDbLine
 10
124.3
 20
78.75000000000004
 30
0.0
 11
124.3
 21
71.25000000000006
 31
0.0
  0
LINE
  5
B3EC
330
1A
100
AcDbEntity
  8
0
100
AcDbLine
 10
124.3
 20
71.25000000000006
 30
0.0
 11
130.0
 21
71.25000000000003
 31
0.0
  0
LINE
  5
B3ED
330
1A
100
AcDbEntity
  8
0
100
AcDbLine
 10
130.0
 20
71.25000000000003
 30
0.0
 11
130.0
 21
78.75000000000004
 31
0.0
  0
LINE
  5
B3EE
330
1A
100
AcDbEntity
  8
0
100
AcDbLine
 10
130.0
 20
76.65000000000005
 30
0.0
 11
124.3
 21
76.65000000000005
 31
0.0
  0
LINE
  5
B3EF
330
1A
100
AcDbEntity
  8
0
100
AcDbLine
 10
130.0
 20
73.35000000000002
 30
0.0
 11
124.3
 21
73.35000000000005
 31
0.0
  0
LINE
  5
B3F0
330
1A
100
AcDbEntity
  8
0
100
AcDbLine
 10
125.0
 20
76.65000000000005
 30
0.0
 11
125.0
 21
73.35000000000005
 31
0.0
  0
LINE
  5
B3F1
330
1A
100
AcDbEntity
  8
0
100
AcDbLine
 10
124.3
 20
77.50000000000004
 30
0.0
 11
125.3
 21
77.50000000000004
 31
0.0
  0
LINE
  5
B3F2
330
1A
100
AcDbEntity
  8
0
100
AcDbLine
 10
125.3
 20
77.50000000000004
 30
0.0
 11
125.3
 21
78.25000000000004
 31
0.0
  0
LINE
  5
B3F3
330
1A
100
AcDbEntity
  8
0
100
AcDbLine
 10
125.3
 20
78.25000000000004
 30
0.0
 11
130.0
 21
78.25000000000004
 31
0.0
  0
LINE
  5
B3F4
330
1A
100
AcDbEntity
  8
0
100
AcDbLine
 10
124.3
 20
72.50000000000006
 30
0.0
 11
125.3
 21
72.50000000000006
 31
0.0
  0
LINE
  5
B3F5
330
1A
100
AcDbEntity
  8
0
100
AcDbLine
 10
125.3
 20
72.50000000000006
 30
0.0
 11
125.3
 21
71.75000000000006
 31
0.0
  0
LINE
  5
B3F6
330
1A
100
AcDbEntity
  8
0
100
AcDbLine
 10
125.3
 20
71.75000000000006
 30
0.0
 11
130.0
 21
71.75000000000003
 31
0.0
  0
LINE
  5
B3F7
330
1A
100
AcDbEntity
  8
SUNPOU
100
AcDbLine
 10
124.4999999999999
 20
76.50000000000004
 30
0.0
 11
124.5
 21
76.00000000000004
 31
0.0
  0
LINE
  5
B3F8
330
1A
100
AcDbEntity
  8
SUNPOU
100
AcDbLine
 10
125.0
 20
76.50000000000005
 30
0.0
 11
124.5
 21
76.50000000000004
 31
0.0
  0
LINE
  5
B3F9
330
1A
100
AcDbEntity
  8
SUNPOU
100
AcDbLine
 10
125.0
 20
76.00000000000004
 30
0.0
 11
124.5
 21
76.00000000000004
 31
0.0
  0
TEXT
  5
B3FA
330
1A
100
AcDbEntity
  8
0
100
AcDbText
 10
126.8
 20
85.25000000000003
 30
0.0
 40
2.0
  1
1pin
 50
270.0
100
AcDbText
  0
LINE
  5
B42D
330
1A
100
AcDbEntity
  8
0
100
AcDbLine
 10
135.75
 20
74.00000000000003
 30
0.0
 11
131.0
 21
74.00000000000003
 31
0.0
  0
LINE
  5
B42E
330
1A
100
AcDbEntity
  8
0
100
AcDbLine
 10
135.75
 20
76.00000000000003
 30
0.0
 11
131.0
 21
76.00000000000003
 31
0.0
  0
LINE
  5
B42F
330
1A
100
AcDbEntity
  8
0
100
AcDbLine
 10
131.0
 20
74.00000000000003
 30
0.0
 11
131.0
 21
76.00000000000003
 31
0.0
  0
LINE
  5
B430
330
1A
100
AcDbEntity
  8
0
100
AcDbLine
 10
135.75
 20
76.00000000000003
 30
0.0
 11
135.75
 21
77.16506350946113
 31
0.0
  0
LINE
  5
B431
330
1A
100
AcDbEntity
  8
0
100
AcDbLine
 10
135.75
 20
77.16506350946113
 30
0.0
 11
139.5
 21
75.00000000000003
 31
0.0
  0
LINE
  5
B432
330
1A
100
AcDbEntity
  8
0
100
AcDbLine
 10
139.5
 20
75.00000000000003
 30
0.0
 11
135.75
 21
72.83493649053892
 31
0.0
  0
LINE
  5
B433
330
1A
100
AcDbEntity
  8
0
100
AcDbLine
 10
135.75
 20
72.83493649053892
 30
0.0
 11
135.75
 21
74.00000000000003
 31
0.0
  0
LINE
  5
B434
330
1A
100
AcDbEntity
  8
0
100
AcDbLine
 10
74.0
 20
69.00000000000005
 30
0.0
 11
74.00000000000002
 21
81.00000000000006
 31
0.0
  0
LINE
  5
B435
330
1A
100
AcDbEntity
  8
0
100
AcDbLine
 10
74.5
 20
69.00000000000005
 30
0.0
 11
74.50000000000001
 21
81.00000000000006
 31
0.0
  0
LINE
  5
B436
330
1A
100
AcDbEntity
  8
0
100
AcDbLine
 10
68.0
 20
70.00000000000006
 30
0.0
 11
68.00000000000001
 21
80.00000000000005
 31
0.0
  0
LINE
  5
B437
330
1A
100
AcDbEntity
  8
0
100
AcDbLine
 10
74.5
 20
69.00000000000005
 30
0.0
 11
74.0
 21
69.00000000000005
 31
0.0
  0
LINE
  5
B438
330
1A
100
AcDbEntity
  8
0
100
AcDbLine
 10
73.0
 20
70.00000000000006
 30
0.0
 11
68.0
 21
70.00000000000006
 31
0.0
  0
LINE
  5
B439
330
1A
100
AcDbEntity
  8
0
100
AcDbLine
 10
74.50000000000001
 20
81.00000000000006
 30
0.0
 11
74.00000000000002
 21
81.00000000000006
 31
0.0
  0
LINE
  5
B43A
330
1A
100
AcDbEntity
  8
0
100
AcDbLine
 10
73.00000000000001
 20
80.00000000000005
 30
0.0
 11
68.00000000000001
 21
80.00000000000005
 31
0.0
  0
LINE
  5
B43B
330
1A
100
AcDbEntity
  8
0
100
AcDbLine
 10
74.00000000000002
 20
81.00000000000006
 30
0.0
 11
73.00000000000001
 21
80.00000000000005
 31
0.0
  0
LINE
  5
B43C
330
1A
100
AcDbEntity
  8
0
100
AcDbLine
 10
73.0
 20
70.00000000000006
 30
0.0
 11
74.0
 21
69.00000000000005
 31
0.0
  0
TEXT
  5
B43D
330
1A
100
AcDbEntity
  8
0
100
AcDbText
 10
69.50000000000001
 20
86.50000000000007
 30
0.0
 40
2.0
  1
1pin
 50
270.0
100
AcDbText
  0
LINE
  5
B451
330
1A
100
AcDbEntity
  8
0
100
AcDbLine
 10
86.85979797464469
 20
79.40000000000006
 30
0.0
 11
74.5
 21
79.40000000000006
 31
0.0
  0
LINE
  5
B452
330
1A
100
AcDbEntity
  8
0
100
AcDbLine
 10
86.52842712474622
 20
78.60000000000005
 30
0.0
 11
74.5
 21
78.60000000000005
 31
0.0
  0
LINE
  5
B453
330
1A
100
AcDbEntity
  8
0
100
AcDbLine
 10
86.03137084989851
 20
77.40000000000005
 30
0.0
 11
74.5
 21
77.40000000000006
 31
0.0
  0
LINE
  5
B454
330
1A
100
AcDbEntity
  8
0
100
AcDbLine
 10
85.70000000000005
 20
76.60000000000003
 30
0.0
 11
74.5
 21
76.60000000000005
 31
0.0
  0
LINE
  5
B455
330
1A
100
AcDbEntity
  8
0
100
AcDbLine
 10
111.5
 20
75.40000000000005
 30
0.0
 11
74.5
 21
75.40000000000006
 31
0.0
  0
LINE
  5
B456
330
1A
100
AcDbEntity
  8
0
100
AcDbLine
 10
111.5
 20
74.60000000000004
 30
0.0
 11
74.5
 21
74.60000000000005
 31
0.0
  0
LINE
  5
B457
330
1A
100
AcDbEntity
  8
0
100
AcDbLine
 10
85.70000000000002
 20
73.40000000000006
 30
0.0
 11
74.5
 21
73.40000000000006
 31
0.0
  0
LINE
  5
B458
330
1A
100
AcDbEntity
  8
0
100
AcDbLine
 10
86.03137084989848
 20
72.60000000000005
 30
0.0
 11
74.5
 21
72.60000000000005
 31
0.0
  0
LINE
  5
B459
330
1A
100
AcDbEntity
  8
0
100
AcDbLine
 10
86.85979797464469
 20
70.60000000000004
 30
0.0
 11
74.5
 21
70.60000000000005
 31
0.0
  0
LINE
  5
B45A
330
1A
100
AcDbEntity
  8
0
100
AcDbLine
 10
86.52842712474621
 20
71.40000000000006
 30
0.0
 11
74.5
 21
71.40000000000006
 31
0.0
  0
LINE
  5
B462
330
1A
100
AcDbEntity
  8
0
100
AcDbLine
 10
86.85979797464469
 20
79.40000000000006
 30
0.0
 11
88.35979797464469
 21
77.90000000000006
 31
0.0
  0
LINE
  5
B463
330
1A
100
AcDbEntity
  8
0
100
AcDbLine
 10
86.52842712474621
 20
78.60000000000005
 30
0.0
 11
88.02842712474619
 21
77.10000000000005
 31
0.0
  0
LINE
  5
B464
330
1A
100
AcDbEntity
  8
0
100
AcDbLine
 10
85.70000000000002
 20
76.60000000000005
 30
0.0
 11
86.45000000000001
 21
75.85000000000005
 31
0.0
  0
LINE
  5
B465
330
1A
100
AcDbEntity
  8
0
100
AcDbLine
 10
86.03137084989848
 20
77.40000000000006
 30
0.0
 11
86.78137084989847
 21
76.65000000000006
 31
0.0
  0
LINE
  5
B466
330
1A
100
AcDbEntity
  8
0
100
AcDbLine
 10
86.03137084989848
 20
72.60000000000005
 30
0.0
 11
86.78137084989847
 21
73.35000000000005
 31
0.0
  0
LINE
  5
B467
330
1A
100
AcDbEntity
  8
0
100
AcDbLine
 10
85.70000000000002
 20
73.40000000000006
 30
0.0
 11
86.45000000000001
 21
74.15000000000006
 31
0.0
  0
LINE
  5
B468
330
1A
100
AcDbEntity
  8
0
100
AcDbLine
 10
86.52842712474621
 20
71.40000000000006
 30
0.0
 11
88.02842712474619
 21
72.90000000000006
 31
0.0
  0
LINE
  5
B469
330
1A
100
AcDbEntity
  8
0
100
AcDbLine
 10
86.85979797464469
 20
70.60000000000004
 30
0.0
 11
88.35979797464469
 21
72.10000000000005
 31
0.0
  0
TEXT
  5
B472
330
1A
100
AcDbEntity
  8
0
100
AcDbText
 10
72.5
 20
50.00000000000001
 30
0.0
 40
2.0
  1
1pin
 50
270.0
100
AcDbText
  0
LINE
  5
B475
330
1A
100
AcDbEntity
  8
0
100
AcDbLine
 10
157.5
 20
40.59999999999999
 30
0.0
 11
77.49999999999999
 21
40.60000000000002
 31
0.0
  0
LINE
  5
B476
330
1A
100
AcDbEntity
  8
0
100
AcDbLine
 10
157.5
 20
41.4
 30
0.0
 11
77.49999999999999
 21
41.40000000000003
 31
0.0
  0
LINE
  5
B477
330
1A
100
AcDbEntity
  8
0
100
AcDbLine
 10
157.5
 20
38.1
 30
0.0
 11
77.49999999999999
 21
38.10000000000002
 31
0.0
  0
LINE
  5
B478
330
1A
100
AcDbEntity
  8
0
100
AcDbLine
 10
157.5
 20
38.9
 30
0.0
 11
77.49999999999999
 21
38.90000000000004
 31
0.0
  0
LINE
  5
B479
330
1A
100
AcDbEntity
  8
0
100
AcDbLine
 10
157.5
 20
31.40000000000001
 30
0.0
 11
77.49999999999999
 21
31.40000000000004
 31
0.0
  0
LINE
  5
B47A
330
1A
100
AcDbEntity
  8
0
100
AcDbLine
 10
157.5
 20
30.6
 30
0.0
 11
77.49999999999999
 21
30.60000000000002
 31
0.0
  0
LINE
  5
B47D
330
1A
100
AcDbEntity
  8
0
100
AcDbLine
 10
157.5
 20
33.90000000000001
 30
0.0
 11
77.49999999999999
 21
33.90000000000004
 31
0.0
  0
LINE
  5
B47E
330
1A
100
AcDbEntity
  8
0
100
AcDbLine
 10
157.5
 20
33.1
 30
0.0
 11
77.49999999999999
 21
33.10000000000002
 31
0.0
  0
LINE
  5
B47F
330
1A
100
AcDbEntity
  8
0
100
AcDbLine
 10
157.5
 20
35.6
 30
0.0
 11
77.49999999999999
 21
35.60000000000002
 31
0.0
  0
LINE
  5
B480
330
1A
100
AcDbEntity
  8
0
100
AcDbLine
 10
157.5
 20
36.40000000000001
 30
0.0
 11
77.49999999999999
 21
36.40000000000004
 31
0.0
  0
LINE
  5
B481
330
1A
100
AcDbEntity
  8
0
100
AcDbLine
 10
76.49999999999998
 20
41.90000000000003
 30
0.0
 11
76.49999999999995
 21
30.09999999999997
 31
0.0
  0
LINE
  5
B482
330
1A
100
AcDbEntity
  8
0
100
AcDbLine
 10
68.49999999999996
 20
29.1
 30
0.0
 11
68.49999999999998
 21
42.90000000000003
 31
0.0
  0
LINE
  5
B483
330
1A
100
AcDbEntity
  8
0
100
AcDbLine
 10
76.49999999999998
 20
42.9
 30
0.0
 11
76.49999999999998
 21
43.40000000000003
 31
0.0
  0
LINE
  5
B484
330
1A
100
AcDbEntity
  8
0
100
AcDbLine
 10
77.49999999999999
 20
41.90000000000003
 30
0.0
 11
68.49999999999998
 21
41.90000000000003
 31
0.0
  0
LINE
  5
B485
330
1A
100
AcDbEntity
  8
0
100
AcDbLine
 10
77.49999999999999
 20
30.09999999999997
 30
0.0
 11
68.49999999999996
 21
30.1
 31
0.0
  0
LINE
  5
B486
330
1A
100
AcDbEntity
  8
0
100
AcDbLine
 10
68.49999999999998
 20
42.9
 30
0.0
 11
67.99999999999998
 21
42.40000000000001
 31
0.0
  0
LINE
  5
B487
330
1A
100
AcDbEntity
  8
0
100
AcDbLine
 10
68.49999999999996
 20
29.1
 30
0.0
 11
67.99999999999998
 21
29.59999999999999
 31
0.0
  0
LINE
  5
B488
330
1A
100
AcDbEntity
  8
0
100
AcDbLine
 10
76.49999999999998
 20
42.90000000000003
 30
0.0
 11
68.49999999999998
 21
42.90000000000003
 31
0.0
  0
LINE
  5
B489
330
1A
100
AcDbEntity
  8
0
100
AcDbLine
 10
76.49999999999995
 20
29.09999999999996
 30
0.0
 11
68.49999999999996
 21
29.1
 31
0.0
  0
LINE
  5
B48A
330
1A
100
AcDbEntity
  8
0
100
AcDbLine
 10
76.49999999999998
 20
28.59999999999999
 30
0.0
 11
76.49999999999998
 21
29.1
 31
0.0
  0
LINE
  5
B48B
330
1A
100
AcDbEntity
  8
0
100
AcDbLine
 10
77.49999999999999
 20
43.40000000000003
 30
0.0
 11
76.49999999999998
 21
43.40000000000003
 31
0.0
  0
LINE
  5
B48C
330
1A
100
AcDbEntity
  8
0
100
AcDbLine
 10
77.49999999999999
 20
28.59999999999999
 30
0.0
 11
76.49999999999998
 21
28.60000000000002
 31
0.0
  0
LINE
  5
B48D
330
1A
100
AcDbEntity
  8
0
100
AcDbLine
 10
67.99999999999998
 20
29.59999999999999
 30
0.0
 11
67.99999999999998
 21
42.40000000000001
 31
0.0
  0
LINE
  5
B48E
330
1A
100
AcDbEntity
  8
0
100
AcDbLine
 10
77.49999999999999
 20
28.59999999999999
 30
0.0
 11
77.49999999999999
 21
43.40000000000003
 31
0.0
  0
DIMENSION
  5
B48F
330
1A
100
AcDbEntity
  8
SUNPOU
100
AcDbDimension
  2
*D33
 10
77.49999999999999
 20
48.5
 30
0.0
 11
117.5
 21
50.5
 31
0.0
 70
    32
  1
200
 71
     5
 42
79.99999999999999
  3
STANDARD
100
AcDbAlignedDimension
 13
157.5
 23
41.4
 33
0.0
 14
77.49999999999999
 24
41.40000000000003
 34
0.0
100
AcDbRotatedDimension
1001
ACAD
1000
DSTYLE
1002
{
1070
   140
1040
3.0
1070
    74
1070
     0
1070
    73
1070
     0
1070
   272
1070
     0
1070
    77
1070
     1
1070
   173
1070
     1
1070
   147
1040
0.5
1070
    42
1040
0.5
1070
    44
1040
0.5
1070
    43
1040
10.0
1070
   271
1070
     0
1070
   141
1040
0.0
1070
     7
1000
_OPEN
1070
     6
1000
_OPEN
1070
    41
1040
2.5
1002
}
  0
LINE
  5
B529
330
1A
100
AcDbEntity
  8
0
100
AcDbLine
 10
87.0
 20
132.3
 30
0.0
 11
87.0
 21
145.0
 31
0.0
  0
LINE
  5
B52A
330
1A
100
AcDbEntity
  8
0
100
AcDbLine
 10
87.0
 20
145.0
 30
0.0
 11
45.0
 21
145.0
 31
0.0
  0
LINE
  5
B52B
330
1A
100
AcDbEntity
  8
0
100
AcDbLine
 10
45.0
 20
145.0
 30
0.0
 11
44.99999999999999
 21
75.00000000000006
 31
0.0
  0
LINE
  5
B52C
330
1A
100
AcDbEntity
  8
0
100
AcDbLine
 10
116.5
 20
132.3
 30
0.0
 11
116.5
 21
150.0
 31
0.0
  0
LINE
  5
B52D
330
1A
100
AcDbEntity
  8
0
100
AcDbLine
 10
116.5
 20
150.0
 30
0.0
 11
40.0
 21
150.0
 31
0.0
  0
LINE
  5
B52E
330
1A
100
AcDbEntity
  8
0
100
AcDbLine
 10
40.0
 20
150.0
 30
0.0
 11
39.99999999999999
 21
36.0
 31
0.0
  0
LINE
  5
B52F
330
1A
100
AcDbEntity
  8
0
100
AcDbLine
 10
66.0
 20
75.00000000000006
 30
0.0
 11
44.99999999999999
 21
75.00000000000006
 31
0.0
  0
LINE
  5
B530
330
1A
100
AcDbEntity
  8
0
100
AcDbLine
 10
65.99999999999998
 20
36.0
 30
0.0
 11
39.99999999999998
 21
36.0
 31
0.0
  0
LINE
  5
B53A
330
1A
100
AcDbEntity
  8
0
100
AcDbLine
 10
118.0
 20
135.3
 30
0.0
 11
116.5
 21
132.3
 31
0.0
  0
LINE
  5
B53B
330
1A
100
AcDbEntity
  8
0
100
AcDbLine
 10
116.5
 20
132.3
 30
0.0
 11
115.0
 21
135.3
 31
0.0
  0
LINE
  5
B53D
330
1A
100
AcDbEntity
  8
0
100
AcDbLine
 10
87.0
 20
132.3
 30
0.0
 11
85.5
 21
135.3
 31
0.0
  0
LINE
  5
B53E
330
1A
100
AcDbEntity
  8
0
100
AcDbLine
 10
88.49999999999999
 20
135.3
 30
0.0
 11
87.0
 21
132.3
 31
0.0
  0
LINE
  5
B540
330
1A
100
AcDbEntity
  8
0
100
AcDbLine
 10
150.0
 20
71.0
 30
0.0
 11
170.5
 21
71.0
 31
0.0
  0
LINE
  5
B541
330
1A
100
AcDbEntity
  8
0
100
AcDbLine
 10
150.0
 20
68.0
 30
0.0
 11
170.5
 21
68.0
 31
0.0
  0
LINE
  5
B542
330
1A
100
AcDbEntity
  8
0
100
AcDbLine
 10
150.0
 20
68.0
 30
0.0
 11
150.0
 21
71.0
 31
0.0
  0
LINE
  5
B544
330
1A
100
AcDbEntity
  8
0
100
AcDbLine
 10
154.6
 20
80.0
 30
0.0
 11
148.5
 21
80.0
 31
0.0
  0
LINE
  5
B545
330
1A
100
AcDbEntity
  8
0
100
AcDbLine
 10
154.6
 20
78.0
 30
0.0
 11
149.0
 21
77.99999999999998
 31
0.0
  0
LINE
  5
B548
330
1A
100
AcDbEntity
  8
0
100
AcDbLine
 10
154.6
 20
74.0
 30
0.0
 11
150.0
 21
74.0
 31
0.0
  0
LINE
  5
B549
330
1A
100
AcDbEntity
  8
0
100
AcDbLine
 10
154.6
 20
76.0
 30
0.0
 11
149.5
 21
76.0
 31
0.0
  0
LINE
  5
B54A
330
1A
100
AcDbEntity
  8
0
100
AcDbLine
 10
150.0
 20
70.5
 30
0.0
 11
150.0
 21
70.5
 31
0.0
  0
LINE
  5
B54B
330
1A
100
AcDbEntity
  8
0
100
AcDbLine
 10
150.0
 20
70.0
 30
0.0
 11
149.5
 21
70.0
 31
0.0
  0
LINE
  5
B54C
330
1A
100
AcDbEntity
  8
0
100
AcDbLine
 10
150.0
 20
69.0
 30
0.0
 11
148.5
 21
69.0
 31
0.0
  0
LINE
  5
B54D
330
1A
100
AcDbEntity
  8
0
100
AcDbLine
 10
150.0
 20
69.5
 30
0.0
 11
149.0
 21
69.5
 31
0.0
  0
LINE
  5
B54E
330
1A
100
AcDbEntity
  8
0
100
AcDbLine
 10
149.0
 20
73.0
 30
0.0
 11
149.0
 21
71.5
 31
0.0
  0
LINE
  5
B54F
330
1A
100
AcDbEntity
  8
0
100
AcDbLine
 10
148.5
 20
75.0
 30
0.0
 11
148.5
 21
71.0
 31
0.0
  0
LINE
  5
B550
330
1A
100
AcDbEntity
  8
0
100
AcDbLine
 10
147.9999999999999
 20
76.99999999999999
 30
0.0
 11
148.0
 21
70.5
 31
0.0
  0
LINE
  5
B551
330
1A
100
AcDbEntity
  8
0
100
AcDbLine
 10
147.5
 20
79.0
 30
0.0
 11
147.5
 21
70.0
 31
0.0
  0
ARC
  5
B552
330
1A
100
AcDbEntity
  8
0
100
AcDbCircle
 10
148.5
 20
79.0
 30
0.0
 40
1.0
100
AcDbArc
 50
90.0
 51
180.0
  0
ARC
  5
B553
330
1A
100
AcDbEntity
  8
0
100
AcDbCircle
 10
149.0
 20
76.99999999999999
 30
0.0
 40
1.0
100
AcDbArc
 50
90.0
 51
180.0
  0
ARC
  5
B554
330
1A
100
AcDbEntity
  8
0
100
AcDbCircle
 10
149.5
 20
75.0
 30
0.0
 40
1.0
100
AcDbArc
 50
90.0
 51
180.0
  0
ARC
  5
B555
330
1A
100
AcDbEntity
  8
0
100
AcDbCircle
 10
150.0
 20
73.0
 30
0.0
 40
1.0
100
AcDbArc
 50
90.0
 51
180.0
  0
ARC
  5
B556
330
1A
100
AcDbEntity
  8
0
100
AcDbCircle
 10
150.0
 20
71.5
 30
0.0
 40
1.0
100
AcDbArc
 50
180.0
 51
270.0
  0
ARC
  5
B557
330
1A
100
AcDbEntity
  8
0
100
AcDbCircle
 10
149.5
 20
71.0
 30
0.0
 40
1.0
100
AcDbArc
 50
180.0
 51
270.0
  0
ARC
  5
B558
330
1A
100
AcDbEntity
  8
0
100
AcDbCircle
 10
149.0
 20
70.5
 30
0.0
 40
1.0
100
AcDbArc
 50
180.0000000000002
 51
270.0
  0
ARC
  5
B559
330
1A
100
AcDbEntity
  8
0
100
AcDbCircle
 10
148.5
 20
70.0
 30
0.0
 40
1.0
100
AcDbArc
 50
180.0
 51
270.0
  0
LINE
  5
B55E
330
1A
100
AcDbEntity
  8
0
100
AcDbLine
 10
146.3385621722339
 20
68.75
 30
0.0
 11
145.0
 21
68.75
 31
0.0
  0
LINE
  5
B55F
330
1A
100
AcDbEntity
  8
0
100
AcDbLine
 10
145.0
 20
70.25
 30
0.0
 11
147.5
 21
70.25
 31
0.0
  0
ARC
  5
B560
330
1A
100
AcDbEntity
  8
0
100
AcDbCircle
 10
147.5
 20
69.5
 30
0.0
 40
0.75
100
AcDbArc
 50
291.0394697813147
 51
90.0
  0
ARC
  5
B561
330
1A
100
AcDbEntity
  8
0
100
AcDbCircle
 10
145.0
 20
69.5
 30
0.0
 40
0.75
100
AcDbArc
 50
90.0
 51
270.0
  0
LINE
  5
B562
102
{ACAD_REACTORS
330
B585
102
}
330
1A
100
AcDbEntity
  8
0
100
AcDbLine
 10
146.0
 20
69.80000000000001
 30
0.0
 11
146.0
 21
69.50000000000001
 31
0.0
  0
LINE
  5
B564
102
{ACAD_REACTORS
330
B585
102
}
330
1A
100
AcDbEntity
  8
0
100
AcDbLine
 10
146.3
 20
69.80000000000001
 30
0.0
 11
146.3
 21
69.50000000000001
 31
0.0
  0
LINE
  5
B565
102
{ACAD_REACTORS
330
B585
102
}
330
1A
100
AcDbEntity
  8
0
100
AcDbLine
 10
147.0
 20
68.79999999999999
 30
0.0
 11
150.0
 21
68.79999999999999
 31
0.0
  0
LINE
  5
B575
102
{ACAD_REACTORS
330
B585
102
}
330
1A
100
AcDbEntity
  8
0
100
AcDbLine
 10
146.0
 20
69.80000000000001
 30
0.0
 11
146.3
 21
69.80000000000001
 31
0.0
  0
ARC
  5
B579
102
{ACAD_REACTORS
330
B585
102
}
330
1A
100
AcDbEntity
  8
0
100
AcDbCircle
 10
147.0
 20
69.50000000000001
 30
0.0
 40
1.0
100
AcDbArc
 50
180.0
 51
270.0
  0
ARC
  5
B57A
102
{ACAD_REACTORS
330
B585
102
}
330
1A
100
AcDbEntity
  8
0
100
AcDbCircle
 10
147.0
 20
69.50000000000001
 30
0.0
 40
0.7
100
AcDbArc
 50
180.0
 51
270.0
  0
LINE
  5
B57C
102
{ACAD_REACTORS
330
B585
102
}
330
1A
100
AcDbEntity
  8
0
100
AcDbLine
 10
150.0
 20
68.79999999999999
 30
0.0
 11
150.0
 21
68.5
 31
0.0
  0
HATCH
  5
B585
330
1A
100
AcDbEntity
  8
SUNPOU
100
AcDbHatch
 10
0.0
 20
0.0
 30
0.0
210
0.0
220
0.0
230
1.0
  2
ANSI37
 70
     0
 71
     1
 91
        1
 92
        7
 72
     1
 73
     1
 93
        8
 10
150.0
 20
68.79999999999999
 42
0.0
 10
147.0
 20
68.79999999999999
 42
-0.4142135623731011
 10
146.3
 20
69.50000000000001
 42
0.0
 10
146.3
 20
69.80000000000001
 42
0.0
 10
146.0
 20
69.80000000000003
 42
0.0
 10
146.0
 20
69.50000000000001
 42
0.4142135623730951
 10
147.0
 20
68.50000000000001
 42
0.0
 10
150.0
 20
68.5
 42
0.0
 97
        8
330
B565
330
B57A
330
B564
330
B575
330
B562
330
B579
330
B38E
330
B57C
 75
     0
 76
     1
 52
0.0
 41
0.1
 77
     0
 78
     2
 53
45.0
 43
0.0
 44
0.0
 45
-0.2245064030267288
 46
0.2245064030267288
 79
     0
 53
135.0
 43
0.0
 44
0.0
 45
-0.2245064030267288
 46
-0.2245064030267288
 79
     0
 47
0.0117173118578036
 98
        1
 10
147.1218968599963
 20
68.67606204670699
  0
LEADER
  5
B586
330
1A
100
AcDbEntity
  8
SUNPOU
100
AcDbLeader
  3
STANDARD
 73
     0
 40
2.5
 41
23.19047619047618
 76
     3
 10
156.0
 20
82.30000000000002
 30
0.0
 10
163.5
 20
95.5
 30
0.0
 10
166.0
 20
95.5
 30
0.0
340
B587
213
0.0
223
-1.25
233
0.0
1001
ACAD
1000
DSTYLE
1002
{
1070
    41
1040
2.5
1070
    42
1040
0.5
1070
    43
1040
10.0
1070
    44
1040
0.5
1070
    73
1070
     0
1070
    74
1070
     0
1070
    77
1070
     0
1070
   140
1040
2.5
1070
   141
1040
0.0
1070
   147
1040
0.5
1070
   173
1070
     1
1070
   271
1070
     2
1070
   272
1070
     0
1070
   341
1005
BA
1070
   343
1005
BA
1070
   344
1005
BA
1002
}
  0
MTEXT
  5
B587
102
{ACAD_REACTORS
330
B586
102
}
330
1A
100
AcDbEntity
  8
SUNPOU
100
AcDbMText
 10
166.5
 20
96.75
 30
0.0
 40
2.5
 41
0.0
 71
     1
 72
     1
  1
ハンダ付けパッド
 73
     1
 44
1.0
1001
ACAD
1000
MTEXTBEGIN
1070
    73
1070
     1
1070
    44
1040
1.0
1070
    74
1070
     0
1000
MTEXTEND
  0
MTEXT
  5
B588
102
{ACAD_REACTORS
330
B589
102
}
330
1A
100
AcDbEntity
  8
SUNPOU
100
AcDbMText
 10
163.5
 20
63.75
 30
0.0
 40
2.5
 41
0.0
 71
     1
 72
     1
  1
ロードセルケーブル
 73
     1
 44
1.0
1001
ACAD
1000
MTEXTBEGIN
1070
    73
1070
     1
1070
    44
1040
1.0
1070
    74
1070
     0
1000
MTEXTEND
  0
LEADER
  5
B589
330
1A
100
AcDbEntity
  8
SUNPOU
100
AcDbLeader
  3
STANDARD
 73
     0
 40
2.5
 41
26.66666666666668
 76
     3
 10
155.5
 20
68.0
 30
0.0
 10
160.5
 20
62.5
 30
0.0
 10
163.0
 20
62.5
 30
0.0
340
B588
213
0.0
223
-1.25
233
0.0
1001
ACAD
1000
DSTYLE
1002
{
1070
    41
1040
2.5
1070
    42
1040
0.5
1070
    43
1040
10.0
1070
    44
1040
0.5
1070
    73
1070
     0
1070
    74
1070
     0
1070
    77
1070
     0
1070
   140
1040
2.5
1070
   141
1040
0.0
1070
   147
1040
0.5
1070
   173
1070
     1
1070
   271
1070
     2
1070
   272
1070
     0
1070
   341
1005
BA
1070
   343
1005
BA
1070
   344
1005
BA
1002
}
  0
LEADER
  5
B58A
330
1A
100
AcDbEntity
  8
SUNPOU
100
AcDbLeader
  3
STANDARD
 73
     0
 40
3.809523809523811
 41
29.52380952380952
 76
     3
 10
147.0
 20
68.5
 30
0.0
 10
153.0
 20
58.5
 30
0.0
 10
155.5
 20
58.5
 30
0.0
340
B58B
213
0.0
223
-1.25
233
0.0
1001
ACAD
1000
DSTYLE
1002
{
1070
    41
1040
2.5
1070
    42
1040
0.5
1070
    43
1040
10.0
1070
    44
1040
0.5
1070
    73
1070
     0
1070
    74
1070
     0
1070
    77
1070
     0
1070
   140
1040
2.5
1070
   141
1040
0.0
1070
   147
1040
0.5
1070
   173
1070
     1
1070
   271
1070
     2
1070
   272
1070
     0
1070
   341
1005
BA
1070
   343
1005
BA
1070
   344
1005
BA
1002
}
  0
MTEXT
  5
B58B
102
{ACAD_REACTORS
330
B58A
102
}
330
1A
100
AcDbEntity
  8
SUNPOU
100
AcDbMText
 10
156.0
 20
59.75
 30
0.0
 40
2.5
 41
0.0
 71
     1
 72
     1
  1
シールド(ハンダ付け)
 73
     1
 44
1.0
1001
ACAD
1000
MTEXTBEGIN
1070
    73
1070
     1
1070
    44
1040
1.0
1070
    74
1070
     0
1000
MTEXTEND
  0
MTEXT
  5
B58C
102
{ACAD_REACTORS
330
B58D
102
}
330
1A
100
AcDbEntity
  8
SUNPOU
100
AcDbMText
 10
166.5
 20
84.25
 30
0.0
 40
2.5
 41
0.0
 71
     1
 72
     1
  1
結束バンド固定用穴
 73
     1
 44
1.0
1001
ACAD
1000
MTEXTBEGIN
1070
    73
1070
     1
1070
    44
1040
1.0
1070
    74
1070
     0
1000
MTEXTEND
  0
LEADER
  5
B58D
330
1A
100
AcDbEntity
  8
SUNPOU
100
AcDbLeader
  3
STANDARD
 73
     0
 40
2.5
 41
26.99999999999999
 76
     3
 10
156.5
 20
72.0
 30
0.0
 10
163.5
 20
83.0
 30
0.0
 10
166.0
 20
83.0
 30
0.0
340
B58C
213
0.0
223
-1.25
233
0.0
1001
ACAD
1000
DSTYLE
1002
{
1070
    41
1040
2.5
1070
    42
1040
0.5
1070
    43
1040
10.0
1070
    44
1040
0.5
1070
    73
1070
     0
1070
    74
1070
     0
1070
    77
1070
     0
1070
   140
1040
2.5
1070
   141
1040
0.0
1070
   147
1040
0.5
1070
   173
1070
     1
1070
   271
1070
     2
1070
   272
1070
     0
1070
   341
1005
BA
1070
   343
1005
BA
1070
   344
1005
BA
1002
}
  0
DIMENSION
  5
B58E
330
1A
100
AcDbEntity
  8
SUNPOU
100
AcDbDimension
  2
*D34
 10
74.50000000000001
 20
87.60000000000003
 30
0.0
 11
99.40000000000001
 21
89.60000000000002
 31
0.0
 70
    32
  1
50
 71
     5
 42
49.8
  3
STANDARD
100
AcDbAlignedDimension
 13
124.3
 23
78.75000000000004
 33
0.0
 14
74.50000000000001
 24
80.50000000000006
 34
0.0
100
AcDbRotatedDimension
1001
ACAD
1000
DSTYLE
1002
{
1070
   140
1040
3.0
1070
    74
1070
     0
1070
    73
1070
     0
1070
   272
1070
     0
1070
    77
1070
     1
1070
   173
1070
     1
1070
   147
1040
0.5
1070
    42
1040
0.5
1070
    44
1040
0.5
1070
    43
1040
10.0
1070
   271
1070
     0
1070
   141
1040
0.0
1070
     7
1000
_OPEN
1070
     6
1000
_OPEN
1070
    41
1040
2.5
1002
}
  0
TEXT
  5
B5B8
330
1A
100
AcDbEntity
  8
0
100
AcDbText
 10
65.5
 20
22.0
 30
0.0
 40
3.0
  1
XAコネクタ
100
AcDbText
  0
TEXT
  5
B5B9
330
1A
100
AcDbEntity
  8
0
100
AcDbText
 10
120.5
 20
63.0
 30
0.0
 40
3.0
  1
GHコネクタ
100
AcDbText
  0
TEXT
  5
B5BA
330
1A
100
AcDbEntity
  8
0
100
AcDbText
 10
65.5
 20
58.0
 30
0.0
 40
3.0
  1
(2mmピッチ)
100
AcDbText
  0
TEXT
  5
B5BB
330
1A
100
AcDbEntity
  8
0
100
AcDbText
 10
65.5
 20
17.0
 30
0.0
 40
3.0
  1
(2.5mmピッチ)
100
AcDbText
  0
TEXT
  5
B5BC
330
1A
100
AcDbEntity
  8
0
100
AcDbText
 10
117.0
 20
58.0
 30
0.0
 40
3.0
  1
(1.25mmピッチ)
100
AcDbText
  0
LINE
  5
B5C6
330
1A
100
AcDbEntity
  8
KAGESEN
100
AcDbLine
 10
62.00000000000001
 20
93.0
 30
0.0
 11
160.0
 21
93.0
 31
0.0
  0
LINE
  5
B5C7
330
1A
100
AcDbEntity
  8
KAGESEN
100
AcDbLine
 10
160.0
 20
93.0
 30
0.0
 11
159.9999999999999
 21
12.0
 31
0.0
  0
LINE
  5
B5C8
330
1A
100
AcDbEntity
  8
KAGESEN
100
AcDbLine
 10
159.9999999999999
 20
12.0
 30
0.0
 11
62.0
 21
12.00000000000001
 31
0.0
  0
LINE
  5
B5C9
330
1A
100
AcDbEntity
  8
KAGESEN
100
AcDbLine
 10
62.0
 20
12.00000000000001
 30
0.0
 11
62.00000000000001
 21
93.0
 31
0.0
  0
INSERT
  5
B5DF
330
1A
100
AcDbEntity
  8
0
100
AcDbBlockReference
  2
M3-TOP
 10
120.5
 20
190.0
 30
0.0
  0
INSERT
  5
B5E0
330
1A
100
AcDbEntity
  8
0
100
AcDbBlockReference
  2
M3-TOP
 10
83.49999999999999
 20
190.0
 30
0.0
  0
LINE
  5
B641
330
1A
100
AcDbEntity
  8
SUNPOU
100
AcDbLine
 10
246.9
 20
162.05
 30
0.0
 11
249.3999999999999
 21
162.05
 31
0.0
  0
LINE
  5
B642
330
1A
100
AcDbEntity
  8
SUNPOU
100
AcDbLine
 10
246.9
 20
163.05
 30
0.0
 11
249.3999999999999
 21
163.05
 31
0.0
  0
LINE
  5
B643
330
1A
100
AcDbEntity
  8
SUNPOU
100
AcDbLine
 10
246.9
 20
158.0499999999999
 30
0.0
 11
249.3999999999999
 21
158.0499999999999
 31
0.0
  0
LINE
  5
B644
330
1A
100
AcDbEntity
  8
SUNPOU
100
AcDbLine
 10
246.9
 20
157.05
 30
0.0
 11
249.3999999999999
 21
157.05
 31
0.0
  0
LINE
  5
B645
330
1A
100
AcDbEntity
  8
SUNPOU
100
AcDbLine
 10
246.9
 20
152.05
 30
0.0
 11
249.3999999999999
 21
152.05
 31
0.0
  0
LINE
  5
B646
330
1A
100
AcDbEntity
  8
SUNPOU
100
AcDbLine
 10
246.9
 20
153.05
 30
0.0
 11
249.3999999999999
 21
153.05
 31
0.0
  0
LINE
  5
B647
330
1A
100
AcDbEntity
  8
SUNPOU
100
AcDbLine
 10
379.1
 20
153.05
 30
0.0
 11
376.6
 21
153.05
 31
0.0
  0
LINE
  5
B648
330
1A
100
AcDbEntity
  8
SUNPOU
100
AcDbLine
 10
379.1
 20
152.05
 30
0.0
 11
376.6
 21
152.05
 31
0.0
  0
LINE
  5
B649
330
1A
100
AcDbEntity
  8
SUNPOU
100
AcDbLine
 10
379.1
 20
157.05
 30
0.0
 11
376.6
 21
157.05
 31
0.0
  0
LINE
  5
B64A
330
1A
100
AcDbEntity
  8
SUNPOU
100
AcDbLine
 10
379.1
 20
158.0499999999999
 30
0.0
 11
376.6
 21
158.0499999999999
 31
0.0
  0
LINE
  5
B64B
102
{ACAD_REACTORS
330
B654
102
}
330
1A
100
AcDbEntity
  8
SUNPOU
100
AcDbLine
 10
379.1
 20
165.1
 30
0.0
 11
379.1
 21
150.0000000000001
 31
0.0
  0
LINE
  5
B64C
102
{ACAD_REACTORS
330
B654
102
}
330
1A
100
AcDbEntity
  8
SUNPOU
100
AcDbLine
 10
379.9
 20
165.1
 30
0.0
 11
379.8999999999999
 21
150.0000000000001
 31
0.0
  0
LINE
  5
B64D
102
{ACAD_REACTORS
330
B654
102
}
330
1A
100
AcDbEntity
  8
SUNPOU
100
AcDbLine
 10
383.0999999999999
 20
152.55
 30
0.0
 11
379.8999999999999
 21
152.55
 31
0.0
  0
LINE
  5
B64E
102
{ACAD_REACTORS
330
B654
102
}
330
1A
100
AcDbEntity
  8
SUNPOU
100
AcDbLine
 10
379.8999999999999
 20
165.1
 30
0.0
 11
379.1
 21
165.1
 31
0.0
  0
LINE
  5
B64F
102
{ACAD_REACTORS
330
B654
102
}
330
1A
100
AcDbEntity
  8
SUNPOU
100
AcDbLine
 10
379.8999999999999
 20
150.0
 30
0.0
 11
379.1
 21
150.0
 31
0.0
  0
LINE
  5
B650
102
{ACAD_REACTORS
330
B654
102
}
330
1A
100
AcDbEntity
  8
SUNPOU
100
AcDbLine
 10
383.0999999999999
 20
162.55
 30
0.0
 11
383.0999999999999
 21
152.55
 31
0.0
  0
LINE
  5
B651
102
{ACAD_REACTORS
330
B654
102
}
330
1A
100
AcDbEntity
  8
SUNPOU
100
AcDbLine
 10
383.0999999999999
 20
162.55
 30
0.0
 11
379.8999999999999
 21
162.55
 31
0.0
  0
LINE
  5
B652
330
1A
100
AcDbEntity
  8
SUNPOU
100
AcDbLine
 10
379.1
 20
162.05
 30
0.0
 11
376.6
 21
162.05
 31
0.0
  0
LINE
  5
B653
330
1A
100
AcDbEntity
  8
SUNPOU
100
AcDbLine
 10
379.1
 20
163.05
 30
0.0
 11
376.6
 21
163.05
 31
0.0
  0
LINE
  5
B658
330
1A
100
AcDbEntity
  8
SUNPOU
100
AcDbLine
 10
154.0999999999999
 20
177.05
 30
0.0
 11
151.6
 21
177.05
 31
0.0
  0
LINE
  5
B659
330
1A
100
AcDbEntity
  8
SUNPOU
100
AcDbLine
 10
154.0999999999999
 20
178.05
 30
0.0
 11
151.6
 21
178.05
 31
0.0
  0
LINE
  5
B65A
330
1A
100
AcDbEntity
  8
SUNPOU
100
AcDbLine
 10
154.0999999999999
 20
182.05
 30
0.0
 11
151.6
 21
182.05
 31
0.0
  0
LINE
  5
B65B
330
1A
100
AcDbEntity
  8
SUNPOU
100
AcDbLine
 10
154.0999999999999
 20
183.0499999999999
 30
0.0
 11
151.6
 21
183.0499999999999
 31
0.0
  0
LINE
  5
B65C
330
1A
100
AcDbEntity
  8
SUNPOU
100
AcDbLine
 10
154.0999999999999
 20
186.8189700519381
 30
0.0
 11
154.0999999999999
 21
175.0000000000001
 31
0.0
  0
LINE
  5
B65E
330
1A
100
AcDbEntity
  8
SUNPOU
100
AcDbLine
 10
154.8999999999999
 20
175.0
 30
0.0
 11
154.0999999999999
 21
175.0
 31
0.0
  0
LINE
  5
B65F
330
1A
100
AcDbEntity
  8
SUNPOU
100
AcDbLine
 10
158.0999999999999
 20
186.8189700519381
 30
0.0
 11
158.0999999999999
 21
177.55
 31
0.0
  0
LINE
  5
B660
330
1A
100
AcDbEntity
  8
SUNPOU
100
AcDbLine
 10
158.0999999999999
 20
177.55
 30
0.0
 11
154.8999999999999
 21
177.55
 31
0.0
  0
LINE
  5
B662
330
1A
100
AcDbEntity
  8
SUNPOU
100
AcDbLine
 10
154.9
 20
186.8189700519381
 30
0.0
 11
154.8999999999999
 21
175.0000000000001
 31
0.0
  0
INSERT
  5
B664
330
1A
100
AcDbEntity
  8
SUNPOU
100
AcDbBlockReference
  2
ZU-1
 10
312.5
 20
101.8999999999999
 30
0.0
 41
-1.0
 50
180.0
  0
INSERT
  5
B665
330
1A
100
AcDbEntity
  8
SUNPOU
100
AcDbBlockReference
  2
ZU-1
 10
102.5
 20
113.9
 30
0.0
 41
-1.0
 50
180.0
  0
INSERT
  5
B666
330
1A
100
AcDbEntity
  8
KAGESEN
100
AcDbBlockReference
  2
SUS3
 10
102.5
 20
182.55
 30
0.0
 41
-1.0
  0
DIMENSION
  5
B683
330
1A
100
AcDbEntity
  8
SUNPOU
100
AcDbDimension
  2
*D37
 10
124.5
 20
217.5
 30
0.0
 11
133.3095238095238
 21
220.0
 31
0.0
 70
    32
 71
     5
 42
11.5
  3
STANDARD
100
AcDbAlignedDimension
 13
113.0
 23
205.5
 33
0.0
 14
124.5
 24
212.0
 34
0.0
100
AcDbRotatedDimension
1001
ACAD
1000
DSTYLE
1002
{
1070
    41
1040
2.5
1070
    42
1040
0.5
1070
    43
1040
10.0
1070
    44
1040
0.5
1070
    73
1070
     0
1070
    74
1070
     0
1070
    77
1070
     1
1070
   140
1040
4.0
1070
   141
1040
0.0
1070
   147
1040
0.5
1070
   173
1070
     1
1070
   271
1070
     1
1070
   272
1070
     0
1070
   341
1005
BA
1070
   343
1005
BA
1070
   344
1005
BA
1002
}
  0
DIMENSION
  5
B684
330
1A
100
AcDbEntity
  8
SUNPOU
100
AcDbDimension
  2
*D36
 10
113.0
 20
217.5
 30
0.0
 11
110.0
 21
220.0
 31
0.0
 70
    32
 71
     5
 42
6.0
  3
STANDARD
100
AcDbAlignedDimension
 13
107.0
 23
205.5
 33
0.0
 14
113.0
 24
205.5
 34
0.0
100
AcDbRotatedDimension
1001
ACAD
1000
DSTYLE
1002
{
1070
    41
1040
2.5
1070
    42
1040
0.5
1070
    43
1040
10.0
1070
    44
1040
0.5
1070
    73
1070
     0
1070
    74
1070
     0
1070
    77
1070
     1
1070
   140
1040
4.0
1070
   141
1040
0.0
1070
   147
1040
0.5
1070
   173
1070
     1
1070
   271
1070
     0
1070
   272
1070
     0
1070
   341
1005
BA
1070
   343
1005
BA
1070
   344
1005
BA
1002
}
  0
DIMENSION
  5
B70E
330
1A
100
AcDbEntity
  8
SUNPOU
100
AcDbDimension
  2
*D38
 10
133.5
 20
212.0
 30
0.0
 11
133.5
 21
198.4047619047619
 31
0.0
 70
   160
 71
     5
 42
6.5
  3
STANDARD
100
AcDbAlignedDimension
 13
113.0
 23
205.5
 33
0.0
 14
124.5
 24
212.0
 34
0.0
 50
90.0
100
AcDbRotatedDimension
1001
ACAD
1000
DSTYLE
1002
{
1070
    41
1040
2.5
1070
    42
1040
0.5
1070
    43
1040
10.0
1070
    44
1040
0.5
1070
    73
1070
     0
1070
    74
1070
     0
1070
    77
1070
     1
1070
   140
1040
4.0
1070
   141
1040
0.0
1070
   147
1040
0.5
1070
   173
1070
     1
1070
   271
1070
     1
1070
   272
1070
     0
1070
   341
1005
BA
1070
   343
1005
BA
1070
   344
1005
BA
1002
}
  0
DIMENSION
  5
B73B
330
1A
100
AcDbEntity
  8
SUNPOU
100
AcDbDimension
  2
*D41
 10
343.5
 20
187.0
 30
0.0
 11
343.5
 21
173.4047619047619
 31
0.0
 70
   160
 71
     5
 42
6.5
  3
STANDARD
100
AcDbAlignedDimension
 13
323.0
 23
180.5
 33
0.0
 14
334.5
 24
187.0
 34
0.0
 50
90.0
100
AcDbRotatedDimension
1001
ACAD
1000
DSTYLE
1002
{
1070
    41
1040
2.5
1070
    42
1040
0.5
1070
    43
1040
10.0
1070
    44
1040
0.5
1070
    73
1070
     0
1070
    74
1070
     0
1070
    77
1070
     1
1070
   140
1040
2.5
1070
   141
1040
0.0
1070
   147
1040
0.5
1070
   173
1070
     1
1070
   271
1070
     1
1070
   272
1070
     0
1070
   341
1005
BA
1070
   343
1005
BA
1070
   344
1005
BA
1002
}
  0
DIMENSION
  5
B73C
330
1A
100
AcDbEntity
  8
SUNPOU
100
AcDbDimension
  2
*D39
 10
334.5
 20
192.5
 30
0.0
 11
328.75
 21
194.25
 31
0.0
 70
    32
 71
     5
 42
11.5
  3
STANDARD
100
AcDbAlignedDimension
 13
323.0
 23
180.5
 33
0.0
 14
334.5
 24
187.0
 34
0.0
100
AcDbRotatedDimension
1001
ACAD
1000
DSTYLE
1002
{
1070
    41
1040
2.5
1070
    42
1040
0.5
1070
    43
1040
10.0
1070
    44
1040
0.5
1070
    73
1070
     0
1070
    74
1070
     0
1070
    77
1070
     1
1070
   140
1040
2.5
1070
   141
1040
0.0
1070
   147
1040
0.5
1070
   173
1070
     1
1070
   271
1070
     1
1070
   272
1070
     0
1070
   341
1005
BA
1070
   343
1005
BA
1070
   344
1005
BA
1002
}
  0
DIMENSION
  5
B73D
330
1A
100
AcDbEntity
  8
SUNPOU
100
AcDbDimension
  2
*D40
 10
323.0
 20
192.5
 30
0.0
 11
320.0
 21
192.5
 31
0.0
 70
   160
 71
     5
 42
6.0
  3
STANDARD
100
AcDbAlignedDimension
 13
317.0
 23
180.5
 33
0.0
 14
323.0
 24
180.5
 34
0.0
100
AcDbRotatedDimension
1001
ACAD
1000
DSTYLE
1002
{
1070
    41
1040
2.5
1070
    42
1040
0.5
1070
    43
1040
10.0
1070
    44
1040
0.5
1070
    73
1070
     0
1070
    74
1070
     0
1070
    77
1070
     1
1070
   140
1040
2.5
1070
   141
1040
0.0
1070
   147
1040
0.5
1070
   173
1070
     1
1070
   271
1070
     1
1070
   272
1070
     0
1070
   341
1005
BA
1070
   343
1005
BA
1070
   344
1005
BA
1002
}
  0
TEXT
  5
B801
330
1A
100
AcDbEntity
  8
0
100
AcDbText
 10
363.5
 20
37.5
 30
0.0
 40
3.0
  1
PZ-255
100
AcDbText
  0
TEXT
  5
B817
330
1A
100
AcDbEntity
  8
0
100
AcDbText
 10
195.0
 20
58.5
 30
0.0
 40
2.5
  1
LA-1041-ACC-02
 41
0.8
100
AcDbText
  0
TEXT
  5
B818
330
1A
100
AcDbEntity
  8
0
100
AcDbText
 10
225.0
 20
58.5
 30
0.0
 40
2.5
  1
オプションケーブルキット２
 41
0.8
100
AcDbText
  0
TEXT
  5
B819
330
1A
100
AcDbEntity
  8
0
100
AcDbText
 10
225.0
 20
53.5
 30
0.0
 40
2.5
  1
(PHコネクタ150mm, XAコネクタ200mm共に片端切り落としコネクタ付ケーブル)
 41
0.8
100
AcDbText
  0
TEXT
  5
B81A
330
1A
100
AcDbEntity
  8
0
100
AcDbText
 10
225.0
 20
68.5
 30
0.0
 40
2.5
  1
(φ1.6, φ3.0径ロードセルケーブル接続用基板付)
 41
0.8
100
AcDbText
  0
TEXT
  5
B81B
330
1A
100
AcDbEntity
  8
0
100
AcDbText
 10
225.0
 20
73.5
 30
0.0
 40
2.5
  1
オプションケーブルキット１
 41
0.8
100
AcDbText
  0
TEXT
  5
B81C
330
1A
100
AcDbEntity
  8
0
100
AcDbText
 10
195.0
 20
73.5
 30
0.0
 40
2.5
  1
LA-1041-ACC-01
 41
0.8
100
AcDbText
  0
LINE
  5
B81E
330
1A
100
AcDbEntity
  8
SUNPOU
100
AcDbLine
 10
192.5
 20
75.0
 30
0.0
 11
165.0
 21
75.0
 31
0.0
  0
LINE
  5
B81F
330
1A
100
AcDbEntity
  8
SUNPOU
100
AcDbLine
 10
165.0
 20
75.0
 30
0.0
 11
167.5
 21
75.5
 31
0.0
  0
LINE
  5
B821
330
1A
100
AcDbEntity
  8
SUNPOU
100
AcDbLine
 10
167.5
 20
74.5
 30
0.0
 11
165.0
 21
75.0
 31
0.0
  0
LWPOLYLINE
  5
B822
330
1A
100
AcDbEntity
  8
SUNPOU
100
AcDbPolyline
 90
        3
 70
     1
 43
0.0
 10
197.0
 20
57.0
 10
194.8349364905389
 20
53.25
 10
199.1650635094611
 20
53.25
  0
TEXT
  5
B823
330
1A
100
AcDbEntity
  8
SUNPOU
100
AcDbText
 10
196.0
 20
53.5
 30
0.0
 40
2.0
  1
1
100
AcDbText
  0
TEXT
  5
B824
330
1A
100
AcDbEntity
  8
WAKU
100
AcDbText
 10
248.0
 20
17.5
 30
0.0
 40
3.0
  1
大野
100
AcDbText
  0
TEXT
  5
B825
330
1A
100
AcDbEntity
  8
WAKU
100
AcDbText
 10
234.0
 20
18.0
 30
0.0
 40
1.8
  1
11.11.10
 41
0.9
100
AcDbText
  0
TEXT
  5
B841
330
1A
100
AcDbEntity
  8
SUNPOU
100
AcDbText
 10
86.5
 20
155.0
 30
0.0
 40
2.0
  1
2
100
AcDbText
  0
LWPOLYLINE
  5
B842
330
1A
100
AcDbEntity
  8
SUNPOU
100
AcDbPolyline
 90
        3
 70
     1
 43
0.0
 10
87.5
 20
158.5
 10
85.33493649053889
 20
154.75
 10
89.6650635094611
 20
154.75
  0
LWPOLYLINE
  5
B84A
330
1A
100
AcDbEntity
  8
SUNPOU
100
AcDbPolyline
 90
        3
 70
     1
 43
0.0
 10
298.0
 20
133.5
 10
295.8349364905389
 20
129.75
 10
300.1650635094611
 20
129.75
  0
TEXT
  5
B84B
330
1A
100
AcDbEntity
  8
SUNPOU
100
AcDbText
 10
297.0
 20
130.0
 30
0.0
 40
2.0
  1
2
100
AcDbText
  0
TEXT
  5
B852
330
1A
100
AcDbEntity
  8
WAKU
100
AcDbText
 10
234.0
 20
22.0
 30
0.0
 40
1.8
  1
13.09.03
 41
0.9
100
AcDbText
  0
TEXT
  5
B85A
330
1A
100
AcDbEntity
  8
WAKU
100
AcDbText
 10
248.0
 20
21.5
 30
0.0
 40
3.0
  1
大野
100
AcDbText
  0
TEXT
  5
B869
330
1A
100
AcDbEntity
  8
WAKU
100
AcDbText
 10
234.0
 20
26.0
 30
0.0
 40
1.8
  1
14.04.25
 41
0.9
100
AcDbText
  0
TEXT
  5
B86A
330
1A
100
AcDbEntity
  8
WAKU
100
AcDbText
 10
248.0
 20
25.5
 30
0.0
 40
3.0
  1
大野
100
AcDbText
  0
LWPOLYLINE
  5
B86B
330
1A
100
AcDbEntity
  8
SUNPOU
100
AcDbPolyline
 90
        3
 70
     1
 43
0.0
 10
93.0
 20
158.5
 10
90.8349364905389
 20
154.75
 10
95.1650635094611
 20
154.75
  0
TEXT
  5
B86C
330
1A
100
AcDbEntity
  8
SUNPOU
100
AcDbText
 10
92.0
 20
155.0
 30
0.0
 40
2.0
  1
3
100
AcDbText
  0
TEXT
  5
B86D
330
1A
100
AcDbEntity
  8
SUNPOU
100
AcDbText
 10
302.0
 20
130.0
 30
0.0
 40
2.0
  1
3
100
AcDbText
  0
LWPOLYLINE
  5
B86E
330
1A
100
AcDbEntity
  8
SUNPOU
100
AcDbPolyline
 90
        3
 70
     1
 43
0.0
 10
303.0
 20
133.5
 10
300.8349364905389
 20
129.75
 10
305.1650635094611
 20
129.75
  0
VIEWPORT
  5
22
102
{ACAD_XDICTIONARY
360
B87E
102
}
330
17
100
AcDbEntity
 67
     1
  8
0
100
AcDbViewport
 10
133.3499908447265
 20
101.5999970436096
 30
0.0
 40
338.0533967088589
 41
228.4221935424805
 68
     1
 69
     1
 12
133.3499908447265
 22
101.5999970436096
 13
0.0
 23
0.0
 14
10.0
 24
10.0
 15
10.0
 25
10.0
 16
0.0
 26
0.0
 36
1.0
 17
0.0
 27
0.0
 37
0.0
 42
50.0
 43
0.0
 44
0.0
 45
228.4221935424805
 50
0.0
 51
0.0
 72
   100
 90
    32768
  1

281
     0
 71
     1
 74
     0
110
0.0
120
0.0
130
0.0
111
1.0
121
0.0
131
0.0
112
0.0
122
1.0
132
0.0
 79
     0
146
0.0
  0
VIEWPORT
  5
9E0D
102
{ACAD_XDICTIONARY
360
B884
102
}
330
17
100
AcDbEntity
 67
     1
  8
0
100
AcDbViewport
 10
133.3499939441681
 20
101.5999939441681
 30
0.0
 40
213.3599903106689
 41
162.5599903106689
 68
     2
 69
     2
 12
212.5
 22
142.5
 13
0.0
 23
0.0
 14
0.5
 24
0.5
 15
5.0
 25
5.0
 16
0.0
 26
0.0
 36
1.0
 17
0.0
 27
0.0
 37
0.0
 42
50.0
 43
0.0
 44
0.0
 45
295.698920534747
 50
0.0
 51
0.0
 72
   100
 90
    33536
  1

281
     0
 71
     1
 74
     0
110
0.0
120
0.0
130
0.0
111
1.0
121
0.0
131
0.0
112
0.0
122
1.0
132
0.0
 79
     0
146
0.0
  0
ENDSEC
  0
SECTION
  2
OBJECTS
  0
DICTIONARY
  5
C
330
0
100
AcDbDictionary
281
     1
  3
ACAD_COLOR
350
9CA2
  3
ACAD_GROUP
350
D
  3
ACAD_LAYOUT
350
6F60
  3
ACAD_MATERIAL
350
9CA1
  3
ACAD_MLINESTYLE
350
E
  3
ACAD_PLOTSETTINGS
350
6F61
  3
ACAD_PLOTSTYLENAME
350
6F5E
  3
AcadDim
350
9C6E
  3
ACDBHEADERROUNDTRIPXREC
350
B87B
  3
AcDbVariableDictionary
350
6F68
  3
CONTENTDICTIONARY
350
5E99
  0
DICTIONARY
  5
B87E
330
22
100
AcDbDictionary
280
     1
281
     1
  3
ACAD_XREC_ROUNDTRIP
360
B87F
  0
DICTIONARY
  5
B884
330
9E0D
100
AcDbDictionary
280
     1
281
     1
  3
ACAD_XREC_ROUNDTRIP
360
B885
  0
DICTIONARY
  5
9CA2
102
{ACAD_REACTORS
330
C
102
}
330
C
100
AcDbDictionary
281
     1
  0
DICTIONARY
  5
D
102
{ACAD_REACTORS
330
C
102
}
330
C
100
AcDbDictionary
281
     1
  3
*A1
350
794F
  3
*A10
350
94D3
  3
*A11
350
7B8D
  3
*A12
350
9677
  3
*A13
350
93C2
  3
*A14
350
93F0
  3
*A15
350
83F9
  3
*A16
350
9423
  3
*A17
350
8F2A
  3
*A18
350
94D9
  3
*A19
350
7B8E
  3
*A2
350
B033
  3
*A20
350
942E
  3
*A21
350
942F
  3
*A22
350
94D4
  3
*A23
350
8344
  3
*A24
350
9356
  3
*A25
350
94DE
  3
*A26
350
B640
  3
*A27
350
B654
  3
*A28
350
79BD
  3
*A29
350
AC73
  3
*A3
350
9803
  3
*A30
350
7B8F
  3
*A31
350
83D2
  3
*A32
350
79B6
  3
*A33
350
9664
  3
*A34
350
94DA
  3
*A35
350
933F
  3
*A36
350
94D1
  3
*A37
350
94D6
  3
*A38
350
933A
  3
*A39
350
9322
  3
*A4
350
94DF
  3
*A40
350
9416
  3
*A41
350
94D7
  3
*A42
350
94DB
  3
*A43
350
9406
  3
*A44
350
94D8
  3
*A45
350
833F
  3
*A46
350
94DC
  3
*A47
350
94E0
  3
*A48
350
833C
  3
*A49
350
94DD
  3
*A5
350
9323
  3
*A50
350
94E1
  3
*A51
350
8F2F
  3
*A52
350
94D2
  3
*A53
350
94E2
  3
*A54
350
97FD
  3
*A55
350
935F
  3
*A56
350
AC18
  3
*A57
350
B032
  3
*A6
350
932D
  3
*A7
350
9422
  3
*A8
350
93C1
  3
*A9
350
94D5
  0
DICTIONARY
  5
6F60
102
{ACAD_REACTORS
330
C
102
}
330
C
100
AcDbDictionary
281
     1
  3
Model
350
6F62
  3
ﾚｲｱｳﾄ1
350
6F63
  0
DICTIONARY
  5
9CA1
102
{ACAD_REACTORS
330
C
102
}
330
C
100
AcDbDictionary
281
     1
  0
DICTIONARY
  5
E
102
{ACAD_REACTORS
330
C
102
}
330
C
100
AcDbDictionary
281
     1
  3
STANDARD
350
13
  0
DICTIONARY
  5
6F61
102
{ACAD_REACTORS
330
C
102
}
330
C
100
AcDbDictionary
281
     1
  0
ACDBDICTIONARYWDFLT
  5
6F5E
102
{ACAD_REACTORS
330
C
102
}
330
C
100
AcDbDictionary
281
     1
  3
Normal
350
6F5F
100
AcDbDictionaryWithDefault
340
6F5F
  0
XRECORD
  5
9C6E
102
{ACAD_REACTORS
330
C
102
}
330
C
100
AcDbXrecord
280
     1
 90
   990106
  3

 60
     0
 61
     0
 62
     1
 63
     3
 64
     0
 65
     0
 66
     0
 67
     3
 68
     1
 69
     0
 70
     0
 71
     0
 72
     0
 40
0.0
170
     0
340
A353
  0
DICTIONARY
  5
B87B
102
{ACAD_REACTORS
330
C
102
}
330
C
100
AcDbDictionary
281
     1
  3
COLORDICT
350
B87D
  3
MATERIALDICT
350
B87C
  0
DICTIONARY
  5
6F68
102
{ACAD_REACTORS
330
C
102
}
330
C
100
AcDbDictionary
281
     1
  3
DIMASSOC
350
6F69
  3
PROJECTNAME
350
B879
  0
DICTIONARY
  5
5E99
102
{ACAD_REACTORS
330
C
102
}
330
C
100
AcDbDictionary
281
     1
  0
XRECORD
  5
B87F
102
{ACAD_REACTORS
330
B87E
102
}
330
B87E
100
AcDbXrecord
280
     1
102
SHADEPLOT
 70
     0
  0
XRECORD
  5
B885
102
{ACAD_REACTORS
330
B884
102
}
330
B884
100
AcDbXrecord
280
     1
102
SHADEPLOT
 70
     0
  0
GROUP
  5
794F
102
{ACAD_REACTORS
330
D
102
}
330
D
100
AcDbGroup
300

 70
     1
 71
     1
  0
GROUP
  5
94D3
102
{ACAD_REACTORS
330
D
102
}
330
D
100
AcDbGroup
300

 70
     1
 71
     1
  0
GROUP
  5
7B8D
102
{ACAD_REACTORS
330
D
102
}
330
D
100
AcDbGroup
300

 70
     1
 71
     1
  0
GROUP
  5
9677
102
{ACAD_REACTORS
330
D
102
}
330
D
100
AcDbGroup
300

 70
     1
 71
     1
  0
GROUP
  5
93C2
102
{ACAD_REACTORS
330
D
102
}
330
D
100
AcDbGroup
300

 70
     1
 71
     1
  0
GROUP
  5
93F0
102
{ACAD_REACTORS
330
D
102
}
330
D
100
AcDbGroup
300

 70
     1
 71
     1
  0
GROUP
  5
83F9
102
{ACAD_REACTORS
330
D
102
}
330
D
100
AcDbGroup
300

 70
     1
 71
     1
  0
GROUP
  5
9423
102
{ACAD_REACTORS
330
D
102
}
330
D
100
AcDbGroup
300

 70
     1
 71
     1
  0
GROUP
  5
8F2A
102
{ACAD_REACTORS
330
D
102
}
330
D
100
AcDbGroup
300

 70
     1
 71
     1
  0
GROUP
  5
94D9
102
{ACAD_REACTORS
330
D
102
}
330
D
100
AcDbGroup
300

 70
     1
 71
     1
  0
GROUP
  5
7B8E
102
{ACAD_REACTORS
330
D
102
}
330
D
100
AcDbGroup
300

 70
     1
 71
     1
  0
GROUP
  5
B033
102
{ACAD_REACTORS
330
D
102
}
330
D
100
AcDbGroup
300

 70
     1
 71
     1
  0
GROUP
  5
942E
102
{ACAD_REACTORS
330
D
102
}
330
D
100
AcDbGroup
300

 70
     1
 71
     1
  0
GROUP
  5
942F
102
{ACAD_REACTORS
330
D
102
}
330
D
100
AcDbGroup
300

 70
     1
 71
     1
  0
GROUP
  5
94D4
102
{ACAD_REACTORS
330
D
102
}
330
D
100
AcDbGroup
300

 70
     1
 71
     1
  0
GROUP
  5
8344
102
{ACAD_REACTORS
330
D
102
}
330
D
100
AcDbGroup
300

 70
     1
 71
     1
  0
GROUP
  5
9356
102
{ACAD_REACTORS
330
D
102
}
330
D
100
AcDbGroup
300

 70
     1
 71
     1
  0
GROUP
  5
94DE
102
{ACAD_REACTORS
330
D
102
}
330
D
100
AcDbGroup
300

 70
     1
 71
     1
  0
GROUP
  5
B640
102
{ACAD_REACTORS
330
D
102
}
330
D
100
AcDbGroup
300

 70
     1
 71
     1
  0
GROUP
  5
B654
102
{ACAD_REACTORS
330
D
102
}
330
D
100
AcDbGroup
300

 70
     1
 71
     1
340
B64E
340
B64F
340
B650
340
B64D
340
B651
340
B64C
340
B64B
  0
GROUP
  5
79BD
102
{ACAD_REACTORS
330
D
102
}
330
D
100
AcDbGroup
300

 70
     1
 71
     1
  0
GROUP
  5
AC73
102
{ACAD_REACTORS
330
D
102
}
330
D
100
AcDbGroup
300

 70
     1
 71
     1
340
AC5B
340
AC5C
340
AC5D
340
AC5E
340
AC5F
340
AC60
340
AC61
  0
GROUP
  5
9803
102
{ACAD_REACTORS
330
D
102
}
330
D
100
AcDbGroup
300

 70
     1
 71
     1
  0
GROUP
  5
7B8F
102
{ACAD_REACTORS
330
D
102
}
330
D
100
AcDbGroup
300

 70
     1
 71
     1
  0
GROUP
  5
83D2
102
{ACAD_REACTORS
330
D
102
}
330
D
100
AcDbGroup
300

 70
     1
 71
     1
  0
GROUP
  5
79B6
102
{ACAD_REACTORS
330
D
102
}
330
D
100
AcDbGroup
300

 70
     1
 71
     1
  0
GROUP
  5
9664
102
{ACAD_REACTORS
330
D
102
}
330
D
100
AcDbGroup
300

 70
     1
 71
     1
  0
GROUP
  5
94DA
102
{ACAD_REACTORS
330
D
102
}
330
D
100
AcDbGroup
300

 70
     1
 71
     1
  0
GROUP
  5
933F
102
{ACAD_REACTORS
330
D
102
}
330
D
100
AcDbGroup
300

 70
     1
 71
     1
  0
GROUP
  5
94D1
102
{ACAD_REACTORS
330
D
102
}
330
D
100
AcDbGroup
300

 70
     1
 71
     1
  0
GROUP
  5
94D6
102
{ACAD_REACTORS
330
D
102
}
330
D
100
AcDbGroup
300

 70
     1
 71
     1
  0
GROUP
  5
933A
102
{ACAD_REACTORS
330
D
102
}
330
D
100
AcDbGroup
300

 70
     1
 71
     1
  0
GROUP
  5
9322
102
{ACAD_REACTORS
330
D
102
}
330
D
100
AcDbGroup
300

 70
     1
 71
     1
  0
GROUP
  5
94DF
102
{ACAD_REACTORS
330
D
102
}
330
D
100
AcDbGroup
300

 70
     1
 71
     1
  0
GROUP
  5
9416
102
{ACAD_REACTORS
330
D
102
}
330
D
100
AcDbGroup
300

 70
     1
 71
     1
  0
GROUP
  5
94D7
102
{ACAD_REACTORS
330
D
102
}
330
D
100
AcDbGroup
300

 70
     1
 71
     1
  0
GROUP
  5
94DB
102
{ACAD_REACTORS
330
D
102
}
330
D
100
AcDbGroup
300

 70
     1
 71
     1
  0
GROUP
  5
9406
102
{ACAD_REACTORS
330
D
102
}
330
D
100
AcDbGroup
300

 70
     1
 71
     1
  0
GROUP
  5
94D8
102
{ACAD_REACTORS
330
D
102
}
330
D
100
AcDbGroup
300

 70
     1
 71
     1
  0
GROUP
  5
833F
102
{ACAD_REACTORS
330
D
102
}
330
D
100
AcDbGroup
300

 70
     1
 71
     1
  0
GROUP
  5
94DC
102
{ACAD_REACTORS
330
D
102
}
330
D
100
AcDbGroup
300

 70
     1
 71
     1
  0
GROUP
  5
94E0
102
{ACAD_REACTORS
330
D
102
}
330
D
100
AcDbGroup
300

 70
     1
 71
     1
  0
GROUP
  5
833C
102
{ACAD_REACTORS
330
D
102
}
330
D
100
AcDbGroup
300

 70
     1
 71
     1
  0
GROUP
  5
94DD
102
{ACAD_REACTORS
330
D
102
}
330
D
100
AcDbGroup
300

 70
     1
 71
     1
  0
GROUP
  5
9323
102
{ACAD_REACTORS
330
D
102
}
330
D
100
AcDbGroup
300

 70
     1
 71
     1
  0
GROUP
  5
94E1
102
{ACAD_REACTORS
330
D
102
}
330
D
100
AcDbGroup
300

 70
     1
 71
     1
  0
GROUP
  5
8F2F
102
{ACAD_REACTORS
330
D
102
}
330
D
100
AcDbGroup
300

 70
     1
 71
     1
  0
GROUP
  5
94D2
102
{ACAD_REACTORS
330
D
102
}
330
D
100
AcDbGroup
300

 70
     1
 71
     1
  0
GROUP
  5
94E2
102
{ACAD_REACTORS
330
D
102
}
330
D
100
AcDbGroup
300

 70
     1
 71
     1
  0
GROUP
  5
97FD
102
{ACAD_REACTORS
330
D
102
}
330
D
100
AcDbGroup
300

 70
     1
 71
     1
  0
GROUP
  5
935F
102
{ACAD_REACTORS
330
D
102
}
330
D
100
AcDbGroup
300

 70
     1
 71
     1
  0
GROUP
  5
AC18
102
{ACAD_REACTORS
330
D
102
}
330
D
100
AcDbGroup
300

 70
     1
 71
     1
  0
GROUP
  5
B032
102
{ACAD_REACTORS
330
D
102
}
330
D
100
AcDbGroup
300

 70
     1
 71
     1
  0
GROUP
  5
932D
102
{ACAD_REACTORS
330
D
102
}
330
D
100
AcDbGroup
300

 70
     1
 71
     1
  0
GROUP
  5
9422
102
{ACAD_REACTORS
330
D
102
}
330
D
100
AcDbGroup
300

 70
     1
 71
     1
  0
GROUP
  5
93C1
102
{ACAD_REACTORS
330
D
102
}
330
D
100
AcDbGroup
300

 70
     1
 71
     1
  0
GROUP
  5
94D5
102
{ACAD_REACTORS
330
D
102
}
330
D
100
AcDbGroup
300

 70
     1
 71
     1
  0
LAYOUT
  5
6F62
102
{ACAD_XDICTIONARY
360
B880
102
}
102
{ACAD_REACTORS
330
6F60
102
}
330
6F60
100
AcDbPlotSettings
  1

  2
pdf A3横.pc3
  4
A3
  6

 40
3.174999952316284
 41
3.174999952316284
 42
3.17498779296875
 43
3.17498779296875
 44
420.1583251953125
 45
297.0530090332031
 46
0.0
 47
0.0
 48
0.0
 49
0.0
140
0.0
141
0.0
142
1.0
143
1.0
 70
 11952
 72
     1
 73
     0
 74
     2
  7
TMI_pen_style.ctb
 75
    16
147
1.0
148
0.0
149
0.0
100
AcDbLayout
  1
Model
 70
     1
 71
     0
 10
0.0
 20
0.0
 11
12.0
 21
9.0
 12
0.0
 22
0.0
 32
0.0
 14
0.0
 24
0.0
 34
0.0
 15
0.0
 25
0.0
 35
0.0
146
0.0
 13
0.0
 23
0.0
 33
0.0
 16
1.0
 26
0.0
 36
0.0
 17
0.0
 27
1.0
 37
0.0
 76
     0
330
1A
  0
LAYOUT
  5
6F63
102
{ACAD_XDICTIONARY
360
B882
102
}
102
{ACAD_REACTORS
330
6F60
102
}
330
6F60
100
AcDbPlotSettings
  1

  2
none_device
  4
Letter_(8.50_x_11.00_Inches)
  6

 40
6.349999904632568
 41
6.349999904632568
 42
6.350006103515625
 43
6.350006103515625
 44
215.8999938964844
 45
279.3999938964844
 46
0.0
 47
0.0
 48
0.0
 49
0.0
140
0.0
141
0.0
142
1.0
143
1.0
 70
   688
 72
     1
 73
     1
 74
     5
  7
C:\PROGRAM FILES\AUTOCAD LT 2002\Plot Styles\TMI_pen_style.ctb
 75
    16
147
1.0
148
0.0
149
0.0
100
AcDbLayout
  1
ﾚｲｱｳﾄ1
 70
     1
 71
     1
 10
-6.350006103515625
 20
-6.349999904632568
 11
273.0499877929688
 21
209.5499939918518
 12
0.0
 22
0.0
 32
0.0
 14
26.66999878883363
 24
20.31999878883363
 34
0.0
 15
240.0299890995026
 25
182.8799890995025
 35
0.0
146
0.0
 13
0.0
 23
0.0
 33
0.0
 16
1.0
 26
0.0
 36
0.0
 17
0.0
 27
1.0
 37
0.0
 76
     0
330
17
331
22
  0
MLINESTYLE
  5
13
102
{ACAD_REACTORS
330
E
102
}
330
E
100
AcDbMlineStyle
  2
STANDARD
 70
     0
  3

 62
     0
 51
90.0
 52
90.0
 71
     2
 49
0.5
 62
   256
  6
BYLAYER
 49
-0.5
 62
   256
  6
BYLAYER
  0
ACDBPLACEHOLDER
  5
6F5F
102
{ACAD_REACTORS
330
6F5E
102
}
330
6F5E
  0
XRECORD
  5
B87D
102
{ACAD_REACTORS
330
B87B
102
}
330
B87B
100
AcDbXrecord
280
     1
340
9CA2
  0
XRECORD
  5
B87C
102
{ACAD_REACTORS
330
B87B
102
}
330
B87B
100
AcDbXrecord
280
     1
340
9CA1
  0
DICTIONARYVAR
  5
6F69
102
{ACAD_REACTORS
330
6F68
102
}
330
6F68
100
DictionaryVariables
280
     0
  1
1
  0
DICTIONARYVAR
  5
B879
102
{ACAD_REACTORS
330
6F68
102
}
330
6F68
100
DictionaryVariables
280
     0
  1

  0
DICTIONARY
  5
B880
330
6F62
100
AcDbDictionary
280
     1
281
     1
  3
ACAD_XREC_ROUNDTRIP
360
B881
  0
DICTIONARY
  5
B882
330
6F63
100
AcDbDictionary
280
     1
281
     1
  3
ACAD_XREC_ROUNDTRIP
360
B883
  0
XRECORD
  5
B881
102
{ACAD_REACTORS
330
B880
102
}
330
B880
100
AcDbXrecord
280
     1
102
SHADEPLOT
 70
     0
102
SHADEPLOTRESLEVEL
 70
     2
102
SHADEPLOTCUSTOMDPI
 70
   300
  0
XRECORD
  5
B883
102
{ACAD_REACTORS
330
B882
102
}
330
B882
100
AcDbXrecord
280
     1
102
SHADEPLOT
 70
     0
102
SHADEPLOTRESLEVEL
 70
     2
102
SHADEPLOTCUSTOMDPI
 70
   300
  0
ENDSEC
  0
EOF
