  0
SECTION
  2
HEADER
  9
$ACADVER
  1
AC1015
  9
$ACADMAINTVER
 70
    20
  9
$DWGCODEPAGE
  3
ANSI_932
  9
$INSBASE
 10
0.0
 20
0.0
 30
0.0
  9
$EXTMIN
 10
19.98230080583869
 20
4.998642665099623
 30
-0.0000000000000053
  9
$EXTMAX
 10
405.0164804526332
 20
280.0145880740771
 30
0.0000000000000099
  9
$LIMMIN
 10
0.0
 20
0.0
  9
$LIMMAX
 10
420.0
 20
297.0
  9
$ORTHOMODE
 70
     0
  9
$REGENMODE
 70
     1
  9
$FILLMODE
 70
     1
  9
$QTEXTMODE
 70
     0
  9
$MIRRTEXT
 70
     1
  9
$LTSCALE
 40
15.0
  9
$ATTMODE
 70
     1
  9
$TEXTSIZE
 40
4.0
  9
$TRACEWID
 40
1.0
  9
$TEXTSTYLE
  7
STANDARD
  9
$CLAYER
  8
0
  9
$CELTYPE
  6
BYLAYER
  9
$CECOLOR
 62
   256
  9
$CELTSCALE
 40
1.0
  9
$DISPSILH
 70
     0
  9
$DIMSCALE
 40
0.0
  9
$DIMASZ
 40
2.5
  9
$DIMEXO
 40
0.5
  9
$DIMDLI
 40
10.0
  9
$DIMRND
 40
0.0
  9
$DIMDLE
 40
0.0
  9
$DIMEXE
 40
0.5
  9
$DIMTP
 40
0.0
  9
$DIMTM
 40
0.0
  9
$DIMTXT
 40
4.0
  9
$DIMCEN
 40
0.0
  9
$DIMTSZ
 40
0.0
  9
$DIMTOL
 70
     0
  9
$DIMLIM
 70
     0
  9
$DIMTIH
 70
     0
  9
$DIMTOH
 70
     0
  9
$DIMSE1
 70
     0
  9
$DIMSE2
 70
     0
  9
$DIMTAD
 70
     1
  9
$DIMZIN
 70
     0
  9
$DIMBLK
  1

  9
$DIMASO
 70
     1
  9
$DIMSHO
 70
     1
  9
$DIMPOST
  1

  9
$DIMAPOST
  1

  9
$DIMALT
 70
     0
  9
$DIMALTD
 70
     2
  9
$DIMALTF
 40
25.4
  9
$DIMLFAC
 40
1.0
  9
$DIMTOFL
 70
     0
  9
$DIMTVP
 40
0.0
  9
$DIMTIX
 70
     0
  9
$DIMSOXD
 70
     0
  9
$DIMSAH
 70
     1
  9
$DIMBLK1
  1
OPEN
  9
$DIMBLK2
  1
OPEN
  9
$DIMSTYLE
  2
STANDARD
  9
$DIMCLRD
 70
     0
  9
$DIMCLRE
 70
     0
  9
$DIMCLRT
 70
     0
  9
$DIMTFAC
 40
1.0
  9
$DIMGAP
 40
0.5
  9
$DIMJUST
 70
     0
  9
$DIMSD1
 70
     0
  9
$DIMSD2
 70
     0
  9
$DIMTOLJ
 70
     1
  9
$DIMTZIN
 70
     0
  9
$DIMALTZ
 70
     0
  9
$DIMALTTZ
 70
     0
  9
$DIMUPT
 70
     0
  9
$DIMDEC
 70
     2
  9
$DIMTDEC
 70
     2
  9
$DIMALTU
 70
     2
  9
$DIMALTTD
 70
     2
  9
$DIMTXSTY
  7
STANDARD
  9
$DIMAUNIT
 70
     0
  9
$DIMADEC
 70
     1
  9
$DIMALTRND
 40
0.0
  9
$DIMAZIN
 70
     0
  9
$DIMDSEP
 70
    46
  9
$DIMATFIT
 70
     3
  9
$DIMFRAC
 70
     0
  9
$DIMLDRBLK
  1
OPEN
  9
$DIMLUNIT
 70
     2
  9
$DIMLWD
 70
    -2
  9
$DIMLWE
 70
    -2
  9
$DIMTMOVE
 70
     0
  9
$LUNITS
 70
     2
  9
$LUPREC
 70
     4
  9
$SKETCHINC
 40
1.0
  9
$FILLETRAD
 40
0.8
  9
$AUNITS
 70
     0
  9
$AUPREC
 70
     0
  9
$MENU
  1
.
  9
$ELEVATION
 40
0.0
  9
$PELEVATION
 40
0.0
  9
$THICKNESS
 40
0.0
  9
$LIMCHECK
 70
     0
  9
$CHAMFERA
 40
0.3
  9
$CHAMFERB
 40
0.3
  9
$CHAMFERC
 40
20.0
  9
$CHAMFERD
 40
0.0
  9
$SKPOLY
 70
     0
  9
$TDCREATE
 40
2450857.620429745
  9
$TDUCREATE
 40
2450857.245429745
  9
$TDUPDATE
 40
2458914.708644329
  9
$TDUUPDATE
 40
2458914.333644329
  9
$TDINDWG
 40
8.7682752546
  9
$TDUSRTIMER
 40
8.7682752546
  9
$USRTIMER
 70
     1
  9
$ANGBASE
 50
0.0
  9
$ANGDIR
 70
     0
  9
$PDMODE
 70
     0
  9
$PDSIZE
 40
0.0
  9
$PLINEWID
 40
0.0
  9
$SPLFRAME
 70
     0
  9
$SPLINETYPE
 70
     6
  9
$SPLINESEGS
 70
     8
  9
$HANDSEED
  5
14F69
  9
$SURFTAB1
 70
     6
  9
$SURFTAB2
 70
     6
  9
$SURFTYPE
 70
     6
  9
$SURFU
 70
     6
  9
$SURFV
 70
     6
  9
$UCSBASE
  2

  9
$UCSNAME
  2

  9
$UCSORG
 10
0.0
 20
0.0
 30
0.0
  9
$UCSXDIR
 10
1.0
 20
0.0
 30
0.0
  9
$UCSYDIR
 10
0.0
 20
1.0
 30
0.0
  9
$UCSORTHOREF
  2

  9
$UCSORTHOVIEW
 70
     0
  9
$UCSORGTOP
 10
0.0
 20
0.0
 30
0.0
  9
$UCSORGBOTTOM
 10
0.0
 20
0.0
 30
0.0
  9
$UCSORGLEFT
 10
0.0
 20
0.0
 30
0.0
  9
$UCSORGRIGHT
 10
0.0
 20
0.0
 30
0.0
  9
$UCSORGFRONT
 10
0.0
 20
0.0
 30
0.0
  9
$UCSORGBACK
 10
0.0
 20
0.0
 30
0.0
  9
$PUCSBASE
  2

  9
$PUCSNAME
  2

  9
$PUCSORG
 10
0.0
 20
0.0
 30
0.0
  9
$PUCSXDIR
 10
1.0
 20
0.0
 30
0.0
  9
$PUCSYDIR
 10
0.0
 20
1.0
 30
0.0
  9
$PUCSORTHOREF
  2

  9
$PUCSORTHOVIEW
 70
     0
  9
$PUCSORGTOP
 10
0.0
 20
0.0
 30
0.0
  9
$PUCSORGBOTTOM
 10
0.0
 20
0.0
 30
0.0
  9
$PUCSORGLEFT
 10
0.0
 20
0.0
 30
0.0
  9
$PUCSORGRIGHT
 10
0.0
 20
0.0
 30
0.0
  9
$PUCSORGFRONT
 10
0.0
 20
0.0
 30
0.0
  9
$PUCSORGBACK
 10
0.0
 20
0.0
 30
0.0
  9
$USERI1
 70
     0
  9
$USERI2
 70
     0
  9
$USERI3
 70
     0
  9
$USERI4
 70
     0
  9
$USERI5
 70
     0
  9
$USERR1
 40
0.0
  9
$USERR2
 40
0.0
  9
$USERR3
 40
0.0
  9
$USERR4
 40
0.0
  9
$USERR5
 40
0.0
  9
$WORLDVIEW
 70
     1
  9
$SHADEDGE
 70
     3
  9
$SHADEDIF
 70
    70
  9
$TILEMODE
 70
     1
  9
$MAXACTVP
 70
    16
  9
$PINSBASE
 10
0.0
 20
0.0
 30
0.0
  9
$PLIMCHECK
 70
     0
  9
$PEXTMIN
 10
1.000000000000000E+20
 20
1.000000000000000E+20
 30
1.000000000000000E+20
  9
$PEXTMAX
 10
-1.000000000000000E+20
 20
-1.000000000000000E+20
 30
-1.000000000000000E+20
  9
$PLIMMIN
 10
0.0
 20
0.0
  9
$PLIMMAX
 10
420.0
 20
297.0
  9
$UNITMODE
 70
     0
  9
$VISRETAIN
 70
     0
  9
$PLINEGEN
 70
     0
  9
$PSLTSCALE
 70
     1
  9
$TREEDEPTH
 70
  3020
  9
$CMLSTYLE
  2
STANDARD
  9
$CMLJUST
 70
     0
  9
$CMLSCALE
 40
1.0
  9
$PROXYGRAPHICS
 70
     1
  9
$MEASUREMENT
 70
     0
  9
$CELWEIGHT
370
    -1
  9
$ENDCAPS
280
     0
  9
$JOINSTYLE
280
     0
  9
$LWDISPLAY
290
     0
  9
$INSUNITS
 70
     0
  9
$HYPERLINKBASE
  1

  9
$STYLESHEET
  1
tmi_penstyle.ctb
  9
$XEDIT
290
     1
  9
$CEPSNTYPE
380
     0
  9
$PSTYLEMODE
290
     1
  9
$FINGERPRINTGUID
  2
{0CF6AC2F-CFB7-4513-B486-3088CC22C71C}
  9
$VERSIONGUID
  2
{60F2A711-5273-4EE3-98C3-04F7024AB87B}
  9
$EXTNAMES
290
     1
  9
$PSVPSCALE
 40
0.0
  9
$OLESTARTUP
290
     0
  0
ENDSEC
  0
SECTION
  2
CLASSES
  0
CLASS
  1
DICTIONARYVAR
  2
AcDbDictionaryVar
  3
ObjectDBX Classes
 90
        0
280
     0
281
     0
  0
CLASS
  1
ACDBDICTIONARYWDFLT
  2
AcDbDictionaryWithDefault
  3
ObjectDBX Classes
 90
        0
280
     0
281
     0
  0
CLASS
  1
ACDBPLACEHOLDER
  2
AcDbPlaceHolder
  3
ObjectDBX Classes
 90
        0
280
     0
281
     0
  0
CLASS
  1
LAYOUT
  2
AcDbLayout
  3
ObjectDBX Classes
 90
        0
280
     0
281
     0
  0
ENDSEC
  0
SECTION
  2
TABLES
  0
TABLE
  2
VPORT
  5
8
330
0
100
AcDbSymbolTable
 70
     5
  0
VPORT
  5
14F5F
330
8
100
AcDbSymbolTableRecord
100
AcDbViewportTableRecord
  2
*Active
 70
     0
 10
0.0
 20
0.0
 11
1.0
 21
1.0
 12
212.499390629236
 22
142.5066153695883
 13
0.0
 23
0.0
 14
0.5
 24
0.5
 15
5.0
 25
5.0
 16
0.0
 26
0.0
 36
1.0
 17
0.0
 27
0.0
 37
0.0
 40
276.994477390337
 41
2.184873949579831
 42
50.0
 43
0.0
 44
0.0
 50
0.0
 51
0.0
 71
     0
 72
   100
 73
     1
 74
     0
 75
     1
 76
     1
 77
     0
 78
     0
281
     0
 65
     1
110
0.0
120
0.0
130
0.0
111
1.0
121
0.0
131
0.0
112
0.0
122
1.0
132
0.0
 79
     0
146
0.0
  0
ENDTAB
  0
TABLE
  2
LTYPE
  5
5
330
0
100
AcDbSymbolTable
 70
     3
  0
LTYPE
  5
14
330
5
100
AcDbSymbolTableRecord
100
AcDbLinetypeTableRecord
  2
BYBLOCK
 70
     0
  3

 72
    65
 73
     0
 40
0.0
  0
LTYPE
  5
15
330
5
100
AcDbSymbolTableRecord
100
AcDbLinetypeTableRecord
  2
BYLAYER
 70
     0
  3

 72
    65
 73
     0
 40
0.0
  0
LTYPE
  5
16
330
5
100
AcDbSymbolTableRecord
100
AcDbLinetypeTableRecord
  2
CONTINUOUS
 70
     0
  3
Solid line
 72
    65
 73
     0
 40
0.0
  0
LTYPE
  5
61
330
5
100
AcDbSymbolTableRecord
100
AcDbLinetypeTableRecord
  2
CENTER2
 70
     0
  3
___ _ ___ _ ___ _ ___ _ ___ _ ___ _ ___ _ ___ _
 72
    65
 73
     4
 40
1.125
 49
0.75
 74
     0
 49
-0.125
 74
     0
 49
0.125
 74
     0
 49
-0.125
 74
     0
  0
LTYPE
  5
62
330
5
100
AcDbSymbolTableRecord
100
AcDbLinetypeTableRecord
  2
DASHED2
 70
     0
  3
_ _ _ _ _ _ _ _ _ _ _ _ _ _ _ _ _ _ _ _ _ _ _ _
 72
    65
 73
     2
 40
0.375
 49
0.25
 74
     0
 49
-0.125
 74
     0
  0
ENDTAB
  0
TABLE
  2
LAYER
  5
2
102
{ACAD_XDICTIONARY
360
11D08
102
}
330
0
100
AcDbSymbolTable
 70
     7
  0
LAYER
  5
F
330
2
100
AcDbSymbolTableRecord
100
AcDbLayerTableRecord
  2
0
 70
     0
 62
     7
  6
CONTINUOUS
370
    -3
390
8A99
  0
LAYER
  5
63
330
2
100
AcDbSymbolTableRecord
100
AcDbLayerTableRecord
  2
WAKU
 70
     0
 62
     7
  6
CONTINUOUS
370
    -3
390
8A99
  0
LAYER
  5
64
330
2
100
AcDbSymbolTableRecord
100
AcDbLayerTableRecord
  2
SUNPOU
 70
     0
 62
     5
  6
CONTINUOUS
370
    -3
390
8A99
  0
LAYER
  5
65
330
2
100
AcDbSymbolTableRecord
100
AcDbLayerTableRecord
  2
CENTER
 70
     0
 62
    14
  6
CENTER2
370
    -3
390
8A99
  0
LAYER
  5
66
330
2
100
AcDbSymbolTableRecord
100
AcDbLayerTableRecord
  2
KAGESEN
 70
     0
 62
     5
  6
DASHED2
370
    -3
390
8A99
  0
LAYER
  5
7DC
330
2
100
AcDbSymbolTableRecord
100
AcDbLayerTableRecord
  2
DEFPOINTS
 70
     0
 62
     7
  6
CONTINUOUS
290
     0
370
    -3
390
8A99
  0
LAYER
  5
141EF
330
2
100
AcDbSymbolTableRecord
100
AcDbLayerTableRecord
  2
PARTS
 70
     0
 62
     5
  6
CONTINUOUS
370
    -3
390
8A99
  0
ENDTAB
  0
TABLE
  2
STYLE
  5
3
330
0
100
AcDbSymbolTable
 70
     2
  0
STYLE
  5
10
330
3
100
AcDbSymbolTableRecord
100
AcDbTextStyleTableRecord
  2
STANDARD
 70
     0
 40
0.0
 41
1.0
 50
0.0
 71
     0
 42
4.0
  3
C:\Program Files\AutoCAD LT\romans.shx
  4
C:\Program Files\AutoCAD LT\extfont.shx
  0
STYLE
  5
BFEC
330
3
100
AcDbSymbolTableRecord
100
AcDbTextStyleTableRecord
  2
ED_VECTOR
 70
     0
 40
0.0
 41
1.0
 50
0.0
 71
     0
 42
0.0
  3
MONOTXT.SHX
  4
BIGFONT.SHX
  0
ENDTAB
  0
TABLE
  2
VIEW
  5
6
330
0
100
AcDbSymbolTable
 70
     0
  0
ENDTAB
  0
TABLE
  2
UCS
  5
7
330
0
100
AcDbSymbolTable
 70
     0
  0
ENDTAB
  0
TABLE
  2
APPID
  5
9
330
0
100
AcDbSymbolTable
 70
     3
  0
APPID
  5
11
330
9
100
AcDbSymbolTableRecord
100
AcDbRegAppTableRecord
  2
ACAD
 70
     0
  0
APPID
  5
4211
330
9
100
AcDbSymbolTableRecord
100
AcDbRegAppTableRecord
  2
CONTENTTABDATA
 70
     0
  0
APPID
  5
4212
330
9
100
AcDbSymbolTableRecord
100
AcDbRegAppTableRecord
  2
CONTENTCURRENTTAB
 70
     0
  0
ENDTAB
  0
TABLE
  2
DIMSTYLE
  5
A
330
0
100
AcDbSymbolTable
 70
     8
100
AcDbDimStyleTable
 71
     1
340
1D
  0
DIMSTYLE
105
1D
102
{ACAD_REACTORS
330
DB56
330
D982
330
D99B
330
D99C
330
D99E
330
D9B9
102
}
330
A
100
AcDbSymbolTableRecord
100
AcDbDimStyleTableRecord
  2
STANDARD
 70
     0
340
10
  0
DIMSTYLE
105
24
330
A
100
AcDbSymbolTableRecord
100
AcDbDimStyleTableRecord
  2
ISO-25
 70
     0
 41
2.5
 42
0.625
 43
3.75
 44
1.25
 74
     0
 77
     1
 78
     8
140
2.5
141
2.5
143
0.0394
145
1.0
147
0.625
172
     1
340
10
  0
DIMSTYLE
105
25
330
A
100
AcDbSymbolTableRecord
100
AcDbDimStyleTableRecord
  2
ISO-35
 70
     0
 41
3.5
 42
0.875
 43
5.25
 44
1.75
 74
     0
 77
     1
 78
     8
140
3.5
141
3.5
143
0.0394
145
1.399999999999999
147
0.875
172
     1
340
10
  0
DIMSTYLE
105
26
330
A
100
AcDbSymbolTableRecord
100
AcDbDimStyleTableRecord
  2
ISO-5
 70
     0
 41
5.0
 42
1.25
 43
7.5
 44
2.5
 74
     0
 77
     1
 78
     8
140
5.0
141
5.0
143
0.0394
145
2.0
147
1.25
172
     1
340
10
  0
DIMSTYLE
105
27
330
A
100
AcDbSymbolTableRecord
100
AcDbDimStyleTableRecord
  2
ISO-7
 70
     0
 41
7.0
 42
1.75
 43
10.5
 44
3.5
 74
     0
 77
     1
 78
     8
140
7.0
141
7.0
143
0.0394
145
2.799999999999999
147
1.75
172
     1
340
10
  0
DIMSTYLE
105
28
330
A
100
AcDbSymbolTableRecord
100
AcDbDimStyleTableRecord
  2
ISO1
 70
     0
 41
10.0
 42
2.5
 43
15.0
 44
5.0
 74
     0
 77
     1
 78
     8
140
10.0
141
10.0
143
0.0394
145
4.0
147
2.5
172
     1
340
10
  0
DIMSTYLE
105
29
330
A
100
AcDbSymbolTableRecord
100
AcDbDimStyleTableRecord
  2
ISO1-4
 70
     0
 41
14.0
 42
3.5
 43
21.0
 44
7.0
 74
     0
 77
     1
 78
     8
140
14.0
141
14.0
143
0.0394
145
5.599999999999999
147
3.5
172
     1
340
10
  0
DIMSTYLE
105
2A
330
A
100
AcDbSymbolTableRecord
100
AcDbDimStyleTableRecord
  2
ISO2
 70
     0
 41
20.0
 42
5.0
 43
30.0
 44
10.0
 74
     0
 77
     1
 78
     8
140
20.0
141
20.0
143
0.0394
145
8.0
147
5.0
172
     1
340
10
  0
ENDTAB
  0
TABLE
  2
BLOCK_RECORD
  5
1
330
0
100
AcDbSymbolTable
 70
    14
  0
BLOCK_RECORD
  5
1A
330
1
100
AcDbSymbolTableRecord
100
AcDbBlockTableRecord
  2
*MODEL_SPACE
340
8A9C
  0
BLOCK_RECORD
  5
17
330
1
100
AcDbSymbolTableRecord
100
AcDbBlockTableRecord
  2
*PAPER_SPACE
340
8A9D
  0
BLOCK_RECORD
  5
BA
330
1
100
AcDbSymbolTableRecord
100
AcDbBlockTableRecord
  2
_OPEN
340
0
102
{BLKREFS
331
1193B
331
1193C
331
11944
331
11945
331
1194D
331
1194E
331
11956
331
11957
331
1195F
331
11960
331
11968
331
11969
102
}
  0
BLOCK_RECORD
  5
98E8
330
1
100
AcDbSymbolTableRecord
100
AcDbBlockTableRecord
  2
A$C34EE125E
340
0
102
{BLKREFS
331
110E3
331
110EC
331
12027
331
120C6
102
}
  0
BLOCK_RECORD
  5
D45C
330
1
100
AcDbSymbolTableRecord
100
AcDbBlockTableRecord
  2
A$C4F832D76
340
0
102
{BLKREFS
331
DACB
102
}
  0
BLOCK_RECORD
  5
DB91
330
1
100
AcDbSymbolTableRecord
100
AcDbBlockTableRecord
  2
*D3
340
0
  0
BLOCK_RECORD
  5
DBAA
330
1
100
AcDbSymbolTableRecord
100
AcDbBlockTableRecord
  2
*D4
340
0
  0
BLOCK_RECORD
  5
DBB6
330
1
100
AcDbSymbolTableRecord
100
AcDbBlockTableRecord
  2
*D5
340
0
  0
BLOCK_RECORD
  5
DBC2
330
1
100
AcDbSymbolTableRecord
100
AcDbBlockTableRecord
  2
*D6
340
0
  0
BLOCK_RECORD
  5
DBCE
330
1
100
AcDbSymbolTableRecord
100
AcDbBlockTableRecord
  2
*D7
340
0
  0
BLOCK_RECORD
  5
DBDA
330
1
100
AcDbSymbolTableRecord
100
AcDbBlockTableRecord
  2
*D8
340
0
  0
BLOCK_RECORD
  5
F1C7
330
1
100
AcDbSymbolTableRecord
100
AcDbBlockTableRecord
  2
TM-14P-1
340
0
310
2800000020000000200000000100080000000000000400000000000000000000000000000000000000000000000080000080000000808000800000008000800080800000C0C0C000C0DCC000F0CAA6000020400000206000002080000020A0000020C0000020E00000400000004020000040400000406000004080000040A0
310
000040C0000040E00000600000006020000060400000606000006080000060A0000060C0000060E00000800000008020000080400000806000008080000080A0000080C0000080E00000A0000000A0200000A0400000A0600000A0800000A0A00000A0C00000A0E00000C0000000C0200000C0400000C0600000C0800000C0
310
A00000C0C00000C0E00000E0000000E0200000E0400000E0600000E0800000E0A00000E0C00000E0E00040000000400020004000400040006000400080004000A0004000C0004000E00040200000402020004020400040206000402080004020A0004020C0004020E000404000004040200040404000404060004040800040
310
40A0004040C0004040E00040600000406020004060400040606000406080004060A0004060C0004060E00040800000408020004080400040806000408080004080A0004080C0004080E00040A0000040A0200040A0400040A0600040A0800040A0A00040A0C00040A0E00040C0000040C0200040C0400040C0600040C08000
310
40C0A00040C0C00040C0E00040E0000040E0200040E0400040E0600040E0800040E0A00040E0C00040E0E00080000000800020008000400080006000800080008000A0008000C0008000E00080200000802020008020400080206000802080008020A0008020C0008020E00080400000804020008040400080406000804080
310
008040A0008040C0008040E00080600000806020008060400080606000806080008060A0008060C0008060E00080800000808020008080400080806000808080008080A0008080C0008080E00080A0000080A0200080A0400080A0600080A0800080A0A00080A0C00080A0E00080C0000080C0200080C0400080C0600080C0
310
800080C0A00080C0C00080C0E00080E0000080E0200080E0400080E0600080E0800080E0A00080E0C00080E0E000C0000000C0002000C0004000C0006000C0008000C000A000C000C000C000E000C0200000C0202000C0204000C0206000C0208000C020A000C020C000C020E000C0400000C0402000C0404000C0406000C0
310
408000C040A000C040C000C040E000C0600000C0602000C0604000C0606000C0608000C060A000C060C000C060E000C0800000C0802000C0804000C0806000C0808000C080A000C080C000C080E000C0A00000C0A02000C0A04000C0A06000C0A08000C0A0A000C0A0C000C0A0E000C0C00000C0C02000C0C04000C0C06000
310
C0C08000C0C0A000F0FBFF00A4A0A000808080000000FF0000FF000000FFFF00FF000000FF00FF00FFFF0000FFFFFF00FFFFFFFFFFFFFFFFFFFFFFFFFFFFFFFFFFFFFFFFFFFFFFFFFFFFFFFFFFFFFFFFFFFFFFFFFFFFFFFFFFFFFFFFFFFF00000000FFFFFFFFFFFFFFFFFFFFFFFFFFFFFFFFFFFFFFFFFFFFFFFFFFFFFFFF00
310
FC0000FFFFFFFFFFFFFFFFFFFFFFFFFFFFFFFFFFFFFFFFFFFFFFFFFFFFFFFF00FC0000FFFFFFFFFFFFFFFFFFFFFFFFFFFFFFFFFFFFFFFFFFFFFFFFFFFFFFFF00FCFC00FFFFFFFFFFFFFFFFFFFFFFFFFFFFFFFFFFFFFFFFFFFFFFFFFFFFFFFF00FCFC00FFFFFFFFFFFFFFFFFFFFFFFFFFFFFFFFFFFFFFFFFFFFFFFFFFFFFFFF
310
00FCFC00FFFFFFFFFFFFFFFFFFFFFFFFFFFFFFFFFFFFFFFFFFFFFFFFFFFFFFFF00FCFC00FFFFFFFFFFFFFFFFFFFFFFFFFFFFFFFFFFFFFFFFFFFFFFFFFFFFFFFF00FC0000FFFFFFFFFFFFFFFFFFFFFFFFFFFFFFFFFFFFFFFFFFFFFFFFFFFFFFFF00FC0000FFFFFFFFFFFFFFFFFFFFFFFFFFFFFFFFFFFFFFFFFFFFFFFFFFFFFF
310
FF00FCFC00FFFFFFFFFFFFFFFFFFFFFFFFFFFFFFFFFFFFFFFFFFFFFFFFFFFFFFFF00FCFC00FFFFFFFFFFFFFFFFFFFFFFFFFFFFFFFFFFFFFFFFFFFFFFFFFFFFFFFF00FC0000FFFFFFFFFFFFFFFFFFFFFFFFFFFFFFFFFFFFFFFFFFFFFFFFFFFFFFFF00FC0000FFFFFFFFFFFFFFFFFFFFFFFFFFFFFFFFFFFFFFFFFFFFFFFFFFFF
310
FFFF00FCFC00FFFFFFFFFFFFFFFFFFFFFFFFFFFFFFFFFFFFFFFFFFFFFFFFFFFFFFFF00000000FFFFFFFFFFFFFFFFFFFFFFFFFFFFFFFFFFFFFFFFFFFFFFFFFFFFFFFF00FC0000FFFFFFFFFFFFFFFFFFFFFFFFFFFFFFFFFFFFFFFFFFFFFFFFFFFFFFFF00FC0000FFFFFFFFFFFFFFFFFFFFFFFFFFFFFFFFFFFFFFFFFFFFFFFFFF
310
FFFFFF00FCFC00FFFFFFFFFFFFFFFFFFFFFFFFFFFFFFFFFFFFFFFFFFFFFFFFFFFFFFFF00FCFC00FFFFFFFFFFFFFFFFFFFFFFFFFFFFFFFFFFFFFFFFFFFFFFFFFFFFFFFF00000000FFFFFFFFFFFFFFFFFFFFFFFFFFFFFFFFFFFFFFFFFFFFFFFFFFFFFFFF00000000FFFFFFFFFFFFFFFFFFFFFFFFFFFFFFFFFFFFFFFFFFFFFFFF
310
FFFFFFFF00FCFC00FFFFFFFFFFFFFFFFFFFFFFFFFFFFFFFFFFFFFFFFFFFFFFFFFFFFFFFF00FC0000FFFFFFFFFFFFFFFFFFFFFFFFFFFFFFFFFFFFFFFFFFFFFFFFFFFFFFFF00FC0000FFFFFFFFFFFFFFFFFFFFFFFFFFFFFFFFFFFFFFFFFFFFFFFFFFFFFFFF00000000FFFFFFFFFFFFFFFFFFFFFFFFFFFFFFFFFFFFFFFFFFFFFF
310
FFFFFFFFFF00FC0000FFFFFFFFFFFFFFFFFFFFFFFFFFFFFFFFFFFFFFFFFFFFFFFFFFFFFFFF00FC0000FFFFFFFFFFFFFFFFFFFFFFFFFFFFFFFFFFFFFFFFFFFFFFFFFFFFFFFF00FC0000FFFFFFFFFFFFFFFFFFFFFFFFFFFFFFFFFFFFFFFFFFFFFFFFFFFFFFFF00FC0000FFFFFFFFFFFFFFFFFFFFFFFFFFFFFFFFFFFFFFFFFFFF
310
FFFFFFFFFFFF00000000FFFFFFFFFFFFFFFFFFFFFFFFFFFFFFFFFFFFFFFFFFFFFFFFFFFFFFFFFFFFFFFFFFFFFFFFFFFFFFFFFFFFFFFFFFFF
102
{BLKREFS
331
14D44
102
}
  0
BLOCK_RECORD
  5
117D8
330
1
100
AcDbSymbolTableRecord
100
AcDbBlockTableRecord
  2
M3-TOP
340
0
310
2800000020000000200000000100080000000000000400000000000000000000000000000000000000000000000080000080000000808000800000008000800080800000C0C0C000C0DCC000F0CAA6000020400000206000002080000020A0000020C0000020E00000400000004020000040400000406000004080000040A0
310
000040C0000040E00000600000006020000060400000606000006080000060A0000060C0000060E00000800000008020000080400000806000008080000080A0000080C0000080E00000A0000000A0200000A0400000A0600000A0800000A0A00000A0C00000A0E00000C0000000C0200000C0400000C0600000C0800000C0
310
A00000C0C00000C0E00000E0000000E0200000E0400000E0600000E0800000E0A00000E0C00000E0E00040000000400020004000400040006000400080004000A0004000C0004000E00040200000402020004020400040206000402080004020A0004020C0004020E000404000004040200040404000404060004040800040
310
40A0004040C0004040E00040600000406020004060400040606000406080004060A0004060C0004060E00040800000408020004080400040806000408080004080A0004080C0004080E00040A0000040A0200040A0400040A0600040A0800040A0A00040A0C00040A0E00040C0000040C0200040C0400040C0600040C08000
310
40C0A00040C0C00040C0E00040E0000040E0200040E0400040E0600040E0800040E0A00040E0C00040E0E00080000000800020008000400080006000800080008000A0008000C0008000E00080200000802020008020400080206000802080008020A0008020C0008020E00080400000804020008040400080406000804080
310
008040A0008040C0008040E00080600000806020008060400080606000806080008060A0008060C0008060E00080800000808020008080400080806000808080008080A0008080C0008080E00080A0000080A0200080A0400080A0600080A0800080A0A00080A0C00080A0E00080C0000080C0200080C0400080C0600080C0
310
800080C0A00080C0C00080C0E00080E0000080E0200080E0400080E0600080E0800080E0A00080E0C00080E0E000C0000000C0002000C0004000C0006000C0008000C000A000C000C000C000E000C0200000C0202000C0204000C0206000C0208000C020A000C020C000C020E000C0400000C0402000C0404000C0406000C0
310
408000C040A000C040C000C040E000C0600000C0602000C0604000C0606000C0608000C060A000C060C000C060E000C0800000C0802000C0804000C0806000C0808000C080A000C080C000C080E000C0A00000C0A02000C0A04000C0A06000C0A08000C0A0A000C0A0C000C0A0E000C0C00000C0C02000C0C04000C0C06000
310
C0C08000C0C0A000F0FBFF00A4A0A000808080000000FF0000FF000000FFFF00FF000000FF00FF00FFFF0000FFFFFF00FFFFFFFFFFFFFFFFFFFFFFFFFFFFFFFFFFFFFFFFFFFFFFFFFFFFFFFFFFFFFFFFFFFFFFFFFFFFFFFFFFFFFFFFFFFF000000FFFFFFFFFFFFFFFFFFFFFFFFFFFFFFFFFFFFFFFFFFFFFFFFFF00000000FF
310
FFFF00000000FFFFFFFFFFFFFFFFFFFFFFFFFFFFFFFFFFFFFF0000FFFFFFFFFFFFFFFFFFFFFF000000FFFFFFFFFFFFFFFFFFFFFFFFFFFFFF00FFFFFFFFFFFFFFFFFFFFFFFFFFFFFFFF00FFFFFFFFFFFFFFFFFFFFFFFFFF00FFFFFFFFFFFFFFFFFFFFFFFFFFFFFFFFFFFF00FFFFFFFFFFFFFFFFFFFFFF00FFFFFFFFFFFF0000
310
000000000000FFFFFFFFFFFF00FFFFFFFFFFFFFFFFFF00FFFFFFFFFFFFFF00FFFFFFFFFFFF00FFFFFFFFFFFFFF00FFFFFFFFFFFFFF00FFFFFFFFFFFFFFFF00FFFFFFFFFFFF00FFFFFFFFFFFFFFFF00FFFFFFFFFFFF00FFFFFFFFFFFFFFFF00FFFFFFFFFFFF00FFFFFFFFFFFFFFFF00FFFFFFFFFFFF00FFFFFFFFFFFFFFFF00
310
FFFFFFFFFFFF00FFFFFFFFFFFFFFFFFF00FFFFFFFF00FFFFFFFFFFFFFFFFFF00FFFFFFFFFFFF00FFFFFFFFFFFFFFFFFF00FFFFFFFF00FFFFFF00000000000000FFFFFFFFFFFF00000000000000FFFFFF00FFFFFFFF00FFFFFF00FFFFFFFFFFFFFFFFFFFFFFFFFFFFFFFFFFFF00FFFFFF00FFFFFFFF00FFFFFF00FFFFFFFFFF
310
FFFFFFFFFFFFFFFFFFFFFFFFFF00FFFFFFFF00FFFF00FFFFFFFF00FFFFFFFFFFFFFFFFFFFFFFFFFFFFFFFFFFFF00FFFFFFFF00FFFF00FFFFFFFF00FFFFFFFFFFFFFFFFFFFFFFFFFFFFFFFFFFFF00FFFFFFFF00FFFF00FFFFFFFF00FFFFFFFFFFFFFFFFFFFFFFFFFFFFFFFFFFFF00FFFFFFFF00FFFFFF00FFFFFF00FFFFFFFF
310
FFFFFFFFFFFFFFFFFFFFFFFFFFFF00FFFFFF00FFFFFFFF00FFFFFF00000000000000FFFFFFFFFFFF00000000000000FFFFFF00FFFFFFFF00FFFFFFFFFFFFFFFFFF00FFFFFFFFFFFF00FFFFFFFFFFFFFFFFFF00FFFFFFFF00FFFFFFFFFFFFFFFFFF00FFFFFFFFFFFF00FFFFFFFFFFFFFFFFFF00FFFFFFFFFF00FFFFFFFFFFFF
310
FFFF00FFFFFFFFFFFF00FFFFFFFFFFFFFFFF00FFFFFFFFFFFF00FFFFFFFFFFFFFFFF00FFFFFFFFFFFF00FFFFFFFFFFFFFFFF00FFFFFFFFFFFFFF00FFFFFFFFFFFFFF00FFFFFFFFFFFF00FFFFFFFFFFFFFF00FFFFFFFFFFFFFFFFFF00FFFFFFFFFFFF0000000000000000FFFFFFFFFFFF00FFFFFFFFFFFFFFFFFFFFFF00FFFF
310
FFFFFFFFFFFFFFFFFFFFFFFFFFFFFFFF00FFFFFFFFFFFFFFFFFFFFFFFFFF00FFFFFFFFFFFFFFFFFFFFFFFFFFFFFFFF00FFFFFFFFFFFFFFFFFFFFFFFFFFFFFF0000FFFFFFFFFFFFFFFFFFFFFFFF0000FFFFFFFFFFFFFFFFFFFFFFFFFFFFFFFFFFFF00000000FFFFFFFF00000000FFFFFFFFFFFFFFFFFFFFFFFFFFFFFFFFFFFF
310
FFFFFFFFFFFF00000000FFFFFFFFFFFFFFFFFFFFFFFFFFFFFFFFFFFFFFFFFFFFFFFFFFFFFFFFFFFFFFFFFFFFFFFFFFFFFFFFFFFFFFFFFFFF
102
{BLKREFS
331
117E2
102
}
  0
BLOCK_RECORD
  5
140EB
330
1
100
AcDbSymbolTableRecord
100
AcDbBlockTableRecord
  2
A$C2086655F
340
0
102
{BLKREFS
331
1410A
102
}
  0
BLOCK_RECORD
  5
14108
330
1
100
AcDbSymbolTableRecord
100
AcDbBlockTableRecord
  2
A$C1A9113A3
340
0
102
{BLKREFS
331
14D43
331
14D5A
102
}
  0
BLOCK_RECORD
  5
14EEC
330
1
100
AcDbSymbolTableRecord
100
AcDbBlockTableRecord
  2
GL3PR-1
340
0
310
2800000020000000200000000100080000000000000400000000000000000000000000000000000000000000000080000080000000808000800000008000800080800000C0C0C000C0DCC000F0CAA6000020400000206000002080000020A0000020C0000020E00000400000004020000040400000406000004080000040A0
310
000040C0000040E00000600000006020000060400000606000006080000060A0000060C0000060E00000800000008020000080400000806000008080000080A0000080C0000080E00000A0000000A0200000A0400000A0600000A0800000A0A00000A0C00000A0E00000C0000000C0200000C0400000C0600000C0800000C0
310
A00000C0C00000C0E00000E0000000E0200000E0400000E0600000E0800000E0A00000E0C00000E0E00040000000400020004000400040006000400080004000A0004000C0004000E00040200000402020004020400040206000402080004020A0004020C0004020E000404000004040200040404000404060004040800040
310
40A0004040C0004040E00040600000406020004060400040606000406080004060A0004060C0004060E00040800000408020004080400040806000408080004080A0004080C0004080E00040A0000040A0200040A0400040A0600040A0800040A0A00040A0C00040A0E00040C0000040C0200040C0400040C0600040C08000
310
40C0A00040C0C00040C0E00040E0000040E0200040E0400040E0600040E0800040E0A00040E0C00040E0E00080000000800020008000400080006000800080008000A0008000C0008000E00080200000802020008020400080206000802080008020A0008020C0008020E00080400000804020008040400080406000804080
310
008040A0008040C0008040E00080600000806020008060400080606000806080008060A0008060C0008060E00080800000808020008080400080806000808080008080A0008080C0008080E00080A0000080A0200080A0400080A0600080A0800080A0A00080A0C00080A0E00080C0000080C0200080C0400080C0600080C0
310
800080C0A00080C0C00080C0E00080E0000080E0200080E0400080E0600080E0800080E0A00080E0C00080E0E000C0000000C0002000C0004000C0006000C0008000C000A000C000C000C000E000C0200000C0202000C0204000C0206000C0208000C020A000C020C000C020E000C0400000C0402000C0404000C0406000C0
310
408000C040A000C040C000C040E000C0600000C0602000C0604000C0606000C0608000C060A000C060C000C060E000C0800000C0802000C0804000C0806000C0808000C080A000C080C000C080E000C0A00000C0A02000C0A04000C0A06000C0A08000C0A0A000C0A0C000C0A0E000C0C00000C0C02000C0C04000C0C06000
310
C0C08000C0C0A000F0FBFF00A4A0A000808080000000FF0000FF000000FFFF00FF000000FF00FF00FFFF0000FFFFFF00FFFFFFFFFFFFFFFFFFFFFFFFFFFFFFFFFFFFFFFFFFFFFFFFFFFFFFFFFFFFFFFFFFFFFFFFFFFFFFFFFFFFFFFFFFFFFFFFFFFFFFFFFFFFFFFFFFFFFFFFFFFFFFFFFFFFFFFFFFFFFFFFFFFFFFFFFFFFFF
310
FFFFFFFFFFFFFFFFFFFFFFFFFFFFFFFFFFFFFFFFFFFFFFFFFFFFFFFFFFFFFFFFFFFFFFFFFFFFFFFFFFFFFFFFFFFFFFFFFFFFFFFFFFFFFFFFFFFFFFFFFFFFFFFFFFFFFFFFFFFFFFFFFFFFFFFFFFFFFFFFFFFFFFFFFFFFFFFFFFFFFFFFFFFFFFFFFFFFFFFFFFFFFFFFFFFFFFFCFCFCFCFCFFFFFFFFFFFFFFFFFFFFFFFFFFFFFF
310
FFFFFFFFFFFFFFFFFFFFFFFFFCFFFFFFFCFFFFFFFFFFFFFFFFFFFFFFFFFFFFFFFFFFFFFFFCFCFCFCFCFCFCFCFCFFFFFFFCFFFFFFFFFFFFFFFFFFFFFCFCFCFCFCFCFCFCFCFFFFFFFFFFFFFFFFFCFFFFFFFCFFFFFFFFFFFFFFFFFCFCFFFFFFFFFFFFFFFFFFFFFFFFFFFFFFFFFFFCFFFFFFFCFFFFFFFFFFFFFCFCFFFFFFFFFFFF
310
FFFFFFFFFFFFFFFFFFFFFFFFFFFCFFFFFFFCFFFFFFFFFCFCFFFFFFFFFFFFFFFFFFFFFFFFFFFFFFFFFFFFFFFFFFFCFFFFFFFCFFFFFFFCFFFFFFFFFFFFFFFFFFFFFFFFFFFFFFFFFFFFFFFFFFFFFFFCFFFFFFFCFFFFFFFCFFFFFFFFFFFFFFFFFFFFFFFFFFFFFFFFFFFFFFFFFFFFFFFCFFFFFFFCFFFFFFFCFFFFFFFFFFFFFFFFFF
310
FFFFFFFFFFFFFFFFFFFFFFFFFFFFFCFFFFFFFCFFFFFFFCFFFFFFFFFFFFFFFFFFFFFFFFFFFFFFFFFFFFFFFFFFFFFFFCFFFFFFFCFFFFFFFCFFFFFFFFFFFFFFFFFFFFFFFFFFFFFFFFFFFFFFFFFFFFFFFCFFFFFFFCFFFFFFFCFFFFFFFFFFFFFFFFFFFFFFFFFFFFFFFFFFFFFFFFFFFFFFFCFFFFFFFCFFFFFFFCFFFFFFFFFFFFFFFF
310
FFFFFFFFFFFFFFFFFFFFFFFFFFFFFFFCFFFFFFFCFFFFFFFCFFFFFFFFFFFFFFFFFFFFFFFFFFFFFFFFFFFFFFFFFFFFFFFCFFFFFFFCFFFFFFFFFCFCFFFFFFFFFFFFFFFFFFFFFFFFFFFFFFFFFFFFFFFFFFFCFFFFFFFCFFFFFFFFFFFFFCFCFFFFFFFFFFFFFFFFFFFFFFFFFFFFFFFFFFFFFFFCFFFFFFFCFFFFFFFFFFFFFFFFFCFCFF
310
FFFFFFFFFFFFFFFFFFFFFFFFFFFFFFFFFCFFFFFFFCFFFFFFFFFFFFFFFFFFFFFCFCFCFCFCFCFCFCFCFFFFFFFFFFFFFFFFFCFFFFFFFCFFFFFFFFFFFFFFFFFFFFFFFFFFFFFFFFFFFFFFFCFCFCFCFCFCFCFCFCFFFFFFFCFFFFFFFFFFFFFFFFFFFFFFFFFFFFFFFFFFFFFFFFFFFFFFFFFFFFFFFCFFFFFFFCFFFFFFFFFFFFFFFFFFFF
310
FFFFFFFFFFFFFFFFFFFFFFFFFFFFFFFFFFFCFCFCFCFCFFFFFFFFFFFFFFFFFFFFFFFFFFFFFFFFFFFFFFFFFFFFFFFFFFFFFFFFFFFFFFFFFFFFFFFFFFFFFFFFFFFFFFFFFFFFFFFFFFFFFFFFFFFFFFFFFFFFFFFFFFFFFFFFFFFFFFFFFFFFFFFFFFFFFFFFFFFFFFFFFFFFFFFFFFFFFFFFFFFFFFFFFFFFFFFFFFFFFFFFFFFFFFFFFF
310
FFFFFFFFFFFFFFFFFFFFFFFFFFFFFFFFFFFFFFFFFFFFFFFFFFFFFFFFFFFFFFFFFFFFFFFFFFFFFFFFFFFFFFFFFFFFFFFFFFFFFFFFFFFFFFFF
  0
ENDTAB
  0
ENDSEC
  0
SECTION
  2
BLOCKS
  0
BLOCK
  5
1B
330
1A
100
AcDbEntity
  8
0
100
AcDbBlockBegin
  2
*MODEL_SPACE
 70
     0
 10
0.0
 20
0.0
 30
0.0
  3
*MODEL_SPACE
  1

  0
ENDBLK
  5
1C
330
1A
100
AcDbEntity
  8
0
100
AcDbBlockEnd
  0
BLOCK
  5
18
330
17
100
AcDbEntity
 67
     1
  8
0
100
AcDbBlockBegin
  2
*PAPER_SPACE
 70
     0
 10
0.0
 20
0.0
 30
0.0
  3
*PAPER_SPACE
  1

  0
ENDBLK
  5
19
330
17
100
AcDbEntity
 67
     1
  8
0
100
AcDbBlockEnd
  0
BLOCK
  5
BB
330
BA
100
AcDbEntity
  8
0
100
AcDbBlockBegin
  2
_OPEN
 70
     0
 10
0.0
 20
0.0
 30
0.0
  3
_OPEN
  1

  0
LINE
  5
BC
330
BA
100
AcDbEntity
  8
0
  6
ByBlock
 62
     0
100
AcDbLine
 10
-1.0
 20
0.1666666666666666
 30
0.0
 11
0.0
 21
0.0
 31
0.0
  0
LINE
  5
BD
330
BA
100
AcDbEntity
  8
0
  6
ByBlock
 62
     0
100
AcDbLine
 10
0.0
 20
0.0
 30
0.0
 11
-1.0
 21
-0.1666666666666666
 31
0.0
  0
LINE
  5
BE
330
BA
100
AcDbEntity
  8
0
  6
ByBlock
 62
     0
100
AcDbLine
 10
0.0
 20
0.0
 30
0.0
 11
-1.0
 21
0.0
 31
0.0
  0
ENDBLK
  5
BF
330
BA
100
AcDbEntity
  8
0
100
AcDbBlockEnd
  0
BLOCK
  5
98E9
330
98E8
100
AcDbEntity
  8
0
100
AcDbBlockBegin
  2
A$C34EE125E
 70
     0
 10
0.0
 20
0.0
 30
0.0
  3
A$C34EE125E
  1

  0
ELLIPSE
  5
98EA
330
98E8
100
AcDbEntity
  8
0
100
AcDbEllipse
 10
-0.0000004725021654
 20
3.999999853018834
 30
0.0
 11
0.0
 21
-3.0
 31
0.0
210
0.0
220
0.0
230
-1.0
 40
0.8333333333333333
 41
-2.94023473279946
 42
-0.2013579207903324
  0
LINE
  5
98EB
330
98E8
100
AcDbEntity
  8
0
100
AcDbLine
 10
-0.0000004725021654
 20
7.999999853018834
 30
0.0
 11
-0.0000004725021654
 21
-0.000000146981165
 31
0.0
  0
LINE
  5
98EC
330
98E8
100
AcDbEntity
  8
0
100
AcDbLine
 10
0.4999995274978346
 20
-0.000000146981165
 30
0.0
 11
0.4999995274978346
 21
7.999999853018834
 31
0.0
  0
LINE
  5
98ED
330
98E8
100
AcDbEntity
  8
0
100
AcDbLine
 10
-0.0000004725021654
 20
-0.000000146981165
 30
0.0
 11
0.4999995274978346
 21
-0.000000146981165
 31
0.0
  0
LINE
  5
98EE
330
98E8
100
AcDbEntity
  8
0
100
AcDbLine
 10
0.4999995274978346
 20
7.999999853018834
 30
0.0
 11
-0.0000004725021654
 21
7.999999853018834
 31
0.0
  0
ENDBLK
  5
98EF
330
98E8
100
AcDbEntity
  8
0
100
AcDbBlockEnd
  0
BLOCK
  5
D45D
330
D45C
100
AcDbEntity
  8
0
100
AcDbBlockBegin
  2
A$C4F832D76
 70
     0
 10
0.0
 20
0.0
 30
0.0
  3
A$C4F832D76
  1

  0
LINE
  5
D45E
330
D45C
100
AcDbEntity
  8
0
100
AcDbLine
 10
0.0000003096261594
 20
-0.0000002593744739
 30
0.0
 11
0.0000003096261594
 21
69.99999974062553
 31
0.0
  0
LINE
  5
D45F
330
D45C
100
AcDbEntity
  8
0
100
AcDbLine
 10
1.600000309626125
 20
-0.0000002593744739
 30
0.0
 11
1.600000309626182
 21
69.99999974062553
 31
0.0
  0
LINE
  5
D460
330
D45C
100
AcDbEntity
  8
0
100
AcDbLine
 10
0.0000003096261594
 20
1.999999740625526
 30
0.0
 11
1.600000309626125
 21
1.999999740625526
 31
0.0
  0
LINE
  5
D461
330
D45C
100
AcDbEntity
  8
0
100
AcDbLine
 10
0.0000003096261594
 20
-0.0000002593744739
 30
0.0
 11
1.600000309626125
 21
-0.0000002593744739
 31
0.0
  0
LINE
  5
D462
330
D45C
100
AcDbEntity
  8
0
100
AcDbLine
 10
1.600000309626125
 20
139.9999997406255
 30
0.0
 11
1.600000309626182
 21
69.99999974062553
 31
0.0
  0
LINE
  5
D463
330
D45C
100
AcDbEntity
  8
0
100
AcDbLine
 10
0.0000003096261594
 20
139.9999997406255
 30
0.0
 11
0.0000003096261594
 21
69.99999974062553
 31
0.0
  0
LINE
  5
D464
330
D45C
100
AcDbEntity
  8
0
100
AcDbLine
 10
0.0000003096261594
 20
139.9999997406255
 30
0.0
 11
1.600000309626125
 21
139.9999997406255
 31
0.0
  0
LINE
  5
D465
330
D45C
100
AcDbEntity
  8
0
100
AcDbLine
 10
0.0000003096261594
 20
137.9999997406255
 30
0.0
 11
1.600000309626125
 21
137.9999997406255
 31
0.0
  0
ENDBLK
  5
D466
330
D45C
100
AcDbEntity
  8
0
100
AcDbBlockEnd
  0
BLOCK
  5
DB9B
330
DB91
100
AcDbEntity
  8
0
100
AcDbBlockBegin
  2
*D3
 70
     1
 10
0.0
 20
0.0
 30
0.0
  3
*D3
  1

  0
LINE
  5
11938
330
DB91
100
AcDbEntity
  8
SUNPOU
 62
     0
370
    -2
100
AcDbLine
 10
255.2
 20
249.7
 30
0.0
 11
255.2
 21
265.5
 31
0.0
  0
LINE
  5
11939
330
DB91
100
AcDbEntity
  8
SUNPOU
 62
     0
370
    -2
100
AcDbLine
 10
350.1999999999999
 20
260.5
 30
0.0
 11
350.1999999999999
 21
265.5
 31
0.0
  0
LINE
  5
1193A
330
DB91
100
AcDbEntity
  8
SUNPOU
 62
     0
370
    -2
100
AcDbLine
 10
260.1999999999999
 20
265.0
 30
0.0
 11
345.1999999999999
 21
265.0
 31
0.0
  0
INSERT
  5
1193B
330
DB91
100
AcDbEntity
  8
SUNPOU
 62
     0
370
    -2
100
AcDbBlockReference
  2
_OPEN
 10
255.2
 20
265.0
 30
0.0
 41
5.0
 42
5.0
 43
5.0
 50
180.0
  0
INSERT
  5
1193C
330
DB91
100
AcDbEntity
  8
SUNPOU
 62
     0
370
    -2
100
AcDbBlockReference
  2
_OPEN
 10
350.1999999999999
 20
265.0
 30
0.0
 41
5.0
 42
5.0
 43
5.0
  0
MTEXT
  5
1193D
330
DB91
100
AcDbEntity
  8
SUNPOU
 62
     0
100
AcDbMText
 10
302.6999999999999
 20
269.0
 30
0.0
 40
6.0
 41
0.0
 71
     5
 72
     1
  1
\A1;95
 73
     1
 44
1.0
1001
ACAD
1000
MTEXTBEGIN
1070
    73
1070
     1
1070
    44
1040
1.0
1070
    74
1070
     0
1000
MTEXTEND
  0
POINT
  5
1193E
330
DB91
100
AcDbEntity
  8
DEFPOINTS
 62
     0
100
AcDbPoint
 10
255.2
 20
249.2
 30
0.0
  0
POINT
  5
1193F
330
DB91
100
AcDbEntity
  8
DEFPOINTS
 62
     0
100
AcDbPoint
 10
350.1999999999999
 20
260.0
 30
0.0
  0
POINT
  5
11940
330
DB91
100
AcDbEntity
  8
DEFPOINTS
 62
     0
100
AcDbPoint
 10
350.1999999999999
 20
265.0
 30
0.0
  0
ENDBLK
  5
DB9C
330
DB91
100
AcDbEntity
  8
0
100
AcDbBlockEnd
  0
BLOCK
  5
DBB4
330
DBAA
100
AcDbEntity
  8
0
100
AcDbBlockBegin
  2
*D4
 70
     1
 10
0.0
 20
0.0
 30
0.0
  3
*D4
  1

  0
LINE
  5
11941
330
DBAA
100
AcDbEntity
  8
SUNPOU
 62
     0
370
    -2
100
AcDbLine
 10
238.3999999999999
 20
226.38
 30
0.0
 11
238.3999999999999
 21
265.5
 31
0.0
  0
LINE
  5
11942
330
DBAA
100
AcDbEntity
  8
SUNPOU
 62
     0
370
    -2
100
AcDbLine
 10
255.2
 20
249.7
 30
0.0
 11
255.2
 21
265.5
 31
0.0
  0
LINE
  5
11943
330
DBAA
100
AcDbEntity
  8
SUNPOU
 62
     0
370
    -2
100
AcDbLine
 10
243.4
 20
265.0
 30
0.0
 11
250.2
 21
265.0
 31
0.0
  0
INSERT
  5
11944
330
DBAA
100
AcDbEntity
  8
SUNPOU
 62
     0
370
    -2
100
AcDbBlockReference
  2
_OPEN
 10
238.3999999999999
 20
265.0
 30
0.0
 41
5.0
 42
5.0
 43
5.0
 50
180.0
  0
INSERT
  5
11945
330
DBAA
100
AcDbEntity
  8
SUNPOU
 62
     0
370
    -2
100
AcDbBlockReference
  2
_OPEN
 10
255.2
 20
265.0
 30
0.0
 41
5.0
 42
5.0
 43
5.0
  0
MTEXT
  5
11946
330
DBAA
100
AcDbEntity
  8
SUNPOU
 62
     0
100
AcDbMText
 10
246.7999999999999
 20
269.0
 30
0.0
 40
6.0
 41
0.0
 71
     5
 72
     1
  1
\A1;17
 73
     1
 44
1.0
1001
ACAD
1000
MTEXTBEGIN
1070
    73
1070
     1
1070
    44
1040
1.0
1070
    74
1070
     0
1000
MTEXTEND
  0
POINT
  5
11947
330
DBAA
100
AcDbEntity
  8
DEFPOINTS
 62
     0
100
AcDbPoint
 10
238.3999999999999
 20
225.88
 30
0.0
  0
POINT
  5
11948
330
DBAA
100
AcDbEntity
  8
DEFPOINTS
 62
     0
100
AcDbPoint
 10
255.2
 20
249.2
 30
0.0
  0
POINT
  5
11949
330
DBAA
100
AcDbEntity
  8
DEFPOINTS
 62
     0
100
AcDbPoint
 10
255.2
 20
265.0
 30
0.0
  0
ENDBLK
  5
DBB5
330
DBAA
100
AcDbEntity
  8
0
100
AcDbBlockEnd
  0
BLOCK
  5
DBC0
330
DBB6
100
AcDbEntity
  8
0
100
AcDbBlockBegin
  2
*D5
 70
     1
 10
0.0
 20
0.0
 30
0.0
  3
*D5
  1

  0
LINE
  5
11953
330
DBB6
100
AcDbEntity
  8
SUNPOU
 62
     0
370
    -2
100
AcDbLine
 10
95.5
 20
256.0
 30
0.0
 11
150.5
 21
256.0
 31
0.0
  0
LINE
  5
11954
330
DBB6
100
AcDbEntity
  8
SUNPOU
 62
     0
370
    -2
100
AcDbLine
 10
95.5
 20
123.9999999999998
 30
0.0
 11
150.5
 21
123.9999999999998
 31
0.0
  0
LINE
  5
11955
330
DBB6
100
AcDbEntity
  8
SUNPOU
 62
     0
370
    -2
100
AcDbLine
 10
150.0
 20
251.0
 30
0.0
 11
150.0
 21
128.9999999999998
 31
0.0
  0
INSERT
  5
11956
330
DBB6
100
AcDbEntity
  8
SUNPOU
 62
     0
370
    -2
100
AcDbBlockReference
  2
_OPEN
 10
150.0
 20
256.0
 30
0.0
 41
5.0
 42
5.0
 43
5.0
 50
90.0
  0
INSERT
  5
11957
330
DBB6
100
AcDbEntity
  8
SUNPOU
 62
     0
370
    -2
100
AcDbBlockReference
  2
_OPEN
 10
150.0
 20
123.9999999999998
 30
0.0
 41
5.0
 42
5.0
 43
5.0
 50
270.0
  0
MTEXT
  5
11958
330
DBB6
100
AcDbEntity
  8
SUNPOU
 62
     0
100
AcDbMText
 10
145.9999999999999
 20
189.9999999999999
 30
0.0
 40
6.0
 41
0.0
 71
     5
 72
     1
  1
\A1;132
 11
0.0000000000000001
 21
1.0
 31
0.0
 73
     1
 44
1.0
1001
ACAD
1000
MTEXTBEGIN
1070
    73
1070
     1
1070
    44
1040
1.0
1070
    74
1070
     0
1000
MTEXTEND
  0
POINT
  5
11959
330
DBB6
100
AcDbEntity
  8
DEFPOINTS
 62
     0
100
AcDbPoint
 10
95.0
 20
256.0
 30
0.0
  0
POINT
  5
1195A
330
DBB6
100
AcDbEntity
  8
DEFPOINTS
 62
     0
100
AcDbPoint
 10
95.0
 20
123.9999999999998
 30
0.0
  0
POINT
  5
1195B
330
DBB6
100
AcDbEntity
  8
DEFPOINTS
 62
     0
100
AcDbPoint
 10
150.0
 20
123.9999999999998
 30
0.0
  0
ENDBLK
  5
DBC1
330
DBB6
100
AcDbEntity
  8
0
100
AcDbBlockEnd
  0
BLOCK
  5
DBCC
330
DBC2
100
AcDbEntity
  8
0
100
AcDbBlockBegin
  2
*D6
 70
     1
 10
0.0
 20
0.0
 30
0.0
  3
*D6
  1

  0
LINE
  5
1195C
330
DBC2
100
AcDbEntity
  8
SUNPOU
 62
     0
370
    -2
100
AcDbLine
 10
120.9999999999999
 20
260.0000000000001
 30
0.0
 11
160.5
 21
260.0
 31
0.0
  0
LINE
  5
1195D
330
DBC2
100
AcDbEntity
  8
SUNPOU
 62
     0
370
    -2
100
AcDbLine
 10
120.9999999999999
 20
119.9999999999997
 30
0.0
 11
160.5
 21
119.9999999999997
 31
0.0
  0
LINE
  5
1195E
330
DBC2
100
AcDbEntity
  8
SUNPOU
 62
     0
370
    -2
100
AcDbLine
 10
160.0
 20
255.0000000000001
 30
0.0
 11
160.0
 21
124.9999999999997
 31
0.0
  0
INSERT
  5
1195F
330
DBC2
100
AcDbEntity
  8
SUNPOU
 62
     0
370
    -2
100
AcDbBlockReference
  2
_OPEN
 10
160.0
 20
260.0
 30
0.0
 41
5.0
 42
5.0
 43
5.0
 50
90.0
  0
INSERT
  5
11960
330
DBC2
100
AcDbEntity
  8
SUNPOU
 62
     0
370
    -2
100
AcDbBlockReference
  2
_OPEN
 10
160.0
 20
119.9999999999997
 30
0.0
 41
5.0
 42
5.0
 43
5.0
 50
270.0
  0
MTEXT
  5
11961
330
DBC2
100
AcDbEntity
  8
SUNPOU
 62
     0
100
AcDbMText
 10
156.0
 20
189.9999999999999
 30
0.0
 40
6.0
 41
0.0
 71
     5
 72
     1
  1
\A1;140
 11
0.0000000000000001
 21
1.0
 31
0.0
 73
     1
 44
1.0
1001
ACAD
1000
MTEXTBEGIN
1070
    73
1070
     1
1070
    44
1040
1.0
1070
    74
1070
     0
1000
MTEXTEND
  0
POINT
  5
11962
330
DBC2
100
AcDbEntity
  8
DEFPOINTS
 62
     0
100
AcDbPoint
 10
120.4999999999999
 20
260.0000000000001
 30
0.0
  0
POINT
  5
11963
330
DBC2
100
AcDbEntity
  8
DEFPOINTS
 62
     0
100
AcDbPoint
 10
120.4999999999999
 20
119.9999999999997
 30
0.0
  0
POINT
  5
11964
330
DBC2
100
AcDbEntity
  8
DEFPOINTS
 62
     0
100
AcDbPoint
 10
160.0
 20
119.9999999999997
 30
0.0
  0
ENDBLK
  5
DBCD
330
DBC2
100
AcDbEntity
  8
0
100
AcDbBlockEnd
  0
BLOCK
  5
DBD8
330
DBCE
100
AcDbEntity
  8
0
100
AcDbBlockBegin
  2
*D7
 70
     1
 10
0.0
 20
0.0
 30
0.0
  3
*D7
  1

  0
LINE
  5
1194A
330
DBCE
100
AcDbEntity
  8
SUNPOU
 62
     0
370
    -2
100
AcDbLine
 10
122.9999999999999
 20
250.0
 30
0.0
 11
140.5
 21
250.0
 31
0.0
  0
LINE
  5
1194B
330
DBCE
100
AcDbEntity
  8
SUNPOU
 62
     0
370
    -2
100
AcDbLine
 10
122.9999999999999
 20
129.9999999999999
 30
0.0
 11
140.5
 21
129.9999999999999
 31
0.0
  0
LINE
  5
1194C
330
DBCE
100
AcDbEntity
  8
SUNPOU
 62
     0
370
    -2
100
AcDbLine
 10
140.0
 20
245.0
 30
0.0
 11
140.0
 21
134.9999999999999
 31
0.0
  0
INSERT
  5
1194D
330
DBCE
100
AcDbEntity
  8
SUNPOU
 62
     0
370
    -2
100
AcDbBlockReference
  2
_OPEN
 10
140.0
 20
250.0
 30
0.0
 41
5.0
 42
5.0
 43
5.0
 50
90.0
  0
INSERT
  5
1194E
330
DBCE
100
AcDbEntity
  8
SUNPOU
 62
     0
370
    -2
100
AcDbBlockReference
  2
_OPEN
 10
140.0
 20
129.9999999999999
 30
0.0
 41
5.0
 42
5.0
 43
5.0
 50
270.0
  0
MTEXT
  5
1194F
330
DBCE
100
AcDbEntity
  8
SUNPOU
 62
     0
100
AcDbMText
 10
135.9999999999999
 20
189.9999999999999
 30
0.0
 40
6.0
 41
0.0
 71
     5
 72
     1
  1
\A1;120
 11
0.0000000000000001
 21
1.0
 31
0.0
 73
     1
 44
1.0
1001
ACAD
1000
MTEXTBEGIN
1070
    73
1070
     1
1070
    44
1040
1.0
1070
    74
1070
     0
1000
MTEXTEND
  0
POINT
  5
11950
330
DBCE
100
AcDbEntity
  8
DEFPOINTS
 62
     0
100
AcDbPoint
 10
122.4999999999999
 20
250.0
 30
0.0
  0
POINT
  5
11951
330
DBCE
100
AcDbEntity
  8
DEFPOINTS
 62
     0
100
AcDbPoint
 10
122.4999999999999
 20
129.9999999999999
 30
0.0
  0
POINT
  5
11952
330
DBCE
100
AcDbEntity
  8
DEFPOINTS
 62
     0
100
AcDbPoint
 10
140.0
 20
129.9999999999999
 30
0.0
  0
ENDBLK
  5
DBD9
330
DBCE
100
AcDbEntity
  8
0
100
AcDbBlockEnd
  0
BLOCK
  5
DBE4
330
DBDA
100
AcDbEntity
  8
0
100
AcDbBlockBegin
  2
*D8
 70
     1
 10
0.0
 20
0.0
 30
0.0
  3
*D8
  1

  0
LINE
  5
11965
330
DBDA
100
AcDbEntity
  8
SUNPOU
 62
     0
370
    -2
100
AcDbLine
 10
67.5
 20
121.4999999999999
 30
0.0
 11
67.5
 21
99.50000000000001
 31
0.0
  0
LINE
  5
11966
330
DBDA
100
AcDbEntity
  8
SUNPOU
 62
     0
370
    -2
100
AcDbLine
 10
122.4999999999999
 20
121.4999999999997
 30
0.0
 11
122.4999999999999
 21
99.50000000000001
 31
0.0
  0
LINE
  5
11967
330
DBDA
100
AcDbEntity
  8
SUNPOU
 62
     0
370
    -2
100
AcDbLine
 10
72.5
 20
100.0
 30
0.0
 11
117.4999999999999
 21
100.0
 31
0.0
  0
INSERT
  5
11968
330
DBDA
100
AcDbEntity
  8
SUNPOU
 62
     0
370
    -2
100
AcDbBlockReference
  2
_OPEN
 10
67.5
 20
100.0
 30
0.0
 41
5.0
 42
5.0
 43
5.0
 50
180.0
  0
INSERT
  5
11969
330
DBDA
100
AcDbEntity
  8
SUNPOU
 62
     0
370
    -2
100
AcDbBlockReference
  2
_OPEN
 10
122.4999999999999
 20
100.0
 30
0.0
 41
5.0
 42
5.0
 43
5.0
  0
MTEXT
  5
1196A
330
DBDA
100
AcDbEntity
  8
SUNPOU
 62
     0
100
AcDbMText
 10
94.99999999999998
 20
104.0
 30
0.0
 40
6.0
 41
0.0
 71
     5
 72
     1
  1
\A1;55
 73
     1
 44
1.0
1001
ACAD
1000
MTEXTBEGIN
1070
    73
1070
     1
1070
    44
1040
1.0
1070
    74
1070
     0
1000
MTEXTEND
  0
POINT
  5
1196B
330
DBDA
100
AcDbEntity
  8
DEFPOINTS
 62
     0
100
AcDbPoint
 10
67.5
 20
121.9999999999999
 30
0.0
  0
POINT
  5
1196C
330
DBDA
100
AcDbEntity
  8
DEFPOINTS
 62
     0
100
AcDbPoint
 10
122.4999999999999
 20
121.9999999999997
 30
0.0
  0
POINT
  5
1196D
330
DBDA
100
AcDbEntity
  8
DEFPOINTS
 62
     0
100
AcDbPoint
 10
122.4999999999999
 20
100.0
 30
0.0
  0
ENDBLK
  5
DBE5
330
DBDA
100
AcDbEntity
  8
0
100
AcDbBlockEnd
  0
BLOCK
  5
F1C8
330
F1C7
100
AcDbEntity
  8
0
100
AcDbBlockBegin
  2
TM-14P-1
 70
     0
 10
0.0
 20
0.0
 30
0.0
  3
TM-14P-1
  1

  0
LINE
  5
F1CA
330
F1C7
100
AcDbEntity
  8
0
100
AcDbLine
 10
12.00000000000001
 20
54.92999999999994
 30
0.0
 11
11.99999999999995
 21
-54.93000000000001
 31
0.0
  0
LINE
  5
F1CB
330
F1C7
100
AcDbEntity
  8
0
100
AcDbLine
 10
0.0000000000000426
 20
54.93000000000001
 30
0.0
 11
-0.0000000000000426
 21
-54.93000000000001
 31
0.0
  0
LINE
  5
F1CC
330
F1C7
100
AcDbEntity
  8
0
100
AcDbLine
 10
11.09999999999998
 20
-15.85000000000002
 30
0.0
 11
11.09999999999998
 21
-22.25000000000012
 31
0.0
  0
CIRCLE
  5
F1CD
330
F1C7
100
AcDbEntity
  8
0
100
AcDbCircle
 10
6.500000000000042
 20
-19.05000000000007
 30
0.0
 40
2.75
  0
LINE
  5
F1CE
330
F1C7
100
AcDbEntity
  8
0
100
AcDbLine
 10
3.500000000000014
 20
-15.85000000000008
 30
0.0
 11
3.500000000000014
 21
-22.25000000000006
 31
0.0
  0
LINE
  5
F1CF
330
F1C7
100
AcDbEntity
  8
0
100
AcDbLine
 10
9.500000000000014
 20
-15.85000000000008
 30
0.0
 11
9.500000000000014
 21
-22.25000000000012
 31
0.0
  0
LINE
  5
F1D0
330
F1C7
100
AcDbEntity
  8
0
100
AcDbLine
 10
1.899999999999991
 20
-15.85000000000008
 30
0.0
 11
1.899999999999991
 21
-22.25
 31
0.0
  0
LINE
  5
F1D1
330
F1C7
100
AcDbEntity
  8
0
100
AcDbLine
 10
11.09999999999998
 20
-38.71000000000004
 30
0.0
 11
11.09999999999998
 21
-45.11000000000012
 31
0.0
  0
CIRCLE
  5
F1D2
330
F1C7
100
AcDbEntity
  8
0
100
AcDbCircle
 10
6.500000000000014
 20
-41.91000000000008
 30
0.0
 40
2.75
  0
LINE
  5
F1D3
330
F1C7
100
AcDbEntity
  8
0
100
AcDbLine
 10
3.500000000000014
 20
-38.71000000000009
 30
0.0
 11
3.500000000000014
 21
-45.11000000000007
 31
0.0
  0
LINE
  5
F1D4
330
F1C7
100
AcDbEntity
  8
0
100
AcDbLine
 10
9.500000000000014
 20
-38.71000000000009
 30
0.0
 11
9.500000000000014
 21
-45.11000000000012
 31
0.0
  0
LINE
  5
F1D5
330
F1C7
100
AcDbEntity
  8
0
100
AcDbLine
 10
1.899999999999991
 20
-38.71000000000009
 30
0.0
 11
1.899999999999991
 21
-45.11000000000001
 31
0.0
  0
LINE
  5
F1D6
330
F1C7
100
AcDbEntity
  8
0
100
AcDbLine
 10
0.0000000000000142
 20
-46.33000000000015
 30
0.0
 11
12.00000000000001
 21
-46.33000000000009
 31
0.0
  0
LINE
  5
F1D7
330
F1C7
100
AcDbEntity
  8
0
100
AcDbLine
 10
0.0000000000000142
 20
-45.11000000000001
 30
0.0
 11
12.00000000000001
 21
-45.11000000000007
 31
0.0
  0
LINE
  5
F1D8
330
F1C7
100
AcDbEntity
  8
0
100
AcDbLine
 10
0.0000000000000142
 20
-52.73000000000002
 30
0.0
 11
12.00000000000001
 21
-52.73000000000007
 31
0.0
  0
LINE
  5
F1D9
330
F1C7
100
AcDbEntity
  8
0
100
AcDbLine
 10
-0.0000000000000426
 20
-54.93000000000001
 30
0.0
 11
11.99999999999995
 21
-54.93000000000001
 31
0.0
  0
LINE
  5
F1DA
330
F1C7
100
AcDbEntity
  8
0
100
AcDbLine
 10
-0.0000000000000426
 20
-53.93
 30
0.0
 11
11.99999999999995
 21
-53.93
 31
0.0
  0
CIRCLE
  5
F1DB
330
F1C7
100
AcDbEntity
  8
0
100
AcDbCircle
 10
6.500000000000014
 20
-49.53000000000009
 30
0.0
 40
2.75
  0
LINE
  5
F1DC
330
F1C7
100
AcDbEntity
  8
0
100
AcDbLine
 10
3.300000000000025
 20
-48.78000000000008
 30
0.0
 11
3.300000000000025
 21
-50.28000000000009
 31
0.0
  0
LINE
  5
F1DD
330
F1C7
100
AcDbEntity
  8
0
100
AcDbLine
 10
2.500000000000014
 20
-48.78000000000008
 30
0.0
 11
2.500000000000014
 21
-50.28000000000009
 31
0.0
  0
LINE
  5
F1DE
330
F1C7
100
AcDbEntity
  8
0
100
AcDbLine
 10
2.700000000000002
 20
-48.03000000000008
 30
0.0
 11
2.700000000000002
 21
-51.03000000000008
 31
0.0
  0
LINE
  5
F1DF
330
F1C7
100
AcDbEntity
  8
0
100
AcDbLine
 10
1.899999999999991
 20
-46.33000000000009
 30
0.0
 11
1.899999999999991
 21
-52.73000000000002
 31
0.0
  0
LINE
  5
F1E0
330
F1C7
100
AcDbEntity
  8
0
100
AcDbLine
 10
3.500000000000014
 20
-46.33000000000009
 30
0.0
 11
3.500000000000014
 21
-52.73000000000002
 31
0.0
  0
LINE
  5
F1E1
330
F1C7
100
AcDbEntity
  8
0
100
AcDbLine
 10
2.500000000000014
 20
-50.28000000000014
 30
0.0
 11
3.300000000000025
 21
-50.28000000000009
 31
0.0
  0
LINE
  5
F1E2
330
F1C7
100
AcDbEntity
  8
0
100
AcDbLine
 10
2.700000000000002
 20
-51.03000000000008
 30
0.0
 11
3.500000000000014
 21
-51.03000000000008
 31
0.0
  0
LINE
  5
F1E3
330
F1C7
100
AcDbEntity
  8
0
100
AcDbLine
 10
2.700000000000002
 20
-40.41000000000008
 30
0.0
 11
3.500000000000014
 21
-40.41000000000008
 31
0.0
  0
LINE
  5
F1E4
330
F1C7
100
AcDbEntity
  8
0
100
AcDbLine
 10
2.700000000000002
 20
-43.41000000000008
 30
0.0
 11
3.500000000000014
 21
-43.41000000000008
 31
0.0
  0
LINE
  5
F1E5
330
F1C7
100
AcDbEntity
  8
0
100
AcDbLine
 10
3.300000000000025
 20
-41.16000000000008
 30
0.0
 11
3.300000000000025
 21
-42.66000000000008
 31
0.0
  0
LINE
  5
F1E6
330
F1C7
100
AcDbEntity
  8
0
100
AcDbLine
 10
2.700000000000002
 20
-40.41000000000008
 30
0.0
 11
2.700000000000002
 21
-43.41000000000008
 31
0.0
  0
LINE
  5
F1E7
330
F1C7
100
AcDbEntity
  8
0
100
AcDbLine
 10
2.700000000000002
 20
-48.03000000000008
 30
0.0
 11
3.500000000000014
 21
-48.03000000000008
 31
0.0
  0
LINE
  5
F1E8
330
F1C7
100
AcDbEntity
  8
0
100
AcDbLine
 10
2.500000000000014
 20
-41.16000000000008
 30
0.0
 11
2.500000000000014
 21
-42.66000000000008
 31
0.0
  0
LINE
  5
F1E9
330
F1C7
100
AcDbEntity
  8
0
100
AcDbLine
 10
2.500000000000014
 20
-41.16000000000008
 30
0.0
 11
3.300000000000025
 21
-41.16000000000008
 31
0.0
  0
LINE
  5
F1EA
330
F1C7
100
AcDbEntity
  8
0
100
AcDbLine
 10
2.500000000000014
 20
-42.66000000000014
 30
0.0
 11
3.300000000000025
 21
-42.66000000000008
 31
0.0
  0
LINE
  5
F1EB
330
F1C7
100
AcDbEntity
  8
0
100
AcDbLine
 10
2.500000000000014
 20
-48.78000000000008
 30
0.0
 11
3.300000000000025
 21
-48.78000000000008
 31
0.0
  0
LINE
  5
F1EC
330
F1C7
100
AcDbEntity
  8
0
100
AcDbLine
 10
10.29999999999997
 20
-48.03000000000008
 30
0.0
 11
10.29999999999997
 21
-51.03000000000008
 31
0.0
  0
LINE
  5
F1ED
330
F1C7
100
AcDbEntity
  8
0
100
AcDbLine
 10
11.09999999999998
 20
-46.33000000000004
 30
0.0
 11
11.09999999999998
 21
-52.73000000000013
 31
0.0
  0
LINE
  5
F1EE
330
F1C7
100
AcDbEntity
  8
0
100
AcDbLine
 10
9.500000000000014
 20
-46.33000000000004
 30
0.0
 11
9.500000000000014
 21
-52.73000000000013
 31
0.0
  0
LINE
  5
F1EF
330
F1C7
100
AcDbEntity
  8
SUNPOU
100
AcDbLine
 10
8.000000000000014
 20
-48.03000000000008
 30
0.0
 11
5.000000000000014
 21
-51.03000000000008
 31
0.0
  0
LINE
  5
F1F0
330
F1C7
100
AcDbEntity
  8
SUNPOU
100
AcDbLine
 10
8.000000000000014
 20
-51.03000000000008
 30
0.0
 11
5.000000000000014
 21
-48.03000000000008
 31
0.0
  0
LINE
  5
F1F1
330
F1C7
100
AcDbEntity
  8
0
100
AcDbLine
 10
9.500000000000014
 20
-51.03000000000008
 30
0.0
 11
10.29999999999997
 21
-51.03000000000008
 31
0.0
  0
LINE
  5
F1F2
330
F1C7
100
AcDbEntity
  8
0
100
AcDbLine
 10
9.500000000000014
 20
-40.41000000000008
 30
0.0
 11
10.29999999999997
 21
-40.41000000000008
 31
0.0
  0
LINE
  5
F1F3
330
F1C7
100
AcDbEntity
  8
0
100
AcDbLine
 10
9.500000000000014
 20
-43.41000000000008
 30
0.0
 11
10.29999999999997
 21
-43.41000000000008
 31
0.0
  0
LINE
  5
F1F4
330
F1C7
100
AcDbEntity
  8
0
100
AcDbLine
 10
10.29999999999997
 20
-40.41000000000008
 30
0.0
 11
10.29999999999997
 21
-43.41000000000008
 31
0.0
  0
LINE
  5
F1F5
330
F1C7
100
AcDbEntity
  8
SUNPOU
100
AcDbLine
 10
8.000000000000014
 20
-43.41000000000008
 30
0.0
 11
5.000000000000014
 21
-40.41000000000008
 31
0.0
  0
LINE
  5
F1F6
330
F1C7
100
AcDbEntity
  8
SUNPOU
100
AcDbLine
 10
8.000000000000014
 20
-40.41000000000008
 30
0.0
 11
5.000000000000014
 21
-43.41000000000008
 31
0.0
  0
LINE
  5
F1F7
330
F1C7
100
AcDbEntity
  8
0
100
AcDbLine
 10
9.500000000000014
 20
-48.03000000000008
 30
0.0
 11
10.29999999999997
 21
-48.03000000000008
 31
0.0
  0
LINE
  5
F1F8
330
F1C7
100
AcDbEntity
  8
0
100
AcDbLine
 10
0.0000000000000142
 20
-23.47000000000014
 30
0.0
 11
12.00000000000001
 21
-23.47000000000008
 31
0.0
  0
LINE
  5
F1F9
330
F1C7
100
AcDbEntity
  8
0
100
AcDbLine
 10
0.0000000000000142
 20
-22.25
 30
0.0
 11
12.00000000000001
 21
-22.25000000000006
 31
0.0
  0
CIRCLE
  5
F1FA
330
F1C7
100
AcDbEntity
  8
0
100
AcDbCircle
 10
6.500000000000042
 20
-34.29000000000008
 30
0.0
 40
2.75
  0
LINE
  5
F1FB
330
F1C7
100
AcDbEntity
  8
0
100
AcDbLine
 10
0.0000000000000142
 20
-31.09000000000015
 30
0.0
 11
12.00000000000001
 21
-31.09000000000009
 31
0.0
  0
LINE
  5
F1FC
330
F1C7
100
AcDbEntity
  8
0
100
AcDbLine
 10
0.0000000000000142
 20
-29.87
 30
0.0
 11
12.00000000000001
 21
-29.87000000000006
 31
0.0
  0
LINE
  5
F1FD
330
F1C7
100
AcDbEntity
  8
0
100
AcDbLine
 10
0.0000000000000142
 20
-37.5100000000001
 30
0.0
 11
12.00000000000001
 21
-37.5100000000001
 31
0.0
  0
LINE
  5
F1FE
330
F1C7
100
AcDbEntity
  8
0
100
AcDbLine
 10
0.0000000000000142
 20
-38.71000000000015
 30
0.0
 11
12.00000000000001
 21
-38.71000000000009
 31
0.0
  0
CIRCLE
  5
F1FF
330
F1C7
100
AcDbEntity
  8
0
100
AcDbCircle
 10
6.500000000000042
 20
-26.67000000000007
 30
0.0
 40
2.75
  0
LINE
  5
F200
330
F1C7
100
AcDbEntity
  8
0
100
AcDbLine
 10
2.700000000000002
 20
-32.79000000000008
 30
0.0
 11
3.500000000000014
 21
-32.79000000000008
 31
0.0
  0
LINE
  5
F201
330
F1C7
100
AcDbEntity
  8
0
100
AcDbLine
 10
2.700000000000002
 20
-35.79000000000008
 30
0.0
 11
3.500000000000014
 21
-35.79000000000008
 31
0.0
  0
LINE
  5
F202
330
F1C7
100
AcDbEntity
  8
0
100
AcDbLine
 10
3.300000000000025
 20
-33.54000000000008
 30
0.0
 11
3.300000000000025
 21
-35.04000000000008
 31
0.0
  0
LINE
  5
F203
330
F1C7
100
AcDbEntity
  8
0
100
AcDbLine
 10
3.500000000000014
 20
-31.09000000000009
 30
0.0
 11
3.500000000000014
 21
-37.49000000000012
 31
0.0
  0
LINE
  5
F204
330
F1C7
100
AcDbEntity
  8
0
100
AcDbLine
 10
2.700000000000002
 20
-32.79000000000008
 30
0.0
 11
2.700000000000002
 21
-35.79000000000008
 31
0.0
  0
LINE
  5
F205
330
F1C7
100
AcDbEntity
  8
0
100
AcDbLine
 10
2.500000000000014
 20
-33.54000000000008
 30
0.0
 11
2.500000000000014
 21
-35.04000000000008
 31
0.0
  0
LINE
  5
F206
330
F1C7
100
AcDbEntity
  8
0
100
AcDbLine
 10
1.899999999999991
 20
-31.09000000000009
 30
0.0
 11
1.899999999999991
 21
-37.49000000000001
 31
0.0
  0
LINE
  5
F207
330
F1C7
100
AcDbEntity
  8
0
100
AcDbLine
 10
2.500000000000014
 20
-33.54000000000008
 30
0.0
 11
3.300000000000025
 21
-33.54000000000008
 31
0.0
  0
LINE
  5
F208
330
F1C7
100
AcDbEntity
  8
0
100
AcDbLine
 10
2.500000000000014
 20
-35.04000000000014
 30
0.0
 11
3.300000000000025
 21
-35.04000000000008
 31
0.0
  0
LINE
  5
F209
330
F1C7
100
AcDbEntity
  8
0
100
AcDbLine
 10
2.700000000000002
 20
-25.17000000000007
 30
0.0
 11
3.500000000000014
 21
-25.17000000000007
 31
0.0
  0
LINE
  5
F20A
330
F1C7
100
AcDbEntity
  8
0
100
AcDbLine
 10
2.500000000000014
 20
-25.92000000000008
 30
0.0
 11
3.300000000000025
 21
-25.92000000000008
 31
0.0
  0
LINE
  5
F20B
330
F1C7
100
AcDbEntity
  8
0
100
AcDbLine
 10
2.700000000000002
 20
-28.17000000000007
 30
0.0
 11
3.500000000000014
 21
-28.17000000000007
 31
0.0
  0
LINE
  5
F20C
330
F1C7
100
AcDbEntity
  8
0
100
AcDbLine
 10
2.500000000000014
 20
-27.42000000000013
 30
0.0
 11
3.300000000000025
 21
-27.42000000000007
 31
0.0
  0
LINE
  5
F20D
330
F1C7
100
AcDbEntity
  8
0
100
AcDbLine
 10
2.700000000000002
 20
-25.17000000000007
 30
0.0
 11
2.700000000000002
 21
-28.17000000000007
 31
0.0
  0
LINE
  5
F20E
330
F1C7
100
AcDbEntity
  8
0
100
AcDbLine
 10
3.300000000000025
 20
-25.92000000000008
 30
0.0
 11
3.300000000000025
 21
-27.42000000000007
 31
0.0
  0
LINE
  5
F20F
330
F1C7
100
AcDbEntity
  8
0
100
AcDbLine
 10
2.500000000000014
 20
-25.92000000000008
 30
0.0
 11
2.500000000000014
 21
-27.42000000000007
 31
0.0
  0
LINE
  5
F210
330
F1C7
100
AcDbEntity
  8
0
100
AcDbLine
 10
1.899999999999991
 20
-23.47000000000008
 30
0.0
 11
1.899999999999991
 21
-29.87
 31
0.0
  0
LINE
  5
F211
330
F1C7
100
AcDbEntity
  8
0
100
AcDbLine
 10
3.500000000000014
 20
-23.47000000000008
 30
0.0
 11
3.500000000000014
 21
-29.87
 31
0.0
  0
LINE
  5
F212
330
F1C7
100
AcDbEntity
  8
0
100
AcDbLine
 10
11.09999999999998
 20
-31.09000000000003
 30
0.0
 11
11.09999999999998
 21
-37.49000000000012
 31
0.0
  0
LINE
  5
F213
330
F1C7
100
AcDbEntity
  8
0
100
AcDbLine
 10
9.500000000000014
 20
-32.79000000000008
 30
0.0
 11
10.29999999999997
 21
-32.79000000000008
 31
0.0
  0
LINE
  5
F214
330
F1C7
100
AcDbEntity
  8
0
100
AcDbLine
 10
9.500000000000014
 20
-35.79000000000008
 30
0.0
 11
10.29999999999997
 21
-35.79000000000008
 31
0.0
  0
LINE
  5
F215
330
F1C7
100
AcDbEntity
  8
0
100
AcDbLine
 10
9.500000000000014
 20
-31.09000000000003
 30
0.0
 11
9.500000000000014
 21
-37.49000000000012
 31
0.0
  0
LINE
  5
F216
330
F1C7
100
AcDbEntity
  8
0
100
AcDbLine
 10
9.500000000000014
 20
-31.09000000000003
 30
0.0
 11
9.500000000000014
 21
-37.49000000000012
 31
0.0
  0
LINE
  5
F217
330
F1C7
100
AcDbEntity
  8
SUNPOU
100
AcDbLine
 10
8.000000000000014
 20
-32.79000000000008
 30
0.0
 11
5.000000000000014
 21
-35.79000000000008
 31
0.0
  0
LINE
  5
F218
330
F1C7
100
AcDbEntity
  8
SUNPOU
100
AcDbLine
 10
8.000000000000014
 20
-35.79000000000008
 30
0.0
 11
5.000000000000014
 21
-32.79000000000008
 31
0.0
  0
LINE
  5
F219
330
F1C7
100
AcDbEntity
  8
0
100
AcDbLine
 10
10.29999999999997
 20
-32.79000000000008
 30
0.0
 11
10.29999999999997
 21
-35.79000000000008
 31
0.0
  0
LINE
  5
F21A
330
F1C7
100
AcDbEntity
  8
0
100
AcDbLine
 10
9.500000000000014
 20
-25.17000000000007
 30
0.0
 11
10.29999999999997
 21
-25.17000000000007
 31
0.0
  0
LINE
  5
F21B
330
F1C7
100
AcDbEntity
  8
0
100
AcDbLine
 10
9.500000000000014
 20
-28.17000000000007
 30
0.0
 11
10.29999999999997
 21
-28.17000000000007
 31
0.0
  0
LINE
  5
F21C
330
F1C7
100
AcDbEntity
  8
0
100
AcDbLine
 10
10.29999999999997
 20
-25.17000000000007
 30
0.0
 11
10.29999999999997
 21
-28.17000000000007
 31
0.0
  0
LINE
  5
F21D
330
F1C7
100
AcDbEntity
  8
SUNPOU
100
AcDbLine
 10
8.000000000000014
 20
-25.17000000000007
 30
0.0
 11
5.000000000000014
 21
-28.17000000000007
 31
0.0
  0
LINE
  5
F21E
330
F1C7
100
AcDbEntity
  8
SUNPOU
100
AcDbLine
 10
8.000000000000014
 20
-28.17000000000007
 30
0.0
 11
5.000000000000014
 21
-25.17000000000007
 31
0.0
  0
LINE
  5
F21F
330
F1C7
100
AcDbEntity
  8
0
100
AcDbLine
 10
11.09999999999998
 20
-23.47000000000003
 30
0.0
 11
11.09999999999998
 21
-29.87000000000012
 31
0.0
  0
LINE
  5
F220
330
F1C7
100
AcDbEntity
  8
0
100
AcDbLine
 10
9.500000000000014
 20
-23.47000000000003
 30
0.0
 11
9.500000000000014
 21
-29.87000000000012
 31
0.0
  0
CIRCLE
  5
F221
330
F1C7
100
AcDbEntity
  8
0
100
AcDbCircle
 10
6.500000000000042
 20
19.04999999999995
 30
0.0
 40
2.75
  0
LINE
  5
F222
330
F1C7
100
AcDbEntity
  8
0
100
AcDbLine
 10
3.500000000000014
 20
22.24999999999994
 30
0.0
 11
3.500000000000014
 21
15.85000000000002
 31
0.0
  0
LINE
  5
F223
330
F1C7
100
AcDbEntity
  8
0
100
AcDbLine
 10
1.899999999999991
 20
22.24999999999994
 30
0.0
 11
1.899999999999991
 21
15.85000000000002
 31
0.0
  0
LINE
  5
F224
330
F1C7
100
AcDbEntity
  8
0
100
AcDbLine
 10
2.500000000000014
 20
19.79999999999995
 30
0.0
 11
2.500000000000014
 21
18.29999999999995
 31
0.0
  0
LINE
  5
F225
330
F1C7
100
AcDbEntity
  8
0
100
AcDbLine
 10
3.300000000000025
 20
19.79999999999995
 30
0.0
 11
3.300000000000025
 21
18.29999999999995
 31
0.0
  0
LINE
  5
F226
330
F1C7
100
AcDbEntity
  8
0
100
AcDbLine
 10
2.700000000000002
 20
20.54999999999996
 30
0.0
 11
2.700000000000002
 21
17.54999999999995
 31
0.0
  0
LINE
  5
F227
330
F1C7
100
AcDbEntity
  8
0
100
AcDbLine
 10
9.500000000000014
 20
22.25
 30
0.0
 11
9.500000000000014
 21
15.84999999999991
 31
0.0
  0
LINE
  5
F228
330
F1C7
100
AcDbEntity
  8
0
100
AcDbLine
 10
11.09999999999998
 20
22.25
 30
0.0
 11
11.09999999999998
 21
15.84999999999991
 31
0.0
  0
LINE
  5
F229
330
F1C7
100
AcDbEntity
  8
SUNPOU
100
AcDbLine
 10
8.000000000000014
 20
17.54999999999995
 30
0.0
 11
5.000000000000014
 21
20.54999999999996
 31
0.0
  0
LINE
  5
F22A
330
F1C7
100
AcDbEntity
  8
SUNPOU
100
AcDbLine
 10
8.000000000000014
 20
20.54999999999996
 30
0.0
 11
5.000000000000014
 21
17.54999999999995
 31
0.0
  0
LINE
  5
F22B
330
F1C7
100
AcDbEntity
  8
0
100
AcDbLine
 10
10.30000000000002
 20
20.54999999999996
 30
0.0
 11
10.30000000000002
 21
17.54999999999995
 31
0.0
  0
LINE
  5
F22C
330
F1C7
100
AcDbEntity
  8
0
100
AcDbLine
 10
3.500000000000014
 20
-0.6100000000000705
 30
0.0
 11
3.500000000000014
 21
-7.00999999999999
 31
0.0
  0
LINE
  5
F22D
330
F1C7
100
AcDbEntity
  8
0
100
AcDbLine
 10
1.899999999999991
 20
-0.6100000000000705
 30
0.0
 11
1.899999999999991
 21
-7.00999999999999
 31
0.0
  0
LINE
  5
F22E
330
F1C7
100
AcDbEntity
  8
0
100
AcDbLine
 10
9.500000000000014
 20
-0.6100000000000137
 30
0.0
 11
9.500000000000014
 21
-7.010000000000104
 31
0.0
  0
LINE
  5
F22F
330
F1C7
100
AcDbEntity
  8
0
100
AcDbLine
 10
11.09999999999998
 20
-0.6100000000000137
 30
0.0
 11
11.09999999999998
 21
-7.010000000000104
 31
0.0
  0
CIRCLE
  5
F230
330
F1C7
100
AcDbEntity
  8
0
100
AcDbCircle
 10
6.500000000000042
 20
-11.43000000000006
 30
0.0
 40
2.75
  0
LINE
  5
F231
330
F1C7
100
AcDbEntity
  8
0
100
AcDbLine
 10
0.0000000000000142
 20
-15.85000000000013
 30
0.0
 11
12.00000000000001
 21
-15.85000000000008
 31
0.0
  0
LINE
  5
F232
330
F1C7
100
AcDbEntity
  8
0
100
AcDbLine
 10
0.0000000000000142
 20
-14.65000000000009
 30
0.0
 11
12.00000000000001
 21
-14.65000000000009
 31
0.0
  0
LINE
  5
F233
330
F1C7
100
AcDbEntity
  8
0
100
AcDbLine
 10
0.0000000000000142
 20
-8.230000000000131
 30
0.0
 11
12.00000000000001
 21
-8.230000000000075
 31
0.0
  0
LINE
  5
F234
330
F1C7
100
AcDbEntity
  8
0
100
AcDbLine
 10
0.0000000000000142
 20
-7.00999999999999
 30
0.0
 11
12.00000000000001
 21
-7.010000000000047
 31
0.0
  0
CIRCLE
  5
F235
330
F1C7
100
AcDbEntity
  8
0
100
AcDbCircle
 10
6.500000000000042
 20
-3.810000000000059
 30
0.0
 40
2.75
  0
LINE
  5
F236
330
F1C7
100
AcDbEntity
  8
0
100
AcDbLine
 10
3.300000000000025
 20
-10.68000000000006
 30
0.0
 11
3.300000000000025
 21
-12.18000000000006
 31
0.0
  0
LINE
  5
F237
330
F1C7
100
AcDbEntity
  8
0
100
AcDbLine
 10
2.700000000000002
 20
-9.930000000000063
 30
0.0
 11
2.700000000000002
 21
-12.93000000000006
 31
0.0
  0
LINE
  5
F238
330
F1C7
100
AcDbEntity
  8
0
100
AcDbLine
 10
3.500000000000014
 20
-8.230000000000075
 30
0.0
 11
3.500000000000014
 21
-14.63000000000011
 31
0.0
  0
LINE
  5
F239
330
F1C7
100
AcDbEntity
  8
0
100
AcDbLine
 10
2.500000000000014
 20
-10.68000000000006
 30
0.0
 11
2.500000000000014
 21
-12.18000000000006
 31
0.0
  0
LINE
  5
F23A
330
F1C7
100
AcDbEntity
  8
0
100
AcDbLine
 10
1.899999999999991
 20
-8.230000000000075
 30
0.0
 11
1.899999999999991
 21
-14.62999999999999
 31
0.0
  0
LINE
  5
F23B
330
F1C7
100
AcDbEntity
  8
0
100
AcDbLine
 10
2.700000000000002
 20
-12.93000000000006
 30
0.0
 11
3.500000000000014
 21
-12.93000000000006
 31
0.0
  0
LINE
  5
F23C
330
F1C7
100
AcDbEntity
  8
0
100
AcDbLine
 10
2.700000000000002
 20
-17.55000000000007
 30
0.0
 11
2.700000000000002
 21
-20.55000000000007
 31
0.0
  0
LINE
  5
F23D
330
F1C7
100
AcDbEntity
  8
0
100
AcDbLine
 10
2.700000000000002
 20
-17.55000000000007
 30
0.0
 11
3.500000000000014
 21
-17.55000000000007
 31
0.0
  0
LINE
  5
F23E
330
F1C7
100
AcDbEntity
  8
0
100
AcDbLine
 10
3.300000000000025
 20
-18.30000000000007
 30
0.0
 11
3.300000000000025
 21
-19.80000000000007
 31
0.0
  0
LINE
  5
F23F
330
F1C7
100
AcDbEntity
  8
0
100
AcDbLine
 10
2.700000000000002
 20
-20.55000000000007
 30
0.0
 11
3.500000000000014
 21
-20.55000000000007
 31
0.0
  0
LINE
  5
F240
330
F1C7
100
AcDbEntity
  8
0
100
AcDbLine
 10
2.500000000000014
 20
-18.30000000000007
 30
0.0
 11
2.500000000000014
 21
-19.80000000000007
 31
0.0
  0
LINE
  5
F241
330
F1C7
100
AcDbEntity
  8
0
100
AcDbLine
 10
2.500000000000014
 20
-19.80000000000012
 30
0.0
 11
3.300000000000025
 21
-19.80000000000007
 31
0.0
  0
LINE
  5
F242
330
F1C7
100
AcDbEntity
  8
0
100
AcDbLine
 10
2.500000000000014
 20
-18.30000000000007
 30
0.0
 11
3.300000000000025
 21
-18.30000000000007
 31
0.0
  0
LINE
  5
F243
330
F1C7
100
AcDbEntity
  8
0
100
AcDbLine
 10
2.500000000000014
 20
-12.18000000000012
 30
0.0
 11
3.300000000000025
 21
-12.18000000000006
 31
0.0
  0
LINE
  5
F244
330
F1C7
100
AcDbEntity
  8
0
100
AcDbLine
 10
2.700000000000002
 20
-2.310000000000059
 30
0.0
 11
3.500000000000014
 21
-2.310000000000059
 31
0.0
  0
LINE
  5
F245
330
F1C7
100
AcDbEntity
  8
0
100
AcDbLine
 10
2.500000000000014
 20
-3.060000000000059
 30
0.0
 11
3.300000000000025
 21
-3.060000000000059
 31
0.0
  0
LINE
  5
F246
330
F1C7
100
AcDbEntity
  8
0
100
AcDbLine
 10
2.700000000000002
 20
-5.310000000000059
 30
0.0
 11
3.500000000000014
 21
-5.310000000000059
 31
0.0
  0
LINE
  5
F247
330
F1C7
100
AcDbEntity
  8
0
100
AcDbLine
 10
2.700000000000002
 20
-9.930000000000063
 30
0.0
 11
3.500000000000014
 21
-9.930000000000063
 31
0.0
  0
LINE
  5
F248
330
F1C7
100
AcDbEntity
  8
0
100
AcDbLine
 10
2.500000000000014
 20
-4.560000000000115
 30
0.0
 11
3.300000000000025
 21
-4.560000000000059
 31
0.0
  0
LINE
  5
F249
330
F1C7
100
AcDbEntity
  8
0
100
AcDbLine
 10
2.500000000000014
 20
-10.68000000000006
 30
0.0
 11
3.300000000000025
 21
-10.68000000000006
 31
0.0
  0
LINE
  5
F24A
330
F1C7
100
AcDbEntity
  8
0
100
AcDbLine
 10
2.500000000000014
 20
-3.060000000000059
 30
0.0
 11
2.500000000000014
 21
-4.560000000000059
 31
0.0
  0
LINE
  5
F24B
330
F1C7
100
AcDbEntity
  8
0
100
AcDbLine
 10
3.300000000000025
 20
-3.060000000000059
 30
0.0
 11
3.300000000000025
 21
-4.560000000000059
 31
0.0
  0
LINE
  5
F24C
330
F1C7
100
AcDbEntity
  8
0
100
AcDbLine
 10
2.700000000000002
 20
-2.310000000000059
 30
0.0
 11
2.700000000000002
 21
-5.310000000000059
 31
0.0
  0
LINE
  5
F24D
330
F1C7
100
AcDbEntity
  8
0
100
AcDbLine
 10
11.09999999999998
 20
-8.230000000000018
 30
0.0
 11
11.09999999999998
 21
-14.63000000000011
 31
0.0
  0
LINE
  5
F24E
330
F1C7
100
AcDbEntity
  8
0
100
AcDbLine
 10
10.29999999999997
 20
-9.930000000000063
 30
0.0
 11
10.29999999999997
 21
-12.93000000000006
 31
0.0
  0
LINE
  5
F24F
330
F1C7
100
AcDbEntity
  8
SUNPOU
100
AcDbLine
 10
8.000000000000014
 20
-12.93000000000006
 30
0.0
 11
5.000000000000014
 21
-9.930000000000063
 31
0.0
  0
LINE
  5
F250
330
F1C7
100
AcDbEntity
  8
SUNPOU
100
AcDbLine
 10
8.000000000000014
 20
-9.930000000000063
 30
0.0
 11
5.000000000000014
 21
-12.93000000000006
 31
0.0
  0
LINE
  5
F251
330
F1C7
100
AcDbEntity
  8
0
100
AcDbLine
 10
9.500000000000014
 20
-8.230000000000018
 30
0.0
 11
9.500000000000014
 21
-14.63000000000011
 31
0.0
  0
LINE
  5
F252
330
F1C7
100
AcDbEntity
  8
0
100
AcDbLine
 10
9.500000000000014
 20
-8.230000000000018
 30
0.0
 11
9.500000000000014
 21
-14.63000000000011
 31
0.0
  0
LINE
  5
F253
330
F1C7
100
AcDbEntity
  8
0
100
AcDbLine
 10
9.500000000000014
 20
-12.93000000000006
 30
0.0
 11
10.29999999999997
 21
-12.93000000000006
 31
0.0
  0
LINE
  5
F254
330
F1C7
100
AcDbEntity
  8
0
100
AcDbLine
 10
9.500000000000014
 20
-17.55000000000007
 30
0.0
 11
10.29999999999997
 21
-17.55000000000007
 31
0.0
  0
LINE
  5
F255
330
F1C7
100
AcDbEntity
  8
0
100
AcDbLine
 10
9.500000000000014
 20
-20.55000000000007
 30
0.0
 11
10.29999999999997
 21
-20.55000000000007
 31
0.0
  0
LINE
  5
F256
330
F1C7
100
AcDbEntity
  8
0
100
AcDbLine
 10
10.29999999999997
 20
-17.55000000000007
 30
0.0
 11
10.29999999999997
 21
-20.55000000000007
 31
0.0
  0
LINE
  5
F257
330
F1C7
100
AcDbEntity
  8
SUNPOU
100
AcDbLine
 10
8.000000000000014
 20
-20.55000000000007
 30
0.0
 11
5.000000000000014
 21
-17.55000000000007
 31
0.0
  0
LINE
  5
F258
330
F1C7
100
AcDbEntity
  8
SUNPOU
100
AcDbLine
 10
8.000000000000014
 20
-17.55000000000007
 30
0.0
 11
5.000000000000014
 21
-20.55000000000007
 31
0.0
  0
LINE
  5
F259
330
F1C7
100
AcDbEntity
  8
0
100
AcDbLine
 10
9.500000000000014
 20
-2.310000000000059
 30
0.0
 11
10.30000000000002
 21
-2.310000000000059
 31
0.0
  0
LINE
  5
F25A
330
F1C7
100
AcDbEntity
  8
0
100
AcDbLine
 10
9.500000000000014
 20
-5.310000000000059
 30
0.0
 11
10.30000000000002
 21
-5.310000000000059
 31
0.0
  0
LINE
  5
F25B
330
F1C7
100
AcDbEntity
  8
0
100
AcDbLine
 10
9.500000000000014
 20
-9.930000000000063
 30
0.0
 11
10.29999999999997
 21
-9.930000000000063
 31
0.0
  0
LINE
  5
F25C
330
F1C7
100
AcDbEntity
  8
SUNPOU
100
AcDbLine
 10
8.000000000000014
 20
-5.310000000000059
 30
0.0
 11
5.000000000000014
 21
-2.310000000000059
 31
0.0
  0
LINE
  5
F25D
330
F1C7
100
AcDbEntity
  8
SUNPOU
100
AcDbLine
 10
8.000000000000014
 20
-2.310000000000059
 30
0.0
 11
5.000000000000014
 21
-5.310000000000059
 31
0.0
  0
LINE
  5
F25E
330
F1C7
100
AcDbEntity
  8
0
100
AcDbLine
 10
10.30000000000002
 20
-2.310000000000059
 30
0.0
 11
10.30000000000002
 21
-5.310000000000059
 31
0.0
  0
CIRCLE
  5
F25F
330
F1C7
100
AcDbEntity
  8
0
100
AcDbCircle
 10
6.500000000000042
 20
11.42999999999995
 30
0.0
 40
2.75
  0
CIRCLE
  5
F260
330
F1C7
100
AcDbEntity
  8
0
100
AcDbCircle
 10
6.500000000000042
 20
3.809999999999945
 30
0.0
 40
2.75
  0
LINE
  5
F261
330
F1C7
100
AcDbEntity
  8
0
100
AcDbLine
 10
0.0000000000000142
 20
7.009999999999877
 30
0.0
 11
12.00000000000001
 21
7.009999999999934
 31
0.0
  0
LINE
  5
F262
330
F1C7
100
AcDbEntity
  8
0
100
AcDbLine
 10
0.0000000000000142
 20
8.209999999999922
 30
0.0
 11
12.00000000000001
 21
8.209999999999922
 31
0.0
  0
LINE
  5
F263
330
F1C7
100
AcDbEntity
  8
0
100
AcDbLine
 10
0.0000000000000142
 20
0.6100000000000137
 30
0.0
 11
12.00000000000001
 21
0.6099999999999568
 31
0.0
  0
LINE
  5
F264
330
F1C7
100
AcDbEntity
  8
0
100
AcDbLine
 10
0.0000000000000142
 20
-0.6100000000001274
 30
0.0
 11
12.00000000000001
 21
-0.6100000000000705
 31
0.0
  0
LINE
  5
F265
330
F1C7
100
AcDbEntity
  8
0
100
AcDbLine
 10
0.0000000000000142
 20
15.85000000000002
 30
0.0
 11
12.00000000000001
 21
15.84999999999996
 31
0.0
  0
LINE
  5
F266
330
F1C7
100
AcDbEntity
  8
0
100
AcDbLine
 10
0.0000000000000142
 20
14.62999999999988
 30
0.0
 11
12.00000000000001
 21
14.62999999999994
 31
0.0
  0
LINE
  5
F267
330
F1C7
100
AcDbEntity
  8
0
100
AcDbLine
 10
3.500000000000014
 20
14.62999999999994
 30
0.0
 11
3.500000000000014
 21
8.229999999999904
 31
0.0
  0
LINE
  5
F268
330
F1C7
100
AcDbEntity
  8
0
100
AcDbLine
 10
1.899999999999991
 20
14.62999999999994
 30
0.0
 11
1.899999999999991
 21
8.230000000000018
 31
0.0
  0
LINE
  5
F269
330
F1C7
100
AcDbEntity
  8
0
100
AcDbLine
 10
2.700000000000002
 20
5.309999999999945
 30
0.0
 11
2.700000000000002
 21
2.309999999999945
 31
0.0
  0
LINE
  5
F26A
330
F1C7
100
AcDbEntity
  8
0
100
AcDbLine
 10
2.700000000000002
 20
5.309999999999945
 30
0.0
 11
3.500000000000014
 21
5.309999999999945
 31
0.0
  0
LINE
  5
F26B
330
F1C7
100
AcDbEntity
  8
0
100
AcDbLine
 10
2.700000000000002
 20
2.309999999999945
 30
0.0
 11
3.500000000000014
 21
2.309999999999945
 31
0.0
  0
LINE
  5
F26C
330
F1C7
100
AcDbEntity
  8
0
100
AcDbLine
 10
3.300000000000025
 20
4.559999999999945
 30
0.0
 11
3.300000000000025
 21
3.059999999999945
 31
0.0
  0
LINE
  5
F26D
330
F1C7
100
AcDbEntity
  8
0
100
AcDbLine
 10
3.500000000000014
 20
7.009999999999934
 30
0.0
 11
3.500000000000014
 21
0.6099999999999568
 31
0.0
  0
LINE
  5
F26E
330
F1C7
100
AcDbEntity
  8
0
100
AcDbLine
 10
2.500000000000014
 20
4.559999999999945
 30
0.0
 11
2.500000000000014
 21
3.059999999999945
 31
0.0
  0
LINE
  5
F26F
330
F1C7
100
AcDbEntity
  8
0
100
AcDbLine
 10
1.899999999999991
 20
7.009999999999934
 30
0.0
 11
1.899999999999991
 21
0.6100000000000137
 31
0.0
  0
LINE
  5
F270
330
F1C7
100
AcDbEntity
  8
0
100
AcDbLine
 10
2.500000000000014
 20
4.559999999999945
 30
0.0
 11
3.300000000000025
 21
4.559999999999945
 31
0.0
  0
LINE
  5
F271
330
F1C7
100
AcDbEntity
  8
0
100
AcDbLine
 10
2.500000000000014
 20
3.059999999999888
 30
0.0
 11
3.300000000000025
 21
3.059999999999945
 31
0.0
  0
LINE
  5
F272
330
F1C7
100
AcDbEntity
  8
0
100
AcDbLine
 10
2.700000000000002
 20
17.54999999999995
 30
0.0
 11
3.500000000000014
 21
17.54999999999995
 31
0.0
  0
LINE
  5
F273
330
F1C7
100
AcDbEntity
  8
0
100
AcDbLine
 10
2.700000000000002
 20
9.929999999999949
 30
0.0
 11
3.500000000000014
 21
9.929999999999949
 31
0.0
  0
LINE
  5
F274
330
F1C7
100
AcDbEntity
  8
0
100
AcDbLine
 10
2.700000000000002
 20
12.92999999999995
 30
0.0
 11
3.500000000000014
 21
12.92999999999995
 31
0.0
  0
LINE
  5
F275
330
F1C7
100
AcDbEntity
  8
0
100
AcDbLine
 10
3.300000000000025
 20
12.17999999999995
 30
0.0
 11
3.300000000000025
 21
10.67999999999995
 31
0.0
  0
LINE
  5
F276
330
F1C7
100
AcDbEntity
  8
0
100
AcDbLine
 10
2.700000000000002
 20
12.92999999999995
 30
0.0
 11
2.700000000000002
 21
9.929999999999949
 31
0.0
  0
LINE
  5
F277
330
F1C7
100
AcDbEntity
  8
0
100
AcDbLine
 10
2.500000000000014
 20
12.17999999999995
 30
0.0
 11
2.500000000000014
 21
10.67999999999995
 31
0.0
  0
LINE
  5
F278
330
F1C7
100
AcDbEntity
  8
0
100
AcDbLine
 10
2.500000000000014
 20
18.2999999999999
 30
0.0
 11
3.300000000000025
 21
18.29999999999995
 31
0.0
  0
LINE
  5
F279
330
F1C7
100
AcDbEntity
  8
0
100
AcDbLine
 10
2.500000000000014
 20
10.67999999999989
 30
0.0
 11
3.300000000000025
 21
10.67999999999995
 31
0.0
  0
LINE
  5
F27A
330
F1C7
100
AcDbEntity
  8
0
100
AcDbLine
 10
2.500000000000014
 20
12.17999999999995
 30
0.0
 11
3.300000000000025
 21
12.17999999999995
 31
0.0
  0
LINE
  5
F27B
330
F1C7
100
AcDbEntity
  8
0
100
AcDbLine
 10
11.09999999999998
 20
14.62999999999999
 30
0.0
 11
11.09999999999998
 21
8.229999999999904
 31
0.0
  0
LINE
  5
F27C
330
F1C7
100
AcDbEntity
  8
0
100
AcDbLine
 10
9.500000000000014
 20
14.62999999999999
 30
0.0
 11
9.500000000000014
 21
8.229999999999904
 31
0.0
  0
LINE
  5
F27D
330
F1C7
100
AcDbEntity
  8
0
100
AcDbLine
 10
9.500000000000014
 20
14.62999999999999
 30
0.0
 11
9.500000000000014
 21
8.229999999999904
 31
0.0
  0
LINE
  5
F27E
330
F1C7
100
AcDbEntity
  8
0
100
AcDbLine
 10
11.09999999999998
 20
7.00999999999999
 30
0.0
 11
11.09999999999998
 21
0.6099999999999
 31
0.0
  0
LINE
  5
F27F
330
F1C7
100
AcDbEntity
  8
0
100
AcDbLine
 10
9.500000000000014
 20
5.309999999999945
 30
0.0
 11
10.30000000000002
 21
5.309999999999945
 31
0.0
  0
LINE
  5
F280
330
F1C7
100
AcDbEntity
  8
0
100
AcDbLine
 10
9.500000000000014
 20
2.309999999999945
 30
0.0
 11
10.30000000000002
 21
2.309999999999945
 31
0.0
  0
LINE
  5
F281
330
F1C7
100
AcDbEntity
  8
0
100
AcDbLine
 10
10.30000000000002
 20
5.309999999999945
 30
0.0
 11
10.30000000000002
 21
2.309999999999945
 31
0.0
  0
LINE
  5
F282
330
F1C7
100
AcDbEntity
  8
SUNPOU
100
AcDbLine
 10
8.000000000000014
 20
5.309999999999945
 30
0.0
 11
5.000000000000014
 21
2.309999999999945
 31
0.0
  0
LINE
  5
F283
330
F1C7
100
AcDbEntity
  8
SUNPOU
100
AcDbLine
 10
8.000000000000014
 20
2.309999999999945
 30
0.0
 11
5.000000000000014
 21
5.309999999999945
 31
0.0
  0
LINE
  5
F284
330
F1C7
100
AcDbEntity
  8
0
100
AcDbLine
 10
9.500000000000014
 20
7.009999999999934
 30
0.0
 11
9.500000000000014
 21
0.6099999999999
 31
0.0
  0
LINE
  5
F285
330
F1C7
100
AcDbEntity
  8
0
100
AcDbLine
 10
9.500000000000014
 20
17.54999999999995
 30
0.0
 11
10.30000000000002
 21
17.54999999999995
 31
0.0
  0
LINE
  5
F286
330
F1C7
100
AcDbEntity
  8
0
100
AcDbLine
 10
9.500000000000014
 20
9.929999999999949
 30
0.0
 11
10.30000000000002
 21
9.929999999999949
 31
0.0
  0
LINE
  5
F287
330
F1C7
100
AcDbEntity
  8
0
100
AcDbLine
 10
9.500000000000014
 20
12.92999999999995
 30
0.0
 11
10.30000000000002
 21
12.92999999999995
 31
0.0
  0
LINE
  5
F288
330
F1C7
100
AcDbEntity
  8
0
100
AcDbLine
 10
10.30000000000002
 20
12.92999999999995
 30
0.0
 11
10.30000000000002
 21
9.929999999999949
 31
0.0
  0
LINE
  5
F289
330
F1C7
100
AcDbEntity
  8
SUNPOU
100
AcDbLine
 10
8.000000000000014
 20
9.929999999999949
 30
0.0
 11
5.000000000000014
 21
12.92999999999995
 31
0.0
  0
LINE
  5
F28A
330
F1C7
100
AcDbEntity
  8
SUNPOU
100
AcDbLine
 10
8.000000000000014
 20
12.92999999999995
 30
0.0
 11
5.000000000000014
 21
9.929999999999949
 31
0.0
  0
CIRCLE
  5
F28B
330
F1C7
100
AcDbEntity
  8
0
100
AcDbCircle
 10
6.500000000000042
 20
34.28999999999997
 30
0.0
 40
2.75
  0
CIRCLE
  5
F28C
330
F1C7
100
AcDbEntity
  8
0
100
AcDbCircle
 10
6.500000000000042
 20
26.66999999999996
 30
0.0
 40
2.75
  0
LINE
  5
F28D
330
F1C7
100
AcDbEntity
  8
0
100
AcDbLine
 10
0.0000000000000142
 20
29.86999999999989
 30
0.0
 11
12.00000000000001
 21
29.86999999999995
 31
0.0
  0
LINE
  5
F28E
330
F1C7
100
AcDbEntity
  8
0
100
AcDbLine
 10
0.0000000000000142
 20
23.44999999999993
 30
0.0
 11
12.00000000000001
 21
23.44999999999993
 31
0.0
  0
LINE
  5
F28F
330
F1C7
100
AcDbEntity
  8
0
100
AcDbLine
 10
0.0000000000000142
 20
22.24999999999988
 30
0.0
 11
12.00000000000001
 21
22.24999999999994
 31
0.0
  0
LINE
  5
F290
330
F1C7
100
AcDbEntity
  8
0
100
AcDbLine
 10
0.0000000000000142
 20
31.09000000000003
 30
0.0
 11
12.00000000000001
 21
31.08999999999998
 31
0.0
  0
LINE
  5
F291
330
F1C7
100
AcDbEntity
  8
0
100
AcDbLine
 10
0.0000000000000142
 20
37.4899999999999
 30
0.0
 11
12.00000000000001
 21
37.48999999999995
 31
0.0
  0
LINE
  5
F292
330
F1C7
100
AcDbEntity
  8
0
100
AcDbLine
 10
3.500000000000014
 20
29.86999999999995
 30
0.0
 11
3.500000000000014
 21
23.46999999999991
 31
0.0
  0
LINE
  5
F293
330
F1C7
100
AcDbEntity
  8
0
100
AcDbLine
 10
1.899999999999991
 20
29.86999999999995
 30
0.0
 11
1.899999999999991
 21
23.47000000000003
 31
0.0
  0
LINE
  5
F294
330
F1C7
100
AcDbEntity
  8
0
100
AcDbLine
 10
3.300000000000025
 20
27.41999999999996
 30
0.0
 11
3.300000000000025
 21
25.91999999999996
 31
0.0
  0
LINE
  5
F295
330
F1C7
100
AcDbEntity
  8
0
100
AcDbLine
 10
2.700000000000002
 20
28.16999999999996
 30
0.0
 11
3.500000000000014
 21
28.16999999999996
 31
0.0
  0
LINE
  5
F296
330
F1C7
100
AcDbEntity
  8
0
100
AcDbLine
 10
2.700000000000002
 20
25.16999999999996
 30
0.0
 11
3.500000000000014
 21
25.16999999999996
 31
0.0
  0
LINE
  5
F297
330
F1C7
100
AcDbEntity
  8
0
100
AcDbLine
 10
2.700000000000002
 20
28.16999999999996
 30
0.0
 11
2.700000000000002
 21
25.16999999999996
 31
0.0
  0
LINE
  5
F298
330
F1C7
100
AcDbEntity
  8
0
100
AcDbLine
 10
2.700000000000002
 20
20.54999999999996
 30
0.0
 11
3.500000000000014
 21
20.54999999999996
 31
0.0
  0
LINE
  5
F299
330
F1C7
100
AcDbEntity
  8
0
100
AcDbLine
 10
2.500000000000014
 20
27.41999999999996
 30
0.0
 11
2.500000000000014
 21
25.91999999999996
 31
0.0
  0
LINE
  5
F29A
330
F1C7
100
AcDbEntity
  8
0
100
AcDbLine
 10
2.500000000000014
 20
19.79999999999995
 30
0.0
 11
3.300000000000025
 21
19.79999999999995
 31
0.0
  0
LINE
  5
F29B
330
F1C7
100
AcDbEntity
  8
0
100
AcDbLine
 10
2.500000000000014
 20
27.41999999999996
 30
0.0
 11
3.300000000000025
 21
27.41999999999996
 31
0.0
  0
LINE
  5
F29C
330
F1C7
100
AcDbEntity
  8
0
100
AcDbLine
 10
2.500000000000014
 20
25.9199999999999
 30
0.0
 11
3.300000000000025
 21
25.91999999999996
 31
0.0
  0
LINE
  5
F29D
330
F1C7
100
AcDbEntity
  8
0
100
AcDbLine
 10
2.700000000000002
 20
35.78999999999997
 30
0.0
 11
2.700000000000002
 21
32.78999999999996
 31
0.0
  0
LINE
  5
F29E
330
F1C7
100
AcDbEntity
  8
0
100
AcDbLine
 10
3.300000000000025
 20
35.03999999999996
 30
0.0
 11
3.300000000000025
 21
33.53999999999996
 31
0.0
  0
LINE
  5
F29F
330
F1C7
100
AcDbEntity
  8
0
100
AcDbLine
 10
2.700000000000002
 20
32.78999999999996
 30
0.0
 11
3.500000000000014
 21
32.78999999999996
 31
0.0
  0
LINE
  5
F2A0
330
F1C7
100
AcDbEntity
  8
0
100
AcDbLine
 10
2.700000000000002
 20
35.78999999999997
 30
0.0
 11
3.500000000000014
 21
35.78999999999997
 31
0.0
  0
LINE
  5
F2A1
330
F1C7
100
AcDbEntity
  8
0
100
AcDbLine
 10
3.500000000000014
 20
37.48999999999995
 30
0.0
 11
3.500000000000014
 21
31.09000000000003
 31
0.0
  0
LINE
  5
F2A2
330
F1C7
100
AcDbEntity
  8
0
100
AcDbLine
 10
2.500000000000014
 20
35.03999999999996
 30
0.0
 11
2.500000000000014
 21
33.53999999999996
 31
0.0
  0
LINE
  5
F2A3
330
F1C7
100
AcDbEntity
  8
0
100
AcDbLine
 10
1.899999999999991
 20
37.48999999999995
 30
0.0
 11
1.899999999999991
 21
31.09000000000003
 31
0.0
  0
LINE
  5
F2A4
330
F1C7
100
AcDbEntity
  8
0
100
AcDbLine
 10
2.500000000000014
 20
33.53999999999991
 30
0.0
 11
3.300000000000025
 21
33.53999999999996
 31
0.0
  0
LINE
  5
F2A5
330
F1C7
100
AcDbEntity
  8
0
100
AcDbLine
 10
2.500000000000014
 20
35.03999999999996
 30
0.0
 11
3.300000000000025
 21
35.03999999999996
 31
0.0
  0
LINE
  5
F2A6
330
F1C7
100
AcDbEntity
  8
0
100
AcDbLine
 10
11.09999999999998
 20
29.87
 30
0.0
 11
11.09999999999998
 21
23.46999999999991
 31
0.0
  0
LINE
  5
F2A7
330
F1C7
100
AcDbEntity
  8
0
100
AcDbLine
 10
9.500000000000014
 20
29.87
 30
0.0
 11
9.500000000000014
 21
23.46999999999991
 31
0.0
  0
LINE
  5
F2A8
330
F1C7
100
AcDbEntity
  8
0
100
AcDbLine
 10
9.500000000000014
 20
29.87
 30
0.0
 11
9.500000000000014
 21
23.46999999999991
 31
0.0
  0
LINE
  5
F2A9
330
F1C7
100
AcDbEntity
  8
0
100
AcDbLine
 10
9.500000000000014
 20
28.16999999999996
 30
0.0
 11
10.30000000000002
 21
28.16999999999996
 31
0.0
  0
LINE
  5
F2AA
330
F1C7
100
AcDbEntity
  8
0
100
AcDbLine
 10
9.500000000000014
 20
25.16999999999996
 30
0.0
 11
10.30000000000002
 21
25.16999999999996
 31
0.0
  0
LINE
  5
F2AB
330
F1C7
100
AcDbEntity
  8
0
100
AcDbLine
 10
10.30000000000002
 20
28.16999999999996
 30
0.0
 11
10.30000000000002
 21
25.16999999999996
 31
0.0
  0
LINE
  5
F2AC
330
F1C7
100
AcDbEntity
  8
SUNPOU
100
AcDbLine
 10
8.000000000000014
 20
28.16999999999996
 30
0.0
 11
5.000000000000014
 21
25.16999999999996
 31
0.0
  0
LINE
  5
F2AD
330
F1C7
100
AcDbEntity
  8
SUNPOU
100
AcDbLine
 10
8.000000000000014
 20
25.16999999999996
 30
0.0
 11
5.000000000000014
 21
28.16999999999996
 31
0.0
  0
LINE
  5
F2AE
330
F1C7
100
AcDbEntity
  8
0
100
AcDbLine
 10
9.500000000000014
 20
20.54999999999996
 30
0.0
 11
10.30000000000002
 21
20.54999999999996
 31
0.0
  0
LINE
  5
F2AF
330
F1C7
100
AcDbEntity
  8
0
100
AcDbLine
 10
11.09999999999998
 20
37.49000000000001
 30
0.0
 11
11.09999999999998
 21
31.08999999999992
 31
0.0
  0
LINE
  5
F2B0
330
F1C7
100
AcDbEntity
  8
0
100
AcDbLine
 10
10.30000000000002
 20
35.78999999999997
 30
0.0
 11
10.30000000000002
 21
32.78999999999996
 31
0.0
  0
LINE
  5
F2B1
330
F1C7
100
AcDbEntity
  8
0
100
AcDbLine
 10
9.500000000000014
 20
32.78999999999996
 30
0.0
 11
10.30000000000002
 21
32.78999999999996
 31
0.0
  0
LINE
  5
F2B2
330
F1C7
100
AcDbEntity
  8
0
100
AcDbLine
 10
9.500000000000014
 20
35.78999999999997
 30
0.0
 11
10.30000000000002
 21
35.78999999999997
 31
0.0
  0
LINE
  5
F2B3
330
F1C7
100
AcDbEntity
  8
SUNPOU
100
AcDbLine
 10
8.000000000000014
 20
35.78999999999997
 30
0.0
 11
5.000000000000014
 21
32.78999999999996
 31
0.0
  0
LINE
  5
F2B4
330
F1C7
100
AcDbEntity
  8
SUNPOU
100
AcDbLine
 10
8.000000000000014
 20
32.78999999999996
 30
0.0
 11
5.000000000000014
 21
35.78999999999997
 31
0.0
  0
LINE
  5
F2B5
330
F1C7
100
AcDbEntity
  8
0
100
AcDbLine
 10
9.500000000000014
 20
37.49000000000001
 30
0.0
 11
9.500000000000014
 21
31.08999999999992
 31
0.0
  0
LINE
  5
F2B6
330
F1C7
100
AcDbEntity
  8
0
100
AcDbLine
 10
0.0000000000000142
 20
46.30999999999994
 30
0.0
 11
12.00000000000001
 21
46.30999999999994
 31
0.0
  0
LINE
  5
F2B7
330
F1C7
100
AcDbEntity
  8
0
100
AcDbLine
 10
0.0000000000000142
 20
45.1099999999999
 30
0.0
 11
12.00000000000001
 21
45.10999999999995
 31
0.0
  0
CIRCLE
  5
F2B8
330
F1C7
100
AcDbEntity
  8
0
100
AcDbCircle
 10
6.500000000000042
 20
41.90999999999997
 30
0.0
 40
2.75
  0
CIRCLE
  5
F2B9
330
F1C7
100
AcDbEntity
  8
0
100
AcDbCircle
 10
6.500000000000042
 20
49.52999999999997
 30
0.0
 40
2.75
  0
LINE
  5
F2BA
330
F1C7
100
AcDbEntity
  8
0
100
AcDbLine
 10
0.0000000000000142
 20
52.7299999999999
 30
0.0
 11
12.00000000000001
 21
52.72999999999996
 31
0.0
  0
LINE
  5
F2BB
330
F1C7
100
AcDbEntity
  8
0
100
AcDbLine
 10
0.0000000000000426
 20
54.93000000000001
 30
0.0
 11
12.00000000000001
 21
54.92999999999994
 31
0.0
  0
LINE
  5
F2BC
330
F1C7
100
AcDbEntity
  8
0
100
AcDbLine
 10
0.0000000000000426
 20
53.93
 30
0.0
 11
12.00000000000001
 21
53.93
 31
0.0
  0
LINE
  5
F2BD
330
F1C7
100
AcDbEntity
  8
0
100
AcDbLine
 10
0.0000000000000142
 20
38.68999999999994
 30
0.0
 11
12.00000000000001
 21
38.68999999999994
 31
0.0
  0
LINE
  5
F2BE
330
F1C7
100
AcDbEntity
  8
0
100
AcDbLine
 10
2.700000000000002
 20
51.02999999999997
 30
0.0
 11
2.700000000000002
 21
48.02999999999997
 31
0.0
  0
LINE
  5
F2BF
330
F1C7
100
AcDbEntity
  8
0
100
AcDbLine
 10
3.500000000000014
 20
52.72999999999996
 30
0.0
 11
3.500000000000014
 21
46.32999999999992
 31
0.0
  0
LINE
  5
F2C0
330
F1C7
100
AcDbEntity
  8
0
100
AcDbLine
 10
1.899999999999991
 20
52.72999999999996
 30
0.0
 11
1.899999999999991
 21
46.33000000000004
 31
0.0
  0
LINE
  5
F2C1
330
F1C7
100
AcDbEntity
  8
0
100
AcDbLine
 10
2.500000000000014
 20
42.65999999999997
 30
0.0
 11
3.300000000000025
 21
42.65999999999997
 31
0.0
  0
LINE
  5
F2C2
330
F1C7
100
AcDbEntity
  8
0
100
AcDbLine
 10
2.500000000000014
 20
41.15999999999991
 30
0.0
 11
3.300000000000025
 21
41.15999999999996
 31
0.0
  0
LINE
  5
F2C3
330
F1C7
100
AcDbEntity
  8
0
100
AcDbLine
 10
1.899999999999991
 20
45.10999999999995
 30
0.0
 11
1.899999999999991
 21
38.71000000000004
 31
0.0
  0
LINE
  5
F2C4
330
F1C7
100
AcDbEntity
  8
0
100
AcDbLine
 10
2.500000000000014
 20
42.65999999999997
 30
0.0
 11
2.500000000000014
 21
41.15999999999996
 31
0.0
  0
LINE
  5
F2C5
330
F1C7
100
AcDbEntity
  8
0
100
AcDbLine
 10
3.500000000000014
 20
45.10999999999995
 30
0.0
 11
3.500000000000014
 21
38.71000000000004
 31
0.0
  0
LINE
  5
F2C6
330
F1C7
100
AcDbEntity
  8
0
100
AcDbLine
 10
2.700000000000002
 20
43.40999999999996
 30
0.0
 11
3.500000000000014
 21
43.40999999999996
 31
0.0
  0
LINE
  5
F2C7
330
F1C7
100
AcDbEntity
  8
0
100
AcDbLine
 10
2.700000000000002
 20
40.40999999999996
 30
0.0
 11
3.500000000000014
 21
40.40999999999996
 31
0.0
  0
LINE
  5
F2C8
330
F1C7
100
AcDbEntity
  8
0
100
AcDbLine
 10
3.300000000000025
 20
42.65999999999997
 30
0.0
 11
3.300000000000025
 21
41.15999999999996
 31
0.0
  0
LINE
  5
F2C9
330
F1C7
100
AcDbEntity
  8
0
100
AcDbLine
 10
2.700000000000002
 20
43.40999999999996
 30
0.0
 11
2.700000000000002
 21
40.40999999999996
 31
0.0
  0
LINE
  5
F2CA
330
F1C7
100
AcDbEntity
  8
0
100
AcDbLine
 10
2.700000000000002
 20
48.02999999999997
 30
0.0
 11
3.500000000000014
 21
48.02999999999997
 31
0.0
  0
LINE
  5
F2CB
330
F1C7
100
AcDbEntity
  8
0
100
AcDbLine
 10
3.300000000000025
 20
50.27999999999997
 30
0.0
 11
3.300000000000025
 21
48.77999999999997
 31
0.0
  0
LINE
  5
F2CC
330
F1C7
100
AcDbEntity
  8
0
100
AcDbLine
 10
2.500000000000014
 20
50.27999999999997
 30
0.0
 11
2.500000000000014
 21
48.77999999999997
 31
0.0
  0
LINE
  5
F2CD
330
F1C7
100
AcDbEntity
  8
0
100
AcDbLine
 10
2.500000000000014
 20
48.77999999999992
 30
0.0
 11
3.300000000000025
 21
48.77999999999997
 31
0.0
  0
LINE
  5
F2CE
330
F1C7
100
AcDbEntity
  8
0
100
AcDbLine
 10
2.500000000000014
 20
50.27999999999997
 30
0.0
 11
3.300000000000025
 21
50.27999999999997
 31
0.0
  0
LINE
  5
F2CF
330
F1C7
100
AcDbEntity
  8
0
100
AcDbLine
 10
2.700000000000002
 20
51.02999999999997
 30
0.0
 11
3.500000000000014
 21
51.02999999999997
 31
0.0
  0
LINE
  5
F2D0
330
F1C7
100
AcDbEntity
  8
0
100
AcDbLine
 10
11.09999999999998
 20
52.73000000000002
 30
0.0
 11
11.09999999999998
 21
46.32999999999992
 31
0.0
  0
LINE
  5
F2D1
330
F1C7
100
AcDbEntity
  8
0
100
AcDbLine
 10
10.30000000000002
 20
51.02999999999997
 30
0.0
 11
10.30000000000002
 21
48.02999999999997
 31
0.0
  0
LINE
  5
F2D2
330
F1C7
100
AcDbEntity
  8
SUNPOU
100
AcDbLine
 10
8.000000000000014
 20
51.02999999999997
 30
0.0
 11
5.000000000000014
 21
48.02999999999997
 31
0.0
  0
LINE
  5
F2D3
330
F1C7
100
AcDbEntity
  8
SUNPOU
100
AcDbLine
 10
8.000000000000014
 20
48.02999999999997
 30
0.0
 11
5.000000000000014
 21
51.02999999999997
 31
0.0
  0
LINE
  5
F2D4
330
F1C7
100
AcDbEntity
  8
0
100
AcDbLine
 10
9.500000000000014
 20
52.73000000000002
 30
0.0
 11
9.500000000000014
 21
46.32999999999992
 31
0.0
  0
LINE
  5
F2D5
330
F1C7
100
AcDbEntity
  8
0
100
AcDbLine
 10
9.500000000000014
 20
52.73000000000002
 30
0.0
 11
9.500000000000014
 21
46.32999999999992
 31
0.0
  0
LINE
  5
F2D6
330
F1C7
100
AcDbEntity
  8
0
100
AcDbLine
 10
9.500000000000014
 20
45.11000000000001
 30
0.0
 11
9.500000000000014
 21
38.70999999999992
 31
0.0
  0
LINE
  5
F2D7
330
F1C7
100
AcDbEntity
  8
SUNPOU
100
AcDbLine
 10
8.000000000000014
 20
40.40999999999996
 30
0.0
 11
5.000000000000014
 21
43.40999999999996
 31
0.0
  0
LINE
  5
F2D8
330
F1C7
100
AcDbEntity
  8
SUNPOU
100
AcDbLine
 10
8.000000000000014
 20
43.40999999999996
 30
0.0
 11
5.000000000000014
 21
40.40999999999996
 31
0.0
  0
LINE
  5
F2D9
330
F1C7
100
AcDbEntity
  8
0
100
AcDbLine
 10
9.500000000000014
 20
43.40999999999996
 30
0.0
 11
10.30000000000002
 21
43.40999999999996
 31
0.0
  0
LINE
  5
F2DA
330
F1C7
100
AcDbEntity
  8
0
100
AcDbLine
 10
9.500000000000014
 20
40.40999999999996
 30
0.0
 11
10.30000000000002
 21
40.40999999999996
 31
0.0
  0
LINE
  5
F2DB
330
F1C7
100
AcDbEntity
  8
0
100
AcDbLine
 10
10.30000000000002
 20
43.40999999999996
 30
0.0
 11
10.30000000000002
 21
40.40999999999996
 31
0.0
  0
LINE
  5
F2DC
330
F1C7
100
AcDbEntity
  8
0
100
AcDbLine
 10
11.09999999999998
 20
45.11000000000001
 30
0.0
 11
11.09999999999998
 21
38.70999999999992
 31
0.0
  0
LINE
  5
F2DD
330
F1C7
100
AcDbEntity
  8
0
100
AcDbLine
 10
9.500000000000014
 20
48.02999999999997
 30
0.0
 11
10.30000000000002
 21
48.02999999999997
 31
0.0
  0
LINE
  5
F2DE
330
F1C7
100
AcDbEntity
  8
0
100
AcDbLine
 10
9.500000000000014
 20
51.02999999999997
 30
0.0
 11
10.30000000000002
 21
51.02999999999997
 31
0.0
  0
ENDBLK
  5
F1C9
330
F1C7
100
AcDbEntity
  8
0
100
AcDbBlockEnd
  0
BLOCK
  5
117D9
330
117D8
100
AcDbEntity
  8
0
100
AcDbBlockBegin
  2
M3-TOP
 70
     0
 10
0.0
 20
0.0
 30
0.0
  3
M3-TOP
  1

  0
CIRCLE
  5
117DA
330
117D8
100
AcDbEntity
  8
0
100
AcDbCircle
 10
0.0
 20
0.0
 30
0.0
 40
2.745
  0
LWPOLYLINE
  5
117DB
330
117D8
100
AcDbEntity
  8
0
100
AcDbPolyline
 90
       13
 70
     0
 43
0.0
 10
0.6100000000000137
 20
-0.6099999999999853
 10
0.6100000000000137
 20
-1.829999999999984
 10
-0.6099999999999853
 20
-1.829999999999984
 10
-0.6099999999999853
 20
-0.6099999999999853
 10
-1.830000000000012
 20
-0.6099999999999853
 10
-1.830000000000012
 20
0.6100000000000137
 10
-0.6099999999999853
 20
0.6100000000000137
 10
-0.6099999999999853
 20
1.830000000000012
 10
0.6100000000000137
 20
1.830000000000012
 10
0.6100000000000137
 20
0.6100000000000137
 10
1.830000000000012
 20
0.6100000000000137
 10
1.830000000000012
 20
-0.6099999999999853
 10
0.6100000000000137
 20
-0.6099999999999853
  0
ENDBLK
  5
117DC
330
117D8
100
AcDbEntity
  8
0
100
AcDbBlockEnd
  0
BLOCK
  5
140EC
330
140EB
100
AcDbEntity
  8
0
100
AcDbBlockBegin
  2
A$C2086655F
 70
     0
 10
0.0
 20
0.0
 30
0.0
  3
A$C2086655F
  1

  0
TEXT
  5
140ED
330
140EB
100
AcDbEntity
  8
SUNPOU
100
AcDbText
 10
4.719687007603707
 20
2.680727273328233
 30
0.0
 40
2.0
  1
D
 50
157.5
 41
0.6
 72
     1
 11
4.138962730025184
 21
2.921271145100575
 31
0.0
100
AcDbText
 73
     1
  0
LINE
  5
140EE
330
140EB
100
AcDbEntity
  8
0
100
AcDbLine
 10
3.50000045284662
 20
5.000000093250946
 30
0.0
 11
6.50000045284662
 21
5.000000093250946
 31
0.0
  0
LINE
  5
140EF
330
140EB
100
AcDbEntity
  8
0
100
AcDbLine
 10
3.50000045284662
 20
5.000000093250946
 30
0.0
 11
4.50000045284662
 21
4.500000093250946
 31
0.0
  0
LINE
  5
140F0
330
140EB
100
AcDbEntity
  8
0
100
AcDbLine
 10
3.50000045284662
 20
5.000000093250946
 30
0.0
 11
4.50000045284662
 21
5.500000093250946
 31
0.0
  0
CIRCLE
  5
140F1
330
140EB
100
AcDbEntity
  8
0
100
AcDbCircle
 10
5.00000045284662
 20
5.000000093250946
 30
0.0
 40
2.0
  0
LINE
  5
140F2
330
140EB
100
AcDbEntity
  8
0
100
AcDbLine
 10
10.00000045284662
 20
9.500000093250946
 30
0.0
 11
2.50000045284662
 21
9.500000093250946
 31
0.0
  0
LINE
  5
140F3
330
140EB
100
AcDbEntity
  8
0
100
AcDbLine
 10
10.00000045284662
 20
10.00000009325094
 30
0.0
 11
0.0000004528466206
 21
10.00000009325094
 31
0.0
  0
LINE
  5
140F4
330
140EB
100
AcDbEntity
  8
0
100
AcDbLine
 10
0.0000004528466206
 20
0.0000000932509465
 30
0.0
 11
10.00000045284662
 21
0.0000000932509465
 31
0.0
  0
TEXT
  5
140F5
330
140EB
100
AcDbEntity
  8
SUNPOU
100
AcDbText
 10
2.75000045284662
 20
4.428571521822375
 30
0.0
 40
2.0
  1
0
 50
90.0
 41
0.6
 72
     1
 11
2.75000045284662
 21
5.000000093250946
 31
0.0
100
AcDbText
 73
     1
  0
LINE
  5
140F6
330
140EB
100
AcDbEntity
  8
0
100
AcDbLine
 10
0.0000004528466206
 20
10.00000009325094
 30
0.0
 11
0.0000004528466206
 21
0.0000000932509465
 31
0.0
  0
TEXT
  5
140F7
330
140EB
100
AcDbEntity
  8
SUNPOU
100
AcDbText
 10
3.150881564115275
 20
3.584634650922709
 30
0.0
 40
2.0
  1
F
 50
112.5
 41
0.6
 72
     1
 11
2.921271504696221
 21
4.138962370429482
 31
0.0
100
AcDbText
 73
     1
  0
TEXT
  5
140F8
330
140EB
100
AcDbEntity
  8
SUNPOU
100
AcDbText
 10
3.833274263888832
 20
2.984745766869301
 30
0.0
 40
2.0
  1
E
 50
135.0
 41
0.6
 72
     1
 11
3.409010195176904
 21
3.40900983558123
 31
0.0
100
AcDbText
 73
     1
  0
LINE
  5
140F9
330
140EB
100
AcDbEntity
  8
0
100
AcDbLine
 10
0.0000004528466206
 20
7.000000093250946
 30
0.0
 11
3.00000045284662
 21
10.00000009325094
 31
0.0
  0
TEXT
  5
140FA
330
140EB
100
AcDbEntity
  8
SUNPOU
100
AcDbText
 10
2.735396694690349
 20
5.412296328852629
 30
0.0
 40
2.0
  1
1
 50
67.5
 41
0.6
 72
     1
 11
2.92127150469625
 21
5.861037816072396
 31
0.0
100
AcDbText
 73
     1
  0
TEXT
  5
140FB
330
140EB
100
AcDbEntity
  8
SUNPOU
100
AcDbText
 10
3.004949177356019
 20
6.186929333099793
 30
0.0
 40
2.0
  1
2
 50
45.0
 41
0.6
 72
     1
 11
3.409010195176904
 21
6.590990350920677
 31
0.0
100
AcDbText
 73
     1
  0
TEXT
  5
140FC
330
140EB
100
AcDbEntity
  8
SUNPOU
100
AcDbText
 10
3.611031568590135
 20
6.860052794335565
 30
0.0
 40
2.0
  1
3
 50
22.50000000000001
 41
0.6
 72
     1
 11
4.138962730025156
 21
7.078729041401331
 31
0.0
100
AcDbText
 73
     1
  0
TEXT
  5
140FD
330
140EB
100
AcDbEntity
  8
SUNPOU
100
AcDbText
 10
7.25000045284662
 20
5.571428664679489
 30
0.0
 40
2.0
  1
8
 50
270.0
 41
0.6
 72
     1
 11
7.25000045284662
 21
5.000000093250918
 31
0.0
100
AcDbText
 73
     1
  0
LINE
  5
140FE
330
140EB
100
AcDbEntity
  8
0
100
AcDbLine
 10
10.00000045284662
 20
0.0000000932509465
 30
0.0
 11
10.00000045284662
 21
10.00000009325094
 31
0.0
  0
TEXT
  5
140FF
330
140EB
100
AcDbEntity
  8
SUNPOU
100
AcDbText
 10
7.28647183570944
 20
4.64049697379278
 30
0.0
 40
2.0
  1
9
 50
247.5
 41
0.6
 72
     1
 11
7.078729400996962
 21
4.13896237042951
 31
0.0
100
AcDbText
 73
     1
  0
TEXT
  5
14100
330
140EB
100
AcDbEntity
  8
SUNPOU
100
AcDbText
 10
6.954645626555104
 20
3.772664751620026
 30
0.0
 40
2.0
  1
A
 50
225.0
 41
0.6
 72
     1
 11
6.590990710516308
 21
3.40900983558123
 31
0.0
100
AcDbText
 73
     1
  0
TEXT
  5
14101
330
140EB
100
AcDbEntity
  8
SUNPOU
100
AcDbText
 10
6.441762453246579
 20
3.161815016872917
 30
0.0
 40
2.0
  1
B
 50
202.5
 41
0.6
 72
     1
 11
5.861038175668056
 21
2.921271145100575
 31
0.0
100
AcDbText
 73
     1
  0
TEXT
  5
14102
330
140EB
100
AcDbEntity
  8
SUNPOU
100
AcDbText
 10
5.60000045284662
 20
2.750000093250946
 30
0.0
 40
2.0
  1
C
 50
180.0
 41
0.6
 72
     1
 11
5.00000045284662
 21
2.750000093250946
 31
0.0
100
AcDbText
 73
     1
  0
TEXT
  5
14103
330
140EB
100
AcDbEntity
  8
SUNPOU
100
AcDbText
 10
6.860053153931225
 20
6.388968977507445
 30
0.0
 40
2.0
  1
7
 50
292.5
 41
0.6
 72
     1
 11
7.078729400996991
 21
5.861037816072425
 31
0.0
100
AcDbText
 73
     1
  0
TEXT
  5
14104
330
140EB
100
AcDbEntity
  8
SUNPOU
100
AcDbText
 10
4.400000452846621
 20
7.250000093250946
 30
0.0
 40
2.0
  1
4
 41
0.6
 72
     1
 11
5.00000045284662
 21
7.250000093250946
 31
0.0
100
AcDbText
 73
     1
  0
TEXT
  5
14105
330
140EB
100
AcDbEntity
  8
SUNPOU
100
AcDbText
 10
5.333107014233007
 20
7.297405288467096
 30
0.0
 40
2.0
  1
5
 50
337.5
 41
0.6
 72
     1
 11
5.861038175668028
 21
7.078729041401331
 31
0.0
100
AcDbText
 73
     1
  0
TEXT
  5
14106
330
140EB
100
AcDbEntity
  8
SUNPOU
100
AcDbText
 10
6.16672664180438
 20
7.015254419632605
 30
0.0
 40
2.0
  1
6
 50
315.0
 41
0.6
 72
     1
 11
6.590990710516308
 21
6.590990350920677
 31
0.0
100
AcDbText
 73
     1
  0
ENDBLK
  5
14107
330
140EB
100
AcDbEntity
  8
0
100
AcDbBlockEnd
  0
BLOCK
  5
14109
330
14108
100
AcDbEntity
  8
0
100
AcDbBlockBegin
  2
A$C1A9113A3
 70
     0
 10
0.0
 20
0.0
 30
0.0
  3
A$C1A9113A3
  1

  0
INSERT
  5
1410A
330
14108
100
AcDbEntity
  8
0
100
AcDbBlockReference
  2
A$C2086655F
 10
-0.000000598731333
 20
0.0000001667667675
 30
0.0
  0
ENDBLK
  5
1410B
330
14108
100
AcDbEntity
  8
0
100
AcDbBlockEnd
  0
BLOCK
  5
14EED
330
14EEC
100
AcDbEntity
  8
0
100
AcDbBlockBegin
  2
GL3PR-1
 70
     0
 10
0.0
 20
0.0
 30
0.0
  3
GL3PR-1
  1

  0
LINE
  5
14EEE
330
14EEC
100
AcDbEntity
  8
SUNPOU
100
AcDbLine
 10
0.0
 20
-1.900000000000034
 30
0.0
 11
0.0
 21
1.900000000000005
 31
0.0
  0
ARC
  5
14EEF
330
14EEC
100
AcDbEntity
  8
SUNPOU
100
AcDbCircle
 10
-3.699999999999988
 20
0.0
 30
0.0
 40
1.399999999999999
100
AcDbArc
 50
91.83435713273379
 51
268.1656428672662
  0
LINE
  5
14EF0
330
14EEC
100
AcDbEntity
  8
SUNPOU
100
AcDbLine
 10
0.0
 20
1.900000000000005
 30
0.0
 11
-0.5999999999999944
 21
1.900000000000034
 31
0.0
  0
LINE
  5
14EF1
330
14EEC
100
AcDbEntity
  8
SUNPOU
100
AcDbLine
 10
0.0
 20
-1.900000000000005
 30
0.0
 11
-0.6000000000000228
 21
-1.900000000000005
 31
0.0
  0
LINE
  5
14EF2
330
14EEC
100
AcDbEntity
  8
SUNPOU
100
AcDbLine
 10
-0.5999999999999944
 20
-1.900000000000034
 30
0.0
 11
-0.5999999999999944
 21
1.900000000000005
 31
0.0
  0
LINE
  5
14EF3
330
14EEC
100
AcDbEntity
  8
SUNPOU
100
AcDbLine
 10
-0.5999999999999944
 20
1.5
 30
0.0
 11
-3.744814143631685
 21
1.399282563505522
 31
0.0
  0
LINE
  5
14EF4
330
14EEC
100
AcDbEntity
  8
SUNPOU
100
AcDbLine
 10
-0.5999999999999944
 20
-1.5
 30
0.0
 11
-3.744814143631685
 21
-1.399282563505522
 31
0.0
  0
ENDBLK
  5
14EF5
330
14EEC
100
AcDbEntity
  8
0
100
AcDbBlockEnd
  0
ENDSEC
  0
SECTION
  2
ENTITIES
  0
LINE
  5
C9
330
1A
100
AcDbEntity
  8
WAKU
 62
     7
100
AcDbLine
 10
405.0
 20
280.0
 30
0.0
 11
20.0
 21
280.0
 31
0.0
  0
LINE
  5
CB
330
1A
100
AcDbEntity
  8
WAKU
 62
     7
100
AcDbLine
 10
20.0
 20
5.0
 30
0.0
 11
405.0
 21
5.0
 31
0.0
  0
LINE
  5
D4
330
1A
100
AcDbEntity
  8
WAKU
100
AcDbLine
 10
405.0
 20
5.0
 30
0.0
 11
405.0
 21
280.0
 31
0.0
  0
LINE
  5
D5
330
1A
100
AcDbEntity
  8
WAKU
100
AcDbLine
 10
20.0
 20
280.0
 30
0.0
 11
20.0
 21
5.0
 31
0.0
  0
MTEXT
  5
E9
330
1A
100
AcDbEntity
  8
WAKU
100
AcDbMText
 10
345.0
 20
43.0
 30
0.0
 40
4.0
 41
15.0
 71
     1
 72
     5
  1

 73
     1
 44
1.0
1001
ACAD
1000
MTEXTBEGIN
1070
    73
1070
     1
1070
    44
1040
1.0
1070
    74
1070
     0
1000
MTEXTEND
  0
MTEXT
  5
EA
330
1A
100
AcDbEntity
  8
WAKU
100
AcDbMText
 10
345.0
 20
49.0
 30
0.0
 40
4.0
 41
14.0
 71
     1
 72
     5
  1

 73
     1
 44
1.0
1001
ACAD
1000
MTEXTBEGIN
1070
    73
1070
     1
1070
    44
1040
1.0
1070
    74
1070
     0
1000
MTEXTEND
  0
MTEXT
  5
EE
330
1A
100
AcDbEntity
  8
WAKU
100
AcDbMText
 10
327.0
 20
82.0
 30
0.0
 40
3.0
 41
37.0
 71
     1
 72
     5
  1

 73
     1
 44
1.0
1001
ACAD
1000
MTEXTBEGIN
1070
    73
1070
     1
1070
    44
1040
1.0
1070
    74
1070
     0
1000
MTEXTEND
  0
MTEXT
  5
F5
330
1A
100
AcDbEntity
  8
WAKU
100
AcDbMText
 10
330.0
 20
85.0
 30
0.0
 40
3.0
 41
12.0
 71
     1
 72
     5
  1

 73
     1
 44
1.0
1001
ACAD
1000
MTEXTBEGIN
1070
    73
1070
     1
1070
    44
1040
1.0
1070
    74
1070
     0
1000
MTEXTEND
  0
MTEXT
  5
FF
330
1A
100
AcDbEntity
  8
WAKU
100
AcDbMText
 10
271.0
 20
82.0
 30
0.0
 40
3.0
 41
74.0
 71
     1
 72
     5
  1

 73
     1
 44
1.0
1001
ACAD
1000
MTEXTBEGIN
1070
    73
1070
     1
1070
    44
1040
1.0
1070
    74
1070
     0
1000
MTEXTEND
  0
DIMENSION
  5
D982
330
1A
100
AcDbEntity
  8
SUNPOU
100
AcDbDimension
  2
*D4
 10
255.2
 20
265.0
 30
0.0
 11
246.7999999999999
 21
269.0
 31
0.0
 70
    32
 71
     5
 42
16.80000000000001
  3
STANDARD
100
AcDbAlignedDimension
 13
238.3999999999999
 23
225.88
 33
0.0
 14
255.2
 24
249.2
 34
0.0
100
AcDbRotatedDimension
1001
ACAD
1000
DSTYLE
1002
{
1070
    41
1040
5.0
1070
    42
1040
0.5
1070
    43
1040
10.0
1070
    44
1040
0.5
1070
    73
1070
     0
1070
    74
1070
     0
1070
    77
1070
     1
1070
   140
1040
6.0
1070
   141
1040
0.0
1070
   147
1040
1.0
1070
   173
1070
     1
1070
   271
1070
     0
1070
   272
1070
     0
1070
   343
1005
BA
1070
   344
1005
BA
1002
}
  0
DIMENSION
  5
D99B
330
1A
100
AcDbEntity
  8
SUNPOU
100
AcDbDimension
  2
*D5
 10
150.0
 20
123.9999999999998
 30
0.0
 11
145.9999999999999
 21
189.9999999999999
 31
0.0
 70
    32
 71
     5
 42
132.0000000000002
  3
STANDARD
100
AcDbAlignedDimension
 13
95.0
 23
256.0
 33
0.0
 14
95.0
 24
123.9999999999998
 34
0.0
 50
90.0
100
AcDbRotatedDimension
1001
ACAD
1000
DSTYLE
1002
{
1070
    41
1040
5.0
1070
    42
1040
0.5
1070
    43
1040
10.0
1070
    44
1040
0.5
1070
    73
1070
     0
1070
    74
1070
     0
1070
    77
1070
     1
1070
   140
1040
6.0
1070
   141
1040
0.0
1070
   147
1040
1.0
1070
   173
1070
     1
1070
   271
1070
     0
1070
   272
1070
     0
1070
   343
1005
BA
1070
   344
1005
BA
1002
}
  0
DIMENSION
  5
D99C
330
1A
100
AcDbEntity
  8
SUNPOU
100
AcDbDimension
  2
*D6
 10
160.0
 20
119.9999999999997
 30
0.0
 11
159.9999999999999
 21
189.9999999999999
 31
0.0
 70
   160
 71
     5
 42
140.0000000000003
  3
STANDARD
100
AcDbAlignedDimension
 13
120.4999999999999
 23
260.0000000000001
 33
0.0
 14
120.4999999999999
 24
119.9999999999997
 34
0.0
 50
90.0
100
AcDbRotatedDimension
1001
ACAD
1000
DSTYLE
1002
{
1070
    41
1040
5.0
1070
    42
1040
0.5
1070
    43
1040
10.0
1070
    44
1040
0.5
1070
    73
1070
     0
1070
    74
1070
     0
1070
    77
1070
     1
1070
   140
1040
6.0
1070
   141
1040
0.0
1070
   147
1040
1.0
1070
   173
1070
     1
1070
   271
1070
     0
1070
   272
1070
     0
1070
   343
1005
BA
1070
   344
1005
BA
1002
}
  0
DIMENSION
  5
D99E
330
1A
100
AcDbEntity
  8
SUNPOU
100
AcDbDimension
  2
*D7
 10
140.0
 20
129.9999999999999
 30
0.0
 11
139.9999999999999
 21
189.9999999999999
 31
0.0
 70
   160
 71
     5
 42
120.0000000000001
  3
STANDARD
100
AcDbAlignedDimension
 13
122.4999999999999
 23
250.0
 33
0.0
 14
122.4999999999999
 24
129.9999999999999
 34
0.0
 50
90.0
100
AcDbRotatedDimension
1001
ACAD
1000
DSTYLE
1002
{
1070
    41
1040
5.0
1070
    42
1040
0.5
1070
    43
1040
10.0
1070
    44
1040
0.5
1070
    73
1070
     0
1070
    74
1070
     0
1070
    77
1070
     1
1070
   140
1040
6.0
1070
   141
1040
0.0
1070
   147
1040
1.0
1070
   173
1070
     1
1070
   271
1070
     0
1070
   272
1070
     0
1070
   343
1005
BA
1070
   344
1005
BA
1002
}
  0
DIMENSION
  5
D9B9
330
1A
100
AcDbEntity
  8
SUNPOU
100
AcDbDimension
  2
*D8
 10
122.4999999999999
 20
100.0
 30
0.0
 11
94.99999999999998
 21
104.0
 31
0.0
 70
    32
 71
     5
 42
54.99999999999994
  3
STANDARD
100
AcDbAlignedDimension
 13
67.5
 23
121.9999999999999
 33
0.0
 14
122.4999999999999
 24
121.9999999999997
 34
0.0
100
AcDbRotatedDimension
1001
ACAD
1000
DSTYLE
1002
{
1070
    41
1040
5.0
1070
    42
1040
0.5
1070
    43
1040
10.0
1070
    44
1040
0.5
1070
    73
1070
     0
1070
    74
1070
     0
1070
    77
1070
     1
1070
   140
1040
6.0
1070
   141
1040
0.0
1070
   147
1040
1.0
1070
   173
1070
     1
1070
   271
1070
     0
1070
   272
1070
     0
1070
   343
1005
BA
1070
   344
1005
BA
1002
}
  0
LINE
  5
DACA
330
1A
100
AcDbEntity
  8
0
100
AcDbLine
 10
348.6
 20
131.0
 30
0.0
 11
348.6
 21
190.0
 31
0.0
  0
INSERT
  5
DACB
330
1A
100
AcDbEntity
  8
0
100
AcDbBlockReference
  2
A$C4F832D76
 10
348.5999996903738
 20
120.0000002593744
 30
0.0
  0
LINE
  5
DAD3
330
1A
100
AcDbEntity
  8
0
100
AcDbLine
 10
260.1999999999999
 20
131.0
 30
0.0
 11
348.6
 21
131.0
 31
0.0
  0
LINE
  5
DAD9
330
1A
100
AcDbEntity
  8
0
100
AcDbLine
 10
348.5999999999999
 20
108.6
 30
0.0
 11
260.1999999999999
 21
108.6
 31
0.0
  0
LINE
  5
DADD
330
1A
100
AcDbEntity
  8
0
100
AcDbLine
 10
348.5999999999999
 20
55.59999999999996
 30
0.0
 11
260.1999999999999
 21
55.59999999999996
 31
0.0
  0
LINE
  5
DAE4
330
1A
100
AcDbEntity
  8
0
100
AcDbLine
 10
270.7999999999999
 20
107.0
 30
0.0
 11
270.8
 21
57.20000000000002
 31
0.0
  0
LINE
  5
DAE6
330
1A
100
AcDbEntity
  8
0
100
AcDbLine
 10
255.1999999999999
 20
108.8
 30
0.0
 11
255.2
 21
55.39999999999998
 31
0.0
  0
LINE
  5
DAE8
330
1A
100
AcDbEntity
  8
0
100
AcDbLine
 10
260.1999999999999
 20
56.19999999999999
 30
0.0
 11
269.7999999999999
 21
56.19999999999999
 31
0.0
  0
LINE
  5
DAEA
330
1A
100
AcDbEntity
  8
0
100
AcDbLine
 10
260.1999999999999
 20
55.39999999999998
 30
0.0
 11
255.9999999999999
 21
55.39999999999998
 31
0.0
  0
LINE
  5
DAEB
330
1A
100
AcDbEntity
  8
0
100
AcDbLine
 10
260.1999999999999
 20
54.60000000000002
 30
0.0
 11
255.9999999999999
 21
54.60000000000002
 31
0.0
  0
ARC
  5
DAEC
330
1A
100
AcDbEntity
  8
0
100
AcDbCircle
 10
255.9999999999999
 20
55.39999999999998
 30
0.0
 40
0.8
100
AcDbArc
 50
180.0
 51
270.0
  0
LINE
  5
DAED
330
1A
100
AcDbEntity
  8
0
100
AcDbLine
 10
260.1999999999999
 20
55.39999999999998
 30
0.0
 11
260.1999999999999
 21
56.19999999999999
 31
0.0
  0
LINE
  5
DAEE
330
1A
100
AcDbEntity
  8
0
100
AcDbLine
 10
260.1999999999999
 20
54.60000000000002
 30
0.0
 11
260.1999999999999
 21
55.39999999999998
 31
0.0
  0
LINE
  5
DAF1
330
1A
100
AcDbEntity
  8
0
100
AcDbLine
 10
270.7999999999999
 20
57.19999999999998
 30
0.0
 11
269.7999999999999
 21
56.19999999999999
 31
0.0
  0
LINE
  5
DAFA
330
1A
100
AcDbEntity
  8
0
100
AcDbLine
 10
260.1999999999999
 20
108.0
 30
0.0
 11
269.7999999999999
 21
108.0000000000001
 31
0.0
  0
LINE
  5
DAFB
330
1A
100
AcDbEntity
  8
0
100
AcDbLine
 10
260.1999999999999
 20
108.8
 30
0.0
 11
260.1999999999999
 21
108.0
 31
0.0
  0
LINE
  5
DAFD
330
1A
100
AcDbEntity
  8
0
100
AcDbLine
 10
260.1999999999999
 20
108.8
 30
0.0
 11
255.9999999999999
 21
108.8
 31
0.0
  0
LINE
  5
DAFE
330
1A
100
AcDbEntity
  8
0
100
AcDbLine
 10
260.1999999999999
 20
109.6
 30
0.0
 11
255.9999999999999
 21
109.6
 31
0.0
  0
ARC
  5
DAFF
330
1A
100
AcDbEntity
  8
0
100
AcDbCircle
 10
255.9999999999999
 20
108.8
 30
0.0
 40
0.8
100
AcDbArc
 50
90.0
 51
180.0
  0
LINE
  5
DB00
330
1A
100
AcDbEntity
  8
0
100
AcDbLine
 10
260.1999999999999
 20
109.6
 30
0.0
 11
260.1999999999999
 21
108.8
 31
0.0
  0
LINE
  5
DB06
330
1A
100
AcDbEntity
  8
0
100
AcDbLine
 10
270.7999999999999
 20
107.0
 30
0.0
 11
269.7999999999999
 21
108.0
 31
0.0
  0
LINE
  5
DB0C
330
1A
100
AcDbEntity
  8
0
100
AcDbLine
 10
348.5999999999999
 20
108.6
 30
0.0
 11
348.5999999999999
 21
55.59999999999996
 31
0.0
  0
LINE
  5
DB0E
330
1A
100
AcDbEntity
  8
0
100
AcDbLine
 10
348.5999999999999
 20
109.6
 30
0.0
 11
348.5999999999999
 21
54.60000000000002
 31
0.0
  0
LINE
  5
DB12
330
1A
100
AcDbEntity
  8
0
100
AcDbLine
 10
350.1999999999999
 20
109.6
 30
0.0
 11
350.1999999999999
 21
54.60000000000002
 31
0.0
  0
LINE
  5
DB14
330
1A
100
AcDbEntity
  8
0
100
AcDbLine
 10
350.1999999999999
 20
56.60000000000002
 30
0.0
 11
348.5999999999999
 21
56.60000000000002
 31
0.0
  0
LINE
  5
DB15
330
1A
100
AcDbEntity
  8
0
100
AcDbLine
 10
350.1999999999999
 20
54.60000000000002
 30
0.0
 11
348.5999999999999
 21
54.60000000000002
 31
0.0
  0
LINE
  5
DB21
330
1A
100
AcDbEntity
  8
0
100
AcDbLine
 10
350.1999999999999
 20
107.6
 30
0.0
 11
348.5999999999999
 21
107.6
 31
0.0
  0
LINE
  5
DB22
330
1A
100
AcDbEntity
  8
0
100
AcDbLine
 10
350.1999999999999
 20
109.6
 30
0.0
 11
348.5999999999999
 21
109.6
 31
0.0
  0
LINE
  5
DB4D
330
1A
100
AcDbEntity
  8
0
100
AcDbLine
 10
348.6
 20
249.0
 30
0.0
 11
348.6
 21
190.0
 31
0.0
  0
LINE
  5
DB53
330
1A
100
AcDbEntity
  8
0
100
AcDbLine
 10
260.1999999999999
 20
249.0
 30
0.0
 11
348.6
 21
249.0
 31
0.0
  0
DIMENSION
  5
DB56
330
1A
100
AcDbEntity
  8
SUNPOU
100
AcDbDimension
  2
*D3
 10
350.1999999999999
 20
265.0
 30
0.0
 11
302.6999999999999
 21
269.0
 31
0.0
 70
    32
 71
     5
 42
94.99999999999998
  3
STANDARD
100
AcDbAlignedDimension
 13
255.2
 23
249.2
 33
0.0
 14
350.1999999999999
 24
260.0
 34
0.0
100
AcDbRotatedDimension
1001
ACAD
1000
DSTYLE
1002
{
1070
    41
1040
5.0
1070
    42
1040
0.5
1070
    43
1040
10.0
1070
    44
1040
0.5
1070
    73
1070
     0
1070
    74
1070
     0
1070
    77
1070
     1
1070
   140
1040
6.0
1070
   141
1040
0.0
1070
   147
1040
1.0
1070
   173
1070
     1
1070
   271
1070
     0
1070
   272
1070
     0
1070
   343
1005
BA
1070
   344
1005
BA
1002
}
  0
LINE
  5
110CD
330
1A
100
AcDbEntity
  8
0
100
AcDbLine
 10
255.2
 20
249.2
 30
0.0
 11
255.1999999999999
 21
190.0
 31
0.0
  0
LINE
  5
110CF
330
1A
100
AcDbEntity
  8
0
100
AcDbLine
 10
255.2
 20
130.8
 30
0.0
 11
255.1999999999999
 21
190.0
 31
0.0
  0
LINE
  5
110D0
330
1A
100
AcDbEntity
  8
0
100
AcDbLine
 10
256.0
 20
130.8
 30
0.0
 11
270.8
 21
130.8
 31
0.0
  0
LINE
  5
110D1
330
1A
100
AcDbEntity
  8
0
100
AcDbLine
 10
256.0
 20
130.0
 30
0.0
 11
270.8
 21
130.0
 31
0.0
  0
ARC
  5
110D2
330
1A
100
AcDbEntity
  8
0
100
AcDbCircle
 10
256.0
 20
130.8
 30
0.0
 40
0.8
100
AcDbArc
 50
180.0
 51
270.0
  0
LINE
  5
110D4
330
1A
100
AcDbEntity
  8
0
100
AcDbLine
 10
270.8
 20
130.8
 30
0.0
 11
270.8
 21
129.9999999999999
 31
0.0
  0
LINE
  5
110D5
330
1A
100
AcDbEntity
  8
0
100
AcDbLine
 10
256.0
 20
250.0000000000001
 30
0.0
 11
270.8
 21
250.0
 31
0.0
  0
LINE
  5
110D6
330
1A
100
AcDbEntity
  8
0
100
AcDbLine
 10
256.0
 20
249.2
 30
0.0
 11
270.8
 21
249.2
 31
0.0
  0
ARC
  5
110D7
330
1A
100
AcDbEntity
  8
0
100
AcDbCircle
 10
256.0
 20
249.2
 30
0.0
 40
0.8
100
AcDbArc
 50
90.0
 51
180.0
  0
LINE
  5
110D9
330
1A
100
AcDbEntity
  8
0
100
AcDbLine
 10
270.8
 20
249.2
 30
0.0
 11
270.8
 21
250.0000000000001
 31
0.0
  0
LINE
  5
110DA
330
1A
100
AcDbEntity
  8
0
100
AcDbLine
 10
260.1999999999999
 20
249.2
 30
0.0
 11
260.1999999999999
 21
130.8
 31
0.0
  0
INSERT
  5
110E3
330
1A
100
AcDbEntity
  8
0
100
AcDbBlockReference
  2
A$C34EE125E
 10
262.4000001469811
 20
250.0000004725022
 30
0.0
 41
-1.0
 50
270.0
  0
INSERT
  5
110EC
330
1A
100
AcDbEntity
  8
0
100
AcDbBlockReference
  2
A$C34EE125E
 10
262.4000001469811
 20
129.9999995274978
 30
0.0
 50
270.0
  0
LINE
  5
11474
330
1A
100
AcDbEntity
  8
0
100
AcDbLine
 10
254.2000000000001
 20
93.20000000000012
 30
0.0
 11
254.2000000000001
 21
99.60000000000002
 31
0.0
  0
LINE
  5
11477
330
1A
100
AcDbEntity
  8
0
100
AcDbLine
 10
254.2000000000001
 20
99.60000000000006
 30
0.0
 11
255.1999999999999
 21
100.3499999999999
 31
0.0
  0
LINE
  5
1147A
330
1A
100
AcDbEntity
  8
0
100
AcDbLine
 10
254.2000000000001
 20
95.20000000000013
 30
0.0
 11
255.1999999999999
 21
95.20000000000015
 31
0.0
  0
LINE
  5
1147B
330
1A
100
AcDbEntity
  8
0
100
AcDbLine
 10
255.2000000000001
 20
93.20000000000012
 30
0.0
 11
255.2000000000001
 21
95.20000000000013
 31
0.0
  0
LINE
  5
1147C
330
1A
100
AcDbEntity
  8
0
100
AcDbLine
 10
254.2000000000001
 20
93.2000000000001
 30
0.0
 11
255.2000000000002
 21
93.20000000000012
 31
0.0
  0
LINE
  5
1147F
330
1A
100
AcDbEntity
  8
0
100
AcDbLine
 10
238.8000000000001
 20
61.59999999999996
 30
0.0
 11
238.8000000000001
 21
71.59999999999996
 31
0.0
  0
LINE
  5
11480
330
1A
100
AcDbEntity
  8
0
100
AcDbLine
 10
238.4000000000001
 20
61.59999999999996
 30
0.0
 11
238.4000000000001
 21
71.59999999999996
 31
0.0
  0
LINE
  5
11481
330
1A
100
AcDbEntity
  8
0
100
AcDbLine
 10
249.2000000000001
 20
62.09999999999997
 30
0.0
 11
249.2000000000001
 21
71.09999999999996
 31
0.0
  0
LINE
  5
11483
330
1A
100
AcDbEntity
  8
0
100
AcDbLine
 10
240.2000000000001
 20
60.59999999999996
 30
0.0
 11
240.2000000000001
 21
72.59999999999997
 31
0.0
  0
LINE
  5
11486
330
1A
100
AcDbEntity
  8
0
100
AcDbLine
 10
253.2000000000001
 20
60.59999999999996
 30
0.0
 11
251.7000000000001
 21
62.09999999999997
 31
0.0
  0
ARC
  5
11487
330
1A
100
AcDbEntity
  8
0
100
AcDbCircle
 10
240.3000000000001
 20
61.59999999999996
 30
0.0
 40
1.5
100
AcDbArc
 50
180.0
 51
352.0605795160219
  0
ARC
  5
11488
330
1A
100
AcDbEntity
  8
0
100
AcDbCircle
 10
240.3000000000001
 20
61.59999999999996
 30
0.0
 40
1.9
100
AcDbArc
 50
180.0
 51
0.0
  0
LINE
  5
11489
330
1A
100
AcDbEntity
  8
0
100
AcDbLine
 10
242.2000000000001
 20
61.59999999999996
 30
0.0
 11
240.2000000000001
 21
60.59999999999996
 31
0.0
  0
LINE
  5
1148A
330
1A
100
AcDbEntity
  8
0
100
AcDbLine
 10
242.2000000000001
 20
60.59999999999996
 30
0.0
 11
242.2000000000001
 21
61.59999999999996
 31
0.0
  0
LINE
  5
1148B
330
1A
100
AcDbEntity
  8
0
100
AcDbLine
 10
255.2
 20
60.59999999999996
 30
0.0
 11
242.2000000000001
 21
60.59999999999996
 31
0.0
  0
LINE
  5
1148C
330
1A
100
AcDbEntity
  8
0
100
AcDbLine
 10
251.7000000000001
 20
62.09999999999997
 30
0.0
 11
249.2000000000001
 21
62.09999999999997
 31
0.0
  0
LINE
  5
1148E
330
1A
100
AcDbEntity
  8
0
100
AcDbLine
 10
253.2000000000001
 20
72.59999999999997
 30
0.0
 11
251.7000000000001
 21
71.09999999999996
 31
0.0
  0
LINE
  5
1148F
330
1A
100
AcDbEntity
  8
0
100
AcDbLine
 10
251.7000000000001
 20
71.09999999999996
 30
0.0
 11
249.2000000000001
 21
71.09999999999996
 31
0.0
  0
ARC
  5
11490
330
1A
100
AcDbEntity
  8
0
100
AcDbCircle
 10
240.3000000000001
 20
71.59999999999996
 30
0.0
 40
1.5
100
AcDbArc
 50
7.939420483978925
 51
180.0000000000008
  0
ARC
  5
11491
330
1A
100
AcDbEntity
  8
0
100
AcDbCircle
 10
240.3000000000001
 20
71.59999999999996
 30
0.0
 40
1.9
100
AcDbArc
 50
359.9999999999992
 51
180.0000000000016
  0
LINE
  5
11492
330
1A
100
AcDbEntity
  8
0
100
AcDbLine
 10
242.2000000000001
 20
71.59999999999996
 30
0.0
 11
242.2000000000001
 21
72.59999999999997
 31
0.0
  0
LINE
  5
11493
330
1A
100
AcDbEntity
  8
0
100
AcDbLine
 10
242.2000000000001
 20
71.59999999999996
 30
0.0
 11
240.2000000000001
 21
72.59999999999997
 31
0.0
  0
LINE
  5
11494
330
1A
100
AcDbEntity
  8
0
100
AcDbLine
 10
255.2
 20
72.59999999999997
 30
0.0
 11
242.2000000000001
 21
72.59999999999997
 31
0.0
  0
LINE
  5
11548
330
1A
100
AcDbEntity
  8
0
100
AcDbLine
 10
60.30000016894092
 20
152.5299999999998
 30
0.0
 11
60.30000016894092
 21
136.0299999999998
 31
0.0
  0
LINE
  5
11549
330
1A
100
AcDbEntity
  8
0
100
AcDbLine
 10
64.29999999999996
 20
152.5299999999998
 30
0.0
 11
64.29999999999996
 21
136.0299999999998
 31
0.0
  0
TEXT
  5
1154A
330
1A
100
AcDbEntity
  8
0
100
AcDbText
 10
61.05000008447041
 20
151.9049999999998
 30
0.0
 40
2.5
  1
AC85-264V
 50
270.0
 41
0.7
 72
     1
 11
62.30000008447041
 21
144.2799999999998
 31
0.0
100
AcDbText
 73
     2
  0
LINE
  5
11558
330
1A
100
AcDbEntity
  8
0
100
AcDbLine
 10
64.29999999999996
 20
136.0299999999998
 30
0.0
 11
60.30000016894092
 21
136.0299999999998
 31
0.0
  0
LINE
  5
1157D
330
1A
100
AcDbEntity
  8
0
100
AcDbLine
 10
64.29999999999996
 20
152.5299999999998
 30
0.0
 11
60.30000016894092
 21
152.5299999999998
 31
0.0
  0
TEXT
  5
115D8
330
1A
100
AcDbEntity
  8
0
100
AcDbText
 10
46.5
 20
146.0
 30
0.0
 40
4.0
  1
AC仕様
 41
0.8
100
AcDbText
  0
INSERT
  5
117E2
330
1A
100
AcDbEntity
  8
0
100
AcDbBlockReference
  2
M3-TOP
 10
266.4
 20
82.10000000000002
 30
0.0
  0
TEXT
  5
11933
330
1A
100
AcDbEntity
  8
0
100
AcDbText
 10
46.5
 20
141.0
 30
0.0
 40
4.0
  1
シール
 41
0.8
100
AcDbText
  0
LINE
  5
11EF6
330
1A
100
AcDbEntity
  8
0
100
AcDbLine
 10
60.30000016894092
 20
152.5299999999998
 30
0.0
 11
60.30000016894092
 21
136.0299999999998
 31
0.0
  0
LINE
  5
11EF7
330
1A
100
AcDbEntity
  8
0
100
AcDbLine
 10
64.29999999999996
 20
152.5299999999998
 30
0.0
 11
64.29999999999996
 21
136.0299999999998
 31
0.0
  0
TEXT
  5
11EF8
330
1A
100
AcDbEntity
  8
0
100
AcDbText
 10
61.05000008447044
 20
151.9049999999998
 30
0.0
 40
2.5
  1
AC85-264V
 50
270.0
 41
0.7
 72
     1
 11
62.30000008447044
 21
144.2799999999998
 31
0.0
100
AcDbText
 73
     2
  0
LINE
  5
11EFE
330
1A
100
AcDbEntity
  8
0
100
AcDbLine
 10
67.5
 20
258.0
 30
0.0
 11
67.5
 21
122.0
 31
0.0
  0
LINE
  5
11EFF
330
1A
100
AcDbEntity
  8
0
100
AcDbLine
 10
122.4999999999999
 20
258.0000000000002
 30
0.0
 11
122.4999999999999
 21
121.9999999999998
 31
0.0
  0
LINE
  5
11F32
330
1A
100
AcDbEntity
  8
0
100
AcDbLine
 10
69.5
 20
120.0
 30
0.0
 11
120.4999999999999
 21
119.9999999999998
 31
0.0
  0
LINE
  5
11F33
330
1A
100
AcDbEntity
  8
0
100
AcDbLine
 10
122.4999999999999
 20
130.0
 30
0.0
 11
67.5
 21
129.9999999999999
 31
0.0
  0
LINE
  5
1200C
330
1A
100
AcDbEntity
  8
0
100
AcDbLine
 10
64.29999999999996
 20
136.0299999999998
 30
0.0
 11
60.30000016894092
 21
136.0299999999998
 31
0.0
  0
ARC
  5
1200D
330
1A
100
AcDbEntity
  8
0
100
AcDbCircle
 10
69.5
 20
122.0
 30
0.0
 40
2.0
100
AcDbArc
 50
180.0
 51
270.0
  0
CIRCLE
  5
12026
330
1A
100
AcDbEntity
  8
0
100
AcDbCircle
 10
95.0
 20
123.9999999999999
 30
0.0
 40
2.25
  0
INSERT
  5
12027
330
1A
100
AcDbEntity
  8
0
100
AcDbBlockReference
  2
A$C34EE125E
 10
91.00000014698116
 20
129.9999995274978
 30
0.0
 50
270.0
  0
ARC
  5
1205A
330
1A
100
AcDbEntity
  8
0
100
AcDbCircle
 10
120.4999999999999
 20
121.9999999999998
 30
0.0
 40
2.0
100
AcDbArc
 50
270.0
 51
0.0
  0
LINE
  5
12060
330
1A
100
AcDbEntity
  8
0
100
AcDbLine
 10
122.4999999999999
 20
250.0000000000001
 30
0.0
 11
67.5
 21
250.0
 31
0.0
  0
LINE
  5
12061
330
1A
100
AcDbEntity
  8
0
100
AcDbLine
 10
69.5
 20
260.0
 30
0.0
 11
120.4999999999999
 21
260.0000000000002
 31
0.0
  0
LINE
  5
1207D
330
1A
100
AcDbEntity
  8
0
100
AcDbLine
 10
64.29999999999996
 20
152.5299999999998
 30
0.0
 11
60.30000016894092
 21
152.5299999999998
 31
0.0
  0
ARC
  5
120C4
330
1A
100
AcDbEntity
  8
0
100
AcDbCircle
 10
69.5
 20
258.0
 30
0.0
 40
2.0
100
AcDbArc
 50
90.0
 51
180.0
  0
CIRCLE
  5
120C5
330
1A
100
AcDbEntity
  8
0
100
AcDbCircle
 10
95.0
 20
256.0000000000001
 30
0.0
 40
2.25
  0
INSERT
  5
120C6
330
1A
100
AcDbEntity
  8
0
100
AcDbBlockReference
  2
A$C34EE125E
 10
91.00000014698116
 20
250.0000004725022
 30
0.0
 41
-1.0
 50
270.0
  0
ARC
  5
120DA
330
1A
100
AcDbEntity
  8
0
100
AcDbCircle
 10
120.4999999999999
 20
258.0000000000002
 30
0.0
 40
2.0
100
AcDbArc
 50
0.0
 51
90.0
  0
LINE
  5
13A76
330
1A
100
AcDbEntity
  8
WAKU
 62
     7
100
AcDbLine
 10
225.0
 20
50.0
 30
0.0
 11
405.0
 21
50.0
 31
0.0
  0
LINE
  5
13A77
330
1A
100
AcDbEntity
  8
WAKU
100
AcDbLine
 10
345.0
 20
40.0
 30
0.0
 11
285.0
 21
40.0
 31
0.0
  0
LINE
  5
13A78
330
1A
100
AcDbEntity
  8
WAKU
100
AcDbLine
 10
345.0
 20
34.0
 30
0.0
 11
285.0
 21
34.0
 31
0.0
  0
LINE
  5
13A79
330
1A
100
AcDbEntity
  8
WAKU
100
AcDbLine
 10
345.0
 20
28.0
 30
0.0
 11
285.0
 21
28.0
 31
0.0
  0
LINE
  5
13A7A
330
1A
100
AcDbEntity
  8
WAKU
100
AcDbLine
 10
345.0
 20
13.0
 30
0.0
 11
225.0
 21
13.0
 31
0.0
  0
TEXT
  5
13A7B
330
1A
100
AcDbEntity
  8
WAKU
100
AcDbText
 10
331.0
 20
14.0
 30
0.0
 40
2.0
  1
19.11.015
100
AcDbText
  0
TEXT
  5
13A7C
330
1A
100
AcDbEntity
  8
WAKU
100
AcDbText
 10
333.0
 20
19.0
 30
0.0
 40
4.0
  1
大野
100
AcDbText
  0
TEXT
  5
13A7D
330
1A
100
AcDbEntity
  8
WAKU
100
AcDbText
 10
332.5
 20
29.5
 30
0.0
 40
3.0
  1
設　計
 72
     4
 11
337.5
 21
31.0
 31
0.0
100
AcDbText
  0
LINE
  5
13A7E
330
1A
100
AcDbEntity
  8
WAKU
100
AcDbLine
 10
285.0
 20
17.0
 30
0.0
 11
225.0
 21
17.0
 31
0.0
  0
LINE
  5
13A7F
330
1A
100
AcDbEntity
  8
WAKU
100
AcDbLine
 10
285.0
 20
21.0
 30
0.0
 11
225.0
 21
21.0
 31
0.0
  0
LINE
  5
13A80
330
1A
100
AcDbEntity
  8
WAKU
100
AcDbLine
 10
285.0
 20
25.0
 30
0.0
 11
225.0
 21
25.0
 31
0.0
  0
LINE
  5
13A81
330
1A
100
AcDbEntity
  8
WAKU
100
AcDbLine
 10
285.0
 20
29.0
 30
0.0
 11
225.0
 21
29.0
 31
0.0
  0
LINE
  5
13A82
330
1A
100
AcDbEntity
  8
WAKU
100
AcDbLine
 10
285.0
 20
33.0
 30
0.0
 11
225.0
 21
33.0
 31
0.0
  0
LINE
  5
13A83
330
1A
100
AcDbEntity
  8
WAKU
100
AcDbLine
 10
285.0
 20
37.0
 30
0.0
 11
225.0
 21
37.0
 31
0.0
  0
LINE
  5
13A84
330
1A
100
AcDbEntity
  8
WAKU
100
AcDbLine
 10
285.0
 20
41.0
 30
0.0
 11
225.0
 21
41.0
 31
0.0
  0
LINE
  5
13A85
330
1A
100
AcDbEntity
  8
WAKU
100
AcDbLine
 10
285.0
 20
45.0
 30
0.0
 11
225.0
 21
45.0
 31
0.0
  0
TEXT
  5
13A86
330
1A
100
AcDbEntity
  8
WAKU
100
AcDbText
 10
263.5
 20
46.0
 30
0.0
 40
3.0
  1
改連No.
100
AcDbText
  0
TEXT
  5
13A87
330
1A
100
AcDbEntity
  8
WAKU
100
AcDbText
 10
256.5
 20
6.0
 30
0.0
 40
6.0
  1
東洋測器株式会社
100
AcDbText
  0
LINE
  5
13A88
330
1A
100
AcDbEntity
  8
WAKU
100
AcDbLine
 10
225.0
 20
5.0
 30
0.0
 11
225.0
 21
50.0
 31
0.0
  0
TEXT
  5
13A89
330
1A
100
AcDbEntity
  8
WAKU
100
AcDbText
 10
234.5
 20
46.0
 30
0.0
 40
3.0
  1
年月日
100
AcDbText
  0
TEXT
  5
13A8A
330
1A
100
AcDbEntity
  8
WAKU
100
AcDbText
 10
234.0
 20
14.0
 30
0.0
 40
1.8
  1
19.11.15
 41
0.9
100
AcDbText
  0
LINE
  5
13A8B
330
1A
100
AcDbEntity
  8
WAKU
100
AcDbLine
 10
233.0
 20
13.0
 30
0.0
 11
233.0
 21
50.0
 31
0.0
  0
TEXT
  5
13A8C
330
1A
100
AcDbEntity
  8
WAKU
100
AcDbText
 10
226.0
 20
13.5
 30
0.0
 40
3.0
  1
設置
100
AcDbText
  0
LWPOLYLINE
  5
13A8D
330
1A
100
AcDbEntity
  8
0
100
AcDbPolyline
 90
        3
 70
     1
 43
0.0
 10
229.0
 20
21.0
 10
226.8349364905389
 20
17.25
 10
231.1650635094611
 20
17.25
  0
TEXT
  5
13A8E
330
1A
100
AcDbEntity
  8
WAKU
100
AcDbText
 10
228.0
 20
21.5
 30
0.0
 40
2.0
  1
2
100
AcDbText
  0
LWPOLYLINE
  5
13A8F
330
1A
100
AcDbEntity
  8
0
100
AcDbPolyline
 90
        3
 70
     1
 43
0.0
 10
229.0
 20
25.0
 10
226.8349364905389
 20
21.25
 10
231.1650635094611
 20
21.25
  0
TEXT
  5
13A90
330
1A
100
AcDbEntity
  8
WAKU
100
AcDbText
 10
228.0
 20
17.5
 30
0.0
 40
2.0
  1
1
100
AcDbText
  0
LWPOLYLINE
  5
13A91
330
1A
100
AcDbEntity
  8
0
100
AcDbPolyline
 90
        3
 70
     1
 43
0.0
 10
229.0
 20
29.0
 10
226.8349364905389
 20
25.25
 10
231.1650635094611
 20
25.25
  0
TEXT
  5
13A92
330
1A
100
AcDbEntity
  8
WAKU
100
AcDbText
 10
228.0
 20
25.5
 30
0.0
 40
2.0
  1
3
100
AcDbText
  0
TEXT
  5
13A93
330
1A
100
AcDbEntity
  8
WAKU
100
AcDbText
 10
226.0
 20
46.0
 30
0.0
 40
3.0
  1
記号
100
AcDbText
  0
LWPOLYLINE
  5
13A94
330
1A
100
AcDbEntity
  8
0
100
AcDbPolyline
 90
        3
 70
     1
 43
0.0
 10
229.0
 20
41.0
 10
226.8349364905389
 20
37.25
 10
231.1650635094611
 20
37.25
  0
TEXT
  5
13A95
330
1A
100
AcDbEntity
  8
WAKU
100
AcDbText
 10
228.0
 20
33.5
 30
0.0
 40
2.0
  1
5
100
AcDbText
  0
LWPOLYLINE
  5
13A96
330
1A
100
AcDbEntity
  8
0
100
AcDbPolyline
 90
        3
 70
     1
 43
0.0
 10
229.0
 20
37.0
 10
226.8349364905389
 20
33.25
 10
231.1650635094611
 20
33.25
  0
LWPOLYLINE
  5
13A97
330
1A
100
AcDbEntity
  8
0
100
AcDbPolyline
 90
        3
 70
     1
 43
0.0
 10
229.0
 20
33.0
 10
226.8349364905389
 20
29.25
 10
231.1650635094611
 20
29.25
  0
TEXT
  5
13A98
330
1A
100
AcDbEntity
  8
WAKU
100
AcDbText
 10
228.0
 20
29.5
 30
0.0
 40
2.0
  1
4
100
AcDbText
  0
TEXT
  5
13A99
330
1A
100
AcDbEntity
  8
WAKU
100
AcDbText
 10
228.0
 20
37.5
 30
0.0
 40
2.0
  1
6
100
AcDbText
  0
LWPOLYLINE
  5
13A9A
330
1A
100
AcDbEntity
  8
0
100
AcDbPolyline
 90
        3
 70
     1
 43
0.0
 10
229.0
 20
45.0
 10
226.8349364905389
 20
41.25
 10
231.1650635094611
 20
41.25
  0
TEXT
  5
13A9B
330
1A
100
AcDbEntity
  8
WAKU
100
AcDbText
 10
228.0
 20
41.5
 30
0.0
 40
2.0
  1
7
100
AcDbText
  0
LINE
  5
13A9C
330
1A
100
AcDbEntity
  8
WAKU
100
AcDbLine
 10
246.0
 20
13.0
 30
0.0
 11
246.0
 21
50.0
 31
0.0
  0
LINE
  5
13A9D
330
1A
100
AcDbEntity
  8
WAKU
100
AcDbLine
 10
256.0
 20
13.0
 30
0.0
 11
256.0
 21
50.0
 31
0.0
  0
TEXT
  5
13A9E
330
1A
100
AcDbEntity
  8
WAKU
100
AcDbText
 10
248.0
 20
13.5
 30
0.0
 40
3.0
  1
大野
100
AcDbText
  0
TEXT
  5
13A9F
330
1A
100
AcDbEntity
  8
WAKU
100
AcDbText
 10
248.0
 20
46.0
 30
0.0
 40
3.0
  1
担当
100
AcDbText
  0
LINE
  5
13AA0
330
1A
100
AcDbEntity
  8
WAKU
100
AcDbLine
 10
285.0
 20
13.0
 30
0.0
 11
285.0
 21
50.0
 31
0.0
  0
TEXT
  5
13AA1
330
1A
100
AcDbEntity
  8
WAKU
100
AcDbText
 10
286.0
 20
14.0
 30
0.0
 40
2.0
  1
19.11.15
100
AcDbText
  0
TEXT
  5
13AA2
330
1A
100
AcDbEntity
  8
WAKU
100
AcDbText
 10
288.0
 20
19.0
 30
0.0
 40
4.0
  1
金子
100
AcDbText
  0
LINE
  5
13AA3
330
1A
100
AcDbEntity
  8
WAKU
100
AcDbLine
 10
300.0
 20
13.0
 30
0.0
 11
300.0
 21
28.0
 31
0.0
  0
TEXT
  5
13AA4
330
1A
100
AcDbEntity
  8
WAKU
100
AcDbText
 10
287.5
 20
35.5
 30
0.0
 40
3.0
  1
尺　度
 72
     4
 11
292.5
 21
37.0
 31
0.0
100
AcDbText
  0
LINE
  5
13AA5
330
1A
100
AcDbEntity
  8
WAKU
100
AcDbLine
 10
298.0
 20
48.0
 30
0.0
 11
287.0
 21
42.0
 31
0.0
  0
TEXT
  5
13AA6
330
1A
100
AcDbEntity
  8
0
100
AcDbText
 10
287.5
 20
44.5
 30
0.0
 40
3.0
  1
1
100
AcDbText
  0
LINE
  5
13AA7
330
1A
100
AcDbEntity
  8
WAKU
100
AcDbLine
 10
300.0
 20
34.0
 30
0.0
 11
300.0
 21
50.0
 31
0.0
  0
TEXT
  5
13AA8
330
1A
100
AcDbEntity
  8
WAKU
100
AcDbText
 10
295.0
 20
29.5
 30
0.0
 40
3.0
  1
承　認
 72
     4
 11
300.0
 21
31.0
 31
0.0
100
AcDbText
  0
TEXT
  5
13AA9
330
1A
100
AcDbEntity
  8
0
100
AcDbText
 10
293.0
 20
41.5
 30
0.0
 40
3.0
  1
1
100
AcDbText
  0
LINE
  5
13AAA
330
1A
100
AcDbEntity
  8
WAKU
100
AcDbLine
 10
330.0
 20
13.0
 30
0.0
 11
330.0
 21
34.0
 31
0.0
  0
LINE
  5
13AAB
330
1A
100
AcDbEntity
  8
WAKU
100
AcDbLine
 10
315.0
 20
13.0
 30
0.0
 11
315.0
 21
34.0
 31
0.0
  0
TEXT
  5
13AAC
330
1A
100
AcDbEntity
  8
WAKU
100
AcDbText
 10
316.0
 20
14.0
 30
0.0
 40
2.0
  1
19.11.15
100
AcDbText
  0
TEXT
  5
13AAD
330
1A
100
AcDbEntity
  8
WAKU
100
AcDbText
 10
318.0
 20
19.0
 30
0.0
 40
4.0
  1
奥野
100
AcDbText
  0
TEXT
  5
13AAE
330
1A
100
AcDbEntity
  8
0
100
AcDbText
 10
312.5
 20
42.5
 30
0.0
 40
4.0
  1
外 形 図
100
AcDbText
  0
MTEXT
  5
13AAF
330
1A
100
AcDbEntity
  8
WAKU
100
AcDbMText
 10
314.791664707496
 20
38.86071114661275
 30
0.0
 40
3.0
 41
13.6217958711934
 71
     1
 72
     5
  1
名　　称
 73
     1
 44
1.0
1001
ACAD
1000
MTEXTBEGIN
1070
    73
1070
     1
1070
    44
1040
1.0
1070
    74
1070
     0
1000
MTEXTEND
  0
TEXT
  5
13AB0
330
1A
100
AcDbEntity
  8
WAKU
100
AcDbText
 10
317.6
 20
29.5
 30
0.0
 40
3.0
  1
検　図
 72
     4
 11
322.5
 21
31.0
 31
0.0
100
AcDbText
  0
LINE
  5
13AB1
330
1A
100
AcDbEntity
  8
WAKU
100
AcDbLine
 10
345.0
 20
5.0
 30
0.0
 11
345.0
 21
50.0
 31
0.0
  0
LINE
  5
13AB2
330
1A
100
AcDbEntity
  8
WAKU
100
AcDbLine
 10
352.0
 20
5.0
 30
0.0
 11
352.0
 21
15.0
 31
0.0
  0
TEXT
  5
13AB3
330
1A
100
AcDbEntity
  8
0
100
AcDbText
 10
358.0
 20
7.5
 30
0.0
 40
3.0
  1
EA3-00149
100
AcDbText
  0
LINE
  5
13AB4
330
1A
100
AcDbEntity
  8
WAKU
 62
     7
100
AcDbLine
 10
345.0
 20
15.0
 30
0.0
 11
405.0
 21
15.0
 31
0.0
  0
LINE
  5
13AB5
330
1A
100
AcDbEntity
  8
WAKU
 62
     7
100
AcDbLine
 10
345.0
 20
22.0
 30
0.0
 11
405.0
 21
22.0
 31
0.0
  0
LINE
  5
13AB6
330
1A
100
AcDbEntity
  8
WAKU
 62
     7
100
AcDbLine
 10
345.0
 20
29.0
 30
0.0
 11
405.0
 21
29.0
 31
0.0
  0
LINE
  5
13AB7
330
1A
100
AcDbEntity
  8
WAKU
 62
     7
100
AcDbLine
 10
345.0
 20
36.0
 30
0.0
 11
405.0
 21
36.0
 31
0.0
  0
LINE
  5
13AB8
330
1A
100
AcDbEntity
  8
WAKU
 62
     7
100
AcDbLine
 10
345.0
 20
43.0
 30
0.0
 11
405.0
 21
43.0
 31
0.0
  0
TEXT
  5
13AB9
330
1A
100
AcDbEntity
  8
0
100
AcDbText
 10
363.5
 20
44.5
 30
0.0
 40
3.0
  1
LA-1031A
100
AcDbText
  0
TEXT
  5
13ABA
330
1A
100
AcDbEntity
  8
0
100
AcDbText
 10
363.5
 20
16.5
 30
0.0
 40
3.0
  1
2020/04～
100
AcDbText
  0
LINE
  5
13ABB
330
1A
100
AcDbEntity
  8
WAKU
100
AcDbLine
 10
360.0
 20
15.0
 30
0.0
 11
360.0
 21
50.0
 31
0.0
  0
MTEXT
  5
13ABC
330
1A
100
AcDbEntity
  8
WAKU
100
AcDbMText
 10
346.0
 20
27.0
 30
0.0
 40
3.0
 41
10.0
 71
     1
 72
     5
  1
ｽﾄｯｸNo.
 73
     1
 44
1.0
1001
ACAD
1000
MTEXTBEGIN
1070
    73
1070
     1
1070
    44
1040
1.0
1070
    74
1070
     0
1000
MTEXTEND
  0
MTEXT
  5
13ABD
330
1A
100
AcDbEntity
  8
WAKU
100
AcDbMText
 10
347.0
 20
20.0
 30
0.0
 40
3.0
 41
12.0
 71
     1
 72
     5
  1
適用ﾛｯﾄ
 73
     1
 44
1.0
1001
ACAD
1000
MTEXTBEGIN
1070
    73
1070
     1
1070
    44
1040
1.0
1070
    74
1070
     0
1000
MTEXTEND
  0
TEXT
  5
13ABE
330
1A
100
AcDbEntity
  8
WAKU
100
AcDbText
 10
346.5
 20
10.5
 30
0.0
 40
3.0
  1
図
100
AcDbText
  0
TEXT
  5
13ABF
330
1A
100
AcDbEntity
  8
WAKU
100
AcDbText
 10
346.5
 20
6.0
 30
0.0
 40
3.0
  1
番
100
AcDbText
  0
MTEXT
  5
13AC0
330
1A
100
AcDbEntity
  8
WAKU
100
AcDbMText
 10
347.2999999999999
 20
40.69999999999999
 30
0.0
 40
3.0
 41
10.0
 71
     1
 72
     5
  1
部　名
 73
     1
 44
1.0
1001
ACAD
1000
MTEXTBEGIN
1070
    73
1070
     1
1070
    44
1040
1.0
1070
    74
1070
     0
1000
MTEXTEND
  0
MTEXT
  5
13AC1
330
1A
100
AcDbEntity
  8
WAKU
100
AcDbMText
 10
347.3192310662242
 20
34.48051906497278
 30
0.0
 40
3.0
 41
11.0
 71
     1
 72
     5
  1
部品表
 73
     1
 44
1.0
1001
ACAD
1000
MTEXTBEGIN
1070
    73
1070
     1
1070
    44
1040
1.0
1070
    74
1070
     0
1000
MTEXTEND
  0
MTEXT
  5
13AC2
330
1A
100
AcDbEntity
  8
WAKU
100
AcDbMText
 10
347.2
 20
47.69999999999998
 30
0.0
 40
3.0
 41
10.0
 71
     1
 72
     5
  1
機種名
 73
     1
 44
1.0
1001
ACAD
1000
MTEXTBEGIN
1070
    73
1070
     1
1070
    44
1040
1.0
1070
    74
1070
     0
1000
MTEXTEND
  0
TEXT
  5
13AC3
330
1A
100
AcDbEntity
  8
0
100
AcDbText
 10
396.5
 20
7.5
 30
0.0
 40
3.0
  1
1
100
AcDbText
  0
LWPOLYLINE
  5
13AC4
330
1A
100
AcDbEntity
  8
0
100
AcDbPolyline
 90
        3
 70
     1
 43
0.0
 10
398.000299193703
 20
13.75002575180713
 10
393.6701721747807
 20
6.250025751807129
 10
402.3304262126251
 20
6.250025751807129
  0
LINE
  5
14B82
330
1A
100
AcDbEntity
  8
SUNPOU
100
AcDbLine
 10
242.1999999999999
 20
135.05
 30
0.0
 11
242.2
 21
244.93
 31
0.0
  0
LINE
  5
14B83
330
1A
100
AcDbEntity
  8
SUNPOU
100
AcDbLine
 10
238.3999999999999
 20
135.05
 30
0.0
 11
238.3999999999999
 21
244.93
 31
0.0
  0
LINE
  5
14B84
330
1A
100
AcDbEntity
  8
0
100
AcDbLine
 10
240.1999999999999
 20
182.99
 30
0.0
 11
240.1999999999999
 21
181.77
 31
0.0
  0
LINE
  5
14B85
330
1A
100
AcDbEntity
  8
0
100
AcDbLine
 10
240.1999999999999
 20
136.05
 30
0.0
 11
255.2
 21
136.0500000000001
 31
0.0
  0
LINE
  5
14B86
330
1A
100
AcDbEntity
  8
0
100
AcDbLine
 10
255.2
 20
135.05
 30
0.0
 11
249.1999999999999
 21
135.05
 31
0.0
  0
LINE
  5
14B87
330
1A
100
AcDbEntity
  8
0
100
AcDbLine
 10
252.6999999999999
 20
143.6699999999999
 30
0.0
 11
252.6999999999999
 21
137.27
 31
0.0
  0
LINE
  5
14B88
330
1A
100
AcDbEntity
  8
0
100
AcDbLine
 10
249.1999999999999
 20
143.6699999999999
 30
0.0
 11
249.1999999999999
 21
137.27
 31
0.0
  0
LINE
  5
14B89
330
1A
100
AcDbEntity
  8
0
100
AcDbLine
 10
248.1999999999999
 20
143.1699999999999
 30
0.0
 11
248.1999999999999
 21
137.8699999999999
 31
0.0
  0
LINE
  5
14B8A
330
1A
100
AcDbEntity
  8
0
100
AcDbLine
 10
246.6999999999999
 20
143.1699999999999
 30
0.0
 11
246.6999999999999
 21
137.8699999999999
 31
0.0
  0
ELLIPSE
  5
14B8B
330
1A
100
AcDbEntity
  8
0
100
AcDbEllipse
 10
245.8999999999999
 20
140.4699999999999
 30
0.0
 11
-0.000000000000001
 21
-2.399999999999977
 31
0.0
210
0.0
220
0.0
230
1.0
 40
0.5416666666666529
 41
2.478718829939674
 42
6.946059130829823
  0
LINE
  5
14B8C
330
1A
100
AcDbEntity
  8
0
100
AcDbLine
 10
240.1999999999999
 20
137.27
 30
0.0
 11
252.6999999999998
 21
137.27
 31
0.0
  0
LINE
  5
14B8D
330
1A
100
AcDbEntity
  8
0
100
AcDbLine
 10
240.1999999999999
 20
137.27
 30
0.0
 11
240.1999999999999
 21
136.05
 31
0.0
  0
LINE
  5
14B8E
330
1A
100
AcDbEntity
  8
SUNPOU
100
AcDbLine
 10
242.2
 20
135.05
 30
0.0
 11
238.3999999999999
 21
135.05
 31
0.0
  0
LINE
  5
14B8F
330
1A
100
AcDbEntity
  8
0
100
AcDbLine
 10
249.1999999999999
 20
137.8699999999999
 30
0.0
 11
246.6999999999999
 21
137.8699999999999
 31
0.0
  0
LINE
  5
14B90
330
1A
100
AcDbEntity
  8
0
100
AcDbLine
 10
249.1999999999999
 20
136.05
 30
0.0
 11
249.1999999999999
 21
135.05
 31
0.0
  0
LINE
  5
14B91
330
1A
100
AcDbEntity
  8
0
100
AcDbLine
 10
249.1999999999999
 20
166.53
 30
0.0
 11
249.1999999999999
 21
160.13
 31
0.0
  0
LINE
  5
14B92
330
1A
100
AcDbEntity
  8
0
100
AcDbLine
 10
252.6999999999999
 20
166.53
 30
0.0
 11
252.6999999999999
 21
160.13
 31
0.0
  0
ELLIPSE
  5
14B93
330
1A
100
AcDbEntity
  8
0
100
AcDbEllipse
 10
245.8999999999999
 20
163.3299999999999
 30
0.0
 11
-0.000000000000001
 21
-2.399999999999977
 31
0.0
210
0.0
220
0.0
230
1.0
 40
0.5416666666666529
 41
2.478718829939674
 42
6.946059130829823
  0
LINE
  5
14B94
330
1A
100
AcDbEntity
  8
0
100
AcDbLine
 10
248.1999999999999
 20
166.0299999999999
 30
0.0
 11
248.1999999999999
 21
160.7299999999999
 31
0.0
  0
LINE
  5
14B95
330
1A
100
AcDbEntity
  8
0
100
AcDbLine
 10
246.6999999999999
 20
166.0299999999999
 30
0.0
 11
246.6999999999999
 21
160.7299999999999
 31
0.0
  0
LINE
  5
14B96
330
1A
100
AcDbEntity
  8
0
100
AcDbLine
 10
240.1999999999999
 20
152.51
 30
0.0
 11
240.1999999999999
 21
151.2899999999999
 31
0.0
  0
LINE
  5
14B97
330
1A
100
AcDbEntity
  8
0
100
AcDbLine
 10
240.1999999999999
 20
151.29
 30
0.0
 11
252.6999999999999
 21
151.29
 31
0.0
  0
LINE
  5
14B98
330
1A
100
AcDbEntity
  8
0
100
AcDbLine
 10
240.1999999999999
 20
144.8900000000001
 30
0.0
 11
252.6999999999998
 21
144.89
 31
0.0
  0
ELLIPSE
  5
14B99
330
1A
100
AcDbEntity
  8
0
100
AcDbEllipse
 10
245.8999999999999
 20
148.09
 30
0.0
 11
-0.000000000000001
 21
-2.399999999999977
 31
0.0
210
0.0
220
0.0
230
1.0
 40
0.5416666666666529
 41
2.478718829939674
 42
6.946059130829823
  0
LINE
  5
14B9A
330
1A
100
AcDbEntity
  8
0
100
AcDbLine
 10
240.1999999999999
 20
143.6699999999999
 30
0.0
 11
252.6999999999999
 21
143.6699999999999
 31
0.0
  0
LINE
  5
14B9B
330
1A
100
AcDbEntity
  8
0
100
AcDbLine
 10
240.1999999999999
 20
144.8899999999999
 30
0.0
 11
240.1999999999999
 21
143.6699999999999
 31
0.0
  0
LINE
  5
14B9C
330
1A
100
AcDbEntity
  8
0
100
AcDbLine
 10
246.6999999999998
 20
150.79
 30
0.0
 11
249.1999999999999
 21
150.79
 31
0.0
  0
LINE
  5
14B9D
330
1A
100
AcDbEntity
  8
0
100
AcDbLine
 10
249.1999999999999
 20
145.49
 30
0.0
 11
246.6999999999999
 21
145.49
 31
0.0
  0
LINE
  5
14B9E
330
1A
100
AcDbEntity
  8
0
100
AcDbLine
 10
246.6999999999999
 20
150.79
 30
0.0
 11
246.6999999999999
 21
145.49
 31
0.0
  0
LINE
  5
14B9F
330
1A
100
AcDbEntity
  8
0
100
AcDbLine
 10
248.1999999999999
 20
150.79
 30
0.0
 11
248.1999999999999
 21
145.49
 31
0.0
  0
LINE
  5
14BA0
330
1A
100
AcDbEntity
  8
0
100
AcDbLine
 10
249.1999999999999
 20
151.29
 30
0.0
 11
249.1999999999999
 21
144.89
 31
0.0
  0
LINE
  5
14BA1
330
1A
100
AcDbEntity
  8
0
100
AcDbLine
 10
252.6999999999999
 20
151.29
 30
0.0
 11
252.6999999999999
 21
144.89
 31
0.0
  0
LINE
  5
14BA2
330
1A
100
AcDbEntity
  8
0
100
AcDbLine
 10
246.6999999999998
 20
143.1699999999999
 30
0.0
 11
249.1999999999999
 21
143.1699999999999
 31
0.0
  0
ELLIPSE
  5
14BA3
330
1A
100
AcDbEntity
  8
0
100
AcDbEllipse
 10
245.8999999999999
 20
155.6899999999999
 30
0.0
 11
-0.000000000000001
 21
-2.399999999999977
 31
0.0
210
0.0
220
0.0
230
1.0
 40
0.5416666666666529
 41
2.478718829939674
 42
6.946059130829823
  0
LINE
  5
14BA4
330
1A
100
AcDbEntity
  8
0
100
AcDbLine
 10
240.1999999999999
 20
158.91
 30
0.0
 11
252.6999999999999
 21
158.91
 31
0.0
  0
LINE
  5
14BA5
330
1A
100
AcDbEntity
  8
0
100
AcDbLine
 10
240.1999999999999
 20
152.51
 30
0.0
 11
252.7
 21
152.5099999999999
 31
0.0
  0
LINE
  5
14BA6
330
1A
100
AcDbEntity
  8
0
100
AcDbLine
 10
240.1999999999999
 20
160.13
 30
0.0
 11
252.6999999999998
 21
160.13
 31
0.0
  0
LINE
  5
14BA7
330
1A
100
AcDbEntity
  8
0
100
AcDbLine
 10
240.1999999999999
 20
160.13
 30
0.0
 11
240.1999999999999
 21
158.91
 31
0.0
  0
LINE
  5
14BA8
330
1A
100
AcDbEntity
  8
0
100
AcDbLine
 10
249.1999999999999
 20
158.91
 30
0.0
 11
249.1999999999999
 21
152.5099999999999
 31
0.0
  0
LINE
  5
14BA9
330
1A
100
AcDbEntity
  8
0
100
AcDbLine
 10
252.6999999999999
 20
158.91
 30
0.0
 11
252.6999999999999
 21
152.51
 31
0.0
  0
LINE
  5
14BAA
330
1A
100
AcDbEntity
  8
0
100
AcDbLine
 10
246.6999999999999
 20
158.39
 30
0.0
 11
246.6999999999999
 21
153.0899999999999
 31
0.0
  0
LINE
  5
14BAB
330
1A
100
AcDbEntity
  8
0
100
AcDbLine
 10
248.1999999999999
 20
158.39
 30
0.0
 11
248.1999999999999
 21
153.0899999999999
 31
0.0
  0
LINE
  5
14BAC
330
1A
100
AcDbEntity
  8
0
100
AcDbLine
 10
246.6999999999998
 20
158.39
 30
0.0
 11
249.1999999999999
 21
158.39
 31
0.0
  0
LINE
  5
14BAD
330
1A
100
AcDbEntity
  8
0
100
AcDbLine
 10
249.1999999999999
 20
153.0899999999999
 30
0.0
 11
246.6999999999999
 21
153.0899999999999
 31
0.0
  0
LINE
  5
14BAE
330
1A
100
AcDbEntity
  8
0
100
AcDbLine
 10
249.1999999999999
 20
160.7299999999999
 30
0.0
 11
246.6999999999999
 21
160.7299999999999
 31
0.0
  0
LINE
  5
14BAF
330
1A
100
AcDbEntity
  8
0
100
AcDbLine
 10
249.1999999999999
 20
174.15
 30
0.0
 11
249.1999999999999
 21
167.7499999999999
 31
0.0
  0
LINE
  5
14BB0
330
1A
100
AcDbEntity
  8
0
100
AcDbLine
 10
252.6999999999999
 20
174.15
 30
0.0
 11
252.6999999999999
 21
167.75
 31
0.0
  0
ELLIPSE
  5
14BB1
330
1A
100
AcDbEntity
  8
0
100
AcDbEllipse
 10
245.8999999999999
 20
170.9299999999999
 30
0.0
 11
-0.000000000000001
 21
-2.399999999999977
 31
0.0
210
0.0
220
0.0
230
1.0
 40
0.5416666666666529
 41
2.478718829939674
 42
6.946059130829823
  0
LINE
  5
14BB2
330
1A
100
AcDbEntity
  8
0
100
AcDbLine
 10
248.1999999999999
 20
173.63
 30
0.0
 11
248.1999999999999
 21
168.33
 31
0.0
  0
LINE
  5
14BB3
330
1A
100
AcDbEntity
  8
0
100
AcDbLine
 10
246.6999999999999
 20
173.63
 30
0.0
 11
246.6999999999999
 21
168.33
 31
0.0
  0
LINE
  5
14BB4
330
1A
100
AcDbEntity
  8
0
100
AcDbLine
 10
240.1999999999999
 20
167.75
 30
0.0
 11
252.7
 21
167.7499999999999
 31
0.0
  0
LINE
  5
14BB5
330
1A
100
AcDbEntity
  8
0
100
AcDbLine
 10
240.1999999999999
 20
166.53
 30
0.0
 11
252.6999999999999
 21
166.53
 31
0.0
  0
LINE
  5
14BB6
330
1A
100
AcDbEntity
  8
0
100
AcDbLine
 10
240.1999999999999
 20
167.75
 30
0.0
 11
240.1999999999999
 21
166.53
 31
0.0
  0
LINE
  5
14BB7
330
1A
100
AcDbEntity
  8
0
100
AcDbLine
 10
249.1999999999999
 20
168.33
 30
0.0
 11
246.6999999999999
 21
168.33
 31
0.0
  0
LINE
  5
14BB8
330
1A
100
AcDbEntity
  8
0
100
AcDbLine
 10
246.6999999999998
 20
166.0299999999999
 30
0.0
 11
249.1999999999999
 21
166.0299999999999
 31
0.0
  0
ELLIPSE
  5
14BB9
330
1A
100
AcDbEntity
  8
0
100
AcDbEllipse
 10
245.8999999999999
 20
178.5699999999999
 30
0.0
 11
-0.000000000000001
 21
-2.399999999999977
 31
0.0
210
0.0
220
0.0
230
1.0
 40
0.5416666666666529
 41
2.478718829939674
 42
6.946059130829823
  0
LINE
  5
14BBA
330
1A
100
AcDbEntity
  8
0
100
AcDbLine
 10
240.1999999999999
 20
181.77
 30
0.0
 11
252.7
 21
181.77
 31
0.0
  0
LINE
  5
14BBB
330
1A
100
AcDbEntity
  8
0
100
AcDbLine
 10
240.1999999999999
 20
175.37
 30
0.0
 11
252.6999999999998
 21
175.37
 31
0.0
  0
LINE
  5
14BBC
330
1A
100
AcDbEntity
  8
0
100
AcDbLine
 10
240.1999999999999
 20
174.15
 30
0.0
 11
252.6999999999999
 21
174.15
 31
0.0
  0
LINE
  5
14BBD
330
1A
100
AcDbEntity
  8
0
100
AcDbLine
 10
240.1999999999999
 20
175.37
 30
0.0
 11
240.1999999999999
 21
174.15
 31
0.0
  0
LINE
  5
14BBE
330
1A
100
AcDbEntity
  8
0
100
AcDbLine
 10
249.1999999999999
 20
181.77
 30
0.0
 11
249.1999999999999
 21
175.37
 31
0.0
  0
LINE
  5
14BBF
330
1A
100
AcDbEntity
  8
0
100
AcDbLine
 10
252.7
 20
181.77
 30
0.0
 11
252.7
 21
175.37
 31
0.0
  0
LINE
  5
14BC0
330
1A
100
AcDbEntity
  8
0
100
AcDbLine
 10
248.1999999999999
 20
181.2699999999999
 30
0.0
 11
248.1999999999999
 21
175.97
 31
0.0
  0
LINE
  5
14BC1
330
1A
100
AcDbEntity
  8
0
100
AcDbLine
 10
246.6999999999999
 20
181.2699999999999
 30
0.0
 11
246.6999999999999
 21
175.97
 31
0.0
  0
LINE
  5
14BC2
330
1A
100
AcDbEntity
  8
0
100
AcDbLine
 10
246.6999999999998
 20
181.2699999999999
 30
0.0
 11
249.1999999999999
 21
181.2699999999999
 31
0.0
  0
LINE
  5
14BC3
330
1A
100
AcDbEntity
  8
0
100
AcDbLine
 10
246.6999999999998
 20
173.63
 30
0.0
 11
249.1999999999999
 21
173.63
 31
0.0
  0
LINE
  5
14BC4
330
1A
100
AcDbEntity
  8
0
100
AcDbLine
 10
249.1999999999999
 20
175.97
 30
0.0
 11
246.6999999999999
 21
175.97
 31
0.0
  0
LINE
  5
14BEF
330
1A
100
AcDbEntity
  8
0
100
AcDbLine
 10
255.2
 20
244.93
 30
0.0
 11
249.1999999999999
 21
244.93
 31
0.0
  0
LINE
  5
14BF0
330
1A
100
AcDbEntity
  8
0
100
AcDbLine
 10
240.1999999999999
 20
243.95
 30
0.0
 11
255.2
 21
243.9500000000001
 31
0.0
  0
LINE
  5
14BF1
330
1A
100
AcDbEntity
  8
0
100
AcDbLine
 10
249.1999999999999
 20
227.49
 30
0.0
 11
249.2
 21
221.09
 31
0.0
  0
LINE
  5
14BF2
330
1A
100
AcDbEntity
  8
0
100
AcDbLine
 10
252.6999999999999
 20
227.49
 30
0.0
 11
252.7
 21
221.09
 31
0.0
  0
LINE
  5
14BF3
330
1A
100
AcDbEntity
  8
0
100
AcDbLine
 10
249.2
 20
204.63
 30
0.0
 11
249.2
 21
198.23
 31
0.0
  0
LINE
  5
14BF4
330
1A
100
AcDbEntity
  8
0
100
AcDbLine
 10
252.7
 20
204.63
 30
0.0
 11
252.7
 21
198.23
 31
0.0
  0
ELLIPSE
  5
14BF5
330
1A
100
AcDbEntity
  8
0
100
AcDbEllipse
 10
245.9
 20
201.4299999999999
 30
0.0
 11
-0.000000000000001
 21
-2.399999999999977
 31
0.0
210
0.0
220
0.0
230
1.0
 40
0.5416666666666529
 41
2.478718829939674
 42
6.946059130829823
  0
LINE
  5
14BF6
330
1A
100
AcDbEntity
  8
0
100
AcDbLine
 10
246.6999999999999
 20
204.13
 30
0.0
 11
246.6999999999999
 21
198.83
 31
0.0
  0
LINE
  5
14BF7
330
1A
100
AcDbEntity
  8
0
100
AcDbLine
 10
248.1999999999999
 20
204.13
 30
0.0
 11
248.2
 21
198.83
 31
0.0
  0
ELLIPSE
  5
14BF8
330
1A
100
AcDbEntity
  8
0
100
AcDbEllipse
 10
245.9
 20
193.7899999999999
 30
0.0
 11
-0.000000000000001
 21
-2.399999999999977
 31
0.0
210
0.0
220
0.0
230
1.0
 40
0.5416666666666529
 41
2.478718829939674
 42
6.946059130829823
  0
LINE
  5
14BF9
330
1A
100
AcDbEntity
  8
0
100
AcDbLine
 10
248.1999999999999
 20
196.49
 30
0.0
 11
248.2
 21
191.19
 31
0.0
  0
LINE
  5
14BFA
330
1A
100
AcDbEntity
  8
0
100
AcDbLine
 10
246.6999999999999
 20
196.49
 30
0.0
 11
246.6999999999999
 21
191.19
 31
0.0
  0
LINE
  5
14BFB
330
1A
100
AcDbEntity
  8
0
100
AcDbLine
 10
249.1999999999999
 20
197.01
 30
0.0
 11
249.1999999999999
 21
190.6099999999999
 31
0.0
  0
LINE
  5
14BFC
330
1A
100
AcDbEntity
  8
0
100
AcDbLine
 10
252.6999999999999
 20
197.01
 30
0.0
 11
252.7
 21
190.61
 31
0.0
  0
ELLIPSE
  5
14BFD
330
1A
100
AcDbEntity
  8
0
100
AcDbEllipse
 10
245.9
 20
186.1899999999999
 30
0.0
 11
-0.000000000000001
 21
-2.399999999999977
 31
0.0
210
0.0
220
0.0
230
1.0
 40
0.5416666666666529
 41
2.478718829939674
 42
6.946059130829823
  0
LINE
  5
14BFE
330
1A
100
AcDbEntity
  8
0
100
AcDbLine
 10
240.1999999999999
 20
182.99
 30
0.0
 11
252.7
 21
182.9899999999999
 31
0.0
  0
LINE
  5
14BFF
330
1A
100
AcDbEntity
  8
0
100
AcDbLine
 10
240.1999999999999
 20
189.39
 30
0.0
 11
252.7
 21
189.39
 31
0.0
  0
LINE
  5
14C00
330
1A
100
AcDbEntity
  8
0
100
AcDbLine
 10
240.1999999999999
 20
190.61
 30
0.0
 11
252.7
 21
190.6099999999999
 31
0.0
  0
LINE
  5
14C01
330
1A
100
AcDbEntity
  8
0
100
AcDbLine
 10
240.1999999999999
 20
190.61
 30
0.0
 11
240.1999999999999
 21
189.39
 31
0.0
  0
LINE
  5
14C02
330
1A
100
AcDbEntity
  8
0
100
AcDbLine
 10
252.7
 20
189.39
 30
0.0
 11
252.7
 21
182.99
 31
0.0
  0
LINE
  5
14C03
330
1A
100
AcDbEntity
  8
0
100
AcDbLine
 10
249.1999999999999
 20
189.39
 30
0.0
 11
249.1999999999999
 21
182.99
 31
0.0
  0
LINE
  5
14C04
330
1A
100
AcDbEntity
  8
0
100
AcDbLine
 10
248.1999999999999
 20
188.8899999999999
 30
0.0
 11
248.2
 21
183.59
 31
0.0
  0
LINE
  5
14C05
330
1A
100
AcDbEntity
  8
0
100
AcDbLine
 10
246.6999999999999
 20
188.8899999999999
 30
0.0
 11
246.6999999999999
 21
183.59
 31
0.0
  0
LINE
  5
14C06
330
1A
100
AcDbEntity
  8
0
100
AcDbLine
 10
249.1999999999999
 20
183.59
 30
0.0
 11
246.6999999999999
 21
183.59
 31
0.0
  0
LINE
  5
14C07
330
1A
100
AcDbEntity
  8
0
100
AcDbLine
 10
246.6999999999998
 20
188.8899999999999
 30
0.0
 11
249.1999999999999
 21
188.8899999999999
 31
0.0
  0
LINE
  5
14C08
330
1A
100
AcDbEntity
  8
0
100
AcDbLine
 10
249.1999999999999
 20
191.19
 30
0.0
 11
246.6999999999999
 21
191.19
 31
0.0
  0
LINE
  5
14C09
330
1A
100
AcDbEntity
  8
0
100
AcDbLine
 10
240.2
 20
198.23
 30
0.0
 11
252.6999999999999
 21
198.23
 31
0.0
  0
LINE
  5
14C0A
330
1A
100
AcDbEntity
  8
0
100
AcDbLine
 10
240.2
 20
197.01
 30
0.0
 11
252.7
 21
197.01
 31
0.0
  0
LINE
  5
14C0B
330
1A
100
AcDbEntity
  8
0
100
AcDbLine
 10
240.1999999999999
 20
198.23
 30
0.0
 11
240.1999999999999
 21
197.01
 31
0.0
  0
LINE
  5
14C0C
330
1A
100
AcDbEntity
  8
0
100
AcDbLine
 10
246.6999999999998
 20
196.49
 30
0.0
 11
249.1999999999999
 21
196.49
 31
0.0
  0
LINE
  5
14C0D
330
1A
100
AcDbEntity
  8
0
100
AcDbLine
 10
249.1999999999999
 20
198.83
 30
0.0
 11
246.6999999999999
 21
198.83
 31
0.0
  0
LINE
  5
14C0E
330
1A
100
AcDbEntity
  8
0
100
AcDbLine
 10
252.6999999999999
 20
212.25
 30
0.0
 11
252.7
 21
205.85
 31
0.0
  0
LINE
  5
14C0F
330
1A
100
AcDbEntity
  8
0
100
AcDbLine
 10
249.1999999999999
 20
212.25
 30
0.0
 11
249.2
 21
205.8499999999999
 31
0.0
  0
LINE
  5
14C10
330
1A
100
AcDbEntity
  8
0
100
AcDbLine
 10
246.6999999999999
 20
211.73
 30
0.0
 11
246.6999999999999
 21
206.43
 31
0.0
  0
LINE
  5
14C11
330
1A
100
AcDbEntity
  8
0
100
AcDbLine
 10
248.1999999999999
 20
211.73
 30
0.0
 11
248.2
 21
206.43
 31
0.0
  0
ELLIPSE
  5
14C12
330
1A
100
AcDbEntity
  8
0
100
AcDbEllipse
 10
245.9
 20
209.03
 30
0.0
 11
-0.000000000000001
 21
-2.399999999999977
 31
0.0
210
0.0
220
0.0
230
1.0
 40
0.5416666666666529
 41
2.478718829939674
 42
6.946059130829823
  0
LINE
  5
14C13
330
1A
100
AcDbEntity
  8
0
100
AcDbLine
 10
240.2
 20
205.85
 30
0.0
 11
252.7
 21
205.8499999999999
 31
0.0
  0
LINE
  5
14C14
330
1A
100
AcDbEntity
  8
0
100
AcDbLine
 10
240.2
 20
204.63
 30
0.0
 11
252.7
 21
204.63
 31
0.0
  0
LINE
  5
14C15
330
1A
100
AcDbEntity
  8
0
100
AcDbLine
 10
240.1999999999999
 20
205.85
 30
0.0
 11
240.1999999999999
 21
204.63
 31
0.0
  0
LINE
  5
14C16
330
1A
100
AcDbEntity
  8
0
100
AcDbLine
 10
249.1999999999999
 20
206.43
 30
0.0
 11
246.6999999999999
 21
206.43
 31
0.0
  0
LINE
  5
14C17
330
1A
100
AcDbEntity
  8
0
100
AcDbLine
 10
246.6999999999999
 20
204.13
 30
0.0
 11
249.1999999999999
 21
204.13
 31
0.0
  0
ELLIPSE
  5
14C18
330
1A
100
AcDbEntity
  8
0
100
AcDbEllipse
 10
245.9
 20
216.67
 30
0.0
 11
-0.000000000000001
 21
-2.399999999999977
 31
0.0
210
0.0
220
0.0
230
1.0
 40
0.5416666666666529
 41
2.478718829939674
 42
6.946059130829823
  0
LINE
  5
14C19
330
1A
100
AcDbEntity
  8
0
100
AcDbLine
 10
240.2
 20
221.09
 30
0.0
 11
252.7
 21
221.09
 31
0.0
  0
LINE
  5
14C1A
330
1A
100
AcDbEntity
  8
0
100
AcDbLine
 10
240.2
 20
219.87
 30
0.0
 11
252.7
 21
219.87
 31
0.0
  0
LINE
  5
14C1B
330
1A
100
AcDbEntity
  8
0
100
AcDbLine
 10
240.2
 20
212.25
 30
0.0
 11
252.7
 21
212.25
 31
0.0
  0
LINE
  5
14C1C
330
1A
100
AcDbEntity
  8
0
100
AcDbLine
 10
240.2
 20
213.47
 30
0.0
 11
252.6999999999999
 21
213.47
 31
0.0
  0
LINE
  5
14C1D
330
1A
100
AcDbEntity
  8
0
100
AcDbLine
 10
240.1999999999999
 20
221.09
 30
0.0
 11
240.1999999999999
 21
219.87
 31
0.0
  0
LINE
  5
14C1E
330
1A
100
AcDbEntity
  8
0
100
AcDbLine
 10
240.1999999999999
 20
213.47
 30
0.0
 11
240.1999999999999
 21
212.25
 31
0.0
  0
LINE
  5
14C1F
330
1A
100
AcDbEntity
  8
0
100
AcDbLine
 10
249.2
 20
219.87
 30
0.0
 11
249.2
 21
213.47
 31
0.0
  0
LINE
  5
14C20
330
1A
100
AcDbEntity
  8
0
100
AcDbLine
 10
252.7
 20
219.87
 30
0.0
 11
252.7
 21
213.47
 31
0.0
  0
LINE
  5
14C21
330
1A
100
AcDbEntity
  8
0
100
AcDbLine
 10
246.6999999999999
 20
219.37
 30
0.0
 11
246.6999999999999
 21
214.07
 31
0.0
  0
LINE
  5
14C22
330
1A
100
AcDbEntity
  8
0
100
AcDbLine
 10
248.1999999999999
 20
219.37
 30
0.0
 11
248.2
 21
214.07
 31
0.0
  0
LINE
  5
14C23
330
1A
100
AcDbEntity
  8
0
100
AcDbLine
 10
246.6999999999999
 20
219.37
 30
0.0
 11
249.1999999999999
 21
219.37
 31
0.0
  0
LINE
  5
14C24
330
1A
100
AcDbEntity
  8
0
100
AcDbLine
 10
249.1999999999999
 20
214.07
 30
0.0
 11
246.6999999999999
 21
214.07
 31
0.0
  0
LINE
  5
14C25
330
1A
100
AcDbEntity
  8
0
100
AcDbLine
 10
246.6999999999999
 20
211.73
 30
0.0
 11
249.1999999999999
 21
211.73
 31
0.0
  0
LINE
  5
14C26
330
1A
100
AcDbEntity
  8
0
100
AcDbLine
 10
248.2
 20
242.21
 30
0.0
 11
248.2000000000001
 21
236.91
 31
0.0
  0
LINE
  5
14C27
330
1A
100
AcDbEntity
  8
0
100
AcDbLine
 10
246.7
 20
242.21
 30
0.0
 11
246.7
 21
236.91
 31
0.0
  0
ELLIPSE
  5
14C28
330
1A
100
AcDbEntity
  8
0
100
AcDbEllipse
 10
245.9
 20
239.51
 30
0.0
 11
-0.000000000000001
 21
-2.399999999999977
 31
0.0
210
0.0
220
0.0
230
1.0
 40
0.5416666666666529
 41
2.478718829939674
 42
6.946059130829823
  0
LINE
  5
14C29
330
1A
100
AcDbEntity
  8
0
100
AcDbLine
 10
252.7
 20
242.73
 30
0.0
 11
252.7000000000001
 21
236.3300000000001
 31
0.0
  0
LINE
  5
14C2A
330
1A
100
AcDbEntity
  8
0
100
AcDbLine
 10
249.2
 20
242.73
 30
0.0
 11
249.2
 21
236.33
 31
0.0
  0
LINE
  5
14C2B
330
1A
100
AcDbEntity
  8
0
100
AcDbLine
 10
252.7000000000001
 20
235.11
 30
0.0
 11
252.7000000000001
 21
228.7100000000001
 31
0.0
  0
LINE
  5
14C2C
330
1A
100
AcDbEntity
  8
0
100
AcDbLine
 10
249.2
 20
235.11
 30
0.0
 11
249.2
 21
228.7100000000001
 31
0.0
  0
ELLIPSE
  5
14C2D
330
1A
100
AcDbEntity
  8
0
100
AcDbEllipse
 10
245.9
 20
231.91
 30
0.0
 11
-0.000000000000001
 21
-2.399999999999977
 31
0.0
210
0.0
220
0.0
230
1.0
 40
0.5416666666666529
 41
2.478718829939674
 42
6.946059130829823
  0
LINE
  5
14C2E
330
1A
100
AcDbEntity
  8
0
100
AcDbLine
 10
248.2
 20
234.61
 30
0.0
 11
248.2000000000001
 21
229.31
 31
0.0
  0
LINE
  5
14C2F
330
1A
100
AcDbEntity
  8
0
100
AcDbLine
 10
246.7
 20
234.61
 30
0.0
 11
246.7
 21
229.31
 31
0.0
  0
ELLIPSE
  5
14C30
330
1A
100
AcDbEntity
  8
0
100
AcDbEllipse
 10
245.9
 20
224.27
 30
0.0
 11
-0.000000000000001
 21
-2.399999999999977
 31
0.0
210
0.0
220
0.0
230
1.0
 40
0.5416666666666529
 41
2.478718829939674
 42
6.946059130829823
  0
LINE
  5
14C31
330
1A
100
AcDbEntity
  8
0
100
AcDbLine
 10
240.2
 20
227.49
 30
0.0
 11
252.7
 21
227.49
 31
0.0
  0
LINE
  5
14C32
330
1A
100
AcDbEntity
  8
0
100
AcDbLine
 10
240.2
 20
228.7100000000001
 30
0.0
 11
252.7
 21
228.7100000000001
 31
0.0
  0
LINE
  5
14C33
330
1A
100
AcDbEntity
  8
0
100
AcDbLine
 10
240.2
 20
228.7100000000001
 30
0.0
 11
240.2
 21
227.49
 31
0.0
  0
LINE
  5
14C34
330
1A
100
AcDbEntity
  8
0
100
AcDbLine
 10
246.6999999999999
 20
226.97
 30
0.0
 11
246.6999999999999
 21
221.67
 31
0.0
  0
LINE
  5
14C35
330
1A
100
AcDbEntity
  8
0
100
AcDbLine
 10
248.1999999999999
 20
226.97
 30
0.0
 11
248.2
 21
221.67
 31
0.0
  0
LINE
  5
14C36
330
1A
100
AcDbEntity
  8
0
100
AcDbLine
 10
249.1999999999999
 20
221.67
 30
0.0
 11
246.6999999999999
 21
221.67
 31
0.0
  0
LINE
  5
14C37
330
1A
100
AcDbEntity
  8
0
100
AcDbLine
 10
246.6999999999999
 20
226.97
 30
0.0
 11
249.1999999999999
 21
226.97
 31
0.0
  0
LINE
  5
14C38
330
1A
100
AcDbEntity
  8
0
100
AcDbLine
 10
249.2
 20
229.31
 30
0.0
 11
246.7
 21
229.31
 31
0.0
  0
LINE
  5
14C39
330
1A
100
AcDbEntity
  8
0
100
AcDbLine
 10
240.2
 20
235.11
 30
0.0
 11
252.7000000000001
 21
235.11
 31
0.0
  0
LINE
  5
14C3A
330
1A
100
AcDbEntity
  8
0
100
AcDbLine
 10
240.2
 20
236.3300000000001
 30
0.0
 11
252.7000000000001
 21
236.33
 31
0.0
  0
LINE
  5
14C3B
330
1A
100
AcDbEntity
  8
0
100
AcDbLine
 10
240.2
 20
236.3300000000001
 30
0.0
 11
240.2
 21
235.11
 31
0.0
  0
LINE
  5
14C3C
330
1A
100
AcDbEntity
  8
0
100
AcDbLine
 10
249.2
 20
236.91
 30
0.0
 11
246.7
 21
236.91
 31
0.0
  0
LINE
  5
14C3D
330
1A
100
AcDbEntity
  8
0
100
AcDbLine
 10
246.6999999999999
 20
234.61
 30
0.0
 11
249.2
 21
234.61
 31
0.0
  0
LINE
  5
14C3E
330
1A
100
AcDbEntity
  8
0
100
AcDbLine
 10
240.2
 20
242.73
 30
0.0
 11
252.7
 21
242.73
 31
0.0
  0
LINE
  5
14C3F
330
1A
100
AcDbEntity
  8
0
100
AcDbLine
 10
240.1999999999999
 20
243.9500000000001
 30
0.0
 11
240.1999999999999
 21
242.7300000000001
 31
0.0
  0
LINE
  5
14C40
330
1A
100
AcDbEntity
  8
SUNPOU
100
AcDbLine
 10
242.2
 20
244.93
 30
0.0
 11
238.3999999999999
 21
244.93
 31
0.0
  0
LINE
  5
14C41
330
1A
100
AcDbEntity
  8
SUNPOU
100
AcDbLine
 10
249.1999999999999
 20
244.93
 30
0.0
 11
249.1999999999999
 21
243.9500000000001
 31
0.0
  0
LINE
  5
14C42
330
1A
100
AcDbEntity
  8
0
100
AcDbLine
 10
246.6999999999999
 20
242.21
 30
0.0
 11
249.2
 21
242.21
 31
0.0
  0
LINE
  5
14C7E
330
1A
100
AcDbEntity
  8
PARTS
100
AcDbLine
 10
252.2
 20
240.7499999999999
 30
0.0
 11
252.2
 21
238.2499999999999
 31
0.0
  0
LINE
  5
14C80
330
1A
100
AcDbEntity
  8
PARTS
100
AcDbLine
 10
252.2
 20
238.2499999999999
 30
0.0
 11
255.1999999999999
 21
238.2499999999999
 31
0.0
  0
LINE
  5
14C82
330
1A
100
AcDbEntity
  8
PARTS
100
AcDbLine
 10
252.2
 20
240.7499999999999
 30
0.0
 11
255.1999999999999
 21
240.7499999999999
 31
0.0
  0
ARC
  5
14C8F
330
1A
100
AcDbEntity
  8
SUNPOU
100
AcDbCircle
 10
255.3
 20
240.0
 30
0.0
 40
1.399999999999999
100
AcDbArc
 50
94.09604375815446
 51
147.6076345141596
  0
LINE
  5
14C9B
330
1A
100
AcDbEntity
  8
0
100
AcDbLine
 10
255.1999999999999
 20
210.0000000000001
 30
0.0
 11
254.5
 21
210.0000000000001
 31
0.0
  0
LINE
  5
14C9C
330
1A
100
AcDbEntity
  8
0
100
AcDbLine
 10
255.1999999999999
 20
212.0000000000001
 30
0.0
 11
254.5
 21
212.0000000000001
 31
0.0
  0
LINE
  5
14C9D
330
1A
100
AcDbEntity
  8
0
100
AcDbLine
 10
254.5
 20
210.0000000000001
 30
0.0
 11
254.5
 21
212.0000000000001
 31
0.0
  0
LINE
  5
14C9E
330
1A
100
AcDbEntity
  8
0
100
AcDbLine
 10
254.1999999999999
 20
210.3000000000001
 30
0.0
 11
254.1999999999999
 21
211.7000000000001
 31
0.0
  0
LINE
  5
14C9F
330
1A
100
AcDbEntity
  8
0
100
AcDbLine
 10
254.5
 20
210.0000000000001
 30
0.0
 11
254.1999999999999
 21
210.3000000000001
 31
0.0
  0
LINE
  5
14CA0
330
1A
100
AcDbEntity
  8
0
100
AcDbLine
 10
254.5
 20
212.0000000000001
 30
0.0
 11
254.1999999999999
 21
211.7000000000001
 31
0.0
  0
LINE
  5
14CBF
330
1A
100
AcDbEntity
  8
0
100
AcDbLine
 10
254.4999999999999
 20
228.5
 30
0.0
 11
254.4999999999999
 21
226.5
 31
0.0
  0
LINE
  5
14CC0
330
1A
100
AcDbEntity
  8
0
100
AcDbLine
 10
254.1999999999999
 20
228.2
 30
0.0
 11
254.1999999999999
 21
226.8
 31
0.0
  0
LINE
  5
14CCA
330
1A
100
AcDbEntity
  8
0
100
AcDbLine
 10
255.1999999999999
 20
228.5
 30
0.0
 11
254.4999999999999
 21
228.5
 31
0.0
  0
LINE
  5
14CCB
330
1A
100
AcDbEntity
  8
0
100
AcDbLine
 10
254.4999999999999
 20
228.5
 30
0.0
 11
254.1999999999999
 21
228.2
 31
0.0
  0
LINE
  5
14CDB
330
1A
100
AcDbEntity
  8
0
100
AcDbLine
 10
255.1999999999999
 20
226.5
 30
0.0
 11
254.4999999999999
 21
226.5
 31
0.0
  0
LINE
  5
14CDC
330
1A
100
AcDbEntity
  8
0
100
AcDbLine
 10
254.4999999999999
 20
226.5
 30
0.0
 11
254.1999999999999
 21
226.8
 31
0.0
  0
LINE
  5
14CE3
330
1A
100
AcDbEntity
  8
0
100
AcDbLine
 10
254.4999999999999
 20
197.5
 30
0.0
 11
254.4999999999999
 21
195.5
 31
0.0
  0
LINE
  5
14CE4
330
1A
100
AcDbEntity
  8
0
100
AcDbLine
 10
254.1999999999999
 20
197.2
 30
0.0
 11
254.1999999999999
 21
195.8
 31
0.0
  0
LINE
  5
14CEE
330
1A
100
AcDbEntity
  8
0
100
AcDbLine
 10
255.1999999999999
 20
197.5
 30
0.0
 11
254.4999999999999
 21
197.5
 31
0.0
  0
LINE
  5
14CEF
330
1A
100
AcDbEntity
  8
0
100
AcDbLine
 10
254.4999999999999
 20
197.5
 30
0.0
 11
254.1999999999999
 21
197.2
 31
0.0
  0
LINE
  5
14CFF
330
1A
100
AcDbEntity
  8
0
100
AcDbLine
 10
255.1999999999999
 20
195.5
 30
0.0
 11
254.4999999999999
 21
195.5
 31
0.0
  0
LINE
  5
14D00
330
1A
100
AcDbEntity
  8
0
100
AcDbLine
 10
254.4999999999999
 20
195.5
 30
0.0
 11
254.1999999999999
 21
195.8
 31
0.0
  0
LINE
  5
14D07
330
1A
100
AcDbEntity
  8
0
100
AcDbLine
 10
254.2000000000001
 20
137.4999999999999
 30
0.0
 11
255.2
 21
137.4999999999999
 31
0.0
  0
LINE
  5
14D08
330
1A
100
AcDbEntity
  8
0
100
AcDbLine
 10
254.2000000000001
 20
142.4999999999999
 30
0.0
 11
255.2
 21
142.4999999999999
 31
0.0
  0
LINE
  5
14D09
330
1A
100
AcDbEntity
  8
0
100
AcDbLine
 10
254.2000000000001
 20
163.9999999999999
 30
0.0
 11
255.2
 21
163.9999999999999
 31
0.0
  0
LINE
  5
14D0A
330
1A
100
AcDbEntity
  8
0
100
AcDbLine
 10
254.2000000000001
 20
162.4999999999999
 30
0.0
 11
255.2
 21
162.4999999999999
 31
0.0
  0
LINE
  5
14D0B
330
1A
100
AcDbEntity
  8
0
100
AcDbLine
 10
254.2000000000001
 20
157.4999999999999
 30
0.0
 11
255.2
 21
157.4999999999999
 31
0.0
  0
LINE
  5
14D0C
330
1A
100
AcDbEntity
  8
0
100
AcDbLine
 10
254.2000000000001
 20
152.4999999999999
 30
0.0
 11
255.2
 21
152.4999999999999
 31
0.0
  0
LINE
  5
14D0D
330
1A
100
AcDbEntity
  8
0
100
AcDbLine
 10
254.2000000000001
 20
147.4999999999999
 30
0.0
 11
255.2
 21
147.4999999999999
 31
0.0
  0
LINE
  5
14D0F
330
1A
100
AcDbEntity
  8
0
100
AcDbLine
 10
254.2000000000001
 20
137.4999999999999
 30
0.0
 11
254.2000000000001
 21
163.9999999999999
 31
0.0
  0
LINE
  5
14D11
330
1A
100
AcDbEntity
  8
0
100
AcDbLine
 10
254.1999999999999
 20
138.6999999999999
 30
0.0
 11
255.2
 21
138.6999999999999
 31
0.0
  0
LINE
  5
14D18
330
1A
100
AcDbEntity
  8
0
100
AcDbLine
 10
254.1999999999999
 20
143.6999999999999
 30
0.0
 11
255.2
 21
143.6999999999999
 31
0.0
  0
LINE
  5
14D19
330
1A
100
AcDbEntity
  8
0
100
AcDbLine
 10
254.1999999999999
 20
153.6999999999999
 30
0.0
 11
255.2
 21
153.6999999999999
 31
0.0
  0
LINE
  5
14D1C
330
1A
100
AcDbEntity
  8
0
100
AcDbLine
 10
254.1999999999999
 20
148.6999999999999
 30
0.0
 11
255.2
 21
148.6999999999999
 31
0.0
  0
LINE
  5
14D1F
330
1A
100
AcDbEntity
  8
0
100
AcDbLine
 10
254.1999999999999
 20
158.6999999999999
 30
0.0
 11
255.2
 21
158.6999999999999
 31
0.0
  0
ARC
  5
14D30
330
1A
100
AcDbEntity
  8
SUNPOU
100
AcDbCircle
 10
255.3
 20
162.0
 30
0.0
 40
1.399999999999999
100
AcDbArc
 50
141.7867892982613
 51
218.2132107017386
  0
MTEXT
  5
14D37
330
1A
100
AcDbEntity
  8
0
100
AcDbMText
 10
114.7999999999999
 20
229.5000000000001
 30
0.0
 40
2.5
 41
14.4
 71
     2
 72
     5
  1
{\fTahoma|b0|i0|c0|p34;CHECK}
 11
0.0000000000000001
 21
1.0
 31
0.0
 73
     1
 44
1.0
1001
ACAD
1000
MTEXTBEGIN
1070
    73
1070
     1
1070
    44
1040
1.0
1070
    74
1070
     0
1000
MTEXTEND
  0
LINE
  5
14D38
330
1A
100
AcDbEntity
  8
0
100
AcDbLine
 10
113.9999999999999
 20
214.0
 30
0.0
 11
113.9999999999999
 21
234.0
 31
0.0
  0
LINE
  5
14D39
330
1A
100
AcDbEntity
  8
SUNPOU
100
AcDbLine
 10
95.80000000000001
 20
226.5000000000001
 30
0.0
 11
95.80000000000001
 21
228.5000000000001
 31
0.0
  0
LINE
  5
14D3A
330
1A
100
AcDbEntity
  8
SUNPOU
100
AcDbLine
 10
95.5
 20
226.8000000000001
 30
0.0
 11
95.49999999999995
 21
228.2000000000001
 31
0.0
  0
MTEXT
  5
14D3B
330
1A
100
AcDbEntity
  8
0
100
AcDbMText
 10
97.25000000000001
 20
227.5000000000001
 30
0.0
 40
2.0
 41
8.008205128205128
 71
     4
 72
     5
  1
{\fTahoma|b0|i0|c0|p34;5V}
 73
     1
 44
1.0
1001
ACAD
1000
MTEXTBEGIN
1070
    73
1070
     1
1070
    44
1040
1.0
1070
    74
1070
     0
1000
MTEXTEND
  0
LINE
  5
14D3C
330
1A
100
AcDbEntity
  8
SUNPOU
100
AcDbLine
 10
94.30000000000001
 20
228.5000000000001
 30
0.0
 11
94.30000000000001
 21
226.5000000000001
 31
0.0
  0
LINE
  5
14D3D
330
1A
100
AcDbEntity
  8
SUNPOU
100
AcDbLine
 10
94.59999999999997
 20
228.2000000000001
 30
0.0
 11
94.59999999999997
 21
226.8000000000001
 31
0.0
  0
LINE
  5
14D3E
330
1A
100
AcDbEntity
  8
0
100
AcDbLine
 10
91.3
 20
224.21
 30
0.0
 11
91.3
 21
230.79
 31
0.0
  0
LINE
  5
14D3F
330
1A
100
AcDbEntity
  8
0
100
AcDbLine
 10
92.30000000000002
 20
230.79
 30
0.0
 11
91.3
 21
224.21
 31
0.0
  0
LINE
  5
14D40
330
1A
100
AcDbEntity
  8
0
100
AcDbLine
 10
93.49999999999999
 20
223.5000000000001
 30
0.0
 11
93.49999999999999
 21
231.5000000000001
 31
0.0
  0
LINE
  5
14D41
330
1A
100
AcDbEntity
  8
0
100
AcDbLine
 10
96.5
 20
223.5000000000001
 30
0.0
 11
96.5
 21
231.5000000000001
 31
0.0
  0
LINE
  5
14D42
330
1A
100
AcDbEntity
  8
0
100
AcDbLine
 10
103.9999999999999
 20
234.0
 30
0.0
 11
103.9999999999999
 21
214.0
 31
0.0
  0
INSERT
  5
14D43
330
1A
100
AcDbEntity
  8
PARTS
100
AcDbBlockReference
  2
A$C1A9113A3
 10
113.9999998541152
 20
234.0000002600177
 30
0.0
 50
180.0
  0
INSERT
  5
14D44
330
1A
100
AcDbEntity
  8
0
100
AcDbBlockReference
  2
TM-14P-1
 10
73.5
 20
189.9999999999999
 30
0.0
  0
LINE
  5
14D45
330
1A
100
AcDbEntity
  8
0
100
AcDbLine
 10
72.99999999999989
 20
134.57
 30
0.0
 11
72.99999999999989
 21
245.43
 31
0.0
  0
LINE
  5
14D46
330
1A
100
AcDbEntity
  8
0
100
AcDbLine
 10
86.0
 20
245.43
 30
0.0
 11
86.0
 21
134.57
 31
0.0
  0
CIRCLE
  5
14D47
330
1A
100
AcDbEntity
  8
0
100
AcDbCircle
 10
110.2999999999999
 20
159.9999999999999
 30
0.0
 40
1.7
  0
CIRCLE
  5
14D48
330
1A
100
AcDbEntity
  8
0
100
AcDbCircle
 10
110.2999999999999
 20
159.9999999999999
 30
0.0
 40
1.0
  0
LINE
  5
14D49
330
1A
100
AcDbEntity
  8
0
100
AcDbLine
 10
105.0999999999999
 20
152.5
 30
0.0
 11
113.4999999999999
 21
152.4999999999999
 31
0.0
  0
LINE
  5
14D4A
330
1A
100
AcDbEntity
  8
0
100
AcDbLine
 10
105.0999999999999
 20
147.4999999999999
 30
0.0
 11
113.4999999999999
 21
147.4999999999999
 31
0.0
  0
LINE
  5
14D4B
330
1A
100
AcDbEntity
  8
0
100
AcDbLine
 10
105.0999999999999
 20
142.4999999999999
 30
0.0
 11
113.4999999999999
 21
142.4999999999999
 31
0.0
  0
CIRCLE
  5
14D4C
330
1A
100
AcDbEntity
  8
0
100
AcDbCircle
 10
110.2999999999999
 20
144.9999999999999
 30
0.0
 40
1.7
  0
CIRCLE
  5
14D4D
330
1A
100
AcDbEntity
  8
0
100
AcDbCircle
 10
110.2999999999999
 20
149.9999999999999
 30
0.0
 40
1.7
  0
CIRCLE
  5
14D4E
330
1A
100
AcDbEntity
  8
0
100
AcDbCircle
 10
110.2999999999999
 20
154.9999999999999
 30
0.0
 40
1.7
  0
LINE
  5
14D4F
330
1A
100
AcDbEntity
  8
0
100
AcDbLine
 10
105.0999999999999
 20
157.4999999999999
 30
0.0
 11
113.4999999999999
 21
157.4999999999999
 31
0.0
  0
CIRCLE
  5
14D50
330
1A
100
AcDbEntity
  8
0
100
AcDbCircle
 10
110.2999999999999
 20
139.9999999999999
 30
0.0
 40
1.0
  0
CIRCLE
  5
14D51
330
1A
100
AcDbEntity
  8
0
100
AcDbCircle
 10
110.2999999999999
 20
144.9999999999999
 30
0.0
 40
1.0
  0
CIRCLE
  5
14D52
330
1A
100
AcDbEntity
  8
0
100
AcDbCircle
 10
110.2999999999999
 20
154.9999999999999
 30
0.0
 40
1.0
  0
CIRCLE
  5
14D53
330
1A
100
AcDbEntity
  8
0
100
AcDbCircle
 10
110.2999999999999
 20
149.9999999999999
 30
0.0
 40
1.0
  0
LINE
  5
14D54
330
1A
100
AcDbEntity
  8
0
100
AcDbLine
 10
105.0999999999999
 20
164.4999999999999
 30
0.0
 11
113.5
 21
164.4999999999999
 31
0.0
  0
LINE
  5
14D55
330
1A
100
AcDbEntity
  8
0
100
AcDbLine
 10
105.0999999999999
 20
163.9999999999999
 30
0.0
 11
113.5
 21
163.9999999999999
 31
0.0
  0
LINE
  5
14D56
330
1A
100
AcDbEntity
  8
0
100
AcDbLine
 10
105.0999999999999
 20
162.5
 30
0.0
 11
113.4999999999999
 21
162.4999999999999
 31
0.0
  0
CIRCLE
  5
14D57
330
1A
100
AcDbEntity
  8
0
100
AcDbCircle
 10
109.1999999999998
 20
188.5
 30
0.0
 40
2.5
  0
CIRCLE
  5
14D58
330
1A
100
AcDbEntity
  8
0
100
AcDbCircle
 10
109.1999999999998
 20
195.5
 30
0.0
 40
2.5
  0
LINE
  5
14D59
330
1A
100
AcDbEntity
  8
0
100
AcDbLine
 10
103.9999999999999
 20
214.0
 30
0.0
 11
113.9999999999999
 21
214.0
 31
0.0
  0
INSERT
  5
14D5A
330
1A
100
AcDbEntity
  8
PARTS
100
AcDbBlockReference
  2
A$C1A9113A3
 10
113.9999998541152
 20
224.0000002600177
 30
0.0
 50
180.0
  0
CIRCLE
  5
14D5B
330
1A
100
AcDbEntity
  8
0
100
AcDbCircle
 10
109.1999999999998
 20
209.5000000000001
 30
0.0
 40
2.5
  0
CIRCLE
  5
14D5C
330
1A
100
AcDbEntity
  8
0
100
AcDbCircle
 10
109.1999999999998
 20
202.5000000000001
 30
0.0
 40
2.5
  0
LINE
  5
14D5D
330
1A
100
AcDbEntity
  8
0
100
AcDbLine
 10
113.5
 20
166.5000000000001
 30
0.0
 11
105.5
 21
166.5000000000001
 31
0.0
  0
LINE
  5
14D5E
330
1A
100
AcDbEntity
  8
0
100
AcDbLine
 10
113.5
 20
183.5000000000001
 30
0.0
 11
105.5
 21
183.5000000000001
 31
0.0
  0
TEXT
  5
14D5F
330
1A
100
AcDbEntity
  8
PARTS
100
AcDbText
 10
111.3918946420854
 20
166.5800506721758
 30
0.0
 40
0.8
  1
ON
 50
90.0
100
AcDbText
  0
TEXT
  5
14D60
330
1A
100
AcDbEntity
  8
PARTS
100
AcDbText
 10
111.4189979253313
 20
168.1867035396745
 30
0.0
 40
1.0
  1
1
 50
90.0
100
AcDbText
  0
TEXT
  5
14D61
330
1A
100
AcDbEntity
  8
PARTS
100
AcDbText
 10
111.4189979253313
 20
173.2667035396744
 30
0.0
 40
1.0
  1
3
 50
90.0
100
AcDbText
  0
TEXT
  5
14D62
330
1A
100
AcDbEntity
  8
PARTS
100
AcDbText
 10
111.4189979253313
 20
170.7267035396744
 30
0.0
 40
1.0
  1
2
 50
90.0
100
AcDbText
  0
TEXT
  5
14D63
330
1A
100
AcDbEntity
  8
PARTS
100
AcDbText
 10
111.4189979253313
 20
180.8867035396745
 30
0.0
 40
1.0
  1
6
 50
90.0
100
AcDbText
  0
TEXT
  5
14D64
330
1A
100
AcDbEntity
  8
PARTS
100
AcDbText
 10
111.4189979253313
 20
175.8067035396745
 30
0.0
 40
1.0
  1
4
 50
90.0
100
AcDbText
  0
TEXT
  5
14D65
330
1A
100
AcDbEntity
  8
PARTS
100
AcDbText
 10
111.4189979253313
 20
178.3467035396745
 30
0.0
 40
1.0
  1
5
 50
90.0
100
AcDbText
  0
LINE
  5
14D66
330
1A
100
AcDbEntity
  8
0
100
AcDbLine
 10
113.4999999999999
 20
136.9999999999999
 30
0.0
 11
105.0999999999999
 21
136.9999999999999
 31
0.0
  0
LINE
  5
14D67
330
1A
100
AcDbEntity
  8
0
100
AcDbLine
 10
105.0999999999999
 20
137.4999999999999
 30
0.0
 11
113.4999999999999
 21
137.4999999999999
 31
0.0
  0
MTEXT
  5
14D68
330
1A
100
AcDbEntity
  8
0
 62
     0
100
AcDbMText
 10
119.9999999999999
 20
132.4999999999999
 30
0.0
 40
3.0
 41
25.5
 71
     9
 72
     5
  1
{\fTahoma|b0|i0|c0|p34;TOYO SOKKI}
 73
     1
 44
1.0
1001
ACAD
1000
MTEXTBEGIN
1070
    73
1070
     1
1070
    44
1040
1.0
1070
    74
1070
     0
1000
MTEXTEND
  0
CIRCLE
  5
14D69
330
1A
100
AcDbEntity
  8
0
100
AcDbCircle
 10
110.2999999999999
 20
139.9999999999999
 30
0.0
 40
1.7
  0
LINE
  5
14D6A
330
1A
100
AcDbEntity
  8
0
100
AcDbLine
 10
72.99999999999989
 20
134.57
 30
0.0
 11
86.0
 21
134.57
 31
0.0
  0
LINE
  5
14D6B
330
1A
100
AcDbEntity
  8
PARTS
100
AcDbLine
 10
108.2
 20
180.65
 30
0.0
 11
108.2
 21
182.05
 31
0.0
  0
LINE
  5
14D6C
330
1A
100
AcDbEntity
  8
PARTS
100
AcDbLine
 10
107.2
 20
180.65
 30
0.0
 11
107.2
 21
182.05
 31
0.0
  0
LINE
  5
14D6D
330
1A
100
AcDbEntity
  8
PARTS
100
AcDbLine
 10
110.2
 20
180.65
 30
0.0
 11
110.2
 21
182.05
 31
0.0
  0
MTEXT
  5
14D6E
330
1A
100
AcDbEntity
  8
0
100
AcDbMText
 10
96.2999999999999
 20
181.0
 30
0.0
 40
2.5
 41
10.0
 71
     4
 72
     5
  1
{\fTahoma|b0|i0|c0|p34;Z}
 73
     1
 44
1.0
1001
ACAD
1000
MTEXTBEGIN
1070
    73
1070
     1
1070
    44
1040
1.0
1070
    74
1070
     0
1000
MTEXTEND
  0
MTEXT
  5
14D6F
330
1A
100
AcDbEntity
  8
0
100
AcDbMText
 10
104.5
 20
181.35
 30
0.0
 40
2.5
 41
6.300000000000071
 71
     6
 72
     5
  1
{\fTahoma|b0|i0|c0|p34;L}
 73
     1
 44
1.0
1001
ACAD
1000
MTEXTBEGIN
1070
    73
1070
     1
1070
    44
1040
1.0
1070
    74
1070
     0
1000
MTEXTEND
  0
LINE
  5
14D70
330
1A
100
AcDbEntity
  8
0
100
AcDbLine
 10
105.5
 20
183.5000000000001
 30
0.0
 11
105.5
 21
166.5000000000001
 31
0.0
  0
LINE
  5
14D71
330
1A
100
AcDbEntity
  8
PARTS
100
AcDbLine
 10
106.6999999999999
 20
166.5000000000001
 30
0.0
 11
106.6999999999999
 21
183.5000000000001
 31
0.0
  0
CIRCLE
  5
14D72
330
1A
100
AcDbEntity
  8
SUNPOU
100
AcDbCircle
 10
92.7999999999999
 20
181.0
 30
0.0
 40
1.75
  0
LINE
  5
14D73
330
1A
100
AcDbEntity
  8
SUNPOU
100
AcDbLine
 10
93.09999999999996
 20
181.3
 30
0.0
 11
93.09999999999996
 21
182.2
 31
0.0
  0
LINE
  5
14D74
330
1A
100
AcDbEntity
  8
SUNPOU
100
AcDbLine
 10
92.49999999999994
 20
181.3
 30
0.0
 11
92.49999999999994
 21
182.2
 31
0.0
  0
MTEXT
  5
14D75
330
1A
100
AcDbEntity
  8
0
100
AcDbMText
 10
87.00000000000006
 20
178.5699999999999
 30
0.0
 40
2.2
 41
10.0
 71
     8
 72
     5
  1
{\fTahoma|b0|i0|c0|p34;COM}
 11
-0.0000000000000002
 21
-1.0
 31
0.0
 73
     1
 44
1.0
1001
ACAD
1000
MTEXTBEGIN
1070
    73
1070
     1
1070
    44
1040
1.0
1070
    74
1070
     0
1000
MTEXTEND
  0
CIRCLE
  5
14D76
330
1A
100
AcDbEntity
  8
0
100
AcDbCircle
 10
92.7999999999999
 20
181.0
 30
0.0
 40
2.5
  0
MTEXT
  5
14D77
330
1A
100
AcDbEntity
  8
0
100
AcDbMText
 10
72.00000000000006
 20
148.0899999999999
 30
0.0
 40
2.5
 41
5.907407407407408
 71
     6
 72
     5
  1
{\fTahoma|b0|i0|c0|p34;13}
 73
     1
 44
1.0
1001
ACAD
1000
MTEXTBEGIN
1070
    73
1070
     1
1070
    44
1040
1.0
1070
    74
1070
     0
1000
MTEXTEND
  0
MTEXT
  5
14D78
330
1A
100
AcDbEntity
  8
0
100
AcDbMText
 10
72.00000000000006
 20
140.4699999999999
 30
0.0
 40
2.5
 41
5.907407407407408
 71
     6
 72
     5
  1
{\fTahoma|b0|i0|c0|p34;14}
 73
     1
 44
1.0
1001
ACAD
1000
MTEXTBEGIN
1070
    73
1070
     1
1070
    44
1040
1.0
1070
    74
1070
     0
1000
MTEXTEND
  0
MTEXT
  5
14D79
330
1A
100
AcDbEntity
  8
0
100
AcDbMText
 10
72.00000000000006
 20
155.7099999999999
 30
0.0
 40
2.5
 41
5.907407407407408
 71
     6
 72
     5
  1
{\fTahoma|b0|i0|c0|p34;12}
 73
     1
 44
1.0
1001
ACAD
1000
MTEXTBEGIN
1070
    73
1070
     1
1070
    44
1040
1.0
1070
    74
1070
     0
1000
MTEXTEND
  0
MTEXT
  5
14D7A
330
1A
100
AcDbEntity
  8
0
100
AcDbMText
 10
72.00000000000006
 20
170.9499999999999
 30
0.0
 40
2.5
 41
5.907407407407408
 71
     6
 72
     5
  1
{\fTahoma|b0|i0|c0|p34;10}
 73
     1
 44
1.0
1001
ACAD
1000
MTEXTBEGIN
1070
    73
1070
     1
1070
    44
1040
1.0
1070
    74
1070
     0
1000
MTEXTEND
  0
MTEXT
  5
14D7B
330
1A
100
AcDbEntity
  8
0
100
AcDbMText
 10
72.00000000000006
 20
163.3299999999999
 30
0.0
 40
2.5
 41
5.907407407407408
 71
     6
 72
     5
  1
{\fTahoma|b0|i0|c0|p34;11}
 73
     1
 44
1.0
1001
ACAD
1000
MTEXTBEGIN
1070
    73
1070
     1
1070
    44
1040
1.0
1070
    74
1070
     0
1000
MTEXTEND
  0
MTEXT
  5
14D7C
330
1A
100
AcDbEntity
  8
0
100
AcDbMText
 10
72.00000000000006
 20
178.5699999999999
 30
0.0
 40
2.5
 41
5.907407407407408
 71
     6
 72
     5
  1
{\fTahoma|b0|i0|c0|p34;9}
 73
     1
 44
1.0
1001
ACAD
1000
MTEXTBEGIN
1070
    73
1070
     1
1070
    44
1040
1.0
1070
    74
1070
     0
1000
MTEXTEND
  0
MTEXT
  5
14D7D
330
1A
100
AcDbEntity
  8
0
100
AcDbMText
 10
104.0999999999999
 20
159.9999999999999
 30
0.0
 40
2.5
 41
5.907407407407408
 71
     6
 72
     5
  1
{\fTahoma|b0|i0|c0|p34;15}
 73
     1
 44
1.0
1001
ACAD
1000
MTEXTBEGIN
1070
    73
1070
     1
1070
    44
1040
1.0
1070
    74
1070
     0
1000
MTEXTEND
  0
LINE
  5
14D7E
330
1A
100
AcDbEntity
  8
0
100
AcDbLine
 10
98.30000000000001
 20
162.0
 30
0.0
 11
98.30000000000001
 21
150.4999999999999
 31
0.0
  0
LINE
  5
14D7F
330
1A
100
AcDbEntity
  8
0
100
AcDbLine
 10
105.0999999999999
 20
164.4999999999999
 30
0.0
 11
105.0999999999999
 21
136.9999999999999
 31
0.0
  0
LINE
  5
14D80
330
1A
100
AcDbEntity
  8
0
100
AcDbLine
 10
108.1
 20
137.4999999999999
 30
0.0
 11
108.1
 21
163.9999999999999
 31
0.0
  0
CIRCLE
  5
14D81
330
1A
100
AcDbEntity
  8
SUNPOU
100
AcDbCircle
 10
93.39999999999992
 20
143.9999999999999
 30
0.0
 40
1.5
  0
CIRCLE
  5
14D82
330
1A
100
AcDbEntity
  8
SUNPOU
100
AcDbCircle
 10
93.39999999999992
 20
153.0
 30
0.0
 40
1.5
  0
CIRCLE
  5
14D83
330
1A
100
AcDbEntity
  8
0
100
AcDbCircle
 10
93.39999999999992
 20
143.9999999999999
 30
0.0
 40
2.0
  0
CIRCLE
  5
14D84
330
1A
100
AcDbEntity
  8
0
100
AcDbCircle
 10
93.39999999999992
 20
153.0
 30
0.0
 40
2.0
  0
MTEXT
  5
14D85
330
1A
100
AcDbEntity
  8
0
100
AcDbMText
 10
99.30000000000001
 20
140.9999999999999
 30
0.0
 40
2.5
 41
10.0
 71
     3
 72
     5
  1
{\fTahoma|b0|i0|c0|p34;AZR}
 73
     1
 44
1.0
1001
ACAD
1000
MTEXTBEGIN
1070
    73
1070
     1
1070
    44
1040
1.0
1070
    74
1070
     0
1000
MTEXTEND
  0
MTEXT
  5
14D86
330
1A
100
AcDbEntity
  8
0
100
AcDbMText
 10
87.00000000000006
 20
148.0899999999999
 30
0.0
 40
2.2
 41
10.0
 71
     8
 72
     5
  1
{\fTahoma|b0|i0|c0|p34;+24V}
 11
-0.0000000000000002
 21
-1.0
 31
0.0
 73
     1
 44
1.0
1001
ACAD
1000
MTEXTBEGIN
1070
    73
1070
     1
1070
    44
1040
1.0
1070
    74
1070
     0
1000
MTEXTEND
  0
MTEXT
  5
14D87
330
1A
100
AcDbEntity
  8
0
100
AcDbMText
 10
87.00000000000006
 20
140.4699999999999
 30
0.0
 40
2.2
 41
10.0
 71
     8
 72
     5
  1
{\fTahoma|b0|i0|c0|p34;0V}
 11
-0.0000000000000002
 21
-1.0
 31
0.0
 73
     1
 44
1.0
1001
ACAD
1000
MTEXTBEGIN
1070
    73
1070
     1
1070
    44
1040
1.0
1070
    74
1070
     0
1000
MTEXTEND
  0
MTEXT
  5
14D88
330
1A
100
AcDbEntity
  8
0
100
AcDbMText
 10
87.00000000000006
 20
155.7099999999999
 30
0.0
 40
2.2
 41
10.0
 71
     8
 72
     5
  1
{\fTahoma|b0|i0|c0|p34;E}
 11
-0.0000000000000002
 21
-1.0
 31
0.0
 73
     1
 44
1.0
1001
ACAD
1000
MTEXTBEGIN
1070
    73
1070
     1
1070
    44
1040
1.0
1070
    74
1070
     0
1000
MTEXTEND
  0
LINE
  5
14D89
330
1A
100
AcDbEntity
  8
0
100
AcDbLine
 10
107.6
 20
144.2
 30
0.0
 11
107.5999999999999
 21
146.9999999999999
 31
0.0
  0
LINE
  5
14D8A
330
1A
100
AcDbEntity
  8
0
100
AcDbLine
 10
106.0999999999999
 20
143.7
 30
0.0
 11
106.1
 21
147.4999999999999
 31
0.0
  0
LINE
  5
14D8B
330
1A
100
AcDbEntity
  8
0
100
AcDbLine
 10
106.5999999999999
 20
144.2
 30
0.0
 11
106.5999999999999
 21
146.9999999999999
 31
0.0
  0
MTEXT
  5
14D8C
330
1A
100
AcDbEntity
  8
0
100
AcDbMText
 10
104.0999999999999
 20
144.9999999999999
 30
0.0
 40
2.5
 41
5.907407407407408
 71
     6
 72
     5
  1
{\fTahoma|b0|i0|c0|p34;18}
 73
     1
 44
1.0
1001
ACAD
1000
MTEXTBEGIN
1070
    73
1070
     1
1070
    44
1040
1.0
1070
    74
1070
     0
1000
MTEXTEND
  0
MTEXT
  5
14D8D
330
1A
100
AcDbEntity
  8
0
100
AcDbMText
 10
104.0999999999999
 20
139.9999999999999
 30
0.0
 40
2.5
 41
5.907407407407408
 71
     6
 72
     5
  1
{\fTahoma|b0|i0|c0|p34;19}
 73
     1
 44
1.0
1001
ACAD
1000
MTEXTBEGIN
1070
    73
1070
     1
1070
    44
1040
1.0
1070
    74
1070
     0
1000
MTEXTEND
  0
LINE
  5
14D8E
330
1A
100
AcDbEntity
  8
0
100
AcDbLine
 10
96.30000000000002
 20
143.9999999999999
 30
0.0
 11
98.30000000000001
 21
143.9999999999999
 31
0.0
  0
LINE
  5
14D8F
330
1A
100
AcDbEntity
  8
0
100
AcDbLine
 10
98.30000000000001
 20
143.9999999999999
 30
0.0
 11
98.30000000000001
 21
141.5
 31
0.0
  0
LINE
  5
14D90
330
1A
100
AcDbEntity
  8
0
100
AcDbLine
 10
107.6
 20
139.2
 30
0.0
 11
107.5999999999999
 21
141.9999999999999
 31
0.0
  0
LINE
  5
14D91
330
1A
100
AcDbEntity
  8
0
100
AcDbLine
 10
106.5999999999999
 20
139.2
 30
0.0
 11
106.5999999999999
 21
141.9999999999999
 31
0.0
  0
LINE
  5
14D92
330
1A
100
AcDbEntity
  8
0
100
AcDbLine
 10
106.0999999999999
 20
138.7
 30
0.0
 11
106.1
 21
142.4999999999999
 31
0.0
  0
LINE
  5
14D93
330
1A
100
AcDbEntity
  8
0
100
AcDbLine
 10
106.5999999999999
 20
139.2
 30
0.0
 11
107.6
 21
139.2
 31
0.0
  0
LINE
  5
14D94
330
1A
100
AcDbEntity
  8
0
100
AcDbLine
 10
106.1
 20
138.7
 30
0.0
 11
108.0999999999999
 21
138.7
 31
0.0
  0
LINE
  5
14D95
330
1A
100
AcDbEntity
  8
0
100
AcDbLine
 10
106.6
 20
141.9999999999999
 30
0.0
 11
107.6
 21
141.9999999999999
 31
0.0
  0
LINE
  5
14D96
330
1A
100
AcDbEntity
  8
0
100
AcDbLine
 10
106.5999999999999
 20
144.2
 30
0.0
 11
107.6
 21
144.2
 31
0.0
  0
LINE
  5
14D97
330
1A
100
AcDbEntity
  8
0
100
AcDbLine
 10
106.1
 20
143.7
 30
0.0
 11
108.0999999999999
 21
143.7
 31
0.0
  0
MTEXT
  5
14D98
330
1A
100
AcDbEntity
  8
0
100
AcDbMText
 10
104.0999999999999
 20
154.9999999999999
 30
0.0
 40
2.5
 41
5.907407407407408
 71
     6
 72
     5
  1
{\fTahoma|b0|i0|c0|p34;16}
 73
     1
 44
1.0
1001
ACAD
1000
MTEXTBEGIN
1070
    73
1070
     1
1070
    44
1040
1.0
1070
    74
1070
     0
1000
MTEXTEND
  0
MTEXT
  5
14D99
330
1A
100
AcDbEntity
  8
0
100
AcDbMText
 10
104.0999999999999
 20
149.9999999999999
 30
0.0
 40
2.5
 41
5.907407407407408
 71
     6
 72
     5
  1
{\fTahoma|b0|i0|c0|p34;17}
 73
     1
 44
1.0
1001
ACAD
1000
MTEXTBEGIN
1070
    73
1070
     1
1070
    44
1040
1.0
1070
    74
1070
     0
1000
MTEXTEND
  0
MTEXT
  5
14D9A
330
1A
100
AcDbEntity
  8
0
100
AcDbMText
 10
99.30000000000001
 20
150.0
 30
0.0
 40
2.5
 41
10.0
 71
     3
 72
     5
  1
{\fTahoma|b0|i0|c0|p34;AZ}
 73
     1
 44
1.0
1001
ACAD
1000
MTEXTBEGIN
1070
    73
1070
     1
1070
    44
1040
1.0
1070
    74
1070
     0
1000
MTEXTEND
  0
LINE
  5
14D9B
330
1A
100
AcDbEntity
  8
0
100
AcDbLine
 10
98.30000000000001
 20
152.9999999999999
 30
0.0
 11
96.30000000000002
 21
152.9999999999999
 31
0.0
  0
LINE
  5
14D9C
330
1A
100
AcDbEntity
  8
0
100
AcDbLine
 10
106.0999999999999
 20
148.7
 30
0.0
 11
106.1
 21
152.4999999999999
 31
0.0
  0
LINE
  5
14D9D
330
1A
100
AcDbEntity
  8
0
100
AcDbLine
 10
106.6
 20
151.9999999999999
 30
0.0
 11
107.6
 21
151.9999999999999
 31
0.0
  0
LINE
  5
14D9E
330
1A
100
AcDbEntity
  8
0
100
AcDbLine
 10
106.6
 20
146.9999999999999
 30
0.0
 11
107.6
 21
146.9999999999999
 31
0.0
  0
LINE
  5
14D9F
330
1A
100
AcDbEntity
  8
0
100
AcDbLine
 10
106.1
 20
148.7
 30
0.0
 11
108.1
 21
148.7
 31
0.0
  0
LINE
  5
14DA0
330
1A
100
AcDbEntity
  8
0
100
AcDbLine
 10
106.5999999999999
 20
149.2
 30
0.0
 11
107.6
 21
149.2
 31
0.0
  0
LINE
  5
14DA1
330
1A
100
AcDbEntity
  8
0
100
AcDbLine
 10
106.5999999999999
 20
149.2
 30
0.0
 11
106.6
 21
151.9999999999999
 31
0.0
  0
LINE
  5
14DA2
330
1A
100
AcDbEntity
  8
0
100
AcDbLine
 10
107.6
 20
149.2
 30
0.0
 11
107.6
 21
151.9999999999999
 31
0.0
  0
LINE
  5
14DA3
330
1A
100
AcDbEntity
  8
0
100
AcDbLine
 10
106.6
 20
156.9999999999999
 30
0.0
 11
107.6
 21
156.9999999999999
 31
0.0
  0
LINE
  5
14DA4
330
1A
100
AcDbEntity
  8
0
100
AcDbLine
 10
106.5999999999999
 20
154.1999999999999
 30
0.0
 11
107.6
 21
154.1999999999999
 31
0.0
  0
LINE
  5
14DA5
330
1A
100
AcDbEntity
  8
0
100
AcDbLine
 10
106.1
 20
153.7
 30
0.0
 11
108.0999999999999
 21
153.7
 31
0.0
  0
LINE
  5
14DA6
330
1A
100
AcDbEntity
  8
0
100
AcDbLine
 10
106.5999999999999
 20
154.1999999999999
 30
0.0
 11
106.5999999999999
 21
156.9999999999999
 31
0.0
  0
LINE
  5
14DA7
330
1A
100
AcDbEntity
  8
0
100
AcDbLine
 10
106.0999999999999
 20
153.7
 30
0.0
 11
106.1
 21
157.4999999999999
 31
0.0
  0
LINE
  5
14DA8
330
1A
100
AcDbEntity
  8
0
100
AcDbLine
 10
107.6
 20
154.1999999999999
 30
0.0
 11
107.5999999999999
 21
156.9999999999999
 31
0.0
  0
MTEXT
  5
14DA9
330
1A
100
AcDbEntity
  8
0
100
AcDbMText
 10
90.79999999999989
 20
177.0
 30
0.0
 40
2.5
 41
21.46428571428572
 71
     4
 72
     5
  1
{\fTahoma|b0|i0|c0|p34;curr fine}
 73
     1
 44
1.0
1001
ACAD
1000
MTEXTBEGIN
1070
    73
1070
     1
1070
    44
1040
1.0
1070
    74
1070
     0
1000
MTEXTEND
  0
CIRCLE
  5
14DAA
330
1A
100
AcDbEntity
  8
0
100
AcDbCircle
 10
92.7999999999999
 20
172.0
 30
0.0
 40
2.5
  0
CIRCLE
  5
14DAB
330
1A
100
AcDbEntity
  8
SUNPOU
100
AcDbCircle
 10
94.39999999999992
 20
162.0
 30
0.0
 40
1.5
  0
CIRCLE
  5
14DAC
330
1A
100
AcDbEntity
  8
0
100
AcDbCircle
 10
94.39999999999992
 20
162.0
 30
0.0
 40
2.0
  0
MTEXT
  5
14DAD
330
1A
100
AcDbEntity
  8
0
100
AcDbMText
 10
87.00000000000006
 20
170.9499999999999
 30
0.0
 40
2.2
 41
10.0
 71
     8
 72
     5
  1
{\fTahoma|b0|i0|c0|p34;Iout}
 11
-0.0000000000000002
 21
-1.0
 31
0.0
 73
     1
 44
1.0
1001
ACAD
1000
MTEXTBEGIN
1070
    73
1070
     1
1070
    44
1040
1.0
1070
    74
1070
     0
1000
MTEXTEND
  0
MTEXT
  5
14DAE
330
1A
100
AcDbEntity
  8
0
100
AcDbMText
 10
87.00000000000006
 20
163.3299999999999
 30
0.0
 40
2.2
 41
10.0
 71
     8
 72
     5
  1
{\fTahoma|b0|i0|c0|p34;COM}
 11
-0.0000000000000002
 21
-1.0
 31
0.0
 73
     1
 44
1.0
1001
ACAD
1000
MTEXTBEGIN
1070
    73
1070
     1
1070
    44
1040
1.0
1070
    74
1070
     0
1000
MTEXTEND
  0
LINE
  5
14DAF
330
1A
100
AcDbEntity
  8
SUNPOU
100
AcDbLine
 10
91.04999999999989
 20
172.0
 30
0.0
 11
90.5499999999999
 21
172.0
 31
0.0
  0
LINE
  5
14DB0
330
1A
100
AcDbEntity
  8
SUNPOU
100
AcDbLine
 10
93.92487831695133
 20
173.3405777754582
 30
0.0
 11
94.24627212179462
 21
173.7235999970177
 31
0.0
  0
LINE
  5
14DB1
330
1A
100
AcDbEntity
  8
SUNPOU
100
AcDbLine
 10
93.09999999999991
 20
170.8
 30
0.0
 11
93.09999999999991
 21
171.7
 31
0.0
  0
LINE
  5
14DB2
330
1A
100
AcDbEntity
  8
SUNPOU
100
AcDbLine
 10
92.49999999999989
 20
170.8
 30
0.0
 11
92.49999999999989
 21
171.7
 31
0.0
  0
LINE
  5
14DB3
330
1A
100
AcDbEntity
  8
SUNPOU
100
AcDbLine
 10
93.09999999999991
 20
170.8
 30
0.0
 11
92.49999999999989
 21
170.8
 31
0.0
  0
LINE
  5
14DB4
330
1A
100
AcDbEntity
  8
SUNPOU
100
AcDbLine
 10
93.09999999999991
 20
173.2
 30
0.0
 11
92.49999999999989
 21
173.2
 31
0.0
  0
LINE
  5
14DB5
330
1A
100
AcDbEntity
  8
SUNPOU
100
AcDbLine
 10
93.09999999999991
 20
172.3
 30
0.0
 11
93.09999999999991
 21
173.2
 31
0.0
  0
LINE
  5
14DB6
330
1A
100
AcDbEntity
  8
SUNPOU
100
AcDbLine
 10
92.49999999999989
 20
172.3
 30
0.0
 11
92.49999999999989
 21
173.2
 31
0.0
  0
LINE
  5
14DB7
330
1A
100
AcDbEntity
  8
SUNPOU
100
AcDbLine
 10
92.49999999999989
 20
171.7
 30
0.0
 11
91.59999999999991
 21
171.7
 31
0.0
  0
LINE
  5
14DB8
330
1A
100
AcDbEntity
  8
SUNPOU
100
AcDbLine
 10
92.49999999999989
 20
172.3
 30
0.0
 11
91.59999999999991
 21
172.3
 31
0.0
  0
LINE
  5
14DB9
330
1A
100
AcDbEntity
  8
SUNPOU
100
AcDbLine
 10
91.59999999999991
 20
171.7
 30
0.0
 11
91.59999999999991
 21
172.3
 31
0.0
  0
CIRCLE
  5
14DBA
330
1A
100
AcDbEntity
  8
SUNPOU
100
AcDbCircle
 10
91.98128156646168
 20
172.8187184335382
 30
0.0
 40
0.25
  0
CIRCLE
  5
14DBB
330
1A
100
AcDbEntity
  8
SUNPOU
100
AcDbCircle
 10
91.98128156646168
 20
171.1812815664618
 30
0.0
 40
0.25
  0
LINE
  5
14DBC
330
1A
100
AcDbEntity
  8
SUNPOU
100
AcDbLine
 10
93.92487831695138
 20
170.6594222245418
 30
0.0
 11
94.24627212179462
 21
170.2764000029823
 31
0.0
  0
LINE
  5
14DBD
330
1A
100
AcDbEntity
  8
SUNPOU
100
AcDbLine
 10
93.99999999999995
 20
171.7
 30
0.0
 11
93.99999999999989
 21
172.3
 31
0.0
  0
LINE
  5
14DBE
330
1A
100
AcDbEntity
  8
SUNPOU
100
AcDbLine
 10
93.99999999999989
 20
171.7
 30
0.0
 11
93.09999999999991
 21
171.7
 31
0.0
  0
LINE
  5
14DBF
330
1A
100
AcDbEntity
  8
SUNPOU
100
AcDbLine
 10
93.99999999999989
 20
172.3
 30
0.0
 11
93.09999999999991
 21
172.3
 31
0.0
  0
CIRCLE
  5
14DC0
330
1A
100
AcDbEntity
  8
SUNPOU
100
AcDbCircle
 10
92.7999999999999
 20
172.0
 30
0.0
 40
1.75
  0
LINE
  5
14DC1
330
1A
100
AcDbEntity
  8
SUNPOU
100
AcDbLine
 10
91.04999999999989
 20
181.0
 30
0.0
 11
90.5499999999999
 21
181.0
 31
0.0
  0
LINE
  5
14DC2
330
1A
100
AcDbEntity
  8
SUNPOU
100
AcDbLine
 10
93.09999999999996
 20
179.8
 30
0.0
 11
93.09999999999996
 21
180.7
 31
0.0
  0
LINE
  5
14DC3
330
1A
100
AcDbEntity
  8
SUNPOU
100
AcDbLine
 10
92.49999999999994
 20
179.8
 30
0.0
 11
92.49999999999994
 21
180.7
 31
0.0
  0
LINE
  5
14DC4
330
1A
100
AcDbEntity
  8
SUNPOU
100
AcDbLine
 10
93.09999999999996
 20
179.8
 30
0.0
 11
92.49999999999994
 21
179.8
 31
0.0
  0
CIRCLE
  5
14DC5
330
1A
100
AcDbEntity
  8
SUNPOU
100
AcDbCircle
 10
91.98128156646175
 20
180.1812815664618
 30
0.0
 40
0.25
  0
LINE
  5
14DC6
330
1A
100
AcDbEntity
  8
SUNPOU
100
AcDbLine
 10
93.92487831695138
 20
179.6594222245418
 30
0.0
 11
94.24627212179467
 21
179.2764000029823
 31
0.0
  0
LINE
  5
14DC7
330
1A
100
AcDbEntity
  8
SUNPOU
100
AcDbLine
 10
92.49999999999994
 20
180.7
 30
0.0
 11
91.59999999999996
 21
180.7
 31
0.0
  0
LINE
  5
14DC8
330
1A
100
AcDbEntity
  8
SUNPOU
100
AcDbLine
 10
92.49999999999994
 20
181.3
 30
0.0
 11
91.59999999999996
 21
181.3
 31
0.0
  0
LINE
  5
14DC9
330
1A
100
AcDbEntity
  8
SUNPOU
100
AcDbLine
 10
91.59999999999996
 20
180.7
 30
0.0
 11
91.59999999999996
 21
181.3
 31
0.0
  0
LINE
  5
14DCA
330
1A
100
AcDbEntity
  8
SUNPOU
100
AcDbLine
 10
93.99999999999995
 20
180.7
 30
0.0
 11
93.99999999999995
 21
181.3
 31
0.0
  0
LINE
  5
14DCB
330
1A
100
AcDbEntity
  8
SUNPOU
100
AcDbLine
 10
93.99999999999995
 20
180.7
 30
0.0
 11
93.09999999999996
 21
180.7
 31
0.0
  0
LINE
  5
14DCC
330
1A
100
AcDbEntity
  8
SUNPOU
100
AcDbLine
 10
93.99999999999995
 20
181.3
 30
0.0
 11
93.09999999999996
 21
181.3
 31
0.0
  0
LINE
  5
14DCD
330
1A
100
AcDbEntity
  8
0
100
AcDbLine
 10
97.30000000000002
 20
162.0
 30
0.0
 11
98.30000000000001
 21
162.0
 31
0.0
  0
LINE
  5
14DCE
330
1A
100
AcDbEntity
  8
0
100
AcDbLine
 10
106.6
 20
161.9999999999999
 30
0.0
 11
107.6
 21
161.9999999999999
 31
0.0
  0
LINE
  5
14DCF
330
1A
100
AcDbEntity
  8
0
100
AcDbLine
 10
106.1
 20
158.7
 30
0.0
 11
108.1
 21
158.7
 31
0.0
  0
LINE
  5
14DD0
330
1A
100
AcDbEntity
  8
0
100
AcDbLine
 10
106.5999999999999
 20
159.2
 30
0.0
 11
107.6
 21
159.2
 31
0.0
  0
LINE
  5
14DD1
330
1A
100
AcDbEntity
  8
0
100
AcDbLine
 10
106.5999999999999
 20
159.2
 30
0.0
 11
106.6
 21
161.9999999999999
 31
0.0
  0
LINE
  5
14DD2
330
1A
100
AcDbEntity
  8
0
100
AcDbLine
 10
106.0999999999999
 20
158.7
 30
0.0
 11
106.1
 21
162.4999999999999
 31
0.0
  0
LINE
  5
14DD3
330
1A
100
AcDbEntity
  8
0
100
AcDbLine
 10
107.6
 20
159.2
 30
0.0
 11
107.6
 21
161.9999999999999
 31
0.0
  0
LINE
  5
14DD4
330
1A
100
AcDbEntity
  8
PARTS
100
AcDbLine
 10
107.2
 20
167.95
 30
0.0
 11
110.2
 21
167.95
 31
0.0
  0
LINE
  5
14DD5
330
1A
100
AcDbEntity
  8
PARTS
100
AcDbLine
 10
107.2
 20
169.35
 30
0.0
 11
110.2
 21
169.35
 31
0.0
  0
LINE
  5
14DD6
330
1A
100
AcDbEntity
  8
PARTS
100
AcDbLine
 10
107.2
 20
167.95
 30
0.0
 11
107.2
 21
169.35
 31
0.0
  0
LINE
  5
14DD7
330
1A
100
AcDbEntity
  8
PARTS
100
AcDbLine
 10
108.2
 20
167.95
 30
0.0
 11
108.2
 21
169.35
 31
0.0
  0
LINE
  5
14DD8
330
1A
100
AcDbEntity
  8
PARTS
100
AcDbLine
 10
110.2
 20
167.95
 30
0.0
 11
110.2
 21
169.35
 31
0.0
  0
LINE
  5
14DD9
330
1A
100
AcDbEntity
  8
PARTS
100
AcDbLine
 10
108.2996275025102
 20
167.175
 30
0.0
 11
110.2996275025102
 21
167.175
 31
0.0
  0
LINE
  5
14DDA
330
1A
100
AcDbEntity
  8
PARTS
100
AcDbLine
 10
110.2996275025102
 20
167.175
 30
0.0
 11
109.6323865083062
 21
166.7883908996015
 31
0.0
  0
LINE
  5
14DDB
330
1A
100
AcDbEntity
  8
PARTS
100
AcDbLine
 10
110.2996275025102
 20
167.175
 30
0.0
 11
109.6263771500409
 21
167.551046677631
 31
0.0
  0
MTEXT
  5
14DDC
330
1A
100
AcDbEntity
  8
0
100
AcDbMText
 10
96.2999999999999
 20
172.0
 30
0.0
 40
2.5
 41
10.0
 71
     4
 72
     5
  1
{\fTahoma|b0|i0|c0|p34;S}
 73
     1
 44
1.0
1001
ACAD
1000
MTEXTBEGIN
1070
    73
1070
     1
1070
    44
1040
1.0
1070
    74
1070
     0
1000
MTEXTEND
  0
LINE
  5
14DDD
330
1A
100
AcDbEntity
  8
PARTS
100
AcDbLine
 10
108.2
 20
175.5699999999999
 30
0.0
 11
108.2
 21
176.97
 31
0.0
  0
LINE
  5
14DDE
330
1A
100
AcDbEntity
  8
PARTS
100
AcDbLine
 10
107.2
 20
175.5699999999999
 30
0.0
 11
107.2
 21
176.97
 31
0.0
  0
LINE
  5
14DDF
330
1A
100
AcDbEntity
  8
PARTS
100
AcDbLine
 10
110.2
 20
175.5699999999999
 30
0.0
 11
110.2
 21
176.97
 31
0.0
  0
LINE
  5
14DE0
330
1A
100
AcDbEntity
  8
PARTS
100
AcDbLine
 10
107.2
 20
174.43
 30
0.0
 11
110.2
 21
174.43
 31
0.0
  0
LINE
  5
14DE1
330
1A
100
AcDbEntity
  8
PARTS
100
AcDbLine
 10
107.2
 20
175.5699999999999
 30
0.0
 11
110.2
 21
175.5699999999999
 31
0.0
  0
LINE
  5
14DE2
330
1A
100
AcDbEntity
  8
PARTS
100
AcDbLine
 10
107.2
 20
171.89
 30
0.0
 11
110.2
 21
171.89
 31
0.0
  0
LINE
  5
14DE3
330
1A
100
AcDbEntity
  8
PARTS
100
AcDbLine
 10
107.2
 20
170.49
 30
0.0
 11
110.2
 21
170.49
 31
0.0
  0
LINE
  5
14DE4
330
1A
100
AcDbEntity
  8
PARTS
100
AcDbLine
 10
107.2
 20
173.03
 30
0.0
 11
110.2
 21
173.03
 31
0.0
  0
LINE
  5
14DE5
330
1A
100
AcDbEntity
  8
PARTS
100
AcDbLine
 10
108.2
 20
170.49
 30
0.0
 11
108.2
 21
171.89
 31
0.0
  0
LINE
  5
14DE6
330
1A
100
AcDbEntity
  8
PARTS
100
AcDbLine
 10
107.2
 20
170.49
 30
0.0
 11
107.2
 21
171.89
 31
0.0
  0
LINE
  5
14DE7
330
1A
100
AcDbEntity
  8
PARTS
100
AcDbLine
 10
110.2
 20
170.49
 30
0.0
 11
110.2
 21
171.89
 31
0.0
  0
LINE
  5
14DE8
330
1A
100
AcDbEntity
  8
PARTS
100
AcDbLine
 10
107.2
 20
173.03
 30
0.0
 11
107.2
 21
174.43
 31
0.0
  0
LINE
  5
14DE9
330
1A
100
AcDbEntity
  8
PARTS
100
AcDbLine
 10
108.2
 20
173.03
 30
0.0
 11
108.2
 21
174.43
 31
0.0
  0
LINE
  5
14DEA
330
1A
100
AcDbEntity
  8
PARTS
100
AcDbLine
 10
110.2
 20
173.03
 30
0.0
 11
110.2
 21
174.43
 31
0.0
  0
LINE
  5
14DEB
330
1A
100
AcDbEntity
  8
PARTS
100
AcDbLine
 10
107.2
 20
180.65
 30
0.0
 11
110.2
 21
180.65
 31
0.0
  0
LINE
  5
14DEC
330
1A
100
AcDbEntity
  8
PARTS
100
AcDbLine
 10
107.2
 20
179.51
 30
0.0
 11
110.2
 21
179.51
 31
0.0
  0
LINE
  5
14DED
330
1A
100
AcDbEntity
  8
PARTS
100
AcDbLine
 10
107.2
 20
178.11
 30
0.0
 11
110.2
 21
178.11
 31
0.0
  0
LINE
  5
14DEE
330
1A
100
AcDbEntity
  8
PARTS
100
AcDbLine
 10
107.2
 20
176.97
 30
0.0
 11
110.2
 21
176.97
 31
0.0
  0
LINE
  5
14DEF
330
1A
100
AcDbEntity
  8
PARTS
100
AcDbLine
 10
107.2
 20
178.11
 30
0.0
 11
107.2
 21
179.51
 31
0.0
  0
LINE
  5
14DF0
330
1A
100
AcDbEntity
  8
PARTS
100
AcDbLine
 10
108.2
 20
178.11
 30
0.0
 11
108.2
 21
179.51
 31
0.0
  0
LINE
  5
14DF1
330
1A
100
AcDbEntity
  8
PARTS
100
AcDbLine
 10
110.2
 20
178.11
 30
0.0
 11
110.2
 21
179.51
 31
0.0
  0
MTEXT
  5
14DF2
330
1A
100
AcDbEntity
  8
0
100
AcDbMText
 10
72.00000000000006
 20
193.8099999999999
 30
0.0
 40
2.5
 41
5.907407407407408
 71
     6
 72
     5
  1
{\fTahoma|b0|i0|c0|p34;7}
 73
     1
 44
1.0
1001
ACAD
1000
MTEXTBEGIN
1070
    73
1070
     1
1070
    44
1040
1.0
1070
    74
1070
     0
1000
MTEXTEND
  0
MTEXT
  5
14DF3
330
1A
100
AcDbEntity
  8
0
100
AcDbMText
 10
72.00000000000006
 20
186.1899999999999
 30
0.0
 40
2.5
 41
5.907407407407408
 71
     6
 72
     5
  1
{\fTahoma|b0|i0|c0|p34;8}
 73
     1
 44
1.0
1001
ACAD
1000
MTEXTBEGIN
1070
    73
1070
     1
1070
    44
1040
1.0
1070
    74
1070
     0
1000
MTEXTEND
  0
MTEXT
  5
14DF4
330
1A
100
AcDbEntity
  8
0
100
AcDbMText
 10
72.00000000000006
 20
201.4299999999999
 30
0.0
 40
2.5
 41
5.907407407407408
 71
     6
 72
     5
  1
{\fTahoma|b0|i0|c0|p34;6}
 73
     1
 44
1.0
1001
ACAD
1000
MTEXTBEGIN
1070
    73
1070
     1
1070
    44
1040
1.0
1070
    74
1070
     0
1000
MTEXTEND
  0
MTEXT
  5
14DF5
330
1A
100
AcDbEntity
  8
0
100
AcDbMText
 10
72.00000000000006
 20
216.6699999999999
 30
0.0
 40
2.5
 41
5.907407407407408
 71
     6
 72
     5
  1
{\fTahoma|b0|i0|c0|p34;4}
 73
     1
 44
1.0
1001
ACAD
1000
MTEXTBEGIN
1070
    73
1070
     1
1070
    44
1040
1.0
1070
    74
1070
     0
1000
MTEXTEND
  0
MTEXT
  5
14DF6
330
1A
100
AcDbEntity
  8
0
100
AcDbMText
 10
72.00000000000006
 20
209.0499999999999
 30
0.0
 40
2.5
 41
5.907407407407408
 71
     6
 72
     5
  1
{\fTahoma|b0|i0|c0|p34;5}
 73
     1
 44
1.0
1001
ACAD
1000
MTEXTBEGIN
1070
    73
1070
     1
1070
    44
1040
1.0
1070
    74
1070
     0
1000
MTEXTEND
  0
MTEXT
  5
14DF7
330
1A
100
AcDbEntity
  8
0
100
AcDbMText
 10
72.00000000000006
 20
224.2899999999999
 30
0.0
 40
2.5
 41
5.907407407407408
 71
     6
 72
     5
  1
{\fTahoma|b0|i0|c0|p34;3}
 73
     1
 44
1.0
1001
ACAD
1000
MTEXTBEGIN
1070
    73
1070
     1
1070
    44
1040
1.0
1070
    74
1070
     0
1000
MTEXTEND
  0
MTEXT
  5
14DF8
330
1A
100
AcDbEntity
  8
0
100
AcDbMText
 10
97.0
 20
202.5
 30
0.0
 40
2.5
 41
14.4
 71
     8
 72
     5
  1
{\fTahoma|b0|i0|c0|p34;Filter}
 73
     1
 44
1.0
1001
ACAD
1000
MTEXTBEGIN
1070
    73
1070
     1
1070
    44
1040
1.0
1070
    74
1070
     0
1000
MTEXTEND
  0
LINE
  5
14DF9
330
1A
100
AcDbEntity
  8
0
100
AcDbLine
 10
91.3
 20
217.0000000000001
 30
0.0
 11
91.3
 21
192.4999999999999
 31
0.0
  0
LINE
  5
14DFA
330
1A
100
AcDbEntity
  8
0
100
AcDbLine
 10
96.49999999999995
 20
192.5
 30
0.0
 11
93.49999999999999
 21
192.5
 31
0.0
  0
LINE
  5
14DFB
330
1A
100
AcDbEntity
  8
SUNPOU
100
AcDbLine
 10
94.59999999999997
 20
195.8000000000001
 30
0.0
 11
95.5
 21
195.8000000000001
 31
0.0
  0
LINE
  5
14DFC
330
1A
100
AcDbEntity
  8
SUNPOU
100
AcDbLine
 10
95.49999999999995
 20
197.2000000000001
 30
0.0
 11
94.59999999999997
 21
197.2000000000001
 31
0.0
  0
LINE
  5
14DFD
330
1A
100
AcDbEntity
  8
SUNPOU
100
AcDbLine
 10
95.80000000000001
 20
197.5
 30
0.0
 11
94.30000000000001
 21
197.5000000000001
 31
0.0
  0
LINE
  5
14DFE
330
1A
100
AcDbEntity
  8
SUNPOU
100
AcDbLine
 10
94.30000000000001
 20
195.5000000000001
 30
0.0
 11
95.80000000000001
 21
195.5000000000001
 31
0.0
  0
LINE
  5
14DFF
330
1A
100
AcDbEntity
  8
0
100
AcDbLine
 10
96.49999999999995
 20
200.5000000000001
 30
0.0
 11
93.49999999999999
 21
200.5000000000001
 31
0.0
  0
MTEXT
  5
14E00
330
1A
100
AcDbEntity
  8
0
100
AcDbMText
 10
87.00000000000006
 20
193.8099999999999
 30
0.0
 40
2.2
 41
10.0
 71
     8
 72
     5
  1
{\fTahoma|b0|i0|c0|p34;SHL}
 11
-0.0000000000000002
 21
-1.0
 31
0.0
 73
     1
 44
1.0
1001
ACAD
1000
MTEXTBEGIN
1070
    73
1070
     1
1070
    44
1040
1.0
1070
    74
1070
     0
1000
MTEXTEND
  0
LINE
  5
14E01
330
1A
100
AcDbEntity
  8
0
100
AcDbLine
 10
93.49999999999999
 20
192.5
 30
0.0
 11
93.49999999999999
 21
200.5000000000001
 31
0.0
  0
MTEXT
  5
14E02
330
1A
100
AcDbEntity
  8
0
100
AcDbMText
 10
87.00000000000006
 20
186.1899999999999
 30
0.0
 40
2.2
 41
10.0
 71
     8
 72
     5
  1
{\fTahoma|b0|i0|c0|p34;Vout}
 11
-0.0000000000000002
 21
-1.0
 31
0.0
 73
     1
 44
1.0
1001
ACAD
1000
MTEXTBEGIN
1070
    73
1070
     1
1070
    44
1040
1.0
1070
    74
1070
     0
1000
MTEXTEND
  0
LINE
  5
14E03
330
1A
100
AcDbEntity
  8
SUNPOU
100
AcDbLine
 10
93.09999999999996
 20
182.2
 30
0.0
 11
92.49999999999994
 21
182.2
 31
0.0
  0
CIRCLE
  5
14E04
330
1A
100
AcDbEntity
  8
SUNPOU
100
AcDbCircle
 10
91.98128156646175
 20
181.8187184335382
 30
0.0
 40
0.25
  0
LINE
  5
14E05
330
1A
100
AcDbEntity
  8
SUNPOU
100
AcDbLine
 10
93.92487831695138
 20
182.3405777754582
 30
0.0
 11
94.24627212179467
 21
182.7235999970177
 31
0.0
  0
LINE
  5
14E06
330
1A
100
AcDbEntity
  8
0
100
AcDbLine
 10
91.3
 20
192.4999999999999
 30
0.0
 11
92.30000000000002
 21
192.4999999999999
 31
0.0
  0
MTEXT
  5
14E07
330
1A
100
AcDbEntity
  8
0
100
AcDbMText
 10
87.00000000000006
 20
201.4299999999999
 30
0.0
 40
2.2
 41
10.0
 71
     8
 72
     5
  1
{\fTahoma|b0|i0|c0|p34;-SIG}
 11
-0.0000000000000002
 21
-1.0
 31
0.0
 73
     1
 44
1.0
1001
ACAD
1000
MTEXTBEGIN
1070
    73
1070
     1
1070
    44
1040
1.0
1070
    74
1070
     0
1000
MTEXTEND
  0
LINE
  5
14E08
330
1A
100
AcDbEntity
  8
SUNPOU
100
AcDbLine
 10
94.59999999999997
 20
197.2000000000001
 30
0.0
 11
94.59999999999997
 21
195.8000000000001
 31
0.0
  0
LINE
  5
14E09
330
1A
100
AcDbEntity
  8
SUNPOU
100
AcDbLine
 10
94.30000000000001
 20
197.5000000000001
 30
0.0
 11
94.30000000000001
 21
195.5000000000001
 31
0.0
  0
LINE
  5
14E0A
330
1A
100
AcDbEntity
  8
PARTS
100
AcDbLine
 10
109.4999999999999
 20
193.5
 30
0.0
 11
109.4999999999999
 21
193.0180652708018
 31
0.0
  0
MTEXT
  5
14E0B
330
1A
100
AcDbEntity
  8
0
100
AcDbMText
 10
99.30000000000001
 20
192.9999999999999
 30
0.0
 40
2.5
 41
10.0
 71
     4
 72
     5
  1
{\fTahoma|b0|i0|c0|p34;2}
 73
     1
 44
1.0
1001
ACAD
1000
MTEXTBEGIN
1070
    73
1070
     1
1070
    44
1040
1.0
1070
    74
1070
     0
1000
MTEXTEND
  0
LINE
  5
14E0C
330
1A
100
AcDbEntity
  8
0
100
AcDbLine
 10
97.80000000000001
 20
194.5000000000001
 30
0.0
 11
97.80000000000001
 21
192.9999999999999
 31
0.0
  0
LINE
  5
14E0D
330
1A
100
AcDbEntity
  8
0
100
AcDbLine
 10
96.49999999999995
 20
192.5
 30
0.0
 11
96.49999999999995
 21
200.5000000000001
 31
0.0
  0
MTEXT
  5
14E0E
330
1A
100
AcDbEntity
  8
0
100
AcDbMText
 10
100.2999999999999
 20
184.5
 30
0.0
 40
2.5
 41
10.87777777777777
 71
     8
 72
     5
  1
{\fTahoma|b0|i0|c0|p34;GAIN}
 73
     1
 44
1.0
1001
ACAD
1000
MTEXTBEGIN
1070
    73
1070
     1
1070
    44
1040
1.0
1070
    74
1070
     0
1000
MTEXTEND
  0
LINE
  5
14E0F
330
1A
100
AcDbEntity
  8
0
100
AcDbLine
 10
100.3
 20
181.4999999999999
 30
0.0
 11
102.3
 21
181.4999999999999
 31
0.0
  0
LINE
  5
14E10
330
1A
100
AcDbEntity
  8
0
100
AcDbLine
 10
100.3
 20
183.9999999999999
 30
0.0
 11
100.3
 21
181.4999999999999
 31
0.0
  0
LINE
  5
14E11
330
1A
100
AcDbEntity
  8
0
100
AcDbLine
 10
97.80000000000001
 20
192.9999999999999
 30
0.0
 11
98.30000000000001
 21
192.9999999999999
 31
0.0
  0
LINE
  5
14E12
330
1A
100
AcDbEntity
  8
PARTS
100
AcDbLine
 10
107.5999999999999
 20
190.4209372712299
 30
0.0
 11
107.5999999999999
 21
186.5790627287701
 31
0.0
  0
LINE
  5
14E13
330
1A
100
AcDbEntity
  8
PARTS
100
AcDbLine
 10
107.6999999999999
 20
186.5
 30
0.0
 11
109.4999999999999
 21
186.5
 31
0.0
  0
LINE
  5
14E14
330
1A
100
AcDbEntity
  8
PARTS
100
AcDbLine
 10
109.4999999999999
 20
186.5
 30
0.0
 11
109.4999999999999
 21
186.0180652708019
 31
0.0
  0
LINE
  5
14E15
330
1A
100
AcDbEntity
  8
PARTS
100
AcDbLine
 10
107.2
 20
182.05
 30
0.0
 11
110.2
 21
182.05
 31
0.0
  0
LINE
  5
14E16
330
1A
100
AcDbEntity
  8
PARTS
100
AcDbLine
 10
108.8999999999999
 20
189.6101801655587
 30
0.0
 11
108.8999999999999
 21
187.3898198344413
 31
0.0
  0
LINE
  5
14E17
330
1A
100
AcDbEntity
  8
PARTS
100
AcDbLine
 10
109.4999999999999
 20
189.6101801655587
 30
0.0
 11
109.4999999999999
 21
187.3898198344413
 31
0.0
  0
CIRCLE
  5
14E18
330
1A
100
AcDbEntity
  8
PARTS
100
AcDbCircle
 10
109.1999999999998
 20
188.5
 30
0.0
 40
1.149999999999999
  0
LINE
  5
14E19
330
1A
100
AcDbEntity
  8
0
100
AcDbLine
 10
97.80000000000001
 20
198.5000000000001
 30
0.0
 11
97.80000000000001
 21
200.0000000000001
 31
0.0
  0
MTEXT
  5
14E1A
330
1A
100
AcDbEntity
  8
0
100
AcDbMText
 10
99.30000000000001
 20
200.0000000000001
 30
0.0
 40
2.5
 41
10.0
 71
     4
 72
     5
  1
{\fTahoma|b0|i0|c0|p34;10}
 73
     1
 44
1.0
1001
ACAD
1000
MTEXTBEGIN
1070
    73
1070
     1
1070
    44
1040
1.0
1070
    74
1070
     0
1000
MTEXTEND
  0
HATCH
  5
14E1B
330
1A
100
AcDbEntity
  8
0
100
AcDbHatch
 10
0.0
 20
0.0
 30
0.0
210
0.0
220
0.0
230
1.0
  2
SOLID
 70
     1
 71
     1
 91
        1
 92
        7
 72
     1
 73
     1
 93
        2
 10
97.55000000000002
 20
198.5000000000001
 42
1.0
 10
98.05000000000001
 20
198.5000000000001
 42
1.0
 97
        1
330
14E1C
 75
     0
 76
     1
 47
0.0199575537680907
 98
        1
 10
97.75154182450506
 20
198.5567860779663
  0
CIRCLE
  5
14E1C
102
{ACAD_REACTORS
330
14E1B
102
}
330
1A
100
AcDbEntity
  8
0
100
AcDbCircle
 10
97.80000000000001
 20
198.5000000000001
 30
0.0
 40
0.25
  0
HATCH
  5
14E1D
330
1A
100
AcDbEntity
  8
0
100
AcDbHatch
 10
0.0
 20
0.0
 30
0.0
210
0.0
220
0.0
230
1.0
  2
SOLID
 70
     1
 71
     0
 91
        1
 92
        7
 72
     1
 73
     1
 93
        2
 10
98.05000000000001
 20
194.5000000000001
 42
1.0
 10
97.55000000000002
 20
194.5000000000001
 42
1.0
 97
        0
 75
     0
 76
     1
 47
0.0199575537680907
 98
        1
 10
97.89130452128979
 20
194.5652748163114
  0
CIRCLE
  5
14E1E
330
1A
100
AcDbEntity
  8
0
100
AcDbCircle
 10
97.80000000000001
 20
194.5000000000001
 30
0.0
 40
0.25
  0
LINE
  5
14E1F
330
1A
100
AcDbEntity
  8
SUNPOU
100
AcDbLine
 10
95.5
 20
195.8000000000001
 30
0.0
 11
95.49999999999995
 21
197.2000000000001
 31
0.0
  0
LINE
  5
14E20
330
1A
100
AcDbEntity
  8
SUNPOU
100
AcDbLine
 10
95.80000000000001
 20
195.5000000000001
 30
0.0
 11
95.80000000000001
 21
197.5
 31
0.0
  0
HATCH
  5
14E21
330
1A
100
AcDbEntity
  8
0
100
AcDbHatch
 10
0.0
 20
0.0
 30
0.0
210
0.0
220
0.0
230
1.0
  2
SOLID
 70
     1
 71
     1
 91
        1
 92
        7
 72
     1
 73
     1
 93
        2
 10
97.55000000000002
 20
196.5000000000001
 42
1.0
 10
98.05000000000001
 20
196.5000000000001
 42
1.0
 97
        1
330
14E22
 75
     0
 76
     1
 47
0.0199575537680907
 98
        1
 10
97.85137245955235
 20
196.5610304471389
  0
CIRCLE
  5
14E22
102
{ACAD_REACTORS
330
14E21
102
}
330
1A
100
AcDbEntity
  8
0
100
AcDbCircle
 10
97.80000000000001
 20
196.5000000000001
 30
0.0
 40
0.25
  0
MTEXT
  5
14E23
330
1A
100
AcDbEntity
  8
0
100
AcDbMText
 10
99.30000000000001
 20
196.5000000000001
 30
0.0
 40
2.5
 41
10.0
 71
     4
 72
     5
  1
{\fTahoma|b0|i0|c0|p34;5}
 73
     1
 44
1.0
1001
ACAD
1000
MTEXTBEGIN
1070
    73
1070
     1
1070
    44
1040
1.0
1070
    74
1070
     0
1000
MTEXTEND
  0
LINE
  5
14E24
330
1A
100
AcDbEntity
  8
0
100
AcDbLine
 10
97.80000000000001
 20
200.0000000000001
 30
0.0
 11
98.30000000000001
 21
200.0000000000001
 31
0.0
  0
LINE
  5
14E25
330
1A
100
AcDbEntity
  8
PARTS
100
AcDbLine
 10
107.6999999999999
 20
193.5
 30
0.0
 11
109.4999999999999
 21
193.5
 31
0.0
  0
LINE
  5
14E26
330
1A
100
AcDbEntity
  8
PARTS
100
AcDbLine
 10
107.5999999999999
 20
197.4209372712299
 30
0.0
 11
107.5999999999999
 21
193.5790627287701
 31
0.0
  0
CIRCLE
  5
14E27
330
1A
100
AcDbEntity
  8
PARTS
100
AcDbCircle
 10
109.1999999999998
 20
195.5
 30
0.0
 40
1.149999999999999
  0
LINE
  5
14E28
330
1A
100
AcDbEntity
  8
PARTS
100
AcDbLine
 10
109.4999999999999
 20
196.6101801655587
 30
0.0
 11
109.4999999999999
 21
194.3898198344412
 31
0.0
  0
LINE
  5
14E29
330
1A
100
AcDbEntity
  8
PARTS
100
AcDbLine
 10
108.8999999999999
 20
196.6101801655587
 30
0.0
 11
108.8999999999999
 21
194.3898198344412
 31
0.0
  0
LINE
  5
14E2A
330
1A
100
AcDbEntity
  8
PARTS
100
AcDbLine
 10
107.6999999999999
 20
200.5
 30
0.0
 11
109.4999999999999
 21
200.5
 31
0.0
  0
LINE
  5
14E2B
330
1A
100
AcDbEntity
  8
PARTS
100
AcDbLine
 10
109.4999999999999
 20
200.5
 30
0.0
 11
109.4999999999999
 21
200.0180652708019
 31
0.0
  0
LINE
  5
14E2C
330
1A
100
AcDbEntity
  8
PARTS
100
AcDbLine
 10
107.5999999999999
 20
204.42093727123
 30
0.0
 11
107.5999999999999
 21
200.5790627287701
 31
0.0
  0
CIRCLE
  5
14E2D
330
1A
100
AcDbEntity
  8
PARTS
100
AcDbCircle
 10
109.1999999999998
 20
202.5
 30
0.0
 40
1.149999999999999
  0
LINE
  5
14E2E
330
1A
100
AcDbEntity
  8
PARTS
100
AcDbLine
 10
109.4999999999999
 20
203.6101801655588
 30
0.0
 11
109.4999999999999
 21
201.3898198344413
 31
0.0
  0
LINE
  5
14E2F
330
1A
100
AcDbEntity
  8
PARTS
100
AcDbLine
 10
108.8999999999999
 20
203.6101801655588
 30
0.0
 11
108.8999999999999
 21
201.3898198344413
 31
0.0
  0
MTEXT
  5
14E30
330
1A
100
AcDbEntity
  8
0
100
AcDbMText
 10
93.49999999999999
 20
222.5
 30
0.0
 40
2.5
 41
6.300000000000071
 71
     1
 72
     5
  1
{\fTahoma|b0|i0|c0|p34;EXC}
 73
     1
 44
1.0
1001
ACAD
1000
MTEXTBEGIN
1070
    73
1070
     1
1070
    44
1040
1.0
1070
    74
1070
     0
1000
MTEXTEND
  0
LINE
  5
14E31
330
1A
100
AcDbEntity
  8
SUNPOU
100
AcDbLine
 10
94.30000000000001
 20
210.0000000000001
 30
0.0
 11
95.80000000000001
 21
210.0000000000001
 31
0.0
  0
LINE
  5
14E32
330
1A
100
AcDbEntity
  8
SUNPOU
100
AcDbLine
 10
94.59999999999997
 20
210.3000000000001
 30
0.0
 11
95.5
 21
210.3000000000001
 31
0.0
  0
LINE
  5
14E33
330
1A
100
AcDbEntity
  8
SUNPOU
100
AcDbLine
 10
95.80000000000001
 20
212.0
 30
0.0
 11
94.30000000000001
 21
212.0000000000001
 31
0.0
  0
LINE
  5
14E34
330
1A
100
AcDbEntity
  8
SUNPOU
100
AcDbLine
 10
95.49999999999995
 20
211.7000000000001
 30
0.0
 11
94.59999999999997
 21
211.7000000000001
 31
0.0
  0
LINE
  5
14E35
330
1A
100
AcDbEntity
  8
0
100
AcDbLine
 10
96.5
 20
217.0000000000001
 30
0.0
 11
93.49999999999999
 21
217.0000000000001
 31
0.0
  0
LINE
  5
14E36
330
1A
100
AcDbEntity
  8
SUNPOU
100
AcDbLine
 10
94.30000000000001
 20
226.5000000000001
 30
0.0
 11
95.80000000000001
 21
226.5000000000001
 31
0.0
  0
LINE
  5
14E37
330
1A
100
AcDbEntity
  8
SUNPOU
100
AcDbLine
 10
94.59999999999997
 20
226.8000000000001
 30
0.0
 11
95.5
 21
226.8000000000001
 31
0.0
  0
LINE
  5
14E38
330
1A
100
AcDbEntity
  8
0
100
AcDbLine
 10
96.5
 20
223.5000000000001
 30
0.0
 11
93.49999999999999
 21
223.5000000000001
 31
0.0
  0
LINE
  5
14E39
330
1A
100
AcDbEntity
  8
0
100
AcDbLine
 10
96.5
 20
207.0000000000001
 30
0.0
 11
93.49999999999999
 21
207.0000000000001
 31
0.0
  0
MTEXT
  5
14E3A
330
1A
100
AcDbEntity
  8
0
100
AcDbMText
 10
87.00000000000006
 20
216.6699999999999
 30
0.0
 40
2.2
 41
10.0
 71
     8
 72
     5
  1
{\fTahoma|b0|i0|c0|p34;-EXC}
 11
-0.0000000000000002
 21
-1.0
 31
0.0
 73
     1
 44
1.0
1001
ACAD
1000
MTEXTBEGIN
1070
    73
1070
     1
1070
    44
1040
1.0
1070
    74
1070
     0
1000
MTEXTEND
  0
LINE
  5
14E3B
330
1A
100
AcDbEntity
  8
0
100
AcDbLine
 10
93.49999999999999
 20
207.0000000000001
 30
0.0
 11
93.49999999999999
 21
217.0000000000001
 31
0.0
  0
MTEXT
  5
14E3C
330
1A
100
AcDbEntity
  8
0
100
AcDbMText
 10
87.00000000000006
 20
209.0499999999999
 30
0.0
 40
2.2
 41
10.0
 71
     8
 72
     5
  1
{\fTahoma|b0|i0|c0|p34;+SIG}
 11
-0.0000000000000002
 21
-1.0
 31
0.0
 73
     1
 44
1.0
1001
ACAD
1000
MTEXTBEGIN
1070
    73
1070
     1
1070
    44
1040
1.0
1070
    74
1070
     0
1000
MTEXTEND
  0
LINE
  5
14E3D
330
1A
100
AcDbEntity
  8
SUNPOU
100
AcDbLine
 10
94.59999999999997
 20
211.7000000000001
 30
0.0
 11
94.59999999999997
 21
210.3000000000001
 31
0.0
  0
LINE
  5
14E3E
330
1A
100
AcDbEntity
  8
SUNPOU
100
AcDbLine
 10
94.30000000000001
 20
212.0000000000001
 30
0.0
 11
94.30000000000001
 21
210.0000000000001
 31
0.0
  0
MTEXT
  5
14E3F
330
1A
100
AcDbEntity
  8
0
100
AcDbMText
 10
87.00000000000006
 20
224.2899999999999
 30
0.0
 40
2.2
 41
10.0
 71
     8
 72
     5
  1
{\fTahoma|b0|i0|c0|p34;-SEN}
 11
-0.0000000000000002
 21
-1.0
 31
0.0
 73
     1
 44
1.0
1001
ACAD
1000
MTEXTBEGIN
1070
    73
1070
     1
1070
    44
1040
1.0
1070
    74
1070
     0
1000
MTEXTEND
  0
LINE
  5
14E40
330
1A
100
AcDbEntity
  8
0
100
AcDbLine
 10
92.30000000000002
 20
217.0000000000001
 30
0.0
 11
91.3
 21
217.0000000000001
 31
0.0
  0
LINE
  5
14E41
330
1A
100
AcDbEntity
  8
0
100
AcDbLine
 10
97.80000000000001
 20
214.9999999999999
 30
0.0
 11
97.80000000000001
 21
216.5
 31
0.0
  0
MTEXT
  5
14E42
330
1A
100
AcDbEntity
  8
0
100
AcDbMText
 10
98.80000000000002
 20
216.5
 30
0.0
 40
2.5
 41
6.300000000000071
 71
     4
 72
     5
  1
{\fTahoma|b0|i0|c0|p34;H}
 73
     1
 44
1.0
1001
ACAD
1000
MTEXTBEGIN
1070
    73
1070
     1
1070
    44
1040
1.0
1070
    74
1070
     0
1000
MTEXTEND
  0
LINE
  5
14E43
330
1A
100
AcDbEntity
  8
0
100
AcDbLine
 10
96.5
 20
207.0000000000001
 30
0.0
 11
96.5
 21
217.0000000000001
 31
0.0
  0
MTEXT
  5
14E44
330
1A
100
AcDbEntity
  8
0
100
AcDbMText
 10
98.80000000000002
 20
213.4999999999999
 30
0.0
 40
2.5
 41
6.300000000000071
 71
     4
 72
     5
  1
{\fTahoma|b0|i0|c0|p34;MH}
 73
     1
 44
1.0
1001
ACAD
1000
MTEXTBEGIN
1070
    73
1070
     1
1070
    44
1040
1.0
1070
    74
1070
     0
1000
MTEXTEND
  0
LINE
  5
14E45
330
1A
100
AcDbEntity
  8
SUNPOU
100
AcDbLine
 10
95.5
 20
210.3000000000001
 30
0.0
 11
95.49999999999995
 21
211.7000000000001
 31
0.0
  0
LINE
  5
14E46
330
1A
100
AcDbEntity
  8
SUNPOU
100
AcDbLine
 10
95.80000000000001
 20
210.0000000000001
 30
0.0
 11
95.80000000000001
 21
212.0
 31
0.0
  0
MTEXT
  5
14E47
330
1A
100
AcDbEntity
  8
0
100
AcDbMText
 10
98.80000000000002
 20
210.4999999999999
 30
0.0
 40
2.5
 41
6.300000000000071
 71
     4
 72
     5
  1
{\fTahoma|b0|i0|c0|p34;ML}
 73
     1
 44
1.0
1001
ACAD
1000
MTEXTBEGIN
1070
    73
1070
     1
1070
    44
1040
1.0
1070
    74
1070
     0
1000
MTEXTEND
  0
MTEXT
  5
14E48
330
1A
100
AcDbEntity
  8
0
100
AcDbMText
 10
98.80000000000002
 20
207.4999999999999
 30
0.0
 40
2.5
 41
6.300000000000071
 71
     4
 72
     5
  1
{\fTahoma|b0|i0|c0|p34;L}
 73
     1
 44
1.0
1001
ACAD
1000
MTEXTBEGIN
1070
    73
1070
     1
1070
    44
1040
1.0
1070
    74
1070
     0
1000
MTEXTEND
  0
HATCH
  5
14E49
330
1A
100
AcDbEntity
  8
0
100
AcDbHatch
 10
0.0
 20
0.0
 30
0.0
210
0.0
220
0.0
230
1.0
  2
SOLID
 70
     1
 71
     1
 91
        1
 92
        7
 72
     1
 73
     1
 93
        2
 10
97.55000000000002
 20
209.0000000000001
 42
1.0
 10
98.05000000000001
 20
209.0000000000001
 42
1.0
 97
        1
330
14E4A
 75
     0
 76
     1
 47
0.0199575537680907
 98
        1
 10
97.89130452128979
 20
209.0652748163114
  0
CIRCLE
  5
14E4A
102
{ACAD_REACTORS
330
14E49
102
}
330
1A
100
AcDbEntity
  8
0
100
AcDbCircle
 10
97.80000000000001
 20
209.0000000000001
 30
0.0
 40
0.25
  0
LINE
  5
14E4B
330
1A
100
AcDbEntity
  8
0
100
AcDbLine
 10
97.80000000000001
 20
207.4999999999999
 30
0.0
 11
98.30000000000001
 21
207.4999999999999
 31
0.0
  0
LINE
  5
14E4C
330
1A
100
AcDbEntity
  8
0
100
AcDbLine
 10
97.80000000000001
 20
209.0000000000001
 30
0.0
 11
97.80000000000001
 21
207.4999999999999
 31
0.0
  0
HATCH
  5
14E4D
330
1A
100
AcDbEntity
  8
0
100
AcDbHatch
 10
0.0
 20
0.0
 30
0.0
210
0.0
220
0.0
230
1.0
  2
SOLID
 70
     1
 71
     1
 91
        1
 92
        7
 72
     1
 73
     1
 93
        2
 10
98.05000000000001
 20
215.0000000000001
 42
1.0
 10
97.55000000000002
 20
215.0000000000001
 42
1.0
 97
        1
330
14E4E
 75
     0
 76
     1
 47
0.0199575537680907
 98
        1
 10
97.89130452128979
 20
214.9527536390772
  0
CIRCLE
  5
14E4E
102
{ACAD_REACTORS
330
14E4D
102
}
330
1A
100
AcDbEntity
  8
0
100
AcDbCircle
 10
97.80000000000001
 20
215.0000000000001
 30
0.0
 40
0.25
  0
HATCH
  5
14E4F
330
1A
100
AcDbEntity
  8
0
100
AcDbHatch
 10
0.0
 20
0.0
 30
0.0
210
0.0
220
0.0
230
1.0
  2
SOLID
 70
     1
 71
     1
 91
        1
 92
        7
 72
     1
 73
     1
 93
        2
 10
97.55000000000002
 20
211.0000000000001
 42
1.0
 10
98.05000000000001
 20
211.0000000000001
 42
1.0
 97
        1
330
14E50
 75
     0
 76
     1
 47
0.0199575537680907
 98
        1
 10
97.85137245955235
 20
211.0610304471389
  0
CIRCLE
  5
14E50
102
{ACAD_REACTORS
330
14E4F
102
}
330
1A
100
AcDbEntity
  8
0
100
AcDbCircle
 10
97.80000000000001
 20
211.0000000000001
 30
0.0
 40
0.25
  0
HATCH
  5
14E51
330
1A
100
AcDbEntity
  8
0
100
AcDbHatch
 10
0.0
 20
0.0
 30
0.0
210
0.0
220
0.0
230
1.0
  2
SOLID
 70
     1
 71
     1
 91
        1
 92
        7
 72
     1
 73
     1
 93
        2
 10
97.55000000000002
 20
213.0000000000001
 42
1.0
 10
98.05000000000001
 20
213.0000000000001
 42
1.0
 97
        1
330
14E52
 75
     0
 76
     1
 47
0.0199575537680907
 98
        1
 10
97.75154182450506
 20
213.0567860779664
  0
CIRCLE
  5
14E52
102
{ACAD_REACTORS
330
14E51
102
}
330
1A
100
AcDbEntity
  8
0
100
AcDbCircle
 10
97.80000000000001
 20
213.0000000000001
 30
0.0
 40
0.25
  0
LINE
  5
14E53
330
1A
100
AcDbEntity
  8
PARTS
100
AcDbLine
 10
108.8999999999999
 20
210.6101801655587
 30
0.0
 11
108.8999999999999
 21
208.3898198344413
 31
0.0
  0
LINE
  5
14E54
330
1A
100
AcDbEntity
  8
PARTS
100
AcDbLine
 10
109.4999999999999
 20
210.6101801655587
 30
0.0
 11
109.4999999999999
 21
208.3898198344413
 31
0.0
  0
CIRCLE
  5
14E55
330
1A
100
AcDbEntity
  8
PARTS
100
AcDbCircle
 10
109.1999999999998
 20
209.5
 30
0.0
 40
1.149999999999999
  0
LINE
  5
14E56
330
1A
100
AcDbEntity
  8
PARTS
100
AcDbLine
 10
107.5999999999999
 20
211.4209372712299
 30
0.0
 11
107.5999999999999
 21
207.5790627287701
 31
0.0
  0
LINE
  5
14E57
330
1A
100
AcDbEntity
  8
PARTS
100
AcDbLine
 10
109.4999999999999
 20
207.5
 30
0.0
 11
109.4999999999999
 21
207.0180652708018
 31
0.0
  0
LINE
  5
14E58
330
1A
100
AcDbEntity
  8
PARTS
100
AcDbLine
 10
107.6999999999999
 20
207.5
 30
0.0
 11
109.4999999999999
 21
207.5
 31
0.0
  0
LINE
  5
14E59
330
1A
100
AcDbEntity
  8
0
100
AcDbLine
 10
97.80000000000001
 20
216.5
 30
0.0
 11
98.30000000000001
 21
216.5
 31
0.0
  0
MTEXT
  5
14E5A
330
1A
100
AcDbEntity
  8
0
100
AcDbMText
 10
97.25000000000001
 20
224.5000000000001
 30
0.0
 40
2.0
 41
8.008205128205128
 71
     4
 72
     5
  1
{\fTahoma|b0|i0|c0|p34;2.5V}
 73
     1
 44
1.0
1001
ACAD
1000
MTEXTBEGIN
1070
    73
1070
     1
1070
    44
1040
1.0
1070
    74
1070
     0
1000
MTEXTEND
  0
MTEXT
  5
14E5B
330
1A
100
AcDbEntity
  8
0
100
AcDbMText
 10
114.5
 20
181.35
 30
0.0
 40
2.5
 41
6.300000000000071
 71
     4
 72
     5
  1
{\fTahoma|b0|i0|c0|p34;H}
 73
     1
 44
1.0
1001
ACAD
1000
MTEXTBEGIN
1070
    73
1070
     1
1070
    44
1040
1.0
1070
    74
1070
     0
1000
MTEXTEND
  0
LINE
  5
14E5C
330
1A
100
AcDbEntity
  8
0
100
AcDbLine
 10
113.5
 20
183.5000000000001
 30
0.0
 11
113.5
 21
166.5000000000001
 31
0.0
  0
LINE
  5
14E5D
330
1A
100
AcDbEntity
  8
PARTS
100
AcDbLine
 10
111.6999999999999
 20
166.5000000000001
 30
0.0
 11
111.6999999999999
 21
183.5000000000001
 31
0.0
  0
MTEXT
  5
14E5E
330
1A
100
AcDbEntity
  8
0
100
AcDbMText
 10
114.5
 20
157.4999999999999
 30
0.0
 40
2.5
 41
7.340331064919574
 71
     4
 72
     5
  1
{\fTahoma|b0|i0|c0|p34;AZ}
 73
     1
 44
1.0
1001
ACAD
1000
MTEXTBEGIN
1070
    73
1070
     1
1070
    44
1040
1.0
1070
    74
1070
     0
1000
MTEXTEND
  0
LINE
  5
14E5F
330
1A
100
AcDbEntity
  8
0
100
AcDbLine
 10
113.4999999999999
 20
136.9999999999999
 30
0.0
 11
113.5
 21
164.4999999999999
 31
0.0
  0
LINE
  5
14E60
330
1A
100
AcDbEntity
  8
0
100
AcDbLine
 10
112.4999999999999
 20
137.4999999999999
 30
0.0
 11
112.5
 21
163.9999999999999
 31
0.0
  0
MTEXT
  5
14E61
330
1A
100
AcDbEntity
  8
0
100
AcDbMText
 10
114.4999999999999
 20
147.4999999999999
 30
0.0
 40
2.5
 41
7.340331064919574
 71
     4
 72
     5
  1
{\fTahoma|b0|i0|c0|p34;SET}
 73
     1
 44
1.0
1001
ACAD
1000
MTEXTBEGIN
1070
    73
1070
     1
1070
    44
1040
1.0
1070
    74
1070
     0
1000
MTEXTEND
  0
MTEXT
  5
14E62
330
1A
100
AcDbEntity
  8
0
100
AcDbMText
 10
114.5
 20
139.9999999999999
 30
0.0
 40
2.5
 41
7.340331064919574
 71
     4
 72
     5
  1
{\fTahoma|b0|i0|c0|p34;SHL}
 73
     1
 44
1.0
1001
ACAD
1000
MTEXTBEGIN
1070
    73
1070
     1
1070
    44
1040
1.0
1070
    74
1070
     0
1000
MTEXTEND
  0
LINE
  5
14E63
330
1A
100
AcDbEntity
  8
0
100
AcDbLine
 10
114.4999999999999
 20
142.9999999999999
 30
0.0
 11
116.2999999999999
 21
142.9999999999999
 31
0.0
  0
LINE
  5
14E64
330
1A
100
AcDbEntity
  8
0
100
AcDbLine
 10
116.2999999999999
 20
142.9999999999999
 30
0.0
 11
116.2999999999999
 21
145.4999999999999
 31
0.0
  0
LINE
  5
14E65
330
1A
100
AcDbEntity
  8
0
100
AcDbLine
 10
116.2999999999999
 20
151.9999999999999
 30
0.0
 11
114.4999999999999
 21
151.9999999999999
 31
0.0
  0
LINE
  5
14E66
330
1A
100
AcDbEntity
  8
0
100
AcDbLine
 10
116.2999999999999
 20
149.4999999999999
 30
0.0
 11
116.2999999999999
 21
151.9999999999999
 31
0.0
  0
LINE
  5
14E67
330
1A
100
AcDbEntity
  8
0
100
AcDbLine
 10
114.4999999999999
 20
152.9999999999999
 30
0.0
 11
116.2999999999999
 21
152.9999999999999
 31
0.0
  0
LINE
  5
14E68
330
1A
100
AcDbEntity
  8
0
100
AcDbLine
 10
116.2999999999999
 20
152.9999999999999
 30
0.0
 11
116.2999999999999
 21
155.4999999999999
 31
0.0
  0
LINE
  5
14E69
330
1A
100
AcDbEntity
  8
PARTS
100
AcDbLine
 10
112.6999999999999
 20
169.4499999999999
 30
0.0
 11
112.6999999999999
 21
170.3899999999999
 31
0.0
  0
MTEXT
  5
14E6A
330
1A
100
AcDbEntity
  8
0
100
AcDbMText
 10
119.4999999999999
 20
173.73
 30
0.0
 40
2.5
 41
12.69999999999999
 71
     8
 72
     5
  1
{\fTahoma|b0|i0|c0|p34;RANGE}
 11
0.0000000000000003
 21
1.0
 31
0.0
 73
     1
 44
1.0
1001
ACAD
1000
MTEXTBEGIN
1070
    73
1070
     1
1070
    44
1040
1.0
1070
    74
1070
     0
1000
MTEXTEND
  0
LINE
  5
14E6B
330
1A
100
AcDbEntity
  8
0
100
AcDbLine
 10
114.4999999999999
 20
178.81
 30
0.0
 11
114.4999999999999
 21
168.65
 31
0.0
  0
LINE
  5
14E6C
330
1A
100
AcDbEntity
  8
0
100
AcDbLine
 10
114.4999999999999
 20
168.65
 30
0.0
 11
115.9999999999999
 21
178.81
 31
0.0
  0
LINE
  5
14E6D
330
1A
100
AcDbEntity
  8
0
100
AcDbLine
 10
116.2999999999999
 20
161.9999999999999
 30
0.0
 11
114.4999999999999
 21
161.9999999999999
 31
0.0
  0
LINE
  5
14E6E
330
1A
100
AcDbEntity
  8
0
100
AcDbLine
 10
116.2999999999999
 20
159.4999999999999
 30
0.0
 11
116.2999999999999
 21
161.9999999999999
 31
0.0
  0
LINE
  5
14E6F
330
1A
100
AcDbEntity
  8
PARTS
100
AcDbLine
 10
111.6999999999999
 20
167.8499999999999
 30
0.0
 11
113.5
 21
167.8499999999999
 31
0.0
  0
LINE
  5
14E70
330
1A
100
AcDbEntity
  8
PARTS
100
AcDbLine
 10
113.5
 20
169.4499999999999
 30
0.0
 11
111.6999999999999
 21
169.4499999999999
 31
0.0
  0
LINE
  5
14E71
330
1A
100
AcDbEntity
  8
PARTS
100
AcDbLine
 10
113.1499999999999
 20
169.45
 30
0.0
 11
113.3999999999999
 21
169.4499999999999
 31
0.0
  0
LINE
  5
14E72
330
1A
100
AcDbEntity
  8
PARTS
100
AcDbLine
 10
112.6999999999999
 20
166.5000000000001
 30
0.0
 11
112.6999999999999
 21
167.8499999999999
 31
0.0
  0
LINE
  5
14E73
330
1A
100
AcDbEntity
  8
0
100
AcDbLine
 10
116.4999999999999
 20
167.65
 30
0.0
 11
118.4999999999999
 21
167.65
 31
0.0
  0
LINE
  5
14E74
330
1A
100
AcDbEntity
  8
0
100
AcDbLine
 10
118.4999999999999
 20
168.0
 30
0.0
 11
118.4999999999999
 21
167.65
 31
0.0
  0
LINE
  5
14E75
330
1A
100
AcDbEntity
  8
PARTS
100
AcDbLine
 10
112.6999999999999
 20
174.53
 30
0.0
 11
112.6999999999999
 21
175.4699999999999
 31
0.0
  0
LINE
  5
14E76
330
1A
100
AcDbEntity
  8
PARTS
100
AcDbLine
 10
113.5
 20
174.53
 30
0.0
 11
111.7
 21
174.53
 31
0.0
  0
LINE
  5
14E77
330
1A
100
AcDbEntity
  8
PARTS
100
AcDbLine
 10
113.1499999999999
 20
174.53
 30
0.0
 11
113.3999999999999
 21
174.53
 31
0.0
  0
LINE
  5
14E78
330
1A
100
AcDbEntity
  8
PARTS
100
AcDbLine
 10
111.7
 20
175.4699999999999
 30
0.0
 11
113.5
 21
175.4699999999999
 31
0.0
  0
LINE
  5
14E79
330
1A
100
AcDbEntity
  8
PARTS
100
AcDbLine
 10
111.6999999999999
 20
170.3899999999999
 30
0.0
 11
113.9999999999999
 21
170.3899999999999
 31
0.0
  0
LINE
  5
14E7A
330
1A
100
AcDbEntity
  8
PARTS
100
AcDbLine
 10
111.6999999999999
 20
172.9299999999999
 30
0.0
 11
113.5
 21
172.93
 31
0.0
  0
LINE
  5
14E7B
330
1A
100
AcDbEntity
  8
PARTS
100
AcDbLine
 10
113.5
 20
171.9899999999999
 30
0.0
 11
111.6999999999999
 21
171.9899999999999
 31
0.0
  0
LINE
  5
14E7C
330
1A
100
AcDbEntity
  8
PARTS
100
AcDbLine
 10
112.6999999999999
 20
171.9899999999999
 30
0.0
 11
112.6999999999999
 21
172.9299999999999
 31
0.0
  0
LINE
  5
14E7D
330
1A
100
AcDbEntity
  8
PARTS
100
AcDbLine
 10
113.1499999999999
 20
171.9899999999999
 30
0.0
 11
113.3999999999999
 21
171.9899999999999
 31
0.0
  0
LINE
  5
14E7E
330
1A
100
AcDbEntity
  8
0
100
AcDbLine
 10
115.9999999999999
 20
178.81
 30
0.0
 11
114.4999999999999
 21
178.81
 31
0.0
  0
LINE
  5
14E7F
330
1A
100
AcDbEntity
  8
PARTS
100
AcDbLine
 10
111.7
 20
180.5499999999999
 30
0.0
 11
113.5
 21
180.5499999999999
 31
0.0
  0
LINE
  5
14E80
330
1A
100
AcDbEntity
  8
PARTS
100
AcDbLine
 10
113.5
 20
179.6099999999999
 30
0.0
 11
111.7
 21
179.6099999999999
 31
0.0
  0
LINE
  5
14E81
330
1A
100
AcDbEntity
  8
PARTS
100
AcDbLine
 10
112.6999999999999
 20
179.6099999999999
 30
0.0
 11
112.6999999999999
 21
180.5499999999999
 31
0.0
  0
LINE
  5
14E82
330
1A
100
AcDbEntity
  8
PARTS
100
AcDbLine
 10
113.1499999999999
 20
179.61
 30
0.0
 11
113.3999999999999
 21
179.6099999999999
 31
0.0
  0
LINE
  5
14E83
330
1A
100
AcDbEntity
  8
PARTS
100
AcDbLine
 10
111.7
 20
178.0099999999999
 30
0.0
 11
113.5
 21
178.0099999999999
 31
0.0
  0
LINE
  5
14E84
330
1A
100
AcDbEntity
  8
PARTS
100
AcDbLine
 10
113.5
 20
177.0699999999999
 30
0.0
 11
111.7
 21
177.0699999999999
 31
0.0
  0
LINE
  5
14E85
330
1A
100
AcDbEntity
  8
PARTS
100
AcDbLine
 10
112.6999999999999
 20
177.0699999999999
 30
0.0
 11
112.6999999999999
 21
178.0099999999999
 31
0.0
  0
LINE
  5
14E86
330
1A
100
AcDbEntity
  8
PARTS
100
AcDbLine
 10
113.1499999999999
 20
177.07
 30
0.0
 11
113.3999999999999
 21
177.0699999999999
 31
0.0
  0
LINE
  5
14E87
330
1A
100
AcDbEntity
  8
0
100
AcDbLine
 10
116.4999999999999
 20
179.81
 30
0.0
 11
118.4999999999999
 21
179.81
 31
0.0
  0
LINE
  5
14E88
330
1A
100
AcDbEntity
  8
0
100
AcDbLine
 10
118.4999999999999
 20
179.81
 30
0.0
 11
118.4999999999999
 21
179.5
 31
0.0
  0
MTEXT
  5
14E89
330
1A
100
AcDbEntity
  8
0
100
AcDbMText
 10
112.6999999999998
 20
202.5000000000001
 30
0.0
 40
2.5
 41
6.300000000000071
 71
     4
 72
     5
  1
{\fTahoma|b0|i0|c0|p34;F}
 73
     1
 44
1.0
1001
ACAD
1000
MTEXTBEGIN
1070
    73
1070
     1
1070
    44
1040
1.0
1070
    74
1070
     0
1000
MTEXTEND
  0
MTEXT
  5
14E8A
330
1A
100
AcDbEntity
  8
0
100
AcDbMText
 10
118.9999999999999
 20
206.0000000000001
 30
0.0
 40
2.5
 41
14.4
 71
     8
 72
     5
  1
{\fTahoma|b0|i0|c0|p34;ZERO}
 11
0.0000000000000001
 21
1.0
 31
0.0
 73
     1
 44
1.0
1001
ACAD
1000
MTEXTBEGIN
1070
    73
1070
     1
1070
    44
1040
1.0
1070
    74
1070
     0
1000
MTEXTEND
  0
MTEXT
  5
14E8B
330
1A
100
AcDbEntity
  8
0
100
AcDbMText
 10
118.9999999999999
 20
192.0
 30
0.0
 40
2.5
 41
14.4
 71
     8
 72
     5
  1
{\fTahoma|b0|i0|c0|p34;SPAN}
 11
0.0000000000000001
 21
1.0
 31
0.0
 73
     1
 44
1.0
1001
ACAD
1000
MTEXTBEGIN
1070
    73
1070
     1
1070
    44
1040
1.0
1070
    74
1070
     0
1000
MTEXTEND
  0
LINE
  5
14E8C
330
1A
100
AcDbEntity
  8
0
100
AcDbLine
 10
117.9999999999999
 20
186.0
 30
0.0
 11
117.9999999999999
 21
187.5
 31
0.0
  0
MTEXT
  5
14E8D
330
1A
100
AcDbEntity
  8
0
100
AcDbMText
 10
112.6999999999998
 20
188.5
 30
0.0
 40
2.5
 41
6.300000000000071
 71
     4
 72
     5
  1
{\fTahoma|b0|i0|c0|p34;F}
 73
     1
 44
1.0
1001
ACAD
1000
MTEXTBEGIN
1070
    73
1070
     1
1070
    44
1040
1.0
1070
    74
1070
     0
1000
MTEXTEND
  0
LINE
  5
14E8E
330
1A
100
AcDbEntity
  8
0
100
AcDbLine
 10
114.9999999999999
 20
186.0
 30
0.0
 11
117.9999999999999
 21
186.0
 31
0.0
  0
LINE
  5
14E8F
330
1A
100
AcDbEntity
  8
PARTS
100
AcDbLine
 10
113.5
 20
182.15
 30
0.0
 11
111.7
 21
182.15
 31
0.0
  0
LINE
  5
14E90
330
1A
100
AcDbEntity
  8
PARTS
100
AcDbLine
 10
112.6999999999999
 20
182.15
 30
0.0
 11
112.6999999999999
 21
183.5000000000001
 31
0.0
  0
LINE
  5
14E91
330
1A
100
AcDbEntity
  8
PARTS
100
AcDbLine
 10
113.1499999999999
 20
182.15
 30
0.0
 11
113.3999999999999
 21
182.15
 31
0.0
  0
LINE
  5
14E92
330
1A
100
AcDbEntity
  8
0
100
AcDbLine
 10
114.9999999999999
 20
198.0
 30
0.0
 11
117.9999999999999
 21
198.0
 31
0.0
  0
MTEXT
  5
14E93
330
1A
100
AcDbEntity
  8
0
100
AcDbMText
 10
112.6999999999998
 20
195.5
 30
0.0
 40
2.5
 41
6.300000000000071
 71
     4
 72
     5
  1
{\fTahoma|b0|i0|c0|p34;C}
 73
     1
 44
1.0
1001
ACAD
1000
MTEXTBEGIN
1070
    73
1070
     1
1070
    44
1040
1.0
1070
    74
1070
     0
1000
MTEXTEND
  0
LINE
  5
14E94
330
1A
100
AcDbEntity
  8
0
100
AcDbLine
 10
117.9999999999999
 20
198.0
 30
0.0
 11
117.9999999999999
 21
196.5
 31
0.0
  0
LINE
  5
14E95
330
1A
100
AcDbEntity
  8
0
100
AcDbLine
 10
114.9999999999999
 20
200.0
 30
0.0
 11
117.9999999999999
 21
200.0
 31
0.0
  0
LINE
  5
14E96
330
1A
100
AcDbEntity
  8
0
100
AcDbLine
 10
117.9999999999999
 20
200.0
 30
0.0
 11
117.9999999999999
 21
201.5
 31
0.0
  0
MTEXT
  5
14E97
330
1A
100
AcDbEntity
  8
0
100
AcDbMText
 10
114.7999999999999
 20
219.0000000000001
 30
0.0
 40
2.5
 41
14.4
 71
     2
 72
     5
  1
{\fTahoma|b0|i0|c0|p34;TARE}
 11
0.0000000000000001
 21
1.0
 31
0.0
 73
     1
 44
1.0
1001
ACAD
1000
MTEXTBEGIN
1070
    73
1070
     1
1070
    44
1040
1.0
1070
    74
1070
     0
1000
MTEXTEND
  0
MTEXT
  5
14E98
330
1A
100
AcDbEntity
  8
0
100
AcDbMText
 10
112.6999999999998
 20
209.5000000000001
 30
0.0
 40
2.5
 41
6.300000000000071
 71
     4
 72
     5
  1
{\fTahoma|b0|i0|c0|p34;C}
 73
     1
 44
1.0
1001
ACAD
1000
MTEXTBEGIN
1070
    73
1070
     1
1070
    44
1040
1.0
1070
    74
1070
     0
1000
MTEXTEND
  0
LINE
  5
14E99
330
1A
100
AcDbEntity
  8
0
100
AcDbLine
 10
114.9999999999999
 20
212.0
 30
0.0
 11
117.9999999999999
 21
212.0
 31
0.0
  0
LINE
  5
14E9A
330
1A
100
AcDbEntity
  8
0
100
AcDbLine
 10
117.9999999999999
 20
212.0
 30
0.0
 11
117.9999999999999
 21
210.5
 31
0.0
  0
MTEXT
  5
14E9B
330
1A
100
AcDbEntity
  8
0
 62
   252
100
AcDbMText
 10
119.9999999999999
 20
247.0000000000001
 30
0.0
 40
3.5
 41
23.00000058598465
 71
     3
 72
     5
  1
{\fTahoma|b0|i0|c0|p34;\C7;LA-1031A}
 73
     1
 44
1.0
1001
ACAD
1000
MTEXTBEGIN
1070
    73
1070
     1
1070
    44
1040
1.0
1070
    74
1070
     0
1000
MTEXTEND
  0
CIRCLE
  5
14E9C
330
1A
100
AcDbEntity
  8
0
100
AcDbCircle
 10
110.8999999999999
 20
239.5
 30
0.0
 40
1.25
  0
CIRCLE
  5
14E9D
330
1A
100
AcDbEntity
  8
0
100
AcDbCircle
 10
110.8999999999999
 20
239.5
 30
0.0
 40
2.25
  0
LINE
  5
14E9E
330
1A
100
AcDbEntity
  8
0
100
AcDbLine
 10
113.9999999999999
 20
234.0
 30
0.0
 11
103.9999999999999
 21
234.0
 31
0.0
  0
LINE
  5
14E9F
330
1A
100
AcDbEntity
  8
0
100
AcDbLine
 10
86.0
 20
245.43
 30
0.0
 11
72.99999999999989
 21
245.43
 31
0.0
  0
MTEXT
  5
14EA0
330
1A
100
AcDbEntity
  8
0
100
AcDbMText
 10
72.00000000000006
 20
239.5299999999999
 30
0.0
 40
2.5
 41
5.907407407407408
 71
     6
 72
     5
  1
{\fTahoma|b0|i0|c0|p34;1}
 73
     1
 44
1.0
1001
ACAD
1000
MTEXTBEGIN
1070
    73
1070
     1
1070
    44
1040
1.0
1070
    74
1070
     0
1000
MTEXTEND
  0
MTEXT
  5
14EA1
330
1A
100
AcDbEntity
  8
0
100
AcDbMText
 10
72.00000000000006
 20
231.9099999999999
 30
0.0
 40
2.5
 41
5.907407407407408
 71
     6
 72
     5
  1
{\fTahoma|b0|i0|c0|p34;2}
 73
     1
 44
1.0
1001
ACAD
1000
MTEXTBEGIN
1070
    73
1070
     1
1070
    44
1040
1.0
1070
    74
1070
     0
1000
MTEXTEND
  0
CIRCLE
  5
14EA2
330
1A
100
AcDbEntity
  8
SUNPOU
100
AcDbCircle
 10
94.39999999999987
 20
239.9999999999999
 30
0.0
 40
1.5
  0
CIRCLE
  5
14EA3
330
1A
100
AcDbEntity
  8
0
100
AcDbCircle
 10
94.39999999999987
 20
239.9999999999999
 30
0.0
 40
2.0
  0
LINE
  5
14EA4
330
1A
100
AcDbEntity
  8
0
100
AcDbLine
 10
96.5
 20
231.5000000000001
 30
0.0
 11
93.49999999999999
 21
231.5000000000001
 31
0.0
  0
MTEXT
  5
14EA5
330
1A
100
AcDbEntity
  8
0
100
AcDbMText
 10
91.39999999999986
 20
237.0
 30
0.0
 40
2.5
 41
13.4
 71
     1
 72
     5
  1
{\fTahoma|b0|i0|c0|p34;POWER}
 73
     1
 44
1.0
1001
ACAD
1000
MTEXTBEGIN
1070
    73
1070
     1
1070
    44
1040
1.0
1070
    74
1070
     0
1000
MTEXTEND
  0
LINE
  5
14EA6
330
1A
100
AcDbEntity
  8
SUNPOU
100
AcDbLine
 10
95.80000000000001
 20
228.5000000000001
 30
0.0
 11
94.30000000000001
 21
228.5000000000001
 31
0.0
  0
LINE
  5
14EA7
330
1A
100
AcDbEntity
  8
SUNPOU
100
AcDbLine
 10
95.49999999999995
 20
228.2000000000001
 30
0.0
 11
94.59999999999997
 21
228.2000000000001
 31
0.0
  0
MTEXT
  5
14EA8
330
1A
100
AcDbEntity
  8
0
100
AcDbMText
 10
87.00000000000006
 20
239.5299999999999
 30
0.0
 40
2.2
 41
10.0
 71
     8
 72
     5
  1
{\fTahoma|b0|i0|c0|p34;+EXC}
 11
-0.0000000000000002
 21
-1.0
 31
0.0
 73
     1
 44
1.0
1001
ACAD
1000
MTEXTBEGIN
1070
    73
1070
     1
1070
    44
1040
1.0
1070
    74
1070
     0
1000
MTEXTEND
  0
MTEXT
  5
14EA9
330
1A
100
AcDbEntity
  8
0
100
AcDbMText
 10
87.00000000000006
 20
231.9099999999999
 30
0.0
 40
2.2
 41
10.0
 71
     8
 72
     5
  1
{\fTahoma|b0|i0|c0|p34;+SEN}
 11
-0.0000000000000002
 21
-1.0
 31
0.0
 73
     1
 44
1.0
1001
ACAD
1000
MTEXTBEGIN
1070
    73
1070
     1
1070
    44
1040
1.0
1070
    74
1070
     0
1000
MTEXTEND
  0
LINE
  5
14EAA
330
1A
100
AcDbEntity
  8
0
100
AcDbLine
 10
91.3
 20
230.79
 30
0.0
 11
92.30000000000002
 21
230.79
 31
0.0
  0
MTEXT
  5
14EAB
330
1A
100
AcDbEntity
  8
0
100
AcDbMText
 10
97.25000000000001
 20
230.5000000000001
 30
0.0
 40
2.0
 41
8.008205128205128
 71
     4
 72
     5
  1
{\fTahoma|b0|i0|c0|p34;10V}
 73
     1
 44
1.0
1001
ACAD
1000
MTEXTBEGIN
1070
    73
1070
     1
1070
    44
1040
1.0
1070
    74
1070
     0
1000
MTEXTEND
  0
MTEXT
  5
14EAC
330
1A
100
AcDbEntity
  8
0
100
AcDbMText
 10
114.1499999999999
 20
239.5
 30
0.0
 40
2.5
 41
10.0
 71
     4
 72
     5
  1
{\fTahoma|b0|i0|c0|p34;ON}
 73
     1
 44
1.0
1001
ACAD
1000
MTEXTBEGIN
1070
    73
1070
     1
1070
    44
1040
1.0
1070
    74
1070
     0
1000
MTEXTEND
  0
LINE
  5
14EAD
330
1A
100
AcDbEntity
  8
0
100
AcDbLine
 10
116.3
 20
235.4999999999999
 30
0.0
 11
116.3
 21
237.5
 31
0.0
  0
TEXT
  5
14EAE
330
1A
100
AcDbEntity
  8
WAKU
100
AcDbText
 10
234.0
 20
18.0
 30
0.0
 40
1.8
  1
20.03.05
 41
0.9
100
AcDbText
  0
TEXT
  5
14EAF
330
1A
100
AcDbEntity
  8
WAKU
100
AcDbText
 10
248.0
 20
17.5
 30
0.0
 40
3.0
  1
大野
100
AcDbText
  0
LINE
  5
14ED3
330
1A
100
AcDbEntity
  8
0
100
AcDbLine
 10
254.5000000000001
 20
82.90000000000006
 30
0.0
 11
255.1999999999999
 21
82.90000000000006
 31
0.0
  0
LINE
  5
14ED5
330
1A
100
AcDbEntity
  8
0
100
AcDbLine
 10
254.5000000000001
 20
82.64891252930764
 30
0.0
 11
254.5000000000001
 21
82.90000000000006
 31
0.0
  0
LINE
  5
14ED6
330
1A
100
AcDbEntity
  8
0
100
AcDbLine
 10
254.2000000000001
 20
82.36602540378447
 30
0.0
 11
254.2000000000001
 21
82.60000000000003
 31
0.0
  0
LINE
  5
14ED7
330
1A
100
AcDbEntity
  8
0
100
AcDbLine
 10
254.2000000000001
 20
82.60000000000003
 30
0.0
 11
254.5000000000001
 21
82.90000000000006
 31
0.0
  0
LINE
  5
14F2F
330
1A
100
AcDbEntity
  8
PARTS
100
AcDbLine
 10
252.2
 20
96.75
 30
0.0
 11
254.2000000000001
 21
96.75
 31
0.0
  0
LINE
  5
14F30
330
1A
100
AcDbEntity
  8
PARTS
100
AcDbLine
 10
252.2
 20
99.25
 30
0.0
 11
254.2000000000001
 21
99.25
 31
0.0
  0
LINE
  5
14F31
330
1A
100
AcDbEntity
  8
PARTS
100
AcDbLine
 10
252.2
 20
99.25
 30
0.0
 11
252.2
 21
96.75
 31
0.0
  0
ARC
  5
14F33
330
1A
100
AcDbEntity
  8
SUNPOU
100
AcDbCircle
 10
255.3
 20
81.5
 30
0.0
 40
1.399999999999999
100
AcDbArc
 50
94.09604375815442
 51
265.9039562418467
  0
LEADER
  5
14F59
330
1A
100
AcDbEntity
  8
SUNPOU
100
AcDbLeader
  3
STANDARD
 73
     0
 40
4.0
 41
21.94285714285714
 76
     3
 10
96.75695482124682
 20
122.5944361430024
 30
0.0
 10
110.0
 20
112.0
 30
0.0
 10
113.5
 20
112.0
 30
0.0
340
14F5A
213
0.0
223
-2.0
233
0.0
1001
ACAD
1000
DSTYLE
1002
{
1070
    41
1040
2.5
1070
    42
1040
0.5
1070
    43
1040
10.0
1070
    44
1040
0.5
1070
    73
1070
     0
1070
    74
1070
     0
1070
   140
1040
4.0
1070
   141
1040
0.0
1070
   147
1040
0.5
1070
   173
1070
     1
1070
   179
1070
     1
1070
   271
1070
     2
1070
   272
1070
     2
1070
   341
1005
BA
1070
   343
1005
BA
1070
   344
1005
BA
1002
}
  0
MTEXT
  5
14F5A
102
{ACAD_REACTORS
330
14F59
102
}
330
1A
100
AcDbEntity
  8
SUNPOU
100
AcDbMText
 10
114.0
 20
114.0
 30
0.0
 40
4.0
 41
0.0
 71
     1
 72
     1
  1
\A1;2-φ4.5
 73
     1
 44
1.0
1001
ACAD
1000
MTEXTBEGIN
1070
    73
1070
     1
1070
    44
1040
1.0
1070
    74
1070
     0
1000
MTEXTEND
  0
VIEWPORT
  5
22
102
{ACAD_XDICTIONARY
360
14F63
102
}
330
17
100
AcDbEntity
 67
     1
  8
0
100
AcDbViewport
 10
261.5176991150442
 20
154.7242978687078
 30
0.0
 40
523.0353982300885
 41
309.4485957374157
 68
     1
 69
     1
 12
261.5176991150442
 22
154.7242978687078
 13
0.0
 23
0.0
 14
1.0
 24
1.0
 15
10.0
 25
10.0
 16
0.0
 26
0.0
 36
1.0
 17
0.0
 27
0.0
 37
0.0
 42
50.0
 43
0.0
 44
0.0
 45
309.4485957374157
 50
0.0
 51
0.0
 72
   100
 90
    32768
  1

281
     0
 71
     1
 74
     0
110
0.0
120
0.0
130
0.0
111
1.0
121
0.0
131
0.0
112
0.0
122
1.0
132
0.0
 79
     0
146
0.0
  0
ENDSEC
  0
SECTION
  2
OBJECTS
  0
DICTIONARY
  5
C
330
0
100
AcDbDictionary
281
     1
  3
ACAD_COLOR
350
8AAA
  3
ACAD_GROUP
350
D
  3
ACAD_LAYOUT
350
8A9A
  3
ACAD_MATERIAL
350
8AA9
  3
ACAD_MLINESTYLE
350
E
  3
ACAD_PLOTSETTINGS
350
8A9B
  3
ACAD_PLOTSTYLENAME
350
8A98
  3
ACDBHEADERROUNDTRIPXREC
350
14F60
  3
ACDBVARIABLEDICTIONARY
350
4B08
  3
CONTENTDICTIONARY
350
4210
  0
DICTIONARY
  5
11D08
330
2
100
AcDbDictionary
280
     1
281
     1
  3
ACAD_LAYERSTATES
360
11D09
  0
DICTIONARY
  5
14F63
330
22
100
AcDbDictionary
280
     1
281
     1
  3
ACAD_XREC_ROUNDTRIP
360
14F64
  0
DICTIONARY
  5
8AAA
102
{ACAD_REACTORS
330
C
102
}
330
C
100
AcDbDictionary
281
     1
  0
DICTIONARY
  5
D
102
{ACAD_REACTORS
330
C
102
}
330
C
100
AcDbDictionary
281
     1
  3
*A1
350
52E7
  3
*A10
350
808E
  3
*A11
350
8003
  3
*A12
350
8000
  3
*A13
350
5FF1
  3
*A14
350
680B
  3
*A15
350
10116
  3
*A16
350
FA13
  3
*A17
350
5FC9
  3
*A18
350
5F6A
  3
*A19
350
FDE0
  3
*A2
350
8012
  3
*A20
350
8002
  3
*A21
350
6811
  3
*A22
350
6062
  3
*A23
350
808C
  3
*A24
350
6801
  3
*A25
350
5FEC
  3
*A26
350
FEAF
  3
*A27
350
10CA1
  3
*A28
350
71FC
  3
*A29
350
6802
  3
*A3
350
535F
  3
*A30
350
6085
  3
*A31
350
5E9C
  3
*A32
350
FEDF
  3
*A33
350
10CA7
  3
*A34
350
680C
  3
*A35
350
604B
  3
*A36
350
FDDA
  3
*A37
350
5E8D
  3
*A38
350
FFB0
  3
*A39
350
10CAF
  3
*A4
350
535E
  3
*A40
350
F06B
  3
*A41
350
FEAA
  3
*A42
350
6809
  3
*A43
350
FFF4
  3
*A44
350
F9F4
  3
*A45
350
605D
  3
*A46
350
FEDE
  3
*A47
350
680F
  3
*A48
350
5FE3
  3
*A49
350
FA12
  3
*A5
350
5FE9
  3
*A50
350
FFAF
  3
*A51
350
CFAD
  3
*A52
350
D051
  3
*A53
350
808D
  3
*A54
350
FFF3
  3
*A55
350
7006
  3
*A56
350
5F5B
  3
*A57
350
6805
  3
*A58
350
FFFD
  3
*A59
350
5FCE
  3
*A6
350
8209
  3
*A60
350
820A
  3
*A61
350
FFFE
  3
*A62
350
5EB8
  3
*A63
350
6807
  3
*A64
350
10113
  3
*A65
350
6810
  3
*A66
350
1111F
  3
*A67
350
10114
  3
*A68
350
71CC
  3
*A69
350
11120
  3
*A7
350
10115
  3
*A70
350
8208
  3
*A71
350
680D
  3
*A72
350
6C92
  3
*A73
350
601E
  3
*A74
350
F73C
  3
*A75
350
8001
  3
*A76
350
6806
  3
*A77
350
CFAC
  3
*A78
350
6804
  3
*A79
350
680A
  3
*A8
350
F9F9
  3
*A80
350
5FF2
  3
*A81
350
6981
  3
*A82
350
8020
  3
*A83
350
EEDB
  3
*A84
350
5CF3
  3
*A85
350
6808
  3
*A86
350
680E
  3
*A87
350
6803
  3
*A88
350
71CD
  3
*A89
350
F9F3
  3
*A9
350
F9FA
  3
*A90
350
11121
  3
*A91
350
11122
  3
*A92
350
11468
  3
*A93
350
11469
  3
*A94
350
1146A
  3
*A95
350
1146B
  3
*A96
350
1146C
  3
*A97
350
1146D
  0
DICTIONARY
  5
8A9A
102
{ACAD_REACTORS
330
C
102
}
330
C
100
AcDbDictionary
281
     1
  3
Model
350
8A9C
  3
ﾚｲｱｳﾄ1
350
8A9D
  0
DICTIONARY
  5
8AA9
102
{ACAD_REACTORS
330
C
102
}
330
C
100
AcDbDictionary
281
     1
  0
DICTIONARY
  5
E
102
{ACAD_REACTORS
330
C
102
}
330
C
100
AcDbDictionary
281
     1
  3
STANDARD
350
13
  0
DICTIONARY
  5
8A9B
102
{ACAD_REACTORS
330
C
102
}
330
C
100
AcDbDictionary
281
     1
  0
ACDBDICTIONARYWDFLT
  5
8A98
102
{ACAD_REACTORS
330
C
102
}
330
C
100
AcDbDictionary
281
     1
  3
Normal
350
8A99
100
AcDbDictionaryWithDefault
340
8A99
  0
DICTIONARY
  5
14F60
102
{ACAD_REACTORS
330
C
102
}
330
C
100
AcDbDictionary
281
     1
  3
COLORDICT
350
14F62
  3
MATERIALDICT
350
14F61
  0
DICTIONARY
  5
4B08
102
{ACAD_REACTORS
330
C
102
}
330
C
100
AcDbDictionary
281
     1
  3
DIMASSOC
350
8AA2
  3
PROJECTNAME
350
14F5E
  3
SORTENTS
350
4B09
  0
DICTIONARY
  5
4210
102
{ACAD_REACTORS
330
C
102
}
330
C
100
AcDbDictionary
281
     1
  0
DICTIONARY
  5
11D09
102
{ACAD_REACTORS
330
11D08
102
}
330
11D08
100
AcDbDictionary
281
     1
  0
XRECORD
  5
14F64
102
{ACAD_REACTORS
330
14F63
102
}
330
14F63
100
AcDbXrecord
280
     1
102
SHADEPLOT
 70
     0
  0
GROUP
  5
52E7
102
{ACAD_REACTORS
330
D
102
}
330
D
100
AcDbGroup
300

 70
     1
 71
     1
  0
GROUP
  5
808E
102
{ACAD_REACTORS
330
D
102
}
330
D
100
AcDbGroup
300

 70
     1
 71
     1
  0
GROUP
  5
8003
102
{ACAD_REACTORS
330
D
102
}
330
D
100
AcDbGroup
300

 70
     1
 71
     1
  0
GROUP
  5
8000
102
{ACAD_REACTORS
330
D
102
}
330
D
100
AcDbGroup
300

 70
     1
 71
     1
  0
GROUP
  5
5FF1
102
{ACAD_REACTORS
330
D
102
}
330
D
100
AcDbGroup
300

 70
     1
 71
     1
  0
GROUP
  5
680B
102
{ACAD_REACTORS
330
D
102
}
330
D
100
AcDbGroup
300

 70
     1
 71
     1
  0
GROUP
  5
10116
102
{ACAD_REACTORS
330
D
102
}
330
D
100
AcDbGroup
300

 70
     1
 71
     1
  0
GROUP
  5
FA13
102
{ACAD_REACTORS
330
D
102
}
330
D
100
AcDbGroup
300

 70
     1
 71
     1
  0
GROUP
  5
5FC9
102
{ACAD_REACTORS
330
D
102
}
330
D
100
AcDbGroup
300

 70
     1
 71
     1
  0
GROUP
  5
5F6A
102
{ACAD_REACTORS
330
D
102
}
330
D
100
AcDbGroup
300

 70
     1
 71
     1
  0
GROUP
  5
FDE0
102
{ACAD_REACTORS
330
D
102
}
330
D
100
AcDbGroup
300

 70
     1
 71
     1
  0
GROUP
  5
8012
102
{ACAD_REACTORS
330
D
102
}
330
D
100
AcDbGroup
300

 70
     1
 71
     1
  0
GROUP
  5
8002
102
{ACAD_REACTORS
330
D
102
}
330
D
100
AcDbGroup
300

 70
     1
 71
     1
  0
GROUP
  5
6811
102
{ACAD_REACTORS
330
D
102
}
330
D
100
AcDbGroup
300

 70
     1
 71
     1
  0
GROUP
  5
6062
102
{ACAD_REACTORS
330
D
102
}
330
D
100
AcDbGroup
300

 70
     1
 71
     1
  0
GROUP
  5
808C
102
{ACAD_REACTORS
330
D
102
}
330
D
100
AcDbGroup
300

 70
     1
 71
     1
  0
GROUP
  5
6801
102
{ACAD_REACTORS
330
D
102
}
330
D
100
AcDbGroup
300

 70
     1
 71
     1
  0
GROUP
  5
5FEC
102
{ACAD_REACTORS
330
D
102
}
330
D
100
AcDbGroup
300

 70
     1
 71
     1
  0
GROUP
  5
FEAF
102
{ACAD_REACTORS
330
D
102
}
330
D
100
AcDbGroup
300

 70
     1
 71
     1
  0
GROUP
  5
10CA1
102
{ACAD_REACTORS
330
D
102
}
330
D
100
AcDbGroup
300

 70
     1
 71
     1
  0
GROUP
  5
71FC
102
{ACAD_REACTORS
330
D
102
}
330
D
100
AcDbGroup
300

 70
     1
 71
     1
  0
GROUP
  5
6802
102
{ACAD_REACTORS
330
D
102
}
330
D
100
AcDbGroup
300

 70
     1
 71
     1
  0
GROUP
  5
535F
102
{ACAD_REACTORS
330
D
102
}
330
D
100
AcDbGroup
300

 70
     1
 71
     1
  0
GROUP
  5
6085
102
{ACAD_REACTORS
330
D
102
}
330
D
100
AcDbGroup
300

 70
     1
 71
     1
  0
GROUP
  5
5E9C
102
{ACAD_REACTORS
330
D
102
}
330
D
100
AcDbGroup
300

 70
     1
 71
     1
  0
GROUP
  5
FEDF
102
{ACAD_REACTORS
330
D
102
}
330
D
100
AcDbGroup
300

 70
     1
 71
     1
  0
GROUP
  5
10CA7
102
{ACAD_REACTORS
330
D
102
}
330
D
100
AcDbGroup
300

 70
     1
 71
     1
  0
GROUP
  5
680C
102
{ACAD_REACTORS
330
D
102
}
330
D
100
AcDbGroup
300

 70
     1
 71
     1
  0
GROUP
  5
604B
102
{ACAD_REACTORS
330
D
102
}
330
D
100
AcDbGroup
300

 70
     1
 71
     1
  0
GROUP
  5
FDDA
102
{ACAD_REACTORS
330
D
102
}
330
D
100
AcDbGroup
300

 70
     1
 71
     1
  0
GROUP
  5
5E8D
102
{ACAD_REACTORS
330
D
102
}
330
D
100
AcDbGroup
300

 70
     1
 71
     1
  0
GROUP
  5
FFB0
102
{ACAD_REACTORS
330
D
102
}
330
D
100
AcDbGroup
300

 70
     1
 71
     1
  0
GROUP
  5
10CAF
102
{ACAD_REACTORS
330
D
102
}
330
D
100
AcDbGroup
300

 70
     1
 71
     1
  0
GROUP
  5
535E
102
{ACAD_REACTORS
330
D
102
}
330
D
100
AcDbGroup
300

 70
     1
 71
     1
  0
GROUP
  5
F06B
102
{ACAD_REACTORS
330
D
102
}
330
D
100
AcDbGroup
300

 70
     1
 71
     1
  0
GROUP
  5
FEAA
102
{ACAD_REACTORS
330
D
102
}
330
D
100
AcDbGroup
300

 70
     1
 71
     1
  0
GROUP
  5
6809
102
{ACAD_REACTORS
330
D
102
}
330
D
100
AcDbGroup
300

 70
     1
 71
     1
  0
GROUP
  5
FFF4
102
{ACAD_REACTORS
330
D
102
}
330
D
100
AcDbGroup
300

 70
     1
 71
     1
  0
GROUP
  5
F9F4
102
{ACAD_REACTORS
330
D
102
}
330
D
100
AcDbGroup
300

 70
     1
 71
     1
  0
GROUP
  5
605D
102
{ACAD_REACTORS
330
D
102
}
330
D
100
AcDbGroup
300

 70
     1
 71
     1
  0
GROUP
  5
FEDE
102
{ACAD_REACTORS
330
D
102
}
330
D
100
AcDbGroup
300

 70
     1
 71
     1
  0
GROUP
  5
680F
102
{ACAD_REACTORS
330
D
102
}
330
D
100
AcDbGroup
300

 70
     1
 71
     1
  0
GROUP
  5
5FE3
102
{ACAD_REACTORS
330
D
102
}
330
D
100
AcDbGroup
300

 70
     1
 71
     1
  0
GROUP
  5
FA12
102
{ACAD_REACTORS
330
D
102
}
330
D
100
AcDbGroup
300

 70
     1
 71
     1
  0
GROUP
  5
5FE9
102
{ACAD_REACTORS
330
D
102
}
330
D
100
AcDbGroup
300

 70
     1
 71
     1
  0
GROUP
  5
FFAF
102
{ACAD_REACTORS
330
D
102
}
330
D
100
AcDbGroup
300

 70
     1
 71
     1
  0
GROUP
  5
CFAD
102
{ACAD_REACTORS
330
D
102
}
330
D
100
AcDbGroup
300

 70
     1
 71
     1
  0
GROUP
  5
D051
102
{ACAD_REACTORS
330
D
102
}
330
D
100
AcDbGroup
300

 70
     1
 71
     1
  0
GROUP
  5
808D
102
{ACAD_REACTORS
330
D
102
}
330
D
100
AcDbGroup
300

 70
     1
 71
     1
  0
GROUP
  5
FFF3
102
{ACAD_REACTORS
330
D
102
}
330
D
100
AcDbGroup
300

 70
     1
 71
     1
  0
GROUP
  5
7006
102
{ACAD_REACTORS
330
D
102
}
330
D
100
AcDbGroup
300

 70
     1
 71
     1
  0
GROUP
  5
5F5B
102
{ACAD_REACTORS
330
D
102
}
330
D
100
AcDbGroup
300

 70
     1
 71
     1
  0
GROUP
  5
6805
102
{ACAD_REACTORS
330
D
102
}
330
D
100
AcDbGroup
300

 70
     1
 71
     1
  0
GROUP
  5
FFFD
102
{ACAD_REACTORS
330
D
102
}
330
D
100
AcDbGroup
300

 70
     1
 71
     1
  0
GROUP
  5
5FCE
102
{ACAD_REACTORS
330
D
102
}
330
D
100
AcDbGroup
300

 70
     1
 71
     1
  0
GROUP
  5
8209
102
{ACAD_REACTORS
330
D
102
}
330
D
100
AcDbGroup
300

 70
     1
 71
     1
  0
GROUP
  5
820A
102
{ACAD_REACTORS
330
D
102
}
330
D
100
AcDbGroup
300

 70
     1
 71
     1
  0
GROUP
  5
FFFE
102
{ACAD_REACTORS
330
D
102
}
330
D
100
AcDbGroup
300

 70
     1
 71
     1
  0
GROUP
  5
5EB8
102
{ACAD_REACTORS
330
D
102
}
330
D
100
AcDbGroup
300

 70
     1
 71
     1
  0
GROUP
  5
6807
102
{ACAD_REACTORS
330
D
102
}
330
D
100
AcDbGroup
300

 70
     1
 71
     1
  0
GROUP
  5
10113
102
{ACAD_REACTORS
330
D
102
}
330
D
100
AcDbGroup
300

 70
     1
 71
     1
  0
GROUP
  5
6810
102
{ACAD_REACTORS
330
D
102
}
330
D
100
AcDbGroup
300

 70
     1
 71
     1
  0
GROUP
  5
1111F
102
{ACAD_REACTORS
330
D
102
}
330
D
100
AcDbGroup
300

 70
     1
 71
     1
  0
GROUP
  5
10114
102
{ACAD_REACTORS
330
D
102
}
330
D
100
AcDbGroup
300

 70
     1
 71
     1
  0
GROUP
  5
71CC
102
{ACAD_REACTORS
330
D
102
}
330
D
100
AcDbGroup
300

 70
     1
 71
     1
  0
GROUP
  5
11120
102
{ACAD_REACTORS
330
D
102
}
330
D
100
AcDbGroup
300

 70
     1
 71
     1
  0
GROUP
  5
10115
102
{ACAD_REACTORS
330
D
102
}
330
D
100
AcDbGroup
300

 70
     1
 71
     1
  0
GROUP
  5
8208
102
{ACAD_REACTORS
330
D
102
}
330
D
100
AcDbGroup
300

 70
     1
 71
     1
  0
GROUP
  5
680D
102
{ACAD_REACTORS
330
D
102
}
330
D
100
AcDbGroup
300

 70
     1
 71
     1
  0
GROUP
  5
6C92
102
{ACAD_REACTORS
330
D
102
}
330
D
100
AcDbGroup
300

 70
     1
 71
     1
  0
GROUP
  5
601E
102
{ACAD_REACTORS
330
D
102
}
330
D
100
AcDbGroup
300

 70
     1
 71
     1
  0
GROUP
  5
F73C
102
{ACAD_REACTORS
330
D
102
}
330
D
100
AcDbGroup
300

 70
     1
 71
     1
  0
GROUP
  5
8001
102
{ACAD_REACTORS
330
D
102
}
330
D
100
AcDbGroup
300

 70
     1
 71
     1
  0
GROUP
  5
6806
102
{ACAD_REACTORS
330
D
102
}
330
D
100
AcDbGroup
300

 70
     1
 71
     1
  0
GROUP
  5
CFAC
102
{ACAD_REACTORS
330
D
102
}
330
D
100
AcDbGroup
300

 70
     1
 71
     1
  0
GROUP
  5
6804
102
{ACAD_REACTORS
330
D
102
}
330
D
100
AcDbGroup
300

 70
     1
 71
     1
  0
GROUP
  5
680A
102
{ACAD_REACTORS
330
D
102
}
330
D
100
AcDbGroup
300

 70
     1
 71
     1
  0
GROUP
  5
F9F9
102
{ACAD_REACTORS
330
D
102
}
330
D
100
AcDbGroup
300

 70
     1
 71
     1
  0
GROUP
  5
5FF2
102
{ACAD_REACTORS
330
D
102
}
330
D
100
AcDbGroup
300

 70
     1
 71
     1
  0
GROUP
  5
6981
102
{ACAD_REACTORS
330
D
102
}
330
D
100
AcDbGroup
300

 70
     1
 71
     1
  0
GROUP
  5
8020
102
{ACAD_REACTORS
330
D
102
}
330
D
100
AcDbGroup
300

 70
     1
 71
     1
  0
GROUP
  5
EEDB
102
{ACAD_REACTORS
330
D
102
}
330
D
100
AcDbGroup
300

 70
     1
 71
     1
  0
GROUP
  5
5CF3
102
{ACAD_REACTORS
330
D
102
}
330
D
100
AcDbGroup
300

 70
     1
 71
     1
  0
GROUP
  5
6808
102
{ACAD_REACTORS
330
D
102
}
330
D
100
AcDbGroup
300

 70
     1
 71
     1
  0
GROUP
  5
680E
102
{ACAD_REACTORS
330
D
102
}
330
D
100
AcDbGroup
300

 70
     1
 71
     1
  0
GROUP
  5
6803
102
{ACAD_REACTORS
330
D
102
}
330
D
100
AcDbGroup
300

 70
     1
 71
     1
  0
GROUP
  5
71CD
102
{ACAD_REACTORS
330
D
102
}
330
D
100
AcDbGroup
300

 70
     1
 71
     1
  0
GROUP
  5
F9F3
102
{ACAD_REACTORS
330
D
102
}
330
D
100
AcDbGroup
300

 70
     1
 71
     1
  0
GROUP
  5
F9FA
102
{ACAD_REACTORS
330
D
102
}
330
D
100
AcDbGroup
300

 70
     1
 71
     1
  0
GROUP
  5
11121
102
{ACAD_REACTORS
330
D
102
}
330
D
100
AcDbGroup
300

 70
     1
 71
     1
  0
GROUP
  5
11122
102
{ACAD_REACTORS
330
D
102
}
330
D
100
AcDbGroup
300

 70
     1
 71
     1
  0
GROUP
  5
11468
102
{ACAD_REACTORS
330
D
102
}
330
D
100
AcDbGroup
300

 70
     1
 71
     1
  0
GROUP
  5
11469
102
{ACAD_REACTORS
330
D
102
}
330
D
100
AcDbGroup
300

 70
     1
 71
     1
  0
GROUP
  5
1146A
102
{ACAD_REACTORS
330
D
102
}
330
D
100
AcDbGroup
300

 70
     1
 71
     1
  0
GROUP
  5
1146B
102
{ACAD_REACTORS
330
D
102
}
330
D
100
AcDbGroup
300

 70
     1
 71
     1
  0
GROUP
  5
1146C
102
{ACAD_REACTORS
330
D
102
}
330
D
100
AcDbGroup
300

 70
     1
 71
     1
  0
GROUP
  5
1146D
102
{ACAD_REACTORS
330
D
102
}
330
D
100
AcDbGroup
300

 70
     1
 71
     1
  0
LAYOUT
  5
8A9C
102
{ACAD_XDICTIONARY
360
14F65
102
}
102
{ACAD_REACTORS
330
8A9A
102
}
330
8A9A
100
AcDbPlotSettings
  1

  2
A3pdf横ｶﾗｰ.pc3
  4
User-1
  6

 40
3.174999952316284
 41
3.174999952316284
 42
3.17498779296875
 43
3.17498779296875
 44
420.1583251953125
 45
297.0530090332031
 46
0.0
 47
0.0
 48
0.0
 49
0.0
140
0.0
141
0.0
142
1.0
143
1.0
 70
 11952
 72
     1
 73
     0
 74
     2
  7
tmi_penstyle.ctb
 75
    16
147
1.0
148
0.0
149
0.0
100
AcDbLayout
  1
Model
 70
     1
 71
     0
 10
0.0
 20
0.0
 11
12.0
 21
9.0
 12
0.0
 22
0.0
 32
0.0
 14
0.0
 24
0.0
 34
0.0
 15
0.0
 25
0.0
 35
0.0
146
0.0
 13
0.0
 23
0.0
 33
0.0
 16
1.0
 26
0.0
 36
0.0
 17
0.0
 27
1.0
 37
0.0
 76
     0
330
1A
  0
LAYOUT
  5
8A9D
102
{ACAD_XDICTIONARY
360
14F67
102
}
102
{ACAD_REACTORS
330
8A9A
102
}
330
8A9A
100
AcDbPlotSettings
  1

  2
EPSON LP-8300 (TMINETWORK)
  4

  6

 40
0.0
 41
0.0
 42
0.0
 43
0.0
 44
0.0
 45
0.0
 46
0.0
 47
0.0
 48
0.0
 49
0.0
140
0.0
141
0.0
142
1.0
143
1.0
 70
   688
 72
     0
 73
     0
 74
     5
  7
tmi_penstyle.ctb
 75
    16
147
1.0
148
0.0
149
0.0
100
AcDbLayout
  1
ﾚｲｱｳﾄ1
 70
     1
 71
     1
 10
0.0
 20
0.0
 11
420.0
 21
297.0
 12
0.0
 22
0.0
 32
0.0
 14
1.000000000000000E+20
 24
1.000000000000000E+20
 34
1.000000000000000E+20
 15
-1.000000000000000E+20
 25
-1.000000000000000E+20
 35
-1.000000000000000E+20
146
0.0
 13
0.0
 23
0.0
 33
0.0
 16
1.0
 26
0.0
 36
0.0
 17
0.0
 27
1.0
 37
0.0
 76
     0
330
17
331
22
  0
MLINESTYLE
  5
13
102
{ACAD_REACTORS
330
E
102
}
330
E
100
AcDbMlineStyle
  2
STANDARD
 70
     0
  3

 62
     0
 51
90.0
 52
90.0
 71
     2
 49
0.5
 62
   256
  6
BYLAYER
 49
-0.5
 62
   256
  6
BYLAYER
  0
ACDBPLACEHOLDER
  5
8A99
102
{ACAD_REACTORS
330
8A98
102
}
330
8A98
  0
XRECORD
  5
14F62
102
{ACAD_REACTORS
330
14F60
102
}
330
14F60
100
AcDbXrecord
280
     1
340
8AAA
  0
XRECORD
  5
14F61
102
{ACAD_REACTORS
330
14F60
102
}
330
14F60
100
AcDbXrecord
280
     1
340
8AA9
  0
DICTIONARYVAR
  5
8AA2
102
{ACAD_REACTORS
330
4B08
102
}
330
4B08
100
DictionaryVariables
280
     0
  1
1
  0
DICTIONARYVAR
  5
14F5E
102
{ACAD_REACTORS
330
4B08
102
}
330
4B08
100
DictionaryVariables
280
     0
  1

  0
DICTIONARYVAR
  5
4B09
102
{ACAD_REACTORS
330
4B08
102
}
330
4B08
100
DictionaryVariables
280
     0
  1
96
  0
DICTIONARY
  5
14F65
330
8A9C
100
AcDbDictionary
280
     1
281
     1
  3
ACAD_XREC_ROUNDTRIP
360
14F66
  0
DICTIONARY
  5
14F67
330
8A9D
100
AcDbDictionary
280
     1
281
     1
  3
ACAD_XREC_ROUNDTRIP
360
14F68
  0
XRECORD
  5
14F66
102
{ACAD_REACTORS
330
14F65
102
}
330
14F65
100
AcDbXrecord
280
     1
102
SHADEPLOT
 70
     0
102
SHADEPLOTRESLEVEL
 70
     2
102
SHADEPLOTCUSTOMDPI
 70
   300
  0
XRECORD
  5
14F68
102
{ACAD_REACTORS
330
14F67
102
}
330
14F67
100
AcDbXrecord
280
     1
102
SHADEPLOT
 70
     0
102
SHADEPLOTRESLEVEL
 70
     2
102
SHADEPLOTCUSTOMDPI
 70
   300
  0
ENDSEC
  0
EOF
