  0
SECTION
  2
HEADER
  9
$ACADVER
  1
AC1018
  9
$ACADMAINTVER
 70
     0
  9
$DWGCODEPAGE
  3
ANSI_932
  9
$INSBASE
 10
0.0
 20
0.0
 30
0.0
  9
$EXTMIN
 10
20.0
 20
5.0
 30
0.0
  9
$EXTMAX
 10
405.0
 20
280.0
 30
0.0
  9
$LIMMIN
 10
0.0
 20
0.0
  9
$LIMMAX
 10
420.0
 20
297.0
  9
$ORTHOMODE
 70
     0
  9
$REGENMODE
 70
     1
  9
$FILLMODE
 70
     1
  9
$QTEXTMODE
 70
     0
  9
$MIRRTEXT
 70
     1
  9
$LTSCALE
 40
15.0
  9
$ATTMODE
 70
     1
  9
$TEXTSIZE
 40
4.0
  9
$TRACEWID
 40
1.0
  9
$TEXTSTYLE
  7
STANDARD
  9
$CLAYER
  8
0
  9
$CELTYPE
  6
BYLAYER
  9
$CECOLOR
 62
   256
  9
$CELTSCALE
 40
1.0
  9
$DISPSILH
 70
     0
  9
$DIMSCALE
 40
0.0
  9
$DIMASZ
 40
2.5
  9
$DIMEXO
 40
0.5
  9
$DIMDLI
 40
10.0
  9
$DIMRND
 40
0.0
  9
$DIMDLE
 40
0.0
  9
$DIMEXE
 40
0.5
  9
$DIMTP
 40
0.0
  9
$DIMTM
 40
0.0
  9
$DIMTXT
 40
4.0
  9
$DIMCEN
 40
0.0
  9
$DIMTSZ
 40
0.0
  9
$DIMTOL
 70
     0
  9
$DIMLIM
 70
     0
  9
$DIMTIH
 70
     0
  9
$DIMTOH
 70
     0
  9
$DIMSE1
 70
     0
  9
$DIMSE2
 70
     0
  9
$DIMTAD
 70
     1
  9
$DIMZIN
 70
     0
  9
$DIMBLK
  1

  9
$DIMASO
 70
     1
  9
$DIMSHO
 70
     1
  9
$DIMPOST
  1

  9
$DIMAPOST
  1

  9
$DIMALT
 70
     0
  9
$DIMALTD
 70
     2
  9
$DIMALTF
 40
25.4
  9
$DIMLFAC
 40
1.0
  9
$DIMTOFL
 70
     0
  9
$DIMTVP
 40
0.0
  9
$DIMTIX
 70
     0
  9
$DIMSOXD
 70
     0
  9
$DIMSAH
 70
     1
  9
$DIMBLK1
  1
OPEN
  9
$DIMBLK2
  1
OPEN
  9
$DIMSTYLE
  2
STANDARD
  9
$DIMCLRD
 70
     0
  9
$DIMCLRE
 70
     0
  9
$DIMCLRT
 70
     0
  9
$DIMTFAC
 40
1.0
  9
$DIMGAP
 40
0.5
  9
$DIMJUST
 70
     0
  9
$DIMSD1
 70
     0
  9
$DIMSD2
 70
     0
  9
$DIMTOLJ
 70
     1
  9
$DIMTZIN
 70
     0
  9
$DIMALTZ
 70
     0
  9
$DIMALTTZ
 70
     0
  9
$DIMUPT
 70
     0
  9
$DIMDEC
 70
     0
  9
$DIMTDEC
 70
     0
  9
$DIMALTU
 70
     2
  9
$DIMALTTD
 70
     2
  9
$DIMTXSTY
  7
STANDARD
  9
$DIMAUNIT
 70
     0
  9
$DIMADEC
 70
     0
  9
$DIMALTRND
 40
0.0
  9
$DIMAZIN
 70
     0
  9
$DIMDSEP
 70
    46
  9
$DIMATFIT
 70
     3
  9
$DIMFRAC
 70
     0
  9
$DIMLDRBLK
  1
OPEN
  9
$DIMLUNIT
 70
     2
  9
$DIMLWD
 70
    -2
  9
$DIMLWE
 70
    -2
  9
$DIMTMOVE
 70
     0
  9
$LUNITS
 70
     2
  9
$LUPREC
 70
     4
  9
$SKETCHINC
 40
1.0
  9
$FILLETRAD
 40
1.0
  9
$AUNITS
 70
     0
  9
$AUPREC
 70
     0
  9
$MENU
  1
.
  9
$ELEVATION
 40
0.0
  9
$PELEVATION
 40
0.0
  9
$THICKNESS
 40
0.0
  9
$LIMCHECK
 70
     0
  9
$CHAMFERA
 40
1.0
  9
$CHAMFERB
 40
1.0
  9
$CHAMFERC
 40
20.0
  9
$CHAMFERD
 40
0.0
  9
$SKPOLY
 70
     0
  9
$TDCREATE
 40
2450857.620429745
  9
$TDUCREATE
 40
2450857.245429745
  9
$TDUPDATE
 40
2457169.411346320
  9
$TDUUPDATE
 40
2457169.036346320
  9
$TDINDWG
 40
6.3766370718
  9
$TDUSRTIMER
 40
6.3766370718
  9
$USRTIMER
 70
     1
  9
$ANGBASE
 50
0.0
  9
$ANGDIR
 70
     0
  9
$PDMODE
 70
     0
  9
$PDSIZE
 40
0.0
  9
$PLINEWID
 40
0.0
  9
$SPLFRAME
 70
     0
  9
$SPLINETYPE
 70
     6
  9
$SPLINESEGS
 70
     8
  9
$HANDSEED
  5
AA9E
  9
$SURFTAB1
 70
     6
  9
$SURFTAB2
 70
     6
  9
$SURFTYPE
 70
     6
  9
$SURFU
 70
     6
  9
$SURFV
 70
     6
  9
$UCSBASE
  2

  9
$UCSNAME
  2

  9
$UCSORG
 10
0.0
 20
0.0
 30
0.0
  9
$UCSXDIR
 10
1.0
 20
0.0
 30
0.0
  9
$UCSYDIR
 10
0.0
 20
1.0
 30
0.0
  9
$UCSORTHOREF
  2

  9
$UCSORTHOVIEW
 70
     0
  9
$UCSORGTOP
 10
0.0
 20
0.0
 30
0.0
  9
$UCSORGBOTTOM
 10
0.0
 20
0.0
 30
0.0
  9
$UCSORGLEFT
 10
0.0
 20
0.0
 30
0.0
  9
$UCSORGRIGHT
 10
0.0
 20
0.0
 30
0.0
  9
$UCSORGFRONT
 10
0.0
 20
0.0
 30
0.0
  9
$UCSORGBACK
 10
0.0
 20
0.0
 30
0.0
  9
$PUCSBASE
  2

  9
$PUCSNAME
  2

  9
$PUCSORG
 10
0.0
 20
0.0
 30
0.0
  9
$PUCSXDIR
 10
1.0
 20
0.0
 30
0.0
  9
$PUCSYDIR
 10
0.0
 20
1.0
 30
0.0
  9
$PUCSORTHOREF
  2

  9
$PUCSORTHOVIEW
 70
     0
  9
$PUCSORGTOP
 10
0.0
 20
0.0
 30
0.0
  9
$PUCSORGBOTTOM
 10
0.0
 20
0.0
 30
0.0
  9
$PUCSORGLEFT
 10
0.0
 20
0.0
 30
0.0
  9
$PUCSORGRIGHT
 10
0.0
 20
0.0
 30
0.0
  9
$PUCSORGFRONT
 10
0.0
 20
0.0
 30
0.0
  9
$PUCSORGBACK
 10
0.0
 20
0.0
 30
0.0
  9
$USERI1
 70
     0
  9
$USERI2
 70
     0
  9
$USERI3
 70
     0
  9
$USERI4
 70
     0
  9
$USERI5
 70
     0
  9
$USERR1
 40
0.0
  9
$USERR2
 40
0.0
  9
$USERR3
 40
0.0
  9
$USERR4
 40
0.0
  9
$USERR5
 40
0.0
  9
$WORLDVIEW
 70
     1
  9
$SHADEDGE
 70
     3
  9
$SHADEDIF
 70
    70
  9
$TILEMODE
 70
     1
  9
$MAXACTVP
 70
    16
  9
$PINSBASE
 10
0.0
 20
0.0
 30
0.0
  9
$PLIMCHECK
 70
     0
  9
$PEXTMIN
 10
1.000000000000000E+20
 20
1.000000000000000E+20
 30
1.000000000000000E+20
  9
$PEXTMAX
 10
-1.000000000000000E+20
 20
-1.000000000000000E+20
 30
-1.000000000000000E+20
  9
$PLIMMIN
 10
0.0
 20
0.0
  9
$PLIMMAX
 10
420.0
 20
297.0
  9
$UNITMODE
 70
     0
  9
$VISRETAIN
 70
     0
  9
$PLINEGEN
 70
     0
  9
$PSLTSCALE
 70
     1
  9
$TREEDEPTH
 70
  3020
  9
$CMLSTYLE
  2
STANDARD
  9
$CMLJUST
 70
     0
  9
$CMLSCALE
 40
1.0
  9
$PROXYGRAPHICS
 70
     1
  9
$MEASUREMENT
 70
     0
  9
$CELWEIGHT
370
    -1
  9
$ENDCAPS
280
     0
  9
$JOINSTYLE
280
     0
  9
$LWDISPLAY
290
     0
  9
$INSUNITS
 70
     0
  9
$HYPERLINKBASE
  1

  9
$STYLESHEET
  1
tmi_penstyle.ctb
  9
$XEDIT
290
     1
  9
$CEPSNTYPE
380
     0
  9
$PSTYLEMODE
290
     1
  9
$FINGERPRINTGUID
  2
{0CF6AC2F-CFB7-4513-B486-3088CC22C71C}
  9
$VERSIONGUID
  2
{FC8C82FB-786C-4947-AB19-2A92F237EAB2}
  9
$EXTNAMES
290
     1
  9
$PSVPSCALE
 40
0.0
  9
$OLESTARTUP
290
     0
  9
$SORTENTS
280
    96
  9
$INDEXCTL
280
     0
  9
$HIDETEXT
280
     0
  9
$XCLIPFRAME
290
     0
  9
$HALOGAP
280
     0
  9
$OBSCOLOR
 70
   257
  9
$OBSLTYPE
280
     0
  9
$INTERSECTIONDISPLAY
280
     0
  9
$INTERSECTIONCOLOR
 70
   257
  9
$DIMASSOC
280
     1
  9
$PROJECTNAME
  1

  0
ENDSEC
  0
SECTION
  2
CLASSES
  0
CLASS
  1
DICTIONARYVAR
  2
AcDbDictionaryVar
  3
ObjectDBX Classes
 90
        0
 91
        2
280
     0
281
     0
  0
CLASS
  1
ACDBDICTIONARYWDFLT
  2
AcDbDictionaryWithDefault
  3
ObjectDBX Classes
 90
        0
 91
        1
280
     0
281
     0
  0
ENDSEC
  0
SECTION
  2
TABLES
  0
TABLE
  2
VPORT
  5
8
330
0
100
AcDbSymbolTable
 70
     2
  0
VPORT
  5
AA9D
330
8
100
AcDbSymbolTableRecord
100
AcDbViewportTableRecord
  2
*Active
 70
     0
 10
0.0
 20
0.0
 11
1.0
 21
1.0
 12
212.4993906292359
 22
142.5066153695883
 13
0.0
 23
0.0
 14
0.5
 24
0.5
 15
5.0
 25
5.0
 16
0.0
 26
0.0
 36
1.0
 17
0.0
 27
0.0
 37
0.0
 40
277.0381214781611
 41
2.176687116564417
 42
50.0
 43
0.0
 44
0.0
 50
0.0
 51
0.0
 71
     0
 72
   100
 73
     1
 74
     0
 75
     1
 76
     1
 77
     0
 78
     0
281
     0
 65
     1
110
0.0
120
0.0
130
0.0
111
1.0
121
0.0
131
0.0
112
0.0
122
1.0
132
0.0
 79
     0
146
0.0
  0
ENDTAB
  0
TABLE
  2
LTYPE
  5
5
330
0
100
AcDbSymbolTable
 70
     3
  0
LTYPE
  5
14
330
5
100
AcDbSymbolTableRecord
100
AcDbLinetypeTableRecord
  2
BYBLOCK
 70
     0
  3

 72
    65
 73
     0
 40
0.0
  0
LTYPE
  5
15
330
5
100
AcDbSymbolTableRecord
100
AcDbLinetypeTableRecord
  2
BYLAYER
 70
     0
  3

 72
    65
 73
     0
 40
0.0
  0
LTYPE
  5
16
330
5
100
AcDbSymbolTableRecord
100
AcDbLinetypeTableRecord
  2
CONTINUOUS
 70
     0
  3
Solid line
 72
    65
 73
     0
 40
0.0
  0
LTYPE
  5
61
330
5
100
AcDbSymbolTableRecord
100
AcDbLinetypeTableRecord
  2
CENTER2
 70
     0
  3
___ _ ___ _ ___ _ ___ _ ___ _ ___ _ ___ _ ___ _
 72
    65
 73
     4
 40
1.125
 49
0.75
 74
     0
 49
-0.125
 74
     0
 49
0.125
 74
     0
 49
-0.125
 74
     0
  0
LTYPE
  5
62
330
5
100
AcDbSymbolTableRecord
100
AcDbLinetypeTableRecord
  2
DASHED2
 70
     0
  3
_ _ _ _ _ _ _ _ _ _ _ _ _ _ _ _ _ _ _ _ _ _ _ _
 72
    65
 73
     2
 40
0.375
 49
0.25
 74
     0
 49
-0.125
 74
     0
  0
ENDTAB
  0
TABLE
  2
LAYER
  5
2
102
{ACAD_XDICTIONARY
360
9F8D
102
}
330
0
100
AcDbSymbolTable
 70
     8
  0
LAYER
  5
F
330
2
100
AcDbSymbolTableRecord
100
AcDbLayerTableRecord
  2
0
 70
     0
 62
     7
  6
CONTINUOUS
370
    -3
390
8A99
  0
LAYER
  5
63
330
2
100
AcDbSymbolTableRecord
100
AcDbLayerTableRecord
  2
WAKU
 70
     0
 62
     7
  6
CONTINUOUS
370
    -3
390
8A99
  0
LAYER
  5
64
330
2
100
AcDbSymbolTableRecord
100
AcDbLayerTableRecord
  2
SUNPOU
 70
     0
 62
     5
  6
CONTINUOUS
370
    -3
390
8A99
  0
LAYER
  5
65
330
2
100
AcDbSymbolTableRecord
100
AcDbLayerTableRecord
  2
CENTER
 70
     0
 62
    14
  6
CENTER2
370
    -3
390
8A99
  0
LAYER
  5
66
330
2
100
AcDbSymbolTableRecord
100
AcDbLayerTableRecord
  2
KAGESEN
 70
     0
 62
     5
  6
DASHED2
370
    -3
390
8A99
  0
LAYER
  5
7DC
330
2
100
AcDbSymbolTableRecord
100
AcDbLayerTableRecord
  2
DEFPOINTS
 70
     0
 62
     7
  6
CONTINUOUS
290
     0
370
    -3
390
8A99
  0
LAYER
  5
A792
330
2
100
AcDbSymbolTableRecord
100
AcDbLayerTableRecord
  2
PCB
 70
     0
 62
     1
  6
CONTINUOUS
370
    -3
390
8A99
  0
LAYER
  5
A793
330
2
100
AcDbSymbolTableRecord
100
AcDbLayerTableRecord
  2
CASE
 70
     0
 62
    14
  6
CONTINUOUS
370
    -3
390
8A99
  0
ENDTAB
  0
TABLE
  2
STYLE
  5
3
330
0
100
AcDbSymbolTable
 70
     1
  0
STYLE
  5
10
330
3
100
AcDbSymbolTableRecord
100
AcDbTextStyleTableRecord
  2
STANDARD
 70
     0
 40
0.0
 41
1.0
 50
0.0
 71
     0
 42
4.0
  3
C:\Program Files\AutoCAD LT\romans.shx
  4
C:\Program Files\AutoCAD LT\extfont.shx
  0
ENDTAB
  0
TABLE
  2
VIEW
  5
6
330
0
100
AcDbSymbolTable
 70
     0
  0
ENDTAB
  0
TABLE
  2
UCS
  5
7
330
0
100
AcDbSymbolTable
 70
     0
  0
ENDTAB
  0
TABLE
  2
APPID
  5
9
330
0
100
AcDbSymbolTable
 70
     3
  0
APPID
  5
11
330
9
100
AcDbSymbolTableRecord
100
AcDbRegAppTableRecord
  2
ACAD
 70
     0
  0
APPID
  5
4211
330
9
100
AcDbSymbolTableRecord
100
AcDbRegAppTableRecord
  2
CONTENTTABDATA
 70
     0
  0
APPID
  5
4212
330
9
100
AcDbSymbolTableRecord
100
AcDbRegAppTableRecord
  2
CONTENTCURRENTTAB
 70
     0
  0
ENDTAB
  0
TABLE
  2
DIMSTYLE
  5
A
330
0
100
AcDbSymbolTable
 70
     8
100
AcDbDimStyleTable
 71
     1
340
1D
  0
DIMSTYLE
105
1D
102
{ACAD_REACTORS
330
8A52
330
8A6B
330
8A78
330
8A85
330
8A92
330
9F02
102
}
330
A
100
AcDbSymbolTableRecord
100
AcDbDimStyleTableRecord
  2
STANDARD
 70
     0
340
10
  0
DIMSTYLE
105
24
330
A
100
AcDbSymbolTableRecord
100
AcDbDimStyleTableRecord
  2
ISO-25
 70
     0
 41
2.5
 42
0.625
 43
3.75
 44
1.25
 74
     0
 77
     1
 78
     8
140
2.5
141
2.5
143
0.0394
145
1.0
147
0.625
172
     1
340
10
  0
DIMSTYLE
105
25
330
A
100
AcDbSymbolTableRecord
100
AcDbDimStyleTableRecord
  2
ISO-35
 70
     0
 41
3.5
 42
0.875
 43
5.25
 44
1.75
 74
     0
 77
     1
 78
     8
140
3.5
141
3.5
143
0.0394
145
1.399999999999999
147
0.875
172
     1
340
10
  0
DIMSTYLE
105
26
330
A
100
AcDbSymbolTableRecord
100
AcDbDimStyleTableRecord
  2
ISO-5
 70
     0
 41
5.0
 42
1.25
 43
7.5
 44
2.5
 74
     0
 77
     1
 78
     8
140
5.0
141
5.0
143
0.0394
145
2.0
147
1.25
172
     1
340
10
  0
DIMSTYLE
105
27
330
A
100
AcDbSymbolTableRecord
100
AcDbDimStyleTableRecord
  2
ISO-7
 70
     0
 41
7.0
 42
1.75
 43
10.5
 44
3.5
 74
     0
 77
     1
 78
     8
140
7.0
141
7.0
143
0.0394
145
2.799999999999999
147
1.75
172
     1
340
10
  0
DIMSTYLE
105
28
330
A
100
AcDbSymbolTableRecord
100
AcDbDimStyleTableRecord
  2
ISO1
 70
     0
 41
10.0
 42
2.5
 43
15.0
 44
5.0
 74
     0
 77
     1
 78
     8
140
10.0
141
10.0
143
0.0394
145
4.0
147
2.5
172
     1
340
10
  0
DIMSTYLE
105
29
330
A
100
AcDbSymbolTableRecord
100
AcDbDimStyleTableRecord
  2
ISO1-4
 70
     0
 41
14.0
 42
3.5
 43
21.0
 44
7.0
 74
     0
 77
     1
 78
     8
140
14.0
141
14.0
143
0.0394
145
5.599999999999999
147
3.5
172
     1
340
10
  0
DIMSTYLE
105
2A
330
A
100
AcDbSymbolTableRecord
100
AcDbDimStyleTableRecord
  2
ISO2
 70
     0
 41
20.0
 42
5.0
 43
30.0
 44
10.0
 74
     0
 77
     1
 78
     8
140
20.0
141
20.0
143
0.0394
145
8.0
147
5.0
172
     1
340
10
  0
ENDTAB
  0
TABLE
  2
BLOCK_RECORD
  5
1
330
0
100
AcDbSymbolTable
 70
    10
  0
BLOCK_RECORD
  5
1A
330
1
100
AcDbSymbolTableRecord
100
AcDbBlockTableRecord
  2
*MODEL_SPACE
340
8A9C
  0
BLOCK_RECORD
  5
17
330
1
100
AcDbSymbolTableRecord
100
AcDbBlockTableRecord
  2
*PAPER_SPACE
340
8A9D
  0
BLOCK_RECORD
  5
BA
330
1
100
AcDbSymbolTableRecord
100
AcDbBlockTableRecord
  2
_OPEN
340
0
102
{BLKREFS
331
9F2D
331
9F2E
331
AA35
331
AA36
331
AA3E
331
AA3F
331
AA47
331
AA48
331
AA50
331
AA51
331
AA71
331
AA72
102
}
  0
BLOCK_RECORD
  5
5786
330
1
100
AcDbSymbolTableRecord
100
AcDbBlockTableRecord
  2
A$C2086655F
340
0
102
{BLKREFS
331
57A4
102
}
  0
BLOCK_RECORD
  5
57A3
330
1
100
AcDbSymbolTableRecord
100
AcDbBlockTableRecord
  2
A$C1A9113A3
340
0
102
{BLKREFS
331
A2DA
331
A2A7
102
}
  0
BLOCK_RECORD
  5
8A46
330
1
100
AcDbSymbolTableRecord
100
AcDbBlockTableRecord
  2
*D3
340
0
  0
BLOCK_RECORD
  5
8A5F
330
1
100
AcDbSymbolTableRecord
100
AcDbBlockTableRecord
  2
*D4
340
0
  0
BLOCK_RECORD
  5
8A6C
330
1
100
AcDbSymbolTableRecord
100
AcDbBlockTableRecord
  2
*D5
340
0
  0
BLOCK_RECORD
  5
8A79
330
1
100
AcDbSymbolTableRecord
100
AcDbBlockTableRecord
  2
*D6
340
0
  0
BLOCK_RECORD
  5
8A86
330
1
100
AcDbSymbolTableRecord
100
AcDbBlockTableRecord
  2
*D7
340
0
  0
BLOCK_RECORD
  5
98E8
330
1
100
AcDbSymbolTableRecord
100
AcDbBlockTableRecord
  2
A$C34EE125E
340
0
102
{BLKREFS
331
9A2C
331
9A2D
331
9E43
331
9E4C
102
}
  0
BLOCK_RECORD
  5
9F03
330
1
100
AcDbSymbolTableRecord
100
AcDbBlockTableRecord
  2
*D9
340
0
  0
ENDTAB
  0
ENDSEC
  0
SECTION
  2
BLOCKS
  0
BLOCK
  5
1B
330
1A
100
AcDbEntity
  8
0
100
AcDbBlockBegin
  2
*MODEL_SPACE
 70
     0
 10
0.0
 20
0.0
 30
0.0
  3
*MODEL_SPACE
  1

  0
ENDBLK
  5
1C
330
1A
100
AcDbEntity
  8
0
100
AcDbBlockEnd
  0
BLOCK
  5
18
330
17
100
AcDbEntity
 67
     1
  8
0
100
AcDbBlockBegin
  2
*PAPER_SPACE
 70
     0
 10
0.0
 20
0.0
 30
0.0
  3
*PAPER_SPACE
  1

  0
ENDBLK
  5
19
330
17
100
AcDbEntity
 67
     1
  8
0
100
AcDbBlockEnd
  0
BLOCK
  5
BB
330
BA
100
AcDbEntity
  8
0
100
AcDbBlockBegin
  2
_OPEN
 70
     0
 10
0.0
 20
0.0
 30
0.0
  3
_OPEN
  1

  0
LINE
  5
BC
330
BA
100
AcDbEntity
  8
0
  6
ByBlock
 62
     0
100
AcDbLine
 10
-1.0
 20
0.1666666666666666
 30
0.0
 11
0.0
 21
0.0
 31
0.0
  0
LINE
  5
BD
330
BA
100
AcDbEntity
  8
0
  6
ByBlock
 62
     0
100
AcDbLine
 10
0.0
 20
0.0
 30
0.0
 11
-1.0
 21
-0.1666666666666666
 31
0.0
  0
LINE
  5
BE
330
BA
100
AcDbEntity
  8
0
  6
ByBlock
 62
     0
100
AcDbLine
 10
0.0
 20
0.0
 30
0.0
 11
-1.0
 21
0.0
 31
0.0
  0
ENDBLK
  5
BF
330
BA
100
AcDbEntity
  8
0
100
AcDbBlockEnd
  0
BLOCK
  5
57A1
330
5786
100
AcDbEntity
  8
0
100
AcDbBlockBegin
  2
A$C2086655F
 70
     0
 10
0.0
 20
0.0
 30
0.0
  3
A$C2086655F
  1

  0
TEXT
  5
5787
330
5786
100
AcDbEntity
  8
SUNPOU
100
AcDbText
 10
4.719687007603707
 20
2.680727273328233
 30
0.0
 40
2.0
  1
D
 50
157.5
 41
0.6
 72
     1
 11
4.138962730025184
 21
2.921271145100575
 31
0.0
100
AcDbText
 73
     1
  0
LINE
  5
5788
330
5786
100
AcDbEntity
  8
0
100
AcDbLine
 10
3.50000045284662
 20
5.000000093250946
 30
0.0
 11
6.50000045284662
 21
5.000000093250946
 31
0.0
  0
LINE
  5
5789
330
5786
100
AcDbEntity
  8
0
100
AcDbLine
 10
3.50000045284662
 20
5.000000093250946
 30
0.0
 11
4.50000045284662
 21
4.500000093250946
 31
0.0
  0
LINE
  5
578A
330
5786
100
AcDbEntity
  8
0
100
AcDbLine
 10
3.50000045284662
 20
5.000000093250946
 30
0.0
 11
4.50000045284662
 21
5.500000093250946
 31
0.0
  0
CIRCLE
  5
578B
330
5786
100
AcDbEntity
  8
0
100
AcDbCircle
 10
5.00000045284662
 20
5.000000093250946
 30
0.0
 40
2.0
  0
LINE
  5
578C
330
5786
100
AcDbEntity
  8
0
100
AcDbLine
 10
10.00000045284662
 20
9.500000093250946
 30
0.0
 11
2.50000045284662
 21
9.500000093250946
 31
0.0
  0
LINE
  5
578D
330
5786
100
AcDbEntity
  8
0
100
AcDbLine
 10
10.00000045284662
 20
10.00000009325094
 30
0.0
 11
0.0000004528466206
 21
10.00000009325094
 31
0.0
  0
LINE
  5
578E
330
5786
100
AcDbEntity
  8
0
100
AcDbLine
 10
0.0000004528466206
 20
0.0000000932509465
 30
0.0
 11
10.00000045284662
 21
0.0000000932509465
 31
0.0
  0
TEXT
  5
578F
330
5786
100
AcDbEntity
  8
SUNPOU
100
AcDbText
 10
2.75000045284662
 20
4.428571521822375
 30
0.0
 40
2.0
  1
0
 50
90.0
 41
0.6
 72
     1
 11
2.75000045284662
 21
5.000000093250946
 31
0.0
100
AcDbText
 73
     1
  0
LINE
  5
5790
330
5786
100
AcDbEntity
  8
0
100
AcDbLine
 10
0.0000004528466206
 20
10.00000009325094
 30
0.0
 11
0.0000004528466206
 21
0.0000000932509465
 31
0.0
  0
TEXT
  5
5791
330
5786
100
AcDbEntity
  8
SUNPOU
100
AcDbText
 10
3.150881564115275
 20
3.584634650922709
 30
0.0
 40
2.0
  1
F
 50
112.5
 41
0.6
 72
     1
 11
2.921271504696221
 21
4.138962370429482
 31
0.0
100
AcDbText
 73
     1
  0
TEXT
  5
5792
330
5786
100
AcDbEntity
  8
SUNPOU
100
AcDbText
 10
3.833274263888832
 20
2.984745766869301
 30
0.0
 40
2.0
  1
E
 50
135.0
 41
0.6
 72
     1
 11
3.409010195176904
 21
3.40900983558123
 31
0.0
100
AcDbText
 73
     1
  0
LINE
  5
5793
330
5786
100
AcDbEntity
  8
0
100
AcDbLine
 10
0.0000004528466206
 20
7.000000093250946
 30
0.0
 11
3.00000045284662
 21
10.00000009325094
 31
0.0
  0
TEXT
  5
5794
330
5786
100
AcDbEntity
  8
SUNPOU
100
AcDbText
 10
2.735396694690349
 20
5.412296328852629
 30
0.0
 40
2.0
  1
1
 50
67.5
 41
0.6
 72
     1
 11
2.92127150469625
 21
5.861037816072396
 31
0.0
100
AcDbText
 73
     1
  0
TEXT
  5
5795
330
5786
100
AcDbEntity
  8
SUNPOU
100
AcDbText
 10
3.004949177356019
 20
6.186929333099793
 30
0.0
 40
2.0
  1
2
 50
45.0
 41
0.6
 72
     1
 11
3.409010195176904
 21
6.590990350920677
 31
0.0
100
AcDbText
 73
     1
  0
TEXT
  5
5796
330
5786
100
AcDbEntity
  8
SUNPOU
100
AcDbText
 10
3.611031568590135
 20
6.860052794335565
 30
0.0
 40
2.0
  1
3
 50
22.50000000000001
 41
0.6
 72
     1
 11
4.138962730025156
 21
7.078729041401331
 31
0.0
100
AcDbText
 73
     1
  0
TEXT
  5
5797
330
5786
100
AcDbEntity
  8
SUNPOU
100
AcDbText
 10
7.25000045284662
 20
5.571428664679489
 30
0.0
 40
2.0
  1
8
 50
270.0
 41
0.6
 72
     1
 11
7.25000045284662
 21
5.000000093250918
 31
0.0
100
AcDbText
 73
     1
  0
LINE
  5
5798
330
5786
100
AcDbEntity
  8
0
100
AcDbLine
 10
10.00000045284662
 20
0.0000000932509465
 30
0.0
 11
10.00000045284662
 21
10.00000009325094
 31
0.0
  0
TEXT
  5
5799
330
5786
100
AcDbEntity
  8
SUNPOU
100
AcDbText
 10
7.28647183570944
 20
4.64049697379278
 30
0.0
 40
2.0
  1
9
 50
247.5
 41
0.6
 72
     1
 11
7.078729400996962
 21
4.13896237042951
 31
0.0
100
AcDbText
 73
     1
  0
TEXT
  5
579A
330
5786
100
AcDbEntity
  8
SUNPOU
100
AcDbText
 10
6.954645626555104
 20
3.772664751620026
 30
0.0
 40
2.0
  1
A
 50
225.0
 41
0.6
 72
     1
 11
6.590990710516308
 21
3.40900983558123
 31
0.0
100
AcDbText
 73
     1
  0
TEXT
  5
579B
330
5786
100
AcDbEntity
  8
SUNPOU
100
AcDbText
 10
6.441762453246579
 20
3.161815016872917
 30
0.0
 40
2.0
  1
B
 50
202.5
 41
0.6
 72
     1
 11
5.861038175668056
 21
2.921271145100575
 31
0.0
100
AcDbText
 73
     1
  0
TEXT
  5
579C
330
5786
100
AcDbEntity
  8
SUNPOU
100
AcDbText
 10
5.60000045284662
 20
2.750000093250946
 30
0.0
 40
2.0
  1
C
 50
180.0
 41
0.6
 72
     1
 11
5.00000045284662
 21
2.750000093250946
 31
0.0
100
AcDbText
 73
     1
  0
TEXT
  5
579D
330
5786
100
AcDbEntity
  8
SUNPOU
100
AcDbText
 10
6.860053153931225
 20
6.388968977507445
 30
0.0
 40
2.0
  1
7
 50
292.5
 41
0.6
 72
     1
 11
7.078729400996991
 21
5.861037816072425
 31
0.0
100
AcDbText
 73
     1
  0
TEXT
  5
579E
330
5786
100
AcDbEntity
  8
SUNPOU
100
AcDbText
 10
4.400000452846621
 20
7.250000093250946
 30
0.0
 40
2.0
  1
4
 41
0.6
 72
     1
 11
5.00000045284662
 21
7.250000093250946
 31
0.0
100
AcDbText
 73
     1
  0
TEXT
  5
579F
330
5786
100
AcDbEntity
  8
SUNPOU
100
AcDbText
 10
5.333107014233007
 20
7.297405288467096
 30
0.0
 40
2.0
  1
5
 50
337.5
 41
0.6
 72
     1
 11
5.861038175668028
 21
7.078729041401331
 31
0.0
100
AcDbText
 73
     1
  0
TEXT
  5
57A0
330
5786
100
AcDbEntity
  8
SUNPOU
100
AcDbText
 10
6.16672664180438
 20
7.015254419632605
 30
0.0
 40
2.0
  1
6
 50
315.0
 41
0.6
 72
     1
 11
6.590990710516308
 21
6.590990350920677
 31
0.0
100
AcDbText
 73
     1
  0
ENDBLK
  5
57A2
330
5786
100
AcDbEntity
  8
0
100
AcDbBlockEnd
  0
BLOCK
  5
57A5
330
57A3
100
AcDbEntity
  8
0
100
AcDbBlockBegin
  2
A$C1A9113A3
 70
     0
 10
0.0
 20
0.0
 30
0.0
  3
A$C1A9113A3
  1

  0
INSERT
  5
57A4
330
57A3
100
AcDbEntity
  8
0
100
AcDbBlockReference
  2
A$C2086655F
 10
-0.000000598731333
 20
0.0000001667667675
 30
0.0
  0
ENDBLK
  5
57A6
330
57A3
100
AcDbEntity
  8
0
100
AcDbBlockEnd
  0
BLOCK
  5
8A47
330
8A46
100
AcDbEntity
  8
0
100
AcDbBlockBegin
  2
*D3
 70
     1
 10
0.0
 20
0.0
 30
0.0
  3
*D3
  1

  0
LINE
  5
9F2A
330
8A46
100
AcDbEntity
  8
SUNPOU
 62
     0
370
    -2
100
AcDbLine
 10
230.2000000499686
 20
191.2000001092222
 30
0.0
 11
230.2000000499686
 21
220.5
 31
0.0
  0
LINE
  5
9F2B
330
8A46
100
AcDbEntity
  8
SUNPOU
 62
     0
370
    -2
100
AcDbLine
 10
310.2000000499685
 20
201.0000001092223
 30
0.0
 11
310.2000000499685
 21
220.5
 31
0.0
  0
LINE
  5
9F2C
330
8A46
100
AcDbEntity
  8
SUNPOU
 62
     0
370
    -2
100
AcDbLine
 10
232.7000000499686
 20
220.0
 30
0.0
 11
307.7000000499686
 21
220.0
 31
0.0
  0
INSERT
  5
9F2D
330
8A46
100
AcDbEntity
  8
SUNPOU
 62
     0
370
    -2
100
AcDbBlockReference
  2
_OPEN
 10
230.2000000499686
 20
220.0
 30
0.0
 41
2.5
 42
2.5
 43
2.5
 50
180.0
  0
INSERT
  5
9F2E
330
8A46
100
AcDbEntity
  8
SUNPOU
 62
     0
370
    -2
100
AcDbBlockReference
  2
_OPEN
 10
310.2000000499685
 20
220.0
 30
0.0
 41
2.5
 42
2.5
 43
2.5
  0
MTEXT
  5
9F2F
330
8A46
100
AcDbEntity
  8
SUNPOU
 62
     0
100
AcDbMText
 10
270.2000000499686
 20
223.5
 30
0.0
 40
6.0
 41
0.0
 71
     5
 72
     1
  1
\A1;80
 73
     1
 44
1.0
  0
POINT
  5
9F30
330
8A46
100
AcDbEntity
  8
DEFPOINTS
 62
     0
100
AcDbPoint
 10
230.2000000499686
 20
190.7000001092222
 30
0.0
  0
POINT
  5
9F31
330
8A46
100
AcDbEntity
  8
DEFPOINTS
 62
     0
100
AcDbPoint
 10
310.2000000499685
 20
200.5000001092223
 30
0.0
  0
POINT
  5
9F32
330
8A46
100
AcDbEntity
  8
DEFPOINTS
 62
     0
100
AcDbPoint
 10
310.2000000499685
 20
220.0
 30
0.0
  0
ENDBLK
  5
8A51
330
8A46
100
AcDbEntity
  8
0
100
AcDbBlockEnd
  0
BLOCK
  5
8A60
330
8A5F
100
AcDbEntity
  8
0
100
AcDbBlockBegin
  2
*D4
 70
     1
 10
0.0
 20
0.0
 30
0.0
  3
*D4
  1

  0
LINE
  5
AA4D
330
8A5F
100
AcDbEntity
  8
SUNPOU
 62
     0
370
    -2
100
AcDbLine
 10
102.5
 20
200.5000001092223
 30
0.0
 11
102.5
 21
221.5000001092223
 31
0.0
  0
LINE
  5
AA4E
330
8A5F
100
AcDbEntity
  8
SUNPOU
 62
     0
370
    -2
100
AcDbLine
 10
147.5
 20
200.5000001092223
 30
0.0
 11
147.5
 21
221.5000001092223
 31
0.0
  0
LINE
  5
AA4F
330
8A5F
100
AcDbEntity
  8
SUNPOU
 62
     0
370
    -2
100
AcDbLine
 10
105.0
 20
221.0000001092223
 30
0.0
 11
145.0
 21
221.0000001092223
 31
0.0
  0
INSERT
  5
AA50
330
8A5F
100
AcDbEntity
  8
SUNPOU
 62
     0
370
    -2
100
AcDbBlockReference
  2
_OPEN
 10
102.5
 20
221.0000001092223
 30
0.0
 41
2.5
 42
2.5
 43
2.5
 50
180.0
  0
INSERT
  5
AA51
330
8A5F
100
AcDbEntity
  8
SUNPOU
 62
     0
370
    -2
100
AcDbBlockReference
  2
_OPEN
 10
147.5
 20
221.0000001092223
 30
0.0
 41
2.5
 42
2.5
 43
2.5
  0
MTEXT
  5
AA52
330
8A5F
100
AcDbEntity
  8
SUNPOU
 62
     0
100
AcDbMText
 10
125.0
 20
224.5000001092223
 30
0.0
 40
6.0
 41
0.0
 71
     5
 72
     1
  1
\A1;45
 73
     1
 44
1.0
  0
POINT
  5
AA53
330
8A5F
100
AcDbEntity
  8
DEFPOINTS
 62
     0
100
AcDbPoint
 10
102.5
 20
200.0000001092223
 30
0.0
  0
POINT
  5
AA54
330
8A5F
100
AcDbEntity
  8
DEFPOINTS
 62
     0
100
AcDbPoint
 10
147.5
 20
200.0000001092223
 30
0.0
  0
POINT
  5
AA55
330
8A5F
100
AcDbEntity
  8
DEFPOINTS
 62
     0
100
AcDbPoint
 10
147.5
 20
221.0000001092223
 30
0.0
  0
ENDBLK
  5
8A6A
330
8A5F
100
AcDbEntity
  8
0
100
AcDbBlockEnd
  0
BLOCK
  5
8A6D
330
8A6C
100
AcDbEntity
  8
0
100
AcDbBlockBegin
  2
*D5
 70
     1
 10
0.0
 20
0.0
 30
0.0
  3
*D5
  1

  0
LINE
  5
AA44
330
8A6C
100
AcDbEntity
  8
SUNPOU
 62
     0
370
    -2
100
AcDbLine
 10
147.2
 20
192.5000001092222
 30
0.0
 11
163.0
 21
192.5000001092222
 31
0.0
  0
LINE
  5
AA45
330
8A6C
100
AcDbEntity
  8
SUNPOU
 62
     0
370
    -2
100
AcDbLine
 10
147.2
 20
99.50000010922233
 30
0.0
 11
163.0
 21
99.50000010922231
 31
0.0
  0
LINE
  5
AA46
330
8A6C
100
AcDbEntity
  8
SUNPOU
 62
     0
370
    -2
100
AcDbLine
 10
162.5
 20
190.0000001092222
 30
0.0
 11
162.5
 21
102.0000001092223
 31
0.0
  0
INSERT
  5
AA47
330
8A6C
100
AcDbEntity
  8
SUNPOU
 62
     0
370
    -2
100
AcDbBlockReference
  2
_OPEN
 10
162.5
 20
192.5000001092222
 30
0.0
 41
2.5
 42
2.5
 43
2.5
 50
90.0
  0
INSERT
  5
AA48
330
8A6C
100
AcDbEntity
  8
SUNPOU
 62
     0
370
    -2
100
AcDbBlockReference
  2
_OPEN
 10
162.5
 20
99.50000010922231
 30
0.0
 41
2.5
 42
2.5
 43
2.5
 50
270.0
  0
MTEXT
  5
AA49
330
8A6C
100
AcDbEntity
  8
SUNPOU
 62
     0
100
AcDbMText
 10
159.0
 20
146.0000001092223
 30
0.0
 40
6.0
 41
0.0
 71
     5
 72
     1
  1
\A1;93
 11
0.0000000000000001
 21
1.0
 31
0.0
 73
     1
 44
1.0
  0
POINT
  5
AA4A
330
8A6C
100
AcDbEntity
  8
DEFPOINTS
 62
     0
100
AcDbPoint
 10
146.7
 20
192.5000001092222
 30
0.0
  0
POINT
  5
AA4B
330
8A6C
100
AcDbEntity
  8
DEFPOINTS
 62
     0
100
AcDbPoint
 10
146.7
 20
99.50000010922233
 30
0.0
  0
POINT
  5
AA4C
330
8A6C
100
AcDbEntity
  8
DEFPOINTS
 62
     0
100
AcDbPoint
 10
162.5
 20
99.50000010922231
 30
0.0
  0
ENDBLK
  5
8A77
330
8A6C
100
AcDbEntity
  8
0
100
AcDbBlockEnd
  0
BLOCK
  5
8A7A
330
8A79
100
AcDbEntity
  8
0
100
AcDbBlockBegin
  2
*D6
 70
     1
 10
0.0
 20
0.0
 30
0.0
  3
*D6
  1

  0
LINE
  5
AA3B
330
8A79
100
AcDbEntity
  8
SUNPOU
 62
     0
370
    -2
100
AcDbLine
 10
125.5
 20
197.5000001092223
 30
0.0
 11
173.0
 21
197.5000001092223
 31
0.0
  0
LINE
  5
AA3C
330
8A79
100
AcDbEntity
  8
SUNPOU
 62
     0
370
    -2
100
AcDbLine
 10
125.5
 20
94.50000010922222
 30
0.0
 11
173.0
 21
94.5000001092222
 31
0.0
  0
LINE
  5
AA3D
330
8A79
100
AcDbEntity
  8
SUNPOU
 62
     0
370
    -2
100
AcDbLine
 10
172.5
 20
195.0000001092223
 30
0.0
 11
172.5
 21
97.0000001092222
 31
0.0
  0
INSERT
  5
AA3E
330
8A79
100
AcDbEntity
  8
SUNPOU
 62
     0
370
    -2
100
AcDbBlockReference
  2
_OPEN
 10
172.5
 20
197.5000001092223
 30
0.0
 41
2.5
 42
2.5
 43
2.5
 50
90.0
  0
INSERT
  5
AA3F
330
8A79
100
AcDbEntity
  8
SUNPOU
 62
     0
370
    -2
100
AcDbBlockReference
  2
_OPEN
 10
172.5
 20
94.5000001092222
 30
0.0
 41
2.5
 42
2.5
 43
2.5
 50
270.0
  0
MTEXT
  5
AA40
330
8A79
100
AcDbEntity
  8
SUNPOU
 62
     0
100
AcDbMText
 10
168.9999999999999
 20
146.0000001092223
 30
0.0
 40
6.0
 41
0.0
 71
     5
 72
     1
  1
\A1;103
 11
0.0000000000000001
 21
1.0
 31
0.0
 73
     1
 44
1.0
  0
POINT
  5
AA41
330
8A79
100
AcDbEntity
  8
DEFPOINTS
 62
     0
100
AcDbPoint
 10
125.0
 20
197.5000001092223
 30
0.0
  0
POINT
  5
AA42
330
8A79
100
AcDbEntity
  8
DEFPOINTS
 62
     0
100
AcDbPoint
 10
125.0
 20
94.50000010922222
 30
0.0
  0
POINT
  5
AA43
330
8A79
100
AcDbEntity
  8
DEFPOINTS
 62
     0
100
AcDbPoint
 10
172.5
 20
94.5000001092222
 30
0.0
  0
ENDBLK
  5
8A84
330
8A79
100
AcDbEntity
  8
0
100
AcDbBlockEnd
  0
BLOCK
  5
8A87
330
8A86
100
AcDbEntity
  8
0
100
AcDbBlockBegin
  2
*D7
 70
     1
 10
0.0
 20
0.0
 30
0.0
  3
*D7
  1

  0
LINE
  5
AA32
330
8A86
100
AcDbEntity
  8
SUNPOU
 62
     0
370
    -2
100
AcDbLine
 10
147.0
 20
201.0000001092223
 30
0.0
 11
183.0
 21
201.0000001092223
 31
0.0
  0
LINE
  5
AA33
330
8A86
100
AcDbEntity
  8
SUNPOU
 62
     0
370
    -2
100
AcDbLine
 10
147.0
 20
91.00000010922228
 30
0.0
 11
183.0
 21
91.00000010922226
 31
0.0
  0
LINE
  5
AA34
330
8A86
100
AcDbEntity
  8
SUNPOU
 62
     0
370
    -2
100
AcDbLine
 10
182.5
 20
198.5000001092223
 30
0.0
 11
182.5
 21
93.50000010922226
 31
0.0
  0
INSERT
  5
AA35
330
8A86
100
AcDbEntity
  8
SUNPOU
 62
     0
370
    -2
100
AcDbBlockReference
  2
_OPEN
 10
182.5
 20
201.0000001092223
 30
0.0
 41
2.5
 42
2.5
 43
2.5
 50
90.0
  0
INSERT
  5
AA36
330
8A86
100
AcDbEntity
  8
SUNPOU
 62
     0
370
    -2
100
AcDbBlockReference
  2
_OPEN
 10
182.5
 20
91.00000010922226
 30
0.0
 41
2.5
 42
2.5
 43
2.5
 50
270.0
  0
MTEXT
  5
AA37
330
8A86
100
AcDbEntity
  8
SUNPOU
 62
     0
100
AcDbMText
 10
179.0
 20
146.0000001092223
 30
0.0
 40
6.0
 41
0.0
 71
     5
 72
     1
  1
\A1;110
 11
0.0000000000000001
 21
1.0
 31
0.0
 73
     1
 44
1.0
  0
POINT
  5
AA38
330
8A86
100
AcDbEntity
  8
DEFPOINTS
 62
     0
100
AcDbPoint
 10
146.5
 20
201.0000001092223
 30
0.0
  0
POINT
  5
AA39
330
8A86
100
AcDbEntity
  8
DEFPOINTS
 62
     0
100
AcDbPoint
 10
146.5
 20
91.00000010922228
 30
0.0
  0
POINT
  5
AA3A
330
8A86
100
AcDbEntity
  8
DEFPOINTS
 62
     0
100
AcDbPoint
 10
182.5
 20
91.00000010922226
 30
0.0
  0
ENDBLK
  5
8A91
330
8A86
100
AcDbEntity
  8
0
100
AcDbBlockEnd
  0
BLOCK
  5
98E9
330
98E8
100
AcDbEntity
  8
0
100
AcDbBlockBegin
  2
A$C34EE125E
 70
     0
 10
0.0
 20
0.0
 30
0.0
  3
A$C34EE125E
  1

  0
ELLIPSE
  5
98EA
330
98E8
100
AcDbEntity
  8
0
100
AcDbEllipse
 10
-0.0000004725021654
 20
3.999999853018834
 30
0.0
 11
0.0
 21
-3.0
 31
0.0
210
0.0
220
0.0
230
-1.0
 40
0.8333333333333333
 41
-2.94023473279946
 42
-0.2013579207903324
  0
LINE
  5
98EB
330
98E8
100
AcDbEntity
  8
0
100
AcDbLine
 10
-0.0000004725021654
 20
7.999999853018834
 30
0.0
 11
-0.0000004725021654
 21
-0.000000146981165
 31
0.0
  0
LINE
  5
98EC
330
98E8
100
AcDbEntity
  8
0
100
AcDbLine
 10
0.4999995274978346
 20
-0.000000146981165
 30
0.0
 11
0.4999995274978346
 21
7.999999853018834
 31
0.0
  0
LINE
  5
98ED
330
98E8
100
AcDbEntity
  8
0
100
AcDbLine
 10
-0.0000004725021654
 20
-0.000000146981165
 30
0.0
 11
0.4999995274978346
 21
-0.000000146981165
 31
0.0
  0
LINE
  5
98EE
330
98E8
100
AcDbEntity
  8
0
100
AcDbLine
 10
0.4999995274978346
 20
7.999999853018834
 30
0.0
 11
-0.0000004725021654
 21
7.999999853018834
 31
0.0
  0
ENDBLK
  5
98EF
330
98E8
100
AcDbEntity
  8
0
100
AcDbBlockEnd
  0
BLOCK
  5
9F0D
330
9F03
100
AcDbEntity
  8
0
100
AcDbBlockBegin
  2
*D9
 70
     1
 10
0.0
 20
0.0
 30
0.0
  3
*D9
  1

  0
LINE
  5
AA6E
330
9F03
100
AcDbEntity
  8
SUNPOU
 62
     0
370
    -2
100
AcDbLine
 10
200.2000000499686
 20
183.6500001092224
 30
0.0
 11
200.2000000499686
 21
220.5
 31
0.0
  0
LINE
  5
AA6F
330
9F03
100
AcDbEntity
  8
SUNPOU
 62
     0
370
    -2
100
AcDbLine
 10
230.2000000499685
 20
192.2000001092222
 30
0.0
 11
230.2000000499685
 21
220.5
 31
0.0
  0
LINE
  5
AA70
330
9F03
100
AcDbEntity
  8
SUNPOU
 62
     0
370
    -2
100
AcDbLine
 10
202.7000000499686
 20
220.0
 30
0.0
 11
227.7000000499685
 21
220.0
 31
0.0
  0
INSERT
  5
AA71
330
9F03
100
AcDbEntity
  8
SUNPOU
 62
     0
370
    -2
100
AcDbBlockReference
  2
_OPEN
 10
200.2000000499686
 20
220.0
 30
0.0
 41
2.5
 42
2.5
 43
2.5
 50
180.0
  0
INSERT
  5
AA72
330
9F03
100
AcDbEntity
  8
SUNPOU
 62
     0
370
    -2
100
AcDbBlockReference
  2
_OPEN
 10
230.2000000499685
 20
220.0
 30
0.0
 41
2.5
 42
2.5
 43
2.5
  0
MTEXT
  5
AA73
330
9F03
100
AcDbEntity
  8
SUNPOU
 62
     0
100
AcDbMText
 10
215.2000000499686
 20
223.5
 30
0.0
 40
6.0
 41
0.0
 71
     5
 72
     1
  1
\A1;30
 73
     1
 44
1.0
  0
POINT
  5
AA74
330
9F03
100
AcDbEntity
  8
DEFPOINTS
 62
     0
100
AcDbPoint
 10
200.2000000499686
 20
183.1500001092224
 30
0.0
  0
POINT
  5
AA75
330
9F03
100
AcDbEntity
  8
DEFPOINTS
 62
     0
100
AcDbPoint
 10
230.2000000499685
 20
191.7000001092221
 30
0.0
  0
POINT
  5
AA76
330
9F03
100
AcDbEntity
  8
DEFPOINTS
 62
     0
100
AcDbPoint
 10
230.2000000499685
 20
220.0
 30
0.0
  0
ENDBLK
  5
9F0E
330
9F03
100
AcDbEntity
  8
0
100
AcDbBlockEnd
  0
ENDSEC
  0
SECTION
  2
ENTITIES
  0
LINE
  5
C9
330
1A
100
AcDbEntity
  8
WAKU
 62
     7
100
AcDbLine
 10
405.0
 20
280.0
 30
0.0
 11
20.0
 21
280.0
 31
0.0
  0
LINE
  5
CB
330
1A
100
AcDbEntity
  8
WAKU
 62
     7
100
AcDbLine
 10
20.0
 20
5.0
 30
0.0
 11
405.0
 21
5.0
 31
0.0
  0
LINE
  5
D4
330
1A
100
AcDbEntity
  8
WAKU
100
AcDbLine
 10
405.0
 20
5.0
 30
0.0
 11
405.0
 21
280.0
 31
0.0
  0
LINE
  5
D5
330
1A
100
AcDbEntity
  8
WAKU
100
AcDbLine
 10
20.0
 20
280.0
 30
0.0
 11
20.0
 21
5.0
 31
0.0
  0
LINE
  5
D6
330
1A
100
AcDbEntity
  8
WAKU
 62
     7
100
AcDbLine
 10
225.0
 20
50.0
 30
0.0
 11
405.0
 21
50.0
 31
0.0
  0
LINE
  5
D7
330
1A
100
AcDbEntity
  8
WAKU
100
AcDbLine
 10
225.0
 20
5.0
 30
0.0
 11
225.0
 21
50.0
 31
0.0
  0
LINE
  5
D8
330
1A
100
AcDbEntity
  8
WAKU
100
AcDbLine
 10
345.0
 20
5.0
 30
0.0
 11
345.0
 21
50.0
 31
0.0
  0
LINE
  5
D9
330
1A
100
AcDbEntity
  8
WAKU
 62
     7
100
AcDbLine
 10
345.0
 20
15.0
 30
0.0
 11
405.0
 21
15.0
 31
0.0
  0
LINE
  5
DA
330
1A
100
AcDbEntity
  8
WAKU
 62
     7
100
AcDbLine
 10
345.0
 20
22.0
 30
0.0
 11
405.0
 21
22.0
 31
0.0
  0
LINE
  5
DB
330
1A
100
AcDbEntity
  8
WAKU
 62
     7
100
AcDbLine
 10
345.0
 20
29.0
 30
0.0
 11
405.0
 21
29.0
 31
0.0
  0
LINE
  5
DC
330
1A
100
AcDbEntity
  8
WAKU
 62
     7
100
AcDbLine
 10
345.0
 20
36.0
 30
0.0
 11
405.0
 21
36.0
 31
0.0
  0
LINE
  5
DD
330
1A
100
AcDbEntity
  8
WAKU
 62
     7
100
AcDbLine
 10
345.0
 20
43.0
 30
0.0
 11
405.0
 21
43.0
 31
0.0
  0
LINE
  5
DE
330
1A
100
AcDbEntity
  8
WAKU
100
AcDbLine
 10
360.0
 20
15.0
 30
0.0
 11
360.0
 21
50.0
 31
0.0
  0
LINE
  5
DF
330
1A
100
AcDbEntity
  8
WAKU
100
AcDbLine
 10
352.0
 20
5.0
 30
0.0
 11
352.0
 21
15.0
 31
0.0
  0
LINE
  5
E0
330
1A
100
AcDbEntity
  8
WAKU
100
AcDbLine
 10
330.0
 20
13.0
 30
0.0
 11
330.0
 21
34.0
 31
0.0
  0
LINE
  5
E1
330
1A
100
AcDbEntity
  8
WAKU
100
AcDbLine
 10
315.0
 20
13.0
 30
0.0
 11
315.0
 21
34.0
 31
0.0
  0
LINE
  5
E2
330
1A
100
AcDbEntity
  8
WAKU
100
AcDbLine
 10
300.0
 20
34.0
 30
0.0
 11
300.0
 21
50.0
 31
0.0
  0
LINE
  5
E3
330
1A
100
AcDbEntity
  8
WAKU
100
AcDbLine
 10
285.0
 20
13.0
 30
0.0
 11
285.0
 21
50.0
 31
0.0
  0
LINE
  5
E4
330
1A
100
AcDbEntity
  8
WAKU
100
AcDbLine
 10
345.0
 20
40.0
 30
0.0
 11
285.0
 21
40.0
 31
0.0
  0
LINE
  5
E5
330
1A
100
AcDbEntity
  8
WAKU
100
AcDbLine
 10
345.0
 20
34.0
 30
0.0
 11
285.0
 21
34.0
 31
0.0
  0
LINE
  5
E6
330
1A
100
AcDbEntity
  8
WAKU
100
AcDbLine
 10
345.0
 20
28.0
 30
0.0
 11
285.0
 21
28.0
 31
0.0
  0
LINE
  5
E7
330
1A
100
AcDbEntity
  8
WAKU
100
AcDbLine
 10
345.0
 20
13.0
 30
0.0
 11
225.0
 21
13.0
 31
0.0
  0
MTEXT
  5
E9
330
1A
100
AcDbEntity
  8
WAKU
100
AcDbMText
 10
345.0
 20
43.0
 30
0.0
 40
4.0
 41
15.0
 71
     1
 72
     5
  1

 73
     1
 44
1.0
  0
MTEXT
  5
EA
330
1A
100
AcDbEntity
  8
WAKU
100
AcDbMText
 10
345.0
 20
49.0
 30
0.0
 40
4.0
 41
14.0
 71
     1
 72
     5
  1

 73
     1
 44
1.0
  0
MTEXT
  5
ED
330
1A
100
AcDbEntity
  8
WAKU
100
AcDbMText
 10
347.3192310662242
 20
34.48051906497278
 30
0.0
 40
3.0
 41
11.0
 71
     1
 72
     5
  1
部品表
 73
     1
 44
1.0
  0
MTEXT
  5
EE
330
1A
100
AcDbEntity
  8
WAKU
100
AcDbMText
 10
327.0
 20
82.0
 30
0.0
 40
3.0
 41
37.0
 71
     1
 72
     5
  1

 73
     1
 44
1.0
  0
MTEXT
  5
F0
330
1A
100
AcDbEntity
  8
WAKU
100
AcDbMText
 10
347.2
 20
47.7
 30
0.0
 40
3.0
 41
10.0
 71
     1
 72
     5
  1
機種名
 73
     1
 44
1.0
  0
MTEXT
  5
F1
330
1A
100
AcDbEntity
  8
WAKU
100
AcDbMText
 10
347.2999999999999
 20
40.69999999999999
 30
0.0
 40
3.0
 41
10.0
 71
     1
 72
     5
  1
部　名
 73
     1
 44
1.0
  0
MTEXT
  5
F2
330
1A
100
AcDbEntity
  8
WAKU
100
AcDbMText
 10
346.0
 20
27.0
 30
0.0
 40
3.0
 41
10.0
 71
     1
 72
     5
  1
ｽﾄｯｸNo.
 73
     1
 44
1.0
  0
MTEXT
  5
F3
330
1A
100
AcDbEntity
  8
WAKU
100
AcDbMText
 10
347.0
 20
20.0
 30
0.0
 40
3.0
 41
12.0
 71
     1
 72
     5
  1
適用ﾛｯﾄ
 73
     1
 44
1.0
  0
MTEXT
  5
F5
330
1A
100
AcDbEntity
  8
WAKU
100
AcDbMText
 10
330.0
 20
85.0
 30
0.0
 40
3.0
 41
12.0
 71
     1
 72
     5
  1

 73
     1
 44
1.0
  0
MTEXT
  5
FF
330
1A
100
AcDbEntity
  8
WAKU
100
AcDbMText
 10
271.0
 20
82.0
 30
0.0
 40
3.0
 41
74.0
 71
     1
 72
     5
  1

 73
     1
 44
1.0
  0
MTEXT
  5
106
330
1A
100
AcDbEntity
  8
WAKU
100
AcDbMText
 10
314.791664707496
 20
38.86071114661275
 30
0.0
 40
3.0
 41
13.6217958711934
 71
     1
 72
     5
  1
名　　称
 73
     1
 44
1.0
  0
LINE
  5
78B
330
1A
100
AcDbEntity
  8
WAKU
100
AcDbLine
 10
285.0
 20
17.0
 30
0.0
 11
225.0
 21
17.0
 31
0.0
  0
LINE
  5
78C
330
1A
100
AcDbEntity
  8
WAKU
100
AcDbLine
 10
285.0
 20
21.0
 30
0.0
 11
225.0
 21
21.0
 31
0.0
  0
LINE
  5
78D
330
1A
100
AcDbEntity
  8
WAKU
100
AcDbLine
 10
285.0
 20
25.0
 30
0.0
 11
225.0
 21
25.0
 31
0.0
  0
LINE
  5
78E
330
1A
100
AcDbEntity
  8
WAKU
100
AcDbLine
 10
285.0
 20
29.0
 30
0.0
 11
225.0
 21
29.0
 31
0.0
  0
LINE
  5
78F
330
1A
100
AcDbEntity
  8
WAKU
100
AcDbLine
 10
285.0
 20
33.0
 30
0.0
 11
225.0
 21
33.0
 31
0.0
  0
LINE
  5
790
330
1A
100
AcDbEntity
  8
WAKU
100
AcDbLine
 10
285.0
 20
37.0
 30
0.0
 11
225.0
 21
37.0
 31
0.0
  0
LINE
  5
791
330
1A
100
AcDbEntity
  8
WAKU
100
AcDbLine
 10
285.0
 20
41.0
 30
0.0
 11
225.0
 21
41.0
 31
0.0
  0
LINE
  5
792
330
1A
100
AcDbEntity
  8
WAKU
100
AcDbLine
 10
285.0
 20
45.0
 30
0.0
 11
225.0
 21
45.0
 31
0.0
  0
LINE
  5
794
330
1A
100
AcDbEntity
  8
WAKU
100
AcDbLine
 10
233.0
 20
13.0
 30
0.0
 11
233.0
 21
50.0
 31
0.0
  0
LINE
  5
795
330
1A
100
AcDbEntity
  8
WAKU
100
AcDbLine
 10
246.0
 20
13.0
 30
0.0
 11
246.0
 21
50.0
 31
0.0
  0
LINE
  5
796
330
1A
100
AcDbEntity
  8
WAKU
100
AcDbLine
 10
256.0
 20
13.0
 30
0.0
 11
256.0
 21
50.0
 31
0.0
  0
TEXT
  5
797
330
1A
100
AcDbEntity
  8
WAKU
100
AcDbText
 10
226.0
 20
46.0
 30
0.0
 40
3.0
  1
記号
100
AcDbText
  0
TEXT
  5
798
330
1A
100
AcDbEntity
  8
WAKU
100
AcDbText
 10
234.5
 20
46.0
 30
0.0
 40
3.0
  1
年月日
100
AcDbText
  0
TEXT
  5
799
330
1A
100
AcDbEntity
  8
WAKU
100
AcDbText
 10
248.0
 20
46.0
 30
0.0
 40
3.0
  1
担当
100
AcDbText
  0
TEXT
  5
79A
330
1A
100
AcDbEntity
  8
WAKU
100
AcDbText
 10
263.5
 20
46.0
 30
0.0
 40
3.0
  1
改連No.
100
AcDbText
  0
TEXT
  5
7CC
330
1A
100
AcDbEntity
  8
WAKU
100
AcDbText
 10
226.0
 20
13.5
 30
0.0
 40
3.0
  1
設置
100
AcDbText
  0
TEXT
  5
7CD
330
1A
100
AcDbEntity
  8
WAKU
100
AcDbText
 10
287.5
 20
35.5
 30
0.0
 40
3.0
  1
尺　度
 72
     4
 11
292.5
 21
37.0
 31
0.0
100
AcDbText
  0
LINE
  5
7CE
330
1A
100
AcDbEntity
  8
WAKU
100
AcDbLine
 10
298.0
 20
48.0
 30
0.0
 11
287.0
 21
42.0
 31
0.0
  0
TEXT
  5
7CF
330
1A
100
AcDbEntity
  8
WAKU
100
AcDbText
 10
346.5
 20
10.5
 30
0.0
 40
3.0
  1
図
100
AcDbText
  0
TEXT
  5
7D0
330
1A
100
AcDbEntity
  8
WAKU
100
AcDbText
 10
346.5
 20
6.0
 30
0.0
 40
3.0
  1
番
100
AcDbText
  0
TEXT
  5
7D1
330
1A
100
AcDbEntity
  8
WAKU
100
AcDbText
 10
256.5
 20
6.0
 30
0.0
 40
6.0
  1
東洋測器株式会社
100
AcDbText
  0
TEXT
  5
8C1
330
1A
100
AcDbEntity
  8
0
100
AcDbText
 10
293.0
 20
41.5
 30
0.0
 40
3.0
  1
1
100
AcDbText
  0
TEXT
  5
8C4
330
1A
100
AcDbEntity
  8
0
100
AcDbText
 10
312.5
 20
42.5
 30
0.0
 40
4.0
  1
外 形 図
100
AcDbText
  0
TEXT
  5
8C5
330
1A
100
AcDbEntity
  8
0
100
AcDbText
 10
363.5
 20
44.5
 30
0.0
 40
3.0
  1
LA-1025A
100
AcDbText
  0
TEXT
  5
8C6
330
1A
100
AcDbEntity
  8
0
100
AcDbText
 10
287.5
 20
44.5
 30
0.0
 40
3.0
  1
1
100
AcDbText
  0
TEXT
  5
222A
330
1A
100
AcDbEntity
  8
0
100
AcDbText
 10
358.0
 20
7.5
 30
0.0
 40
3.0
  1
EA3-00141
100
AcDbText
  0
TEXT
  5
222B
330
1A
100
AcDbEntity
  8
WAKU
100
AcDbText
 10
286.0
 20
14.0
 30
0.0
 40
2.0
  1
15.05.21
100
AcDbText
  0
TEXT
  5
2240
330
1A
100
AcDbEntity
  8
WAKU
100
AcDbText
 10
288.0
 20
19.0
 30
0.0
 40
4.0
  1
金子
100
AcDbText
  0
TEXT
  5
52B1
330
1A
100
AcDbEntity
  8
WAKU
100
AcDbText
 10
234.0
 20
14.0
 30
0.0
 40
1.8
  1
15.05.21
 41
0.9
100
AcDbText
  0
TEXT
  5
52B2
330
1A
100
AcDbEntity
  8
WAKU
100
AcDbText
 10
248.0
 20
13.5
 30
0.0
 40
3.0
  1
大野
100
AcDbText
  0
LWPOLYLINE
  5
8846
330
1A
100
AcDbEntity
  8
0
100
AcDbPolyline
 90
        3
 70
     1
 43
0.0
 10
398.0002991937029
 20
13.75002575180714
 10
393.6701721747807
 20
6.250025751807143
 10
402.330426212625
 20
6.250025751807143
  0
LWPOLYLINE
  5
8847
330
1A
100
AcDbEntity
  8
0
100
AcDbPolyline
 90
        3
 70
     1
 43
0.0
 10
229.0
 20
37.0
 10
226.8349364905389
 20
33.25
 10
231.1650635094611
 20
33.25
  0
TEXT
  5
8848
330
1A
100
AcDbEntity
  8
WAKU
100
AcDbText
 10
228.0
 20
17.5
 30
0.0
 40
2.0
  1
1
100
AcDbText
  0
LWPOLYLINE
  5
8849
330
1A
100
AcDbEntity
  8
0
100
AcDbPolyline
 90
        3
 70
     1
 43
0.0
 10
229.0
 20
21.0
 10
226.8349364905389
 20
17.25
 10
231.1650635094611
 20
17.25
  0
LWPOLYLINE
  5
884A
330
1A
100
AcDbEntity
  8
0
100
AcDbPolyline
 90
        3
 70
     1
 43
0.0
 10
229.0
 20
25.0
 10
226.8349364905389
 20
21.25
 10
231.1650635094611
 20
21.25
  0
TEXT
  5
884B
330
1A
100
AcDbEntity
  8
WAKU
100
AcDbText
 10
228.0
 20
21.5
 30
0.0
 40
2.0
  1
2
100
AcDbText
  0
TEXT
  5
884C
330
1A
100
AcDbEntity
  8
WAKU
100
AcDbText
 10
228.0
 20
29.5
 30
0.0
 40
2.0
  1
4
100
AcDbText
  0
LWPOLYLINE
  5
884D
330
1A
100
AcDbEntity
  8
0
100
AcDbPolyline
 90
        3
 70
     1
 43
0.0
 10
229.0
 20
33.0
 10
226.8349364905389
 20
29.25
 10
231.1650635094611
 20
29.25
  0
LWPOLYLINE
  5
884E
330
1A
100
AcDbEntity
  8
0
100
AcDbPolyline
 90
        3
 70
     1
 43
0.0
 10
229.0
 20
29.0
 10
226.8349364905389
 20
25.25
 10
231.1650635094611
 20
25.25
  0
TEXT
  5
884F
330
1A
100
AcDbEntity
  8
WAKU
100
AcDbText
 10
228.0
 20
25.5
 30
0.0
 40
2.0
  1
3
100
AcDbText
  0
TEXT
  5
8850
330
1A
100
AcDbEntity
  8
WAKU
100
AcDbText
 10
228.0
 20
33.5
 30
0.0
 40
2.0
  1
5
100
AcDbText
  0
TEXT
  5
8851
330
1A
100
AcDbEntity
  8
WAKU
100
AcDbText
 10
228.0
 20
41.5
 30
0.0
 40
2.0
  1
7
100
AcDbText
  0
LWPOLYLINE
  5
8852
330
1A
100
AcDbEntity
  8
0
100
AcDbPolyline
 90
        3
 70
     1
 43
0.0
 10
229.0
 20
45.0
 10
226.8349364905389
 20
41.25
 10
231.1650635094611
 20
41.25
  0
LWPOLYLINE
  5
8853
330
1A
100
AcDbEntity
  8
0
100
AcDbPolyline
 90
        3
 70
     1
 43
0.0
 10
229.0
 20
41.0
 10
226.8349364905389
 20
37.25
 10
231.1650635094611
 20
37.25
  0
TEXT
  5
8854
330
1A
100
AcDbEntity
  8
WAKU
100
AcDbText
 10
228.0
 20
37.5
 30
0.0
 40
2.0
  1
6
100
AcDbText
  0
DIMENSION
  5
8A52
330
1A
100
AcDbEntity
  8
SUNPOU
100
AcDbDimension
  2
*D3
 10
310.2000000499685
 20
220.0
 30
0.0
 11
270.2000000499686
 21
223.5
 31
0.0
 70
    32
 71
     5
 42
79.99999999999994
  3
STANDARD
100
AcDbAlignedDimension
 13
230.2000000499686
 23
190.7000001092222
 33
0.0
 14
310.2000000499685
 24
200.5000001092223
 34
0.0
100
AcDbRotatedDimension
1001
ACAD
1000
DSTYLE
1002
{
1070
   140
1040
6.0
1070
    74
1070
     0
1070
    73
1070
     0
1070
   272
1070
     0
1070
    77
1070
     1
1070
   173
1070
     1
1070
   147
1040
0.5
1070
    42
1040
0.5
1070
    44
1040
0.5
1070
    43
1040
10.0
1070
   271
1070
     0
1070
   141
1040
0.0
1070
     7
1000
_OPEN
1070
     6
1000
_OPEN
1070
    41
1040
2.5
1002
}
  0
DIMENSION
  5
8A6B
330
1A
100
AcDbEntity
  8
SUNPOU
100
AcDbDimension
  2
*D4
 10
147.5
 20
221.0000001092223
 30
0.0
 11
125.0
 21
224.5000001092223
 31
0.0
 70
    32
 71
     5
 42
45.0
  3
STANDARD
100
AcDbAlignedDimension
 13
102.5
 23
200.0000001092223
 33
0.0
 14
147.5
 24
200.0000001092223
 34
0.0
100
AcDbRotatedDimension
1001
ACAD
1000
DSTYLE
1002
{
1070
   140
1040
6.0
1070
    74
1070
     0
1070
    73
1070
     0
1070
   272
1070
     0
1070
    77
1070
     1
1070
   173
1070
     1
1070
   147
1040
0.5
1070
    42
1040
0.5
1070
    44
1040
0.5
1070
    43
1040
10.0
1070
   271
1070
     0
1070
   141
1040
0.0
1070
     7
1000
_OPEN
1070
     6
1000
_OPEN
1070
    41
1040
2.5
1002
}
  0
DIMENSION
  5
8A78
330
1A
100
AcDbEntity
  8
SUNPOU
100
AcDbDimension
  2
*D5
 10
162.5
 20
99.50000010922231
 30
0.0
 11
159.0
 21
146.0000001092223
 31
0.0
 70
    32
 71
     5
 42
92.99999999999988
  3
STANDARD
100
AcDbAlignedDimension
 13
146.7
 23
192.5000001092222
 33
0.0
 14
146.7
 24
99.50000010922233
 34
0.0
 50
90.0
100
AcDbRotatedDimension
1001
ACAD
1000
DSTYLE
1002
{
1070
   140
1040
6.0
1070
    74
1070
     0
1070
    73
1070
     0
1070
   272
1070
     0
1070
    77
1070
     1
1070
   173
1070
     1
1070
   147
1040
0.5
1070
    42
1040
0.5
1070
    44
1040
0.5
1070
    43
1040
10.0
1070
   271
1070
     0
1070
   141
1040
0.0
1070
     7
1000
_OPEN
1070
     6
1000
_OPEN
1070
    41
1040
2.5
1002
}
  0
DIMENSION
  5
8A85
330
1A
100
AcDbEntity
  8
SUNPOU
100
AcDbDimension
  2
*D6
 10
172.5
 20
94.5000001092222
 30
0.0
 11
168.9999999999999
 21
146.0000001092223
 31
0.0
 70
    32
 71
     5
 42
103.0000000000001
  3
STANDARD
100
AcDbAlignedDimension
 13
125.0
 23
197.5000001092223
 33
0.0
 14
125.0
 24
94.50000010922222
 34
0.0
 50
90.0
100
AcDbRotatedDimension
1001
ACAD
1000
DSTYLE
1002
{
1070
   140
1040
6.0
1070
    74
1070
     0
1070
    73
1070
     0
1070
   272
1070
     0
1070
    77
1070
     1
1070
   173
1070
     1
1070
   147
1040
0.5
1070
    42
1040
0.5
1070
    44
1040
0.5
1070
    43
1040
10.0
1070
   271
1070
     0
1070
   141
1040
0.0
1070
     7
1000
_OPEN
1070
     6
1000
_OPEN
1070
    41
1040
2.5
1002
}
  0
DIMENSION
  5
8A92
330
1A
100
AcDbEntity
  8
SUNPOU
100
AcDbDimension
  2
*D7
 10
182.5
 20
91.00000010922226
 30
0.0
 11
179.0
 21
146.0000001092223
 31
0.0
 70
    32
 71
     5
 42
110.0
  3
STANDARD
100
AcDbAlignedDimension
 13
146.5
 23
201.0000001092223
 33
0.0
 14
146.5
 24
91.00000010922228
 34
0.0
 50
90.0
100
AcDbRotatedDimension
1001
ACAD
1000
DSTYLE
1002
{
1070
   140
1040
6.0
1070
    74
1070
     0
1070
    73
1070
     0
1070
   272
1070
     0
1070
    77
1070
     1
1070
   173
1070
     1
1070
   147
1040
0.5
1070
    42
1040
0.5
1070
    44
1040
0.5
1070
    43
1040
10.0
1070
   271
1070
     0
1070
   141
1040
0.0
1070
     7
1000
_OPEN
1070
     6
1000
_OPEN
1070
    41
1040
2.5
1002
}
  0
MTEXT
  5
8CA6
102
{ACAD_REACTORS
330
8CA7
102
}
330
1A
100
AcDbEntity
  8
SUNPOU
100
AcDbMText
 10
104.7608764787355
 20
80.62415594866511
 30
0.0
 40
5.0
 41
0.0
 71
     6
 72
     1
  1
2-φ4.0
 73
     1
 44
1.0
  0
LEADER
  5
8CA7
330
1A
100
AcDbEntity
  8
SUNPOU
100
AcDbLeader
  3
STANDARD
 73
     0
 75
     1
 40
5.0
 41
27.42857142857143
 76
     3
 10
123.3812483054451
 20
92.72009668581549
 30
0.0
 10
107.7608764787355
 20
77.6241559486651
 30
0.0
 10
105.2608764787355
 20
77.6241559486651
 30
0.0
340
8CA6
1001
ACAD
1000
DSTYLE
1002
{
1070
   341
1005
BA
1070
    41
1040
2.5
1070
    42
1040
0.5
1070
    43
1040
10.0
1070
    44
1040
0.5
1070
    73
1070
     0
1070
    74
1070
     0
1070
    77
1070
     1
1070
   140
1040
2.0
1070
   141
1040
0.0
1070
   147
1040
0.5
1070
   173
1070
     1
1070
   271
1070
     1
1070
   272
1070
     0
1070
   343
1005
BA
1070
   344
1005
BA
1002
}
  0
MTEXT
  5
8CA8
330
1A
100
AcDbEntity
  8
SUNPOU
100
AcDbMText
 10
109.7608764787355
 20
71.6241558394428
 30
0.0
 40
5.0
 41
0.0
 71
     6
 72
     1
  1
\A1;(固定用穴)
 73
     1
 44
1.0
  0
INSERT
  5
9A2C
330
1A
100
AcDbEntity
  8
0
100
AcDbBlockReference
  2
A$C34EE125E
 10
121.0000001469811
 20
99.49999963672016
 30
0.0
 50
270.0
  0
INSERT
  5
9A2D
330
1A
100
AcDbEntity
  8
0
100
AcDbBlockReference
  2
A$C34EE125E
 10
121.0000001469811
 20
192.5000005817244
 30
0.0
 41
-1.0
 50
270.0
  0
LINE
  5
9A31
330
1A
100
AcDbEntity
  8
0
100
AcDbLine
 10
103.3
 20
99.50000010922233
 30
0.0
 11
146.7
 21
99.50000010922233
 31
0.0
  0
LINE
  5
9A32
330
1A
100
AcDbEntity
  8
0
100
AcDbLine
 10
102.5
 20
100.3000001092223
 30
0.0
 11
102.5
 21
191.7000001092222
 31
0.0
  0
LINE
  5
9A33
330
1A
100
AcDbEntity
  8
0
100
AcDbLine
 10
147.5
 20
191.7000001092222
 30
0.0
 11
147.5
 21
100.3000001092223
 31
0.0
  0
LINE
  5
9A34
330
1A
100
AcDbEntity
  8
0
100
AcDbLine
 10
146.7
 20
192.5000001092222
 30
0.0
 11
103.2999999999999
 21
192.5000001092221
 31
0.0
  0
ARC
  5
9A35
330
1A
100
AcDbEntity
  8
0
100
AcDbCircle
 10
103.2999999999999
 20
191.7000001092222
 30
0.0
 40
0.8
100
AcDbArc
 50
90.0
 51
180.0
  0
ARC
  5
9A36
330
1A
100
AcDbEntity
  8
0
100
AcDbCircle
 10
146.7
 20
191.7000001092222
 30
0.0
 40
0.8
100
AcDbArc
 50
0.0
 51
90.0
  0
ARC
  5
9A37
330
1A
100
AcDbEntity
  8
0
100
AcDbCircle
 10
146.7
 20
100.3000001092223
 30
0.0
 40
0.8
100
AcDbArc
 50
270.0
 51
0.0
  0
ARC
  5
9A38
330
1A
100
AcDbEntity
  8
0
100
AcDbCircle
 10
103.3
 20
100.3000001092223
 30
0.0
 40
0.8
100
AcDbArc
 50
180.0
 51
270.0
  0
LINE
  5
9A39
330
1A
100
AcDbEntity
  8
0
100
AcDbLine
 10
146.5
 20
201.0000001092223
 30
0.0
 11
103.5
 21
201.0000001092223
 31
0.0
  0
LINE
  5
9A3A
330
1A
100
AcDbEntity
  8
0
100
AcDbLine
 10
146.5
 20
91.00000010922228
 30
0.0
 11
103.4999999999999
 21
91.00000010922228
 31
0.0
  0
LINE
  5
9A3B
330
1A
100
AcDbEntity
  8
0
100
AcDbLine
 10
102.4999999999999
 20
92.00000010922227
 30
0.0
 11
102.5
 21
200.0000001092223
 31
0.0
  0
LINE
  5
9A3C
330
1A
100
AcDbEntity
  8
0
100
AcDbLine
 10
147.5
 20
92.00000010922227
 30
0.0
 11
147.5
 21
200.0000001092223
 31
0.0
  0
LINE
  5
9A3D
330
1A
100
AcDbEntity
  8
0
100
AcDbLine
 10
102.5
 20
200.0000001092223
 30
0.0
 11
103.5
 21
201.0000001092223
 31
0.0
  0
LINE
  5
9A3E
330
1A
100
AcDbEntity
  8
0
100
AcDbLine
 10
146.5
 20
201.0000001092223
 30
0.0
 11
147.5
 21
200.0000001092223
 31
0.0
  0
LINE
  5
9A3F
330
1A
100
AcDbEntity
  8
0
100
AcDbLine
 10
147.5
 20
92.00000010922227
 30
0.0
 11
146.5
 21
91.00000010922228
 31
0.0
  0
LINE
  5
9A40
330
1A
100
AcDbEntity
  8
0
100
AcDbLine
 10
102.4999999999999
 20
92.00000010922227
 30
0.0
 11
103.4999999999999
 21
91.00000010922228
 31
0.0
  0
CIRCLE
  5
9A41
330
1A
100
AcDbEntity
  8
0
100
AcDbCircle
 10
125.0
 20
197.5000001092223
 30
0.0
 40
2.0
  0
CIRCLE
  5
9A42
330
1A
100
AcDbEntity
  8
0
100
AcDbCircle
 10
125.0
 20
94.50000010922222
 30
0.0
 40
2.0
  0
LINE
  5
9A62
330
1A
100
AcDbEntity
  8
0
100
AcDbLine
 10
308.4000000499685
 20
191.5000001092222
 30
0.0
 11
308.4000000499685
 21
100.5000001092222
 31
0.0
  0
LINE
  5
9A63
330
1A
100
AcDbEntity
  8
0
100
AcDbLine
 10
235.2000000499685
 20
100.5000001092222
 30
0.0
 11
308.4000000499685
 21
100.5000001092222
 31
0.0
  0
LINE
  5
9A65
330
1A
100
AcDbEntity
  8
0
100
AcDbLine
 10
235.2000000499686
 20
191.5000001092223
 30
0.0
 11
308.4000000499685
 21
191.5000001092223
 31
0.0
  0
LINE
  5
9A66
330
1A
100
AcDbEntity
  8
0
100
AcDbLine
 10
308.6000000499686
 20
92.00000010922224
 30
0.0
 11
310.2000000499685
 21
92.00000010922224
 31
0.0
  0
LINE
  5
9A67
330
1A
100
AcDbEntity
  8
0
100
AcDbLine
 10
308.6000000499686
 20
200.0000001092224
 30
0.0
 11
310.2000000499686
 21
200.0000001092224
 31
0.0
  0
LINE
  5
9A6A
330
1A
100
AcDbEntity
  8
0
100
AcDbLine
 10
235.2000000499686
 20
191.7000001092221
 30
0.0
 11
235.2000000499685
 21
100.3000001092223
 31
0.0
  0
LINE
  5
9A7A
330
1A
100
AcDbEntity
  8
0
100
AcDbLine
 10
245.2000000499685
 20
100.3000001092223
 30
0.0
 11
245.2000000499685
 21
99.50000010922231
 31
0.0
  0
LINE
  5
9A7B
330
1A
100
AcDbEntity
  8
0
100
AcDbLine
 10
245.2000000499686
 20
192.5000001092222
 30
0.0
 11
245.2000000499686
 21
191.7000001092221
 31
0.0
  0
LINE
  5
9A7F
330
1A
100
AcDbEntity
  8
0
100
AcDbLine
 10
310.2000000499685
 20
201.0000001092223
 30
0.0
 11
308.6000000499685
 21
201.0000001092223
 31
0.0
  0
LINE
  5
9A80
330
1A
100
AcDbEntity
  8
0
100
AcDbLine
 10
308.6000000499685
 20
91.00000010922224
 30
0.0
 11
310.2000000499685
 21
91.00000010922224
 31
0.0
  0
LINE
  5
9A81
330
1A
100
AcDbEntity
  8
0
100
AcDbLine
 10
310.2000000499685
 20
201.0000001092223
 30
0.0
 11
310.2000000499685
 21
91.00000010922224
 31
0.0
  0
LINE
  5
9A82
330
1A
100
AcDbEntity
  8
0
100
AcDbLine
 10
308.6000000499685
 20
201.0000001092223
 30
0.0
 11
308.6000000499685
 21
91.00000010922224
 31
0.0
  0
ARC
  5
9A83
330
1A
100
AcDbEntity
  8
0
100
AcDbCircle
 10
231.0000000499686
 20
191.7000001092221
 30
0.0
 40
0.8
100
AcDbArc
 50
90.0
 51
180.0
  0
ARC
  5
9A84
330
1A
100
AcDbEntity
  8
0
100
AcDbCircle
 10
231.0000000499685
 20
100.3000001092223
 30
0.0
 40
0.8
100
AcDbArc
 50
180.0
 51
270.0
  0
LINE
  5
9A85
330
1A
100
AcDbEntity
  8
0
100
AcDbLine
 10
231.0000000499685
 20
99.50000010922231
 30
0.0
 11
245.2000000499685
 21
99.50000010922231
 31
0.0
  0
LINE
  5
9A86
330
1A
100
AcDbEntity
  8
0
100
AcDbLine
 10
231.0000000499686
 20
100.3000001092223
 30
0.0
 11
245.2000000499685
 21
100.3000001092223
 31
0.0
  0
LINE
  5
9A87
330
1A
100
AcDbEntity
  8
0
100
AcDbLine
 10
231.0000000499686
 20
191.7000001092221
 30
0.0
 11
245.2000000499686
 21
191.7000001092221
 31
0.0
  0
LINE
  5
9A88
330
1A
100
AcDbEntity
  8
0
100
AcDbLine
 10
231.0000000499686
 20
192.5000001092222
 30
0.0
 11
245.2000000499686
 21
192.5000001092222
 31
0.0
  0
LINE
  5
9A8A
330
1A
100
AcDbEntity
  8
0
100
AcDbLine
 10
230.2000000499686
 20
191.7000001092221
 30
0.0
 11
230.2000000499685
 21
100.3000001092223
 31
0.0
  0
INSERT
  5
9E43
330
1A
100
AcDbEntity
  8
0
100
AcDbBlockReference
  2
A$C34EE125E
 10
236.2000001969497
 20
192.5000005817244
 30
0.0
 41
-1.0
 50
270.0
  0
INSERT
  5
9E4C
330
1A
100
AcDbEntity
  8
0
100
AcDbBlockReference
  2
A$C34EE125E
 10
236.2000001969497
 20
99.49999963672013
 30
0.0
 50
270.0
  0
DIMENSION
  5
9F02
330
1A
100
AcDbEntity
  8
SUNPOU
100
AcDbDimension
  2
*D9
 10
230.2000000499685
 20
220.0
 30
0.0
 11
215.2000000499686
 21
223.5
 31
0.0
 70
    32
 71
     5
 42
29.99999999999995
  3
STANDARD
100
AcDbAlignedDimension
 13
200.2000000499686
 23
183.1500001092224
 33
0.0
 14
230.2000000499685
 24
191.7000001092221
 34
0.0
100
AcDbRotatedDimension
1001
ACAD
1000
DSTYLE
1002
{
1070
   140
1040
6.0
1070
    74
1070
     0
1070
    73
1070
     0
1070
   272
1070
     0
1070
    77
1070
     1
1070
   173
1070
     1
1070
   147
1040
0.5
1070
    42
1040
0.5
1070
    44
1040
0.5
1070
    43
1040
10.0
1070
   271
1070
     0
1070
   141
1040
0.0
1070
     7
1000
_OPEN
1070
     6
1000
_OPEN
1070
    41
1040
2.5
1002
}
  0
TEXT
  5
9F60
330
1A
100
AcDbEntity
  8
0
100
AcDbText
 10
396.5
 20
7.5
 30
0.0
 40
3.0
  1
_
100
AcDbText
  0
TEXT
  5
9F6C
330
1A
100
AcDbEntity
  8
WAKU
100
AcDbText
 10
318.0
 20
19.0
 30
0.0
 40
4.0
  1
奥野
100
AcDbText
  0
TEXT
  5
9F6D
330
1A
100
AcDbEntity
  8
WAKU
100
AcDbText
 10
316.0
 20
14.0
 30
0.0
 40
2.0
  1
15.05.21
100
AcDbText
  0
TEXT
  5
9F6E
330
1A
100
AcDbEntity
  8
WAKU
100
AcDbText
 10
331.0
 20
14.0
 30
0.0
 40
2.0
  1
15.05.21
100
AcDbText
  0
TEXT
  5
9F6F
330
1A
100
AcDbEntity
  8
WAKU
100
AcDbText
 10
333.0
 20
19.0
 30
0.0
 40
4.0
  1
大野
100
AcDbText
  0
CIRCLE
  5
A1EB
330
1A
100
AcDbEntity
  8
0
100
AcDbCircle
 10
135.7999999999999
 20
149.0000001092222
 30
0.0
 40
2.5
  0
LINE
  5
A1EC
330
1A
100
AcDbEntity
  8
SUNPOU
100
AcDbLine
 10
117.9999999999999
 20
151.3000001092223
 30
0.0
 11
117.9999999999999
 21
148.5000001092222
 31
0.0
  0
LINE
  5
A1ED
330
1A
100
AcDbEntity
  8
SUNPOU
100
AcDbLine
 10
118.5
 20
151.8000001092222
 30
0.0
 11
118.4999999999999
 21
148.0000001092222
 31
0.0
  0
LINE
  5
A1EE
330
1A
100
AcDbEntity
  8
SUNPOU
100
AcDbLine
 10
116.9999999999999
 20
151.3000001092223
 30
0.0
 11
116.9999999999999
 21
148.5000001092222
 31
0.0
  0
CIRCLE
  5
A1EF
330
1A
100
AcDbEntity
  8
SUNPOU
100
AcDbCircle
 10
114.2999999999999
 20
150.5000001092222
 30
0.0
 40
1.0
  0
CIRCLE
  5
A1F0
330
1A
100
AcDbEntity
  8
SUNPOU
100
AcDbCircle
 10
114.2999999999999
 20
150.5000001092222
 30
0.0
 40
1.7
  0
LINE
  5
A1F1
330
1A
100
AcDbEntity
  8
SUNPOU
100
AcDbLine
 10
112.1
 20
183.0000001092223
 30
0.0
 11
112.0999999999999
 21
107.0000001092223
 31
0.0
  0
LINE
  5
A1F2
330
1A
100
AcDbEntity
  8
SUNPOU
100
AcDbLine
 10
116.4999999999999
 20
183.0000001092223
 30
0.0
 11
116.4999999999999
 21
107.0000001092223
 31
0.0
  0
LINE
  5
A1F3
330
1A
100
AcDbEntity
  8
0
100
AcDbLine
 10
111.1000000000001
 20
106.5000001092222
 30
0.0
 11
111.0999999999999
 21
183.5000001092222
 31
0.0
  0
LINE
  5
A1F4
330
1A
100
AcDbEntity
  8
0
100
AcDbLine
 10
119.5
 20
183.5000001092222
 30
0.0
 11
119.5
 21
106.5000001092222
 31
0.0
  0
CIRCLE
  5
A1F5
330
1A
100
AcDbEntity
  8
SUNPOU
100
AcDbCircle
 10
135.7999999999999
 20
149.0000001092222
 30
0.0
 40
1.149999999999999
  0
LINE
  5
A1F6
330
1A
100
AcDbEntity
  8
SUNPOU
100
AcDbLine
 10
136.0999999999999
 20
150.1101802747809
 30
0.0
 11
136.0999999999999
 21
147.8898199436635
 31
0.0
  0
LINE
  5
A1F7
330
1A
100
AcDbEntity
  8
SUNPOU
100
AcDbLine
 10
135.4999999999999
 20
150.1101802747809
 30
0.0
 11
135.4999999999999
 21
147.8898199436635
 31
0.0
  0
LINE
  5
A1F8
330
1A
100
AcDbEntity
  8
SUNPOU
100
AcDbLine
 10
134.2
 20
150.920937380452
 30
0.0
 11
134.1999999999999
 21
147.0790628379923
 31
0.0
  0
MTEXT
  5
A1F9
330
1A
100
AcDbEntity
  8
0
100
AcDbMText
 10
132.2999999999999
 20
149.0000001092222
 30
0.0
 40
2.5
 41
3.066666666666666
 71
     6
 72
     5
  1
{\fTahoma|b0|i0|c0|p34;F}
 73
     1
 44
1.0
  0
MTEXT
  5
A1FA
330
1A
100
AcDbEntity
  8
0
100
AcDbMText
 10
110.0999999999999
 20
150.5000001092222
 30
0.0
 40
2.5
 41
5.907407407407408
 71
     6
 72
     5
  1
{\fTahoma|b0|i0|c0|p34;7}
 73
     1
 44
1.0
  0
MTEXT
  5
A1FB
330
1A
100
AcDbEntity
  8
0
100
AcDbMText
 10
120.5
 20
150.5000001092222
 30
0.0
 40
2.5
 41
3.399999999999999
 71
     4
 72
     5
  1
{\fMS Gothic|b0|i0|c128|p49;-}
 73
     1
 44
1.0
  0
MTEXT
  5
A1FC
330
1A
100
AcDbEntity
  8
0
100
AcDbMText
 10
138.25
 20
127.5000001092223
 30
0.0
 40
2.5
 41
9.9
 71
     4
 72
     5
  1
{\fTahoma|b0|i0|c0|p34;SPAN}
 73
     1
 44
1.0
  0
MTEXT
  5
A1FD
330
1A
100
AcDbEntity
  8
0
 62
     0
100
AcDbMText
 10
105.4999999999999
 20
101.5000001092223
 30
0.0
 40
3.0
 41
25.56451612903231
 71
     7
 72
     5
  1
{\fTahoma|b0|i0|c0|p34;TOYO SOKKI}
 73
     1
 44
1.0
  0
MTEXT
  5
A1FE
330
1A
100
AcDbEntity
  8
0
100
AcDbMText
 10
136.6
 20
104.5000001092222
 30
0.0
 40
2.5
 41
8.566666666666666
 71
     2
 72
     5
  1
{\fTahoma|b0|i0|c0|p34;AZ.R}
 73
     1
 44
1.0
  0
LINE
  5
A1FF
330
1A
100
AcDbEntity
  8
SUNPOU
100
AcDbLine
 10
119.5
 20
118.0000001092222
 30
0.0
 11
111.1
 21
118.0000001092222
 31
0.0
  0
LINE
  5
A200
330
1A
100
AcDbEntity
  8
SUNPOU
100
AcDbLine
 10
119.5
 20
123.0000001092222
 30
0.0
 11
111.1
 21
123.0000001092222
 31
0.0
  0
LINE
  5
A201
330
1A
100
AcDbEntity
  8
SUNPOU
100
AcDbLine
 10
119.5
 20
148.0000001092222
 30
0.0
 11
111.1
 21
148.0000001092222
 31
0.0
  0
LINE
  5
A202
330
1A
100
AcDbEntity
  8
SUNPOU
100
AcDbLine
 10
119.5
 20
138.0000001092222
 30
0.0
 11
111.1
 21
138.0000001092222
 31
0.0
  0
LINE
  5
A203
330
1A
100
AcDbEntity
  8
SUNPOU
100
AcDbLine
 10
119.5
 20
143.0000001092222
 30
0.0
 11
111.1
 21
143.0000001092222
 31
0.0
  0
LINE
  5
A204
330
1A
100
AcDbEntity
  8
SUNPOU
100
AcDbLine
 10
119.5
 20
133.0000001092223
 30
0.0
 11
111.1
 21
133.0000001092223
 31
0.0
  0
LINE
  5
A205
330
1A
100
AcDbEntity
  8
SUNPOU
100
AcDbLine
 10
119.5
 20
128.0000001092223
 30
0.0
 11
111.1
 21
128.0000001092223
 31
0.0
  0
LINE
  5
A206
330
1A
100
AcDbEntity
  8
SUNPOU
100
AcDbLine
 10
119.5
 20
113.0000001092222
 30
0.0
 11
111.1
 21
113.0000001092222
 31
0.0
  0
LINE
  5
A207
330
1A
100
AcDbEntity
  8
SUNPOU
100
AcDbLine
 10
119.5
 20
107.0000001092223
 30
0.0
 11
111.1000000000001
 21
107.0000001092223
 31
0.0
  0
LINE
  5
A208
330
1A
100
AcDbEntity
  8
SUNPOU
100
AcDbLine
 10
119.5
 20
108.0000001092223
 30
0.0
 11
111.1
 21
108.0000001092223
 31
0.0
  0
LINE
  5
A209
330
1A
100
AcDbEntity
  8
0
100
AcDbLine
 10
111.1000000000001
 20
106.5000001092222
 30
0.0
 11
119.5
 21
106.5000001092222
 31
0.0
  0
MTEXT
  5
A20A
330
1A
100
AcDbEntity
  8
0
100
AcDbMText
 10
110.0999999999999
 20
125.5000001092222
 30
0.0
 40
2.5
 41
5.907407407407408
 71
     6
 72
     5
  1
{\fTahoma|b0|i0|c0|p34;12}
 73
     1
 44
1.0
  0
MTEXT
  5
A20B
330
1A
100
AcDbEntity
  8
0
100
AcDbMText
 10
110.0999999999999
 20
115.5000001092223
 30
0.0
 40
2.5
 41
5.907407407407408
 71
     6
 72
     5
  1
{\fTahoma|b0|i0|c0|p34;14}
 73
     1
 44
1.0
  0
MTEXT
  5
A20C
330
1A
100
AcDbEntity
  8
0
100
AcDbMText
 10
110.0999999999999
 20
110.5000001092222
 30
0.0
 40
2.5
 41
5.907407407407408
 71
     6
 72
     5
  1
{\fTahoma|b0|i0|c0|p34;15}
 73
     1
 44
1.0
  0
MTEXT
  5
A20D
330
1A
100
AcDbEntity
  8
0
100
AcDbMText
 10
110.0999999999999
 20
120.5000001092223
 30
0.0
 40
2.5
 41
5.907407407407408
 71
     6
 72
     5
  1
{\fTahoma|b0|i0|c0|p34;13}
 73
     1
 44
1.0
  0
MTEXT
  5
A20E
330
1A
100
AcDbEntity
  8
0
100
AcDbMText
 10
110.0999999999999
 20
130.5000001092222
 30
0.0
 40
2.5
 41
5.907407407407408
 71
     6
 72
     5
  1
{\fTahoma|b0|i0|c0|p34;11}
 73
     1
 44
1.0
  0
MTEXT
  5
A20F
330
1A
100
AcDbEntity
  8
0
100
AcDbMText
 10
110.0999999999999
 20
135.5000001092222
 30
0.0
 40
2.5
 41
5.907407407407408
 71
     6
 72
     5
  1
{\fTahoma|b0|i0|c0|p34;10}
 73
     1
 44
1.0
  0
MTEXT
  5
A210
330
1A
100
AcDbEntity
  8
0
100
AcDbMText
 10
110.0999999999999
 20
145.5000001092223
 30
0.0
 40
2.5
 41
5.907407407407408
 71
     6
 72
     5
  1
{\fTahoma|b0|i0|c0|p34;8}
 73
     1
 44
1.0
  0
MTEXT
  5
A211
330
1A
100
AcDbEntity
  8
0
100
AcDbMText
 10
110.0999999999999
 20
140.5000001092223
 30
0.0
 40
2.5
 41
5.907407407407408
 71
     6
 72
     5
  1
{\fTahoma|b0|i0|c0|p34;9}
 73
     1
 44
1.0
  0
CIRCLE
  5
A212
330
1A
100
AcDbEntity
  8
SUNPOU
100
AcDbCircle
 10
114.2999999999999
 20
125.5000001092222
 30
0.0
 40
1.7
  0
LINE
  5
A213
330
1A
100
AcDbEntity
  8
SUNPOU
100
AcDbLine
 10
118.5
 20
126.8000001092222
 30
0.0
 11
118.4999999999999
 21
123.0000001092222
 31
0.0
  0
MTEXT
  5
A214
330
1A
100
AcDbEntity
  8
0
100
AcDbMText
 10
120.5
 20
125.5000001092222
 30
0.0
 40
2.5
 41
9.9
 71
     4
 72
     5
  1
{\fTahoma|b0|i0|c0|p34;SHL}
 73
     1
 44
1.0
  0
CIRCLE
  5
A215
330
1A
100
AcDbEntity
  8
0
100
AcDbCircle
 10
129.6
 20
117.0000001092223
 30
0.0
 40
2.0
  0
CIRCLE
  5
A216
330
1A
100
AcDbEntity
  8
SUNPOU
100
AcDbCircle
 10
129.6
 20
117.0000001092223
 30
0.0
 40
1.5
  0
LINE
  5
A217
330
1A
100
AcDbEntity
  8
SUNPOU
100
AcDbLine
 10
118.5
 20
116.8000001092223
 30
0.0
 11
118.4999999999999
 21
113.0000001092222
 31
0.0
  0
LINE
  5
A218
330
1A
100
AcDbEntity
  8
SUNPOU
100
AcDbLine
 10
117.9999999999999
 20
116.3000001092223
 30
0.0
 11
117.9999999999999
 21
113.5000001092222
 31
0.0
  0
LINE
  5
A219
330
1A
100
AcDbEntity
  8
SUNPOU
100
AcDbLine
 10
116.9999999999999
 20
116.3000001092223
 30
0.0
 11
116.9999999999999
 21
113.5000001092222
 31
0.0
  0
CIRCLE
  5
A21A
330
1A
100
AcDbEntity
  8
SUNPOU
100
AcDbCircle
 10
114.2999999999999
 20
115.5000001092223
 30
0.0
 40
1.7
  0
CIRCLE
  5
A21B
330
1A
100
AcDbEntity
  8
SUNPOU
100
AcDbCircle
 10
114.2999999999999
 20
115.5000001092223
 30
0.0
 40
1.0
  0
MTEXT
  5
A21C
330
1A
100
AcDbEntity
  8
0
100
AcDbMText
 10
120.5
 20
115.5000001092223
 30
0.0
 40
2.5
 41
9.9
 71
     4
 72
     5
  1
{\fTahoma|b0|i0|c0|p34;24V}
 73
     1
 44
1.0
  0
MTEXT
  5
A21D
330
1A
100
AcDbEntity
  8
0
100
AcDbMText
 10
120.5
 20
110.5000001092222
 30
0.0
 40
2.5
 41
9.9
 71
     4
 72
     5
  1
{\fTahoma|b0|i0|c0|p34;0V}
 73
     1
 44
1.0
  0
LINE
  5
A21E
330
1A
100
AcDbEntity
  8
SUNPOU
100
AcDbLine
 10
117.9999999999999
 20
111.3000001092222
 30
0.0
 11
117.9999999999999
 21
108.5000001092222
 31
0.0
  0
LINE
  5
A21F
330
1A
100
AcDbEntity
  8
SUNPOU
100
AcDbLine
 10
116.9999999999999
 20
111.3000001092222
 30
0.0
 11
116.9999999999999
 21
108.5000001092222
 31
0.0
  0
CIRCLE
  5
A220
330
1A
100
AcDbEntity
  8
SUNPOU
100
AcDbCircle
 10
114.2999999999999
 20
110.5000001092222
 30
0.0
 40
1.7
  0
LINE
  5
A221
330
1A
100
AcDbEntity
  8
SUNPOU
100
AcDbLine
 10
118.4999999999999
 20
111.8000001092223
 30
0.0
 11
118.4999999999999
 21
108.0000001092223
 31
0.0
  0
LINE
  5
A222
330
1A
100
AcDbEntity
  8
SUNPOU
100
AcDbLine
 10
117.9999999999999
 20
108.5000001092222
 30
0.0
 11
116.9999999999999
 21
108.5000001092222
 31
0.0
  0
LINE
  5
A223
330
1A
100
AcDbEntity
  8
SUNPOU
100
AcDbLine
 10
118.4999999999999
 20
111.8000001092223
 30
0.0
 11
116.4999999999999
 21
111.8000001092223
 31
0.0
  0
CIRCLE
  5
A224
330
1A
100
AcDbEntity
  8
SUNPOU
100
AcDbCircle
 10
114.2999999999999
 20
110.5000001092222
 30
0.0
 40
1.0
  0
LINE
  5
A225
330
1A
100
AcDbEntity
  8
SUNPOU
100
AcDbLine
 10
117.9999999999999
 20
111.3000001092222
 30
0.0
 11
116.9999999999999
 21
111.3000001092222
 31
0.0
  0
LINE
  5
A226
330
1A
100
AcDbEntity
  8
SUNPOU
100
AcDbLine
 10
117.9999999999999
 20
113.5000001092222
 30
0.0
 11
116.9999999999999
 21
113.5000001092222
 31
0.0
  0
MTEXT
  5
A227
330
1A
100
AcDbEntity
  8
0
100
AcDbMText
 10
120.5
 20
120.5000001092223
 30
0.0
 40
2.5
 41
9.9
 71
     4
 72
     5
  1
{\fTahoma|b0|i0|c0|p34;E}
 73
     1
 44
1.0
  0
CIRCLE
  5
A228
330
1A
100
AcDbEntity
  8
SUNPOU
100
AcDbCircle
 10
114.2999999999999
 20
120.5000001092223
 30
0.0
 40
1.7
  0
CIRCLE
  5
A229
330
1A
100
AcDbEntity
  8
SUNPOU
100
AcDbCircle
 10
114.2999999999999
 20
120.5000001092223
 30
0.0
 40
1.0
  0
LINE
  5
A22A
330
1A
100
AcDbEntity
  8
SUNPOU
100
AcDbLine
 10
118.5
 20
121.8000001092223
 30
0.0
 11
118.4999999999999
 21
118.0000001092222
 31
0.0
  0
LINE
  5
A22B
330
1A
100
AcDbEntity
  8
SUNPOU
100
AcDbLine
 10
116.9999999999999
 20
121.3000001092223
 30
0.0
 11
116.9999999999999
 21
118.5000001092223
 31
0.0
  0
LINE
  5
A22C
330
1A
100
AcDbEntity
  8
SUNPOU
100
AcDbLine
 10
117.9999999999999
 20
121.3000001092223
 30
0.0
 11
117.9999999999999
 21
118.5000001092223
 31
0.0
  0
LINE
  5
A22D
330
1A
100
AcDbEntity
  8
SUNPOU
100
AcDbLine
 10
118.4999999999999
 20
116.8000001092223
 30
0.0
 11
116.4999999999999
 21
116.8000001092223
 31
0.0
  0
LINE
  5
A22E
330
1A
100
AcDbEntity
  8
SUNPOU
100
AcDbLine
 10
117.9999999999999
 20
118.5000001092223
 30
0.0
 11
116.9999999999999
 21
118.5000001092223
 31
0.0
  0
LINE
  5
A22F
330
1A
100
AcDbEntity
  8
SUNPOU
100
AcDbLine
 10
117.9999999999999
 20
116.3000001092223
 30
0.0
 11
116.9999999999999
 21
116.3000001092223
 31
0.0
  0
LINE
  5
A230
330
1A
100
AcDbEntity
  8
SUNPOU
100
AcDbLine
 10
118.4999999999999
 20
121.8000001092223
 30
0.0
 11
116.4999999999999
 21
121.8000001092223
 31
0.0
  0
CIRCLE
  5
A231
330
1A
100
AcDbEntity
  8
SUNPOU
100
AcDbCircle
 10
114.2999999999999
 20
125.5000001092222
 30
0.0
 40
1.0
  0
LINE
  5
A232
330
1A
100
AcDbEntity
  8
SUNPOU
100
AcDbLine
 10
117.9999999999999
 20
126.3000001092223
 30
0.0
 11
117.9999999999999
 21
123.5000001092222
 31
0.0
  0
LINE
  5
A233
330
1A
100
AcDbEntity
  8
SUNPOU
100
AcDbLine
 10
116.9999999999999
 20
126.3000001092223
 30
0.0
 11
116.9999999999999
 21
123.5000001092222
 31
0.0
  0
LINE
  5
A234
330
1A
100
AcDbEntity
  8
SUNPOU
100
AcDbLine
 10
117.9999999999999
 20
121.3000001092223
 30
0.0
 11
116.9999999999999
 21
121.3000001092223
 31
0.0
  0
LINE
  5
A235
330
1A
100
AcDbEntity
  8
SUNPOU
100
AcDbLine
 10
117.9999999999999
 20
123.5000001092222
 30
0.0
 11
116.9999999999999
 21
123.5000001092222
 31
0.0
  0
LINE
  5
A236
330
1A
100
AcDbEntity
  8
SUNPOU
100
AcDbLine
 10
117.9999999999999
 20
126.3000001092223
 30
0.0
 11
116.9999999999999
 21
126.3000001092223
 31
0.0
  0
MTEXT
  5
A237
330
1A
100
AcDbEntity
  8
0
100
AcDbMText
 10
136.6
 20
114.5000001092223
 30
0.0
 40
2.5
 41
5.907407407407408
 71
     2
 72
     5
  1
{\fTahoma|b0|i0|c0|p34;AZ}
 73
     1
 44
1.0
  0
CIRCLE
  5
A238
330
1A
100
AcDbEntity
  8
0
100
AcDbCircle
 10
136.6
 20
107.0000001092222
 30
0.0
 40
1.5
  0
LINE
  5
A239
330
1A
100
AcDbEntity
  8
0
100
AcDbLine
 10
134.0
 20
113.0000001092222
 30
0.0
 11
129.6
 21
113.0000001092222
 31
0.0
  0
LINE
  5
A23A
330
1A
100
AcDbEntity
  8
0
100
AcDbLine
 10
129.6
 20
114.0000001092223
 30
0.0
 11
129.6
 21
113.0000001092222
 31
0.0
  0
CIRCLE
  5
A23B
330
1A
100
AcDbEntity
  8
0
100
AcDbCircle
 10
135.7999999999999
 20
124.0000001092222
 30
0.0
 40
2.5
  0
CIRCLE
  5
A23C
330
1A
100
AcDbEntity
  8
0
100
AcDbCircle
 10
136.6
 20
117.0000001092223
 30
0.0
 40
1.5
  0
MTEXT
  5
A23D
330
1A
100
AcDbEntity
  8
0
100
AcDbMText
 10
132.2999999999999
 20
124.0000001092222
 30
0.0
 40
2.5
 41
3.066666666666666
 71
     6
 72
     5
  1
{\fTahoma|b0|i0|c0|p34;F}
 73
     1
 44
1.0
  0
LINE
  5
A23E
330
1A
100
AcDbEntity
  8
SUNPOU
100
AcDbLine
 10
134.2
 20
125.9209373804521
 30
0.0
 11
134.2
 21
122.0790628379923
 31
0.0
  0
LINE
  5
A23F
330
1A
100
AcDbEntity
  8
SUNPOU
100
AcDbLine
 10
134.2999999999999
 20
122.0000001092222
 30
0.0
 11
136.1
 21
122.0000001092222
 31
0.0
  0
LINE
  5
A240
330
1A
100
AcDbEntity
  8
SUNPOU
100
AcDbLine
 10
136.1
 20
122.0000001092222
 30
0.0
 11
136.1
 21
121.518065380024
 31
0.0
  0
LINE
  5
A241
330
1A
100
AcDbEntity
  8
SUNPOU
100
AcDbLine
 10
135.4999999999999
 20
125.1101802747809
 30
0.0
 11
135.5
 21
122.8898199436635
 31
0.0
  0
LINE
  5
A242
330
1A
100
AcDbEntity
  8
SUNPOU
100
AcDbLine
 10
136.0999999999999
 20
125.1101802747809
 30
0.0
 11
136.0999999999999
 21
122.8898199436635
 31
0.0
  0
CIRCLE
  5
A243
330
1A
100
AcDbEntity
  8
SUNPOU
100
AcDbCircle
 10
135.7999999999999
 20
124.0000001092222
 30
0.0
 40
1.149999999999999
  0
LINE
  5
A244
330
1A
100
AcDbEntity
  8
0
100
AcDbLine
 10
143.2999999999998
 20
123.0000001092222
 30
0.0
 11
139.2999999999998
 21
123.0000001092222
 31
0.0
  0
LINE
  5
A245
330
1A
100
AcDbEntity
  8
0
100
AcDbLine
 10
143.2999999999998
 20
124.5600001092222
 30
0.0
 11
143.2999999999998
 21
123.0000001092222
 31
0.0
  0
LINE
  5
A246
330
1A
100
AcDbEntity
  8
SUNPOU
100
AcDbLine
 10
118.5
 20
141.8000001092223
 30
0.0
 11
118.4999999999999
 21
138.0000001092222
 31
0.0
  0
MTEXT
  5
A247
330
1A
100
AcDbEntity
  8
0
100
AcDbMText
 10
120.5
 20
130.5000001092222
 30
0.0
 40
2.5
 41
3.399999999999999
 71
     4
 72
     5
  1
{\fTahoma|b0|i0|c0|p34;E}
 73
     1
 44
1.0
  0
MTEXT
  5
A248
330
1A
100
AcDbEntity
  8
0
100
AcDbMText
 10
120.5
 20
135.5000001092222
 30
0.0
 40
2.5
 41
3.399999999999999
 71
     4
 72
     5
  1
{\fTahoma|b0|i0|c0|p34;C}
 73
     1
 44
1.0
  0
LINE
  5
A249
330
1A
100
AcDbEntity
  8
SUNPOU
100
AcDbLine
 10
118.4999999999999
 20
126.8000001092222
 30
0.0
 11
116.4999999999999
 21
126.8000001092222
 31
0.0
  0
LINE
  5
A24A
330
1A
100
AcDbEntity
  8
SUNPOU
100
AcDbLine
 10
118.4999999999999
 20
131.8000001092223
 30
0.0
 11
116.4999999999999
 21
131.8000001092223
 31
0.0
  0
CIRCLE
  5
A24B
330
1A
100
AcDbEntity
  8
SUNPOU
100
AcDbCircle
 10
114.2999999999999
 20
130.5000001092222
 30
0.0
 40
1.0
  0
CIRCLE
  5
A24C
330
1A
100
AcDbEntity
  8
SUNPOU
100
AcDbCircle
 10
114.2999999999999
 20
130.5000001092222
 30
0.0
 40
1.7
  0
LINE
  5
A24D
330
1A
100
AcDbEntity
  8
SUNPOU
100
AcDbLine
 10
117.9999999999999
 20
131.3000001092223
 30
0.0
 11
116.9999999999999
 21
131.3000001092223
 31
0.0
  0
LINE
  5
A24E
330
1A
100
AcDbEntity
  8
SUNPOU
100
AcDbLine
 10
117.9999999999999
 20
128.5000001092222
 30
0.0
 11
116.9999999999999
 21
128.5000001092222
 31
0.0
  0
LINE
  5
A24F
330
1A
100
AcDbEntity
  8
SUNPOU
100
AcDbLine
 10
117.9999999999999
 20
131.3000001092223
 30
0.0
 11
117.9999999999999
 21
128.5000001092222
 31
0.0
  0
LINE
  5
A250
330
1A
100
AcDbEntity
  8
SUNPOU
100
AcDbLine
 10
116.9999999999999
 20
131.3000001092223
 30
0.0
 11
116.9999999999999
 21
128.5000001092222
 31
0.0
  0
LINE
  5
A251
330
1A
100
AcDbEntity
  8
SUNPOU
100
AcDbLine
 10
118.5
 20
131.8000001092223
 30
0.0
 11
118.4999999999999
 21
128.0000001092223
 31
0.0
  0
LINE
  5
A252
330
1A
100
AcDbEntity
  8
SUNPOU
100
AcDbLine
 10
118.4999999999999
 20
136.8000001092223
 30
0.0
 11
116.4999999999999
 21
136.8000001092223
 31
0.0
  0
CIRCLE
  5
A253
330
1A
100
AcDbEntity
  8
SUNPOU
100
AcDbCircle
 10
114.2999999999999
 20
135.5000001092222
 30
0.0
 40
1.0
  0
CIRCLE
  5
A254
330
1A
100
AcDbEntity
  8
SUNPOU
100
AcDbCircle
 10
114.2999999999999
 20
135.5000001092222
 30
0.0
 40
1.7
  0
LINE
  5
A255
330
1A
100
AcDbEntity
  8
SUNPOU
100
AcDbLine
 10
117.9999999999999
 20
136.3000001092222
 30
0.0
 11
116.9999999999999
 21
136.3000001092222
 31
0.0
  0
LINE
  5
A256
330
1A
100
AcDbEntity
  8
SUNPOU
100
AcDbLine
 10
117.9999999999999
 20
133.5000001092222
 30
0.0
 11
116.9999999999999
 21
133.5000001092222
 31
0.0
  0
LINE
  5
A257
330
1A
100
AcDbEntity
  8
SUNPOU
100
AcDbLine
 10
118.5
 20
136.8000001092223
 30
0.0
 11
118.4999999999999
 21
133.0000001092223
 31
0.0
  0
LINE
  5
A258
330
1A
100
AcDbEntity
  8
SUNPOU
100
AcDbLine
 10
116.9999999999999
 20
136.3000001092222
 30
0.0
 11
116.9999999999999
 21
133.5000001092222
 31
0.0
  0
LINE
  5
A259
330
1A
100
AcDbEntity
  8
SUNPOU
100
AcDbLine
 10
117.9999999999999
 20
136.3000001092222
 30
0.0
 11
117.9999999999999
 21
133.5000001092222
 31
0.0
  0
MTEXT
  5
A25A
330
1A
100
AcDbEntity
  8
0
100
AcDbMText
 10
123.0
 20
133.0000001092223
 30
0.0
 40
2.5
 41
9.9
 71
     4
 72
     5
  1
{\fTahoma|b0|i0|c0|p34;SET}
 73
     1
 44
1.0
  0
LINE
  5
A25B
330
1A
100
AcDbEntity
  8
0
100
AcDbLine
 10
121.5
 20
128.5000001092223
 30
0.0
 11
125.0
 21
128.5000001092223
 31
0.0
  0
LINE
  5
A25C
330
1A
100
AcDbEntity
  8
0
100
AcDbLine
 10
125.0
 20
128.5000001092223
 30
0.0
 11
125.0
 21
129.5000001092222
 31
0.0
  0
LINE
  5
A25D
330
1A
100
AcDbEntity
  8
0
100
AcDbLine
 10
121.5
 20
137.5000001092222
 30
0.0
 11
125.0
 21
137.5000001092222
 31
0.0
  0
LINE
  5
A25E
330
1A
100
AcDbEntity
  8
0
100
AcDbLine
 10
125.0
 20
137.5000001092222
 30
0.0
 11
125.0
 21
136.5000001092222
 31
0.0
  0
LINE
  5
A25F
330
1A
100
AcDbEntity
  8
SUNPOU
100
AcDbLine
 10
117.9999999999999
 20
146.3000001092223
 30
0.0
 11
117.9999999999999
 21
143.5000001092222
 31
0.0
  0
LINE
  5
A260
330
1A
100
AcDbEntity
  8
SUNPOU
100
AcDbLine
 10
118.5
 20
146.8000001092223
 30
0.0
 11
118.4999999999999
 21
143.0000001092222
 31
0.0
  0
LINE
  5
A261
330
1A
100
AcDbEntity
  8
SUNPOU
100
AcDbLine
 10
116.9999999999999
 20
146.3000001092223
 30
0.0
 11
116.9999999999999
 21
143.5000001092222
 31
0.0
  0
CIRCLE
  5
A262
330
1A
100
AcDbEntity
  8
SUNPOU
100
AcDbCircle
 10
114.2999999999999
 20
145.5000001092223
 30
0.0
 40
1.7
  0
LINE
  5
A263
330
1A
100
AcDbEntity
  8
SUNPOU
100
AcDbLine
 10
118.4999999999999
 20
141.8000001092223
 30
0.0
 11
116.4999999999999
 21
141.8000001092223
 31
0.0
  0
CIRCLE
  5
A264
330
1A
100
AcDbEntity
  8
SUNPOU
100
AcDbCircle
 10
114.2999999999999
 20
140.5000001092223
 30
0.0
 40
1.7
  0
CIRCLE
  5
A265
330
1A
100
AcDbEntity
  8
SUNPOU
100
AcDbCircle
 10
114.2999999999999
 20
140.5000001092223
 30
0.0
 40
1.0
  0
LINE
  5
A266
330
1A
100
AcDbEntity
  8
SUNPOU
100
AcDbLine
 10
117.9999999999999
 20
143.5000001092222
 30
0.0
 11
116.9999999999999
 21
143.5000001092222
 31
0.0
  0
LINE
  5
A267
330
1A
100
AcDbEntity
  8
SUNPOU
100
AcDbLine
 10
117.9999999999999
 20
141.3000001092223
 30
0.0
 11
117.9999999999999
 21
138.5000001092222
 31
0.0
  0
LINE
  5
A268
330
1A
100
AcDbEntity
  8
SUNPOU
100
AcDbLine
 10
116.9999999999999
 20
141.3000001092223
 30
0.0
 11
116.9999999999999
 21
138.5000001092222
 31
0.0
  0
LINE
  5
A269
330
1A
100
AcDbEntity
  8
SUNPOU
100
AcDbLine
 10
117.9999999999999
 20
141.3000001092223
 30
0.0
 11
116.9999999999999
 21
141.3000001092223
 31
0.0
  0
LINE
  5
A26A
330
1A
100
AcDbEntity
  8
SUNPOU
100
AcDbLine
 10
117.9999999999999
 20
138.5000001092222
 30
0.0
 11
116.9999999999999
 21
138.5000001092222
 31
0.0
  0
LINE
  5
A26B
330
1A
100
AcDbEntity
  8
SUNPOU
100
AcDbLine
 10
118.4999999999999
 20
146.8000001092223
 30
0.0
 11
116.4999999999999
 21
146.8000001092223
 31
0.0
  0
CIRCLE
  5
A26C
330
1A
100
AcDbEntity
  8
SUNPOU
100
AcDbCircle
 10
114.2999999999999
 20
145.5000001092223
 30
0.0
 40
1.0
  0
LINE
  5
A26D
330
1A
100
AcDbEntity
  8
SUNPOU
100
AcDbLine
 10
117.9999999999999
 20
148.5000001092222
 30
0.0
 11
116.9999999999999
 21
148.5000001092222
 31
0.0
  0
LINE
  5
A26E
330
1A
100
AcDbEntity
  8
SUNPOU
100
AcDbLine
 10
117.9999999999999
 20
146.3000001092223
 30
0.0
 11
116.9999999999999
 21
146.3000001092223
 31
0.0
  0
MTEXT
  5
A26F
330
1A
100
AcDbEntity
  8
0
100
AcDbMText
 10
123.0
 20
143.0000001092222
 30
0.0
 40
2.5
 41
9.9
 71
     4
 72
     5
  1
{\fTahoma|b0|i0|c0|p34;AZ}
 73
     1
 44
1.0
  0
LINE
  5
A270
330
1A
100
AcDbEntity
  8
0
100
AcDbLine
 10
121.5
 20
138.5000001092222
 30
0.0
 11
125.0
 21
138.5000001092222
 31
0.0
  0
LINE
  5
A271
330
1A
100
AcDbEntity
  8
0
100
AcDbLine
 10
125.0
 20
138.5000001092222
 30
0.0
 11
125.0
 21
139.5000001092222
 31
0.0
  0
LINE
  5
A272
330
1A
100
AcDbEntity
  8
0
100
AcDbLine
 10
121.5
 20
147.5000001092222
 30
0.0
 11
125.0
 21
147.5000001092222
 31
0.0
  0
LINE
  5
A273
330
1A
100
AcDbEntity
  8
0
100
AcDbLine
 10
121.5
 20
148.5000001092222
 30
0.0
 11
125.0
 21
148.5000001092222
 31
0.0
  0
LINE
  5
A274
330
1A
100
AcDbEntity
  8
0
100
AcDbLine
 10
125.0
 20
147.5000001092222
 30
0.0
 11
125.0
 21
146.5000001092223
 31
0.0
  0
LINE
  5
A275
330
1A
100
AcDbEntity
  8
0
100
AcDbLine
 10
125.0
 20
148.5000001092222
 30
0.0
 11
125.0
 21
149.5000001092222
 31
0.0
  0
CIRCLE
  5
A276
330
1A
100
AcDbEntity
  8
0
100
AcDbCircle
 10
135.6
 20
139.5000001092224
 30
0.0
 40
2.25
  0
CIRCLE
  5
A277
330
1A
100
AcDbEntity
  8
SUNPOU
100
AcDbCircle
 10
135.6
 20
139.5000001092224
 30
0.0
 40
2.0
  0
MTEXT
  5
A278
330
1A
100
AcDbEntity
  8
0
100
AcDbMText
 10
141.35
 20
139.5000001092224
 30
0.0
 40
2.5
 41
12.23333333333333
 71
     8
 72
     5
  1
{\fTahoma|b0|i0|c0|p34;RANGE}
 11
-0.0000000000000002
 21
-1.0
 31
0.0
 73
     1
 44
1.0
  0
CIRCLE
  5
A279
330
1A
100
AcDbEntity
  8
0
100
AcDbCircle
 10
135.7999999999999
 20
131.0000001092223
 30
0.0
 40
2.5
  0
LINE
  5
A27A
330
1A
100
AcDbEntity
  8
SUNPOU
100
AcDbLine
 10
134.2
 20
132.9209373804521
 30
0.0
 11
134.1999999999999
 21
129.0790628379923
 31
0.0
  0
MTEXT
  5
A27B
330
1A
100
AcDbEntity
  8
0
100
AcDbMText
 10
132.2999999999999
 20
131.0000001092223
 30
0.0
 40
2.5
 41
3.066666666666666
 71
     6
 72
     5
  1
{\fTahoma|b0|i0|c0|p34;C}
 73
     1
 44
1.0
  0
CIRCLE
  5
A27C
330
1A
100
AcDbEntity
  8
SUNPOU
100
AcDbCircle
 10
135.7999999999999
 20
131.0000001092223
 30
0.0
 40
1.149999999999999
  0
LINE
  5
A27D
330
1A
100
AcDbEntity
  8
SUNPOU
100
AcDbLine
 10
136.0999999999999
 20
132.1101802747809
 30
0.0
 11
136.0999999999999
 21
129.8898199436635
 31
0.0
  0
LINE
  5
A27E
330
1A
100
AcDbEntity
  8
SUNPOU
100
AcDbLine
 10
135.4999999999999
 20
132.1101802747809
 30
0.0
 11
135.4999999999999
 21
129.8898199436635
 31
0.0
  0
LINE
  5
A27F
330
1A
100
AcDbEntity
  8
SUNPOU
100
AcDbLine
 10
136.0999999999999
 20
129.0000001092222
 30
0.0
 11
136.0999999999999
 21
128.518065380024
 31
0.0
  0
LINE
  5
A280
330
1A
100
AcDbEntity
  8
SUNPOU
100
AcDbLine
 10
134.2999999999999
 20
129.0000001092222
 30
0.0
 11
136.1
 21
129.0000001092222
 31
0.0
  0
LINE
  5
A281
330
1A
100
AcDbEntity
  8
0
100
AcDbLine
 10
132.9706947682814
 20
137.5896980392718
 30
0.0
 11
132.1616777739065
 21
137.0019127869793
 31
0.0
  0
LINE
  5
A282
330
1A
100
AcDbEntity
  8
0
100
AcDbLine
 10
134.2866777739065
 20
135.458009914968
 30
0.0
 11
134.5956947682815
 21
136.4090664312631
 31
0.0
  0
LINE
  5
A283
330
1A
100
AcDbEntity
  8
0
100
AcDbLine
 10
136.6043052317186
 20
136.4090664312632
 30
0.0
 11
136.9133222260936
 21
135.458009914968
 31
0.0
  0
LINE
  5
A284
330
1A
100
AcDbEntity
  8
0
100
AcDbLine
 10
143.2999999999998
 20
132.0000001092223
 30
0.0
 11
139.2999999999999
 21
132.0000001092223
 31
0.0
  0
LINE
  5
A285
330
1A
100
AcDbEntity
  8
0
100
AcDbLine
 10
143.2999999999998
 20
132.0000001092223
 30
0.0
 11
143.2999999999998
 21
130.4400001092222
 31
0.0
  0
LINE
  5
A286
330
1A
100
AcDbEntity
  8
0
100
AcDbLine
 10
139.0383222260935
 20
137.0019127869793
 30
0.0
 11
138.2293052317186
 21
137.5896980392719
 31
0.0
  0
LINE
  5
A287
330
1A
100
AcDbEntity
  8
0
100
AcDbLine
 10
137.1
 20
139.5000001092224
 30
0.0
 11
134.1
 21
139.5000001092224
 31
0.0
  0
LINE
  5
A288
330
1A
100
AcDbEntity
  8
0
100
AcDbLine
 10
137.1
 20
139.5000001092224
 30
0.0
 11
136.1
 21
139.0000001092223
 31
0.0
  0
LINE
  5
A289
330
1A
100
AcDbEntity
  8
0
100
AcDbLine
 10
137.1
 20
139.5000001092224
 30
0.0
 11
136.1
 21
140.0000001092224
 31
0.0
  0
MTEXT
  5
A28A
330
1A
100
AcDbEntity
  8
0
100
AcDbMText
 10
133.7999999999999
 20
144.5000001092223
 30
0.0
 40
2.5
 41
3.066666666666666
 71
     6
 72
     5
  1
{\fTahoma|b0|i0|c0|p34;8}
 73
     1
 44
1.0
  0
LINE
  5
A28B
330
1A
100
AcDbEntity
  8
0
100
AcDbLine
 10
132.9706947682814
 20
141.4103021791729
 30
0.0
 11
132.1616777739065
 21
141.9980874314654
 31
0.0
  0
LINE
  5
A28C
330
1A
100
AcDbEntity
  8
0
100
AcDbLine
 10
131.3500000000001
 20
139.5000001092224
 30
0.0
 11
132.3500000000001
 21
139.5000001092224
 31
0.0
  0
LINE
  5
A28D
330
1A
100
AcDbEntity
  8
0
100
AcDbLine
 10
134.2866777739065
 20
143.5419903034768
 30
0.0
 11
134.5956947682815
 21
142.5909337871816
 31
0.0
  0
LINE
  5
A28E
330
1A
100
AcDbEntity
  8
SUNPOU
100
AcDbLine
 10
136.0999999999999
 20
147.0000001092222
 30
0.0
 11
136.0999999999999
 21
146.518065380024
 31
0.0
  0
LINE
  5
A28F
330
1A
100
AcDbEntity
  8
SUNPOU
100
AcDbLine
 10
134.2999999999999
 20
147.0000001092222
 30
0.0
 11
136.1
 21
147.0000001092222
 31
0.0
  0
MTEXT
  5
A290
330
1A
100
AcDbEntity
  8
0
100
AcDbMText
 10
138.7333333333332
 20
142.0000001092222
 30
0.0
 40
2.5
 41
3.066666666666666
 71
     4
 72
     5
  1
{\fTahoma|b0|i0|c0|p34;1}
 73
     1
 44
1.0
  0
LINE
  5
A291
330
1A
100
AcDbEntity
  8
0
100
AcDbLine
 10
138.85
 20
139.5000001092224
 30
0.0
 11
139.85
 21
139.5000001092224
 31
0.0
  0
LINE
  5
A292
330
1A
100
AcDbEntity
  8
0
100
AcDbLine
 10
143.2999999999998
 20
148.0000001092222
 30
0.0
 11
139.2999999999998
 21
148.0000001092222
 31
0.0
  0
LINE
  5
A293
330
1A
100
AcDbEntity
  8
0
100
AcDbLine
 10
143.2999999999998
 20
149.5600001092222
 30
0.0
 11
143.2999999999998
 21
148.0000001092222
 31
0.0
  0
MTEXT
  5
A294
330
1A
100
AcDbEntity
  8
0
100
AcDbMText
 10
140.75
 20
184.5000001092223
 30
0.0
 40
2.5
 41
5.907407407407408
 71
     4
 72
     5
  1
{\fTahoma|b0|i0|c0|p34;ON}
 73
     1
 44
1.0
  0
MTEXT
  5
A295
330
1A
100
AcDbEntity
  8
0
100
AcDbMText
 10
138.25
 20
152.5000001092223
 30
0.0
 40
2.5
 41
9.9
 71
     4
 72
     5
  1
{\fTahoma|b0|i0|c0|p34;ZERO}
 73
     1
 44
1.0
  0
LINE
  5
A296
330
1A
100
AcDbEntity
  8
SUNPOU
100
AcDbLine
 10
119.5
 20
178.0000001092223
 30
0.0
 11
111.0999999999999
 21
178.0000001092223
 31
0.0
  0
LINE
  5
A297
330
1A
100
AcDbEntity
  8
SUNPOU
100
AcDbLine
 10
119.5
 20
183.0000001092223
 30
0.0
 11
111.0999999999999
 21
183.0000001092223
 31
0.0
  0
LINE
  5
A298
330
1A
100
AcDbEntity
  8
SUNPOU
100
AcDbLine
 10
119.5
 20
173.0000001092222
 30
0.0
 11
111.1
 21
173.0000001092222
 31
0.0
  0
LINE
  5
A299
330
1A
100
AcDbEntity
  8
SUNPOU
100
AcDbLine
 10
119.5
 20
163.0000001092222
 30
0.0
 11
111.1
 21
163.0000001092222
 31
0.0
  0
LINE
  5
A29A
330
1A
100
AcDbEntity
  8
SUNPOU
100
AcDbLine
 10
119.5
 20
168.0000001092222
 30
0.0
 11
111.1
 21
168.0000001092222
 31
0.0
  0
LINE
  5
A29B
330
1A
100
AcDbEntity
  8
SUNPOU
100
AcDbLine
 10
119.5
 20
158.0000001092223
 30
0.0
 11
111.1
 21
158.0000001092223
 31
0.0
  0
LINE
  5
A29C
330
1A
100
AcDbEntity
  8
SUNPOU
100
AcDbLine
 10
119.5
 20
153.0000001092223
 30
0.0
 11
111.1
 21
153.0000001092223
 31
0.0
  0
LINE
  5
A29D
330
1A
100
AcDbEntity
  8
0
100
AcDbLine
 10
119.5
 20
183.5000001092222
 30
0.0
 11
111.0999999999999
 21
183.5000001092222
 31
0.0
  0
CIRCLE
  5
A29E
330
1A
100
AcDbEntity
  8
SUNPOU
100
AcDbCircle
 10
113.6
 20
187.0050001092222
 30
0.0
 40
1.5
  0
CIRCLE
  5
A29F
330
1A
100
AcDbEntity
  8
0
100
AcDbCircle
 10
113.6
 20
187.0050001092222
 30
0.0
 40
2.0
  0
MTEXT
  5
A2A0
330
1A
100
AcDbEntity
  8
0
100
AcDbMText
 10
110.0999999999999
 20
160.5000001092222
 30
0.0
 40
2.5
 41
5.907407407407408
 71
     6
 72
     5
  1
{\fTahoma|b0|i0|c0|p34;5}
 73
     1
 44
1.0
  0
MTEXT
  5
A2A1
330
1A
100
AcDbEntity
  8
0
100
AcDbMText
 10
110.0999999999999
 20
155.5000001092222
 30
0.0
 40
2.5
 41
5.907407407407408
 71
     6
 72
     5
  1
{\fTahoma|b0|i0|c0|p34;6}
 73
     1
 44
1.0
  0
MTEXT
  5
A2A2
330
1A
100
AcDbEntity
  8
0
100
AcDbMText
 10
110.0999999999999
 20
165.5000001092223
 30
0.0
 40
2.5
 41
5.907407407407408
 71
     6
 72
     5
  1
{\fTahoma|b0|i0|c0|p34;4}
 73
     1
 44
1.0
  0
MTEXT
  5
A2A3
330
1A
100
AcDbEntity
  8
0
100
AcDbMText
 10
110.0999999999999
 20
170.5000001092223
 30
0.0
 40
2.5
 41
5.907407407407408
 71
     6
 72
     5
  1
{\fTahoma|b0|i0|c0|p34;3}
 73
     1
 44
1.0
  0
MTEXT
  5
A2A4
330
1A
100
AcDbEntity
  8
0
100
AcDbMText
 10
110.0999999999999
 20
180.5000001092222
 30
0.0
 40
2.5
 41
5.907407407407408
 71
     6
 72
     5
  1
{\fTahoma|b0|i0|c0|p34;1}
 73
     1
 44
1.0
  0
MTEXT
  5
A2A5
330
1A
100
AcDbEntity
  8
0
100
AcDbMText
 10
110.0999999999999
 20
175.5000001092222
 30
0.0
 40
2.5
 41
5.907407407407408
 71
     6
 72
     5
  1
{\fTahoma|b0|i0|c0|p34;2}
 73
     1
 44
1.0
  0
MTEXT
  5
A2A6
330
1A
100
AcDbEntity
  8
0
100
AcDbMText
 10
110.6
 20
187.0050001092222
 30
0.0
 40
2.5
 41
5.907407407407408
 71
     6
 72
     5
  1
{\fTahoma|b0|i0|c0|p34;PW}
 73
     1
 44
1.0
  0
INSERT
  5
A2A7
330
1A
100
AcDbEntity
  8
SUNPOU
100
AcDbBlockReference
  2
A$C1A9113A3
 10
140.5999998541152
 20
179.50000036924
 30
0.0
 50
180.0
  0
LINE
  5
A2A8
330
1A
100
AcDbEntity
  8
SUNPOU
100
AcDbLine
 10
118.5
 20
176.8000001092222
 30
0.0
 11
118.4999999999999
 21
173.0000001092222
 31
0.0
  0
LINE
  5
A2A9
330
1A
100
AcDbEntity
  8
0
100
AcDbLine
 10
140.5999999999999
 20
179.5000001092223
 30
0.0
 11
140.5999999999999
 21
159.5000001092223
 31
0.0
  0
LINE
  5
A2AA
330
1A
100
AcDbEntity
  8
0
100
AcDbLine
 10
130.5999999999999
 20
159.5000001092223
 30
0.0
 11
130.5999999999999
 21
179.5000001092223
 31
0.0
  0
MTEXT
  5
A2AB
330
1A
100
AcDbEntity
  8
0
100
AcDbMText
 10
141.5999999999999
 20
175.0000001092223
 30
0.0
 40
2.5
 41
12.23333333333333
 71
     8
 72
     5
  1
{\fTahoma|b0|i0|c0|p34;CHECK}
 11
-0.0000000000000002
 21
-1.0
 31
0.0
 73
     1
 44
1.0
  0
LINE
  5
A2AC
330
1A
100
AcDbEntity
  8
SUNPOU
100
AcDbLine
 10
118.5
 20
161.8000001092223
 30
0.0
 11
118.4999999999999
 21
158.0000001092223
 31
0.0
  0
CIRCLE
  5
A2AD
330
1A
100
AcDbEntity
  8
SUNPOU
100
AcDbCircle
 10
114.2999999999999
 20
160.5000001092222
 30
0.0
 40
1.7
  0
MTEXT
  5
A2AE
330
1A
100
AcDbEntity
  8
0
100
AcDbMText
 10
120.5
 20
160.5000001092222
 30
0.0
 40
2.5
 41
9.9
 71
     4
 72
     5
  1
{\fTahoma|b0|i0|c0|p34;SHL}
 73
     1
 44
1.0
  0
MTEXT
  5
A2AF
330
1A
100
AcDbEntity
  8
0
100
AcDbMText
 10
120.5
 20
155.5000001092222
 30
0.0
 40
2.5
 41
3.399999999999999
 71
     4
 72
     5
  1
{\fMS Gothic|b0|i0|c128|p49;+}
 73
     1
 44
1.0
  0
LINE
  5
A2B0
330
1A
100
AcDbEntity
  8
SUNPOU
100
AcDbLine
 10
117.9999999999999
 20
156.3000001092223
 30
0.0
 11
117.9999999999999
 21
153.5000001092222
 31
0.0
  0
LINE
  5
A2B1
330
1A
100
AcDbEntity
  8
SUNPOU
100
AcDbLine
 10
116.9999999999999
 20
156.3000001092223
 30
0.0
 11
116.9999999999999
 21
153.5000001092222
 31
0.0
  0
CIRCLE
  5
A2B2
330
1A
100
AcDbEntity
  8
SUNPOU
100
AcDbCircle
 10
114.2999999999999
 20
155.5000001092222
 30
0.0
 40
1.0
  0
CIRCLE
  5
A2B3
330
1A
100
AcDbEntity
  8
SUNPOU
100
AcDbCircle
 10
114.2999999999999
 20
155.5000001092222
 30
0.0
 40
1.7
  0
LINE
  5
A2B4
330
1A
100
AcDbEntity
  8
SUNPOU
100
AcDbLine
 10
118.5
 20
156.8000001092222
 30
0.0
 11
118.4999999999999
 21
153.0000001092223
 31
0.0
  0
LINE
  5
A2B5
330
1A
100
AcDbEntity
  8
SUNPOU
100
AcDbLine
 10
118.4999999999999
 20
151.8000001092222
 30
0.0
 11
116.4999999999999
 21
151.8000001092222
 31
0.0
  0
LINE
  5
A2B6
330
1A
100
AcDbEntity
  8
SUNPOU
100
AcDbLine
 10
117.9999999999999
 20
153.5000001092222
 30
0.0
 11
116.9999999999999
 21
153.5000001092222
 31
0.0
  0
LINE
  5
A2B7
330
1A
100
AcDbEntity
  8
SUNPOU
100
AcDbLine
 10
117.9999999999999
 20
151.3000001092223
 30
0.0
 11
116.9999999999999
 21
151.3000001092223
 31
0.0
  0
LINE
  5
A2B8
330
1A
100
AcDbEntity
  8
SUNPOU
100
AcDbLine
 10
118.4999999999999
 20
156.8000001092222
 30
0.0
 11
116.4999999999999
 21
156.8000001092222
 31
0.0
  0
CIRCLE
  5
A2B9
330
1A
100
AcDbEntity
  8
SUNPOU
100
AcDbCircle
 10
114.2999999999999
 20
160.5000001092222
 30
0.0
 40
1.0
  0
LINE
  5
A2BA
330
1A
100
AcDbEntity
  8
SUNPOU
100
AcDbLine
 10
117.9999999999999
 20
161.3000001092222
 30
0.0
 11
116.9999999999999
 21
161.3000001092222
 31
0.0
  0
LINE
  5
A2BB
330
1A
100
AcDbEntity
  8
SUNPOU
100
AcDbLine
 10
117.9999999999999
 20
158.5000001092222
 30
0.0
 11
116.9999999999999
 21
158.5000001092222
 31
0.0
  0
LINE
  5
A2BC
330
1A
100
AcDbEntity
  8
SUNPOU
100
AcDbLine
 10
117.9999999999999
 20
156.3000001092223
 30
0.0
 11
116.9999999999999
 21
156.3000001092223
 31
0.0
  0
LINE
  5
A2BD
330
1A
100
AcDbEntity
  8
SUNPOU
100
AcDbLine
 10
117.9999999999999
 20
161.3000001092222
 30
0.0
 11
117.9999999999999
 21
158.5000001092222
 31
0.0
  0
LINE
  5
A2BE
330
1A
100
AcDbEntity
  8
SUNPOU
100
AcDbLine
 10
116.9999999999999
 20
161.3000001092222
 30
0.0
 11
116.9999999999999
 21
158.5000001092222
 31
0.0
  0
MTEXT
  5
A2BF
330
1A
100
AcDbEntity
  8
0
100
AcDbMText
 10
122.0
 20
153.0000001092223
 30
0.0
 40
2.5
 41
9.9
 71
     4
 72
     5
  1
{\fTahoma|b0|i0|c0|p34;OUT}
 73
     1
 44
1.0
  0
LINE
  5
A2C0
330
1A
100
AcDbEntity
  8
0
100
AcDbLine
 10
121.5
 20
157.5000001092222
 30
0.0
 11
125.0
 21
157.5000001092222
 31
0.0
  0
LINE
  5
A2C1
330
1A
100
AcDbEntity
  8
0
100
AcDbLine
 10
125.0
 20
157.5000001092222
 30
0.0
 11
125.0
 21
156.5000001092222
 31
0.0
  0
MTEXT
  5
A2C2
330
1A
100
AcDbEntity
  8
0
100
AcDbMText
 10
120.5
 20
170.5000001092223
 30
0.0
 40
2.5
 41
3.399999999999999
 71
     4
 72
     5
  1
{\fMS Gothic|b0|i0|c128|p49;+}
 73
     1
 44
1.0
  0
MTEXT
  5
A2C3
330
1A
100
AcDbEntity
  8
0
100
AcDbMText
 10
120.5
 20
165.5000001092223
 30
0.0
 40
2.5
 41
3.399999999999999
 71
     4
 72
     5
  1
{\fMS Gothic|b0|i0|c128|p49;-}
 73
     1
 44
1.0
  0
LINE
  5
A2C4
330
1A
100
AcDbEntity
  8
SUNPOU
100
AcDbLine
 10
118.4999999999999
 20
166.8000001092223
 30
0.0
 11
116.4999999999999
 21
166.8000001092223
 31
0.0
  0
LINE
  5
A2C5
330
1A
100
AcDbEntity
  8
SUNPOU
100
AcDbLine
 10
118.4999999999999
 20
161.8000001092223
 30
0.0
 11
116.4999999999999
 21
161.8000001092223
 31
0.0
  0
CIRCLE
  5
A2C6
330
1A
100
AcDbEntity
  8
SUNPOU
100
AcDbCircle
 10
114.2999999999999
 20
165.5000001092223
 30
0.0
 40
1.0
  0
CIRCLE
  5
A2C7
330
1A
100
AcDbEntity
  8
SUNPOU
100
AcDbCircle
 10
114.2999999999999
 20
165.5000001092223
 30
0.0
 40
1.7
  0
LINE
  5
A2C8
330
1A
100
AcDbEntity
  8
SUNPOU
100
AcDbLine
 10
117.9999999999999
 20
166.3000001092223
 30
0.0
 11
116.9999999999999
 21
166.3000001092223
 31
0.0
  0
LINE
  5
A2C9
330
1A
100
AcDbEntity
  8
SUNPOU
100
AcDbLine
 10
117.9999999999999
 20
163.5000001092222
 30
0.0
 11
116.9999999999999
 21
163.5000001092222
 31
0.0
  0
LINE
  5
A2CA
330
1A
100
AcDbEntity
  8
SUNPOU
100
AcDbLine
 10
116.9999999999999
 20
166.3000001092223
 30
0.0
 11
116.9999999999999
 21
163.5000001092222
 31
0.0
  0
LINE
  5
A2CB
330
1A
100
AcDbEntity
  8
SUNPOU
100
AcDbLine
 10
117.9999999999999
 20
166.3000001092223
 30
0.0
 11
117.9999999999999
 21
163.5000001092222
 31
0.0
  0
LINE
  5
A2CC
330
1A
100
AcDbEntity
  8
SUNPOU
100
AcDbLine
 10
118.5
 20
166.8000001092223
 30
0.0
 11
118.4999999999999
 21
163.0000001092222
 31
0.0
  0
LINE
  5
A2CD
330
1A
100
AcDbEntity
  8
SUNPOU
100
AcDbLine
 10
118.4999999999999
 20
171.8000001092223
 30
0.0
 11
116.4999999999999
 21
171.8000001092223
 31
0.0
  0
CIRCLE
  5
A2CE
330
1A
100
AcDbEntity
  8
SUNPOU
100
AcDbCircle
 10
114.2999999999999
 20
170.5000001092223
 30
0.0
 40
1.7
  0
CIRCLE
  5
A2CF
330
1A
100
AcDbEntity
  8
SUNPOU
100
AcDbCircle
 10
114.2999999999999
 20
170.5000001092223
 30
0.0
 40
1.0
  0
LINE
  5
A2D0
330
1A
100
AcDbEntity
  8
SUNPOU
100
AcDbLine
 10
117.9999999999999
 20
171.3000001092223
 30
0.0
 11
116.9999999999999
 21
171.3000001092223
 31
0.0
  0
LINE
  5
A2D1
330
1A
100
AcDbEntity
  8
SUNPOU
100
AcDbLine
 10
117.9999999999999
 20
168.5000001092222
 30
0.0
 11
116.9999999999999
 21
168.5000001092222
 31
0.0
  0
LINE
  5
A2D2
330
1A
100
AcDbEntity
  8
SUNPOU
100
AcDbLine
 10
118.5
 20
171.8000001092223
 30
0.0
 11
118.4999999999999
 21
168.0000001092222
 31
0.0
  0
LINE
  5
A2D3
330
1A
100
AcDbEntity
  8
SUNPOU
100
AcDbLine
 10
116.9999999999999
 20
171.3000001092223
 30
0.0
 11
116.9999999999999
 21
168.5000001092222
 31
0.0
  0
LINE
  5
A2D4
330
1A
100
AcDbEntity
  8
SUNPOU
100
AcDbLine
 10
117.9999999999999
 20
171.3000001092223
 30
0.0
 11
117.9999999999999
 21
168.5000001092222
 31
0.0
  0
MTEXT
  5
A2D5
330
1A
100
AcDbEntity
  8
0
100
AcDbMText
 10
122.0
 20
168.0000001092222
 30
0.0
 40
2.5
 41
9.9
 71
     4
 72
     5
  1
{\fTahoma|b0|i0|c0|p34;SIG}
 73
     1
 44
1.0
  0
LINE
  5
A2D6
330
1A
100
AcDbEntity
  8
0
100
AcDbLine
 10
121.5
 20
163.5000001092222
 30
0.0
 11
125.0
 21
163.5000001092222
 31
0.0
  0
LINE
  5
A2D7
330
1A
100
AcDbEntity
  8
0
100
AcDbLine
 10
125.0
 20
163.5000001092222
 30
0.0
 11
125.0
 21
164.5000001092222
 31
0.0
  0
LINE
  5
A2D8
330
1A
100
AcDbEntity
  8
0
100
AcDbLine
 10
121.5
 20
172.5000001092223
 30
0.0
 11
125.0
 21
172.5000001092223
 31
0.0
  0
LINE
  5
A2D9
330
1A
100
AcDbEntity
  8
0
100
AcDbLine
 10
125.0
 20
172.5000001092223
 30
0.0
 11
125.0
 21
171.5000001092223
 31
0.0
  0
INSERT
  5
A2DA
330
1A
100
AcDbEntity
  8
SUNPOU
100
AcDbBlockReference
  2
A$C1A9113A3
 10
140.5999998541152
 20
169.50000036924
 30
0.0
 50
180.0
  0
MTEXT
  5
A2DB
330
1A
100
AcDbEntity
  8
0
100
AcDbMText
 10
141.5999999999999
 20
164.5000001092223
 30
0.0
 40
2.5
 41
12.23333333333333
 71
     8
 72
     5
  1
{\fTahoma|b0|i0|c0|p34;TARE}
 11
-0.0000000000000002
 21
-1.0
 31
0.0
 73
     1
 44
1.0
  0
CIRCLE
  5
A2DC
330
1A
100
AcDbEntity
  8
0
100
AcDbCircle
 10
135.7999999999999
 20
156.0000001092222
 30
0.0
 40
2.5
  0
LINE
  5
A2DD
330
1A
100
AcDbEntity
  8
0
100
AcDbLine
 10
140.5999999999999
 20
159.5000001092223
 30
0.0
 11
130.5999999999999
 21
159.5000001092223
 31
0.0
  0
LINE
  5
A2DE
330
1A
100
AcDbEntity
  8
SUNPOU
100
AcDbLine
 10
134.1999999999999
 20
157.9209373804521
 30
0.0
 11
134.1999999999999
 21
154.0790628379923
 31
0.0
  0
LINE
  5
A2DF
330
1A
100
AcDbEntity
  8
SUNPOU
100
AcDbLine
 10
135.4999999999999
 20
157.1101802747809
 30
0.0
 11
135.4999999999999
 21
154.8898199436635
 31
0.0
  0
LINE
  5
A2E0
330
1A
100
AcDbEntity
  8
SUNPOU
100
AcDbLine
 10
136.0999999999999
 20
157.1101802747809
 30
0.0
 11
136.0999999999999
 21
154.8898199436635
 31
0.0
  0
CIRCLE
  5
A2E1
330
1A
100
AcDbEntity
  8
SUNPOU
100
AcDbCircle
 10
135.7999999999999
 20
156.0000001092222
 30
0.0
 40
1.149999999999999
  0
MTEXT
  5
A2E2
330
1A
100
AcDbEntity
  8
0
100
AcDbMText
 10
132.2999999999999
 20
156.0000001092222
 30
0.0
 40
2.5
 41
3.066666666666666
 71
     6
 72
     5
  1
{\fTahoma|b0|i0|c0|p34;C}
 73
     1
 44
1.0
  0
LINE
  5
A2E3
330
1A
100
AcDbEntity
  8
SUNPOU
100
AcDbLine
 10
134.2999999999999
 20
154.0000001092222
 30
0.0
 11
136.0999999999999
 21
154.0000001092222
 31
0.0
  0
LINE
  5
A2E4
330
1A
100
AcDbEntity
  8
SUNPOU
100
AcDbLine
 10
136.0999999999999
 20
154.0000001092222
 30
0.0
 11
136.0999999999999
 21
153.518065380024
 31
0.0
  0
LINE
  5
A2E5
330
1A
100
AcDbEntity
  8
0
100
AcDbLine
 10
143.2999999999998
 20
157.0000001092222
 30
0.0
 11
143.2999999999998
 21
155.4400001092222
 31
0.0
  0
LINE
  5
A2E6
330
1A
100
AcDbEntity
  8
0
100
AcDbLine
 10
143.2999999999998
 20
157.0000001092222
 30
0.0
 11
139.2999999999999
 21
157.0000001092222
 31
0.0
  0
MTEXT
  5
A2E7
330
1A
100
AcDbEntity
  8
0
 62
   252
100
AcDbMText
 10
144.5
 20
190.5000001092222
 30
0.0
 40
3.0
 41
50.52000000000006
 71
     3
 72
     5
  1
{\fTahoma|b0|i0|c0|p34;\C7;LA-1025A}
 73
     1
 44
1.0
  0
MTEXT
  5
A2E8
330
1A
100
AcDbEntity
  8
0
100
AcDbMText
 10
120.5
 20
180.5000001092222
 30
0.0
 40
2.5
 41
3.399999999999999
 71
     4
 72
     5
  1
{\fMS Gothic|b0|i0|c128|p49;+}
 73
     1
 44
1.0
  0
MTEXT
  5
A2E9
330
1A
100
AcDbEntity
  8
0
100
AcDbMText
 10
120.5
 20
175.5000001092222
 30
0.0
 40
2.5
 41
3.399999999999999
 71
     4
 72
     5
  1
{\fMS Gothic|b0|i0|c128|p49;-}
 73
     1
 44
1.0
  0
LINE
  5
A2EA
330
1A
100
AcDbEntity
  8
SUNPOU
100
AcDbLine
 10
117.9999999999999
 20
181.3000001092223
 30
0.0
 11
117.9999999999999
 21
178.5000001092222
 31
0.0
  0
LINE
  5
A2EB
330
1A
100
AcDbEntity
  8
SUNPOU
100
AcDbLine
 10
118.5
 20
181.8000001092222
 30
0.0
 11
118.4999999999999
 21
178.0000001092223
 31
0.0
  0
LINE
  5
A2EC
330
1A
100
AcDbEntity
  8
SUNPOU
100
AcDbLine
 10
116.9999999999999
 20
181.3000001092223
 30
0.0
 11
116.9999999999999
 21
178.5000001092222
 31
0.0
  0
CIRCLE
  5
A2ED
330
1A
100
AcDbEntity
  8
SUNPOU
100
AcDbCircle
 10
114.2999999999999
 20
180.5000001092222
 30
0.0
 40
1.7
  0
LINE
  5
A2EE
330
1A
100
AcDbEntity
  8
SUNPOU
100
AcDbLine
 10
118.4999999999999
 20
176.8000001092222
 30
0.0
 11
116.4999999999999
 21
176.8000001092222
 31
0.0
  0
CIRCLE
  5
A2EF
330
1A
100
AcDbEntity
  8
SUNPOU
100
AcDbCircle
 10
114.2999999999999
 20
175.5000001092222
 30
0.0
 40
1.7
  0
CIRCLE
  5
A2F0
330
1A
100
AcDbEntity
  8
SUNPOU
100
AcDbCircle
 10
114.2999999999999
 20
175.5000001092222
 30
0.0
 40
1.0
  0
LINE
  5
A2F1
330
1A
100
AcDbEntity
  8
SUNPOU
100
AcDbLine
 10
117.9999999999999
 20
178.5000001092222
 30
0.0
 11
116.9999999999999
 21
178.5000001092222
 31
0.0
  0
LINE
  5
A2F2
330
1A
100
AcDbEntity
  8
SUNPOU
100
AcDbLine
 10
117.9999999999999
 20
176.3000001092223
 30
0.0
 11
116.9999999999999
 21
176.3000001092223
 31
0.0
  0
LINE
  5
A2F3
330
1A
100
AcDbEntity
  8
SUNPOU
100
AcDbLine
 10
117.9999999999999
 20
173.5000001092222
 30
0.0
 11
116.9999999999999
 21
173.5000001092222
 31
0.0
  0
LINE
  5
A2F4
330
1A
100
AcDbEntity
  8
SUNPOU
100
AcDbLine
 10
117.9999999999999
 20
176.3000001092223
 30
0.0
 11
117.9999999999999
 21
173.5000001092222
 31
0.0
  0
LINE
  5
A2F5
330
1A
100
AcDbEntity
  8
SUNPOU
100
AcDbLine
 10
116.9999999999999
 20
176.3000001092223
 30
0.0
 11
116.9999999999999
 21
173.5000001092222
 31
0.0
  0
LINE
  5
A2F6
330
1A
100
AcDbEntity
  8
SUNPOU
100
AcDbLine
 10
118.4999999999999
 20
181.8000001092222
 30
0.0
 11
116.4999999999999
 21
181.8000001092222
 31
0.0
  0
CIRCLE
  5
A2F7
330
1A
100
AcDbEntity
  8
SUNPOU
100
AcDbCircle
 10
114.2999999999999
 20
180.5000001092222
 30
0.0
 40
1.0
  0
LINE
  5
A2F8
330
1A
100
AcDbEntity
  8
SUNPOU
100
AcDbLine
 10
117.9999999999999
 20
181.3000001092223
 30
0.0
 11
116.9999999999999
 21
181.3000001092223
 31
0.0
  0
MTEXT
  5
A2F9
330
1A
100
AcDbEntity
  8
0
100
AcDbMText
 10
122.0
 20
178.0000001092223
 30
0.0
 40
2.5
 41
9.9
 71
     4
 72
     5
  1
{\fTahoma|b0|i0|c0|p34;EXC}
 73
     1
 44
1.0
  0
LINE
  5
A2FA
330
1A
100
AcDbEntity
  8
0
100
AcDbLine
 10
121.5
 20
173.5000001092222
 30
0.0
 11
125.0
 21
173.5000001092222
 31
0.0
  0
LINE
  5
A2FB
330
1A
100
AcDbEntity
  8
0
100
AcDbLine
 10
125.0
 20
173.5000001092222
 30
0.0
 11
125.0
 21
174.5000001092222
 31
0.0
  0
LINE
  5
A2FC
330
1A
100
AcDbEntity
  8
0
100
AcDbLine
 10
121.5
 20
182.5000001092222
 30
0.0
 11
125.0
 21
182.5000001092222
 31
0.0
  0
LINE
  5
A2FD
330
1A
100
AcDbEntity
  8
0
100
AcDbLine
 10
125.0
 20
182.5000001092222
 30
0.0
 11
125.0
 21
181.5000001092222
 31
0.0
  0
CIRCLE
  5
A2FE
330
1A
100
AcDbEntity
  8
0
100
AcDbCircle
 10
137.5
 20
184.5000001092223
 30
0.0
 40
2.25
  0
CIRCLE
  5
A2FF
330
1A
100
AcDbEntity
  8
0
100
AcDbCircle
 10
137.4999999999999
 20
184.5000001092223
 30
0.0
 40
1.25
  0
LINE
  5
A300
330
1A
100
AcDbEntity
  8
0
100
AcDbLine
 10
130.5999999999999
 20
179.5000001092223
 30
0.0
 11
140.5999999999999
 21
179.5000001092223
 31
0.0
  0
LINE
  5
A301
330
1A
100
AcDbEntity
  8
0
100
AcDbLine
 10
142.9
 20
181.0000001092222
 30
0.0
 11
142.9
 21
182.5600001092222
 31
0.0
  0
LINE
  5
A302
330
1A
100
AcDbEntity
  8
WAKU
100
AcDbLine
 10
300.0
 20
13.0
 30
0.0
 11
300.0
 21
28.0
 31
0.0
  0
TEXT
  5
A306
330
1A
100
AcDbEntity
  8
WAKU
100
AcDbText
 10
317.6
 20
29.5
 30
0.0
 40
3.0
  1
検　図
 72
     4
 11
322.5
 21
31.0
 31
0.0
100
AcDbText
  0
TEXT
  5
A307
330
1A
100
AcDbEntity
  8
WAKU
100
AcDbText
 10
332.5
 20
29.5
 30
0.0
 40
3.0
  1
設　計
 72
     4
 11
337.5
 21
31.0
 31
0.0
100
AcDbText
  0
TEXT
  5
A308
330
1A
100
AcDbEntity
  8
WAKU
100
AcDbText
 10
295.0
 20
29.5
 30
0.0
 40
3.0
  1
承　認
 72
     4
 11
300.0
 21
31.0
 31
0.0
100
AcDbText
  0
LINE
  5
A9C4
330
1A
100
AcDbEntity
  8
0
100
AcDbLine
 10
229.4000000499684
 20
183.0000001092222
 30
0.0
 11
229.4000000499684
 21
118.1200001092222
 31
0.0
  0
ARC
  5
A9C5
330
1A
100
AcDbEntity
  8
SUNPOU
100
AcDbCircle
 10
230.2400000499684
 20
117.0000001092223
 30
0.0
 40
1.399999999999999
100
AcDbArc
 50
91.83435713273219
 51
268.1656428672678
  0
LINE
  5
A9C6
330
1A
100
AcDbEntity
  8
0
100
AcDbLine
 10
229.4000000499684
 20
115.8800001092223
 30
0.0
 11
229.4000000499684
 21
107.0000001092223
 31
0.0
  0
LINE
  5
A9C7
330
1A
100
AcDbEntity
  8
0
100
AcDbLine
 10
229.4000000499684
 20
108.0000001092222
 30
0.0
 11
230.2000000499685
 21
108.0000001092222
 31
0.0
  0
LINE
  5
A9C8
330
1A
100
AcDbEntity
  8
0
100
AcDbLine
 10
229.4000000499684
 20
107.0000001092223
 30
0.0
 11
230.2000000499685
 21
107.0000001092223
 31
0.0
  0
LINE
  5
A9C9
330
1A
100
AcDbEntity
  8
SUNPOU
100
AcDbLine
 10
230.2000000499685
 20
115.6005633654748
 30
0.0
 11
230.1951859063367
 21
115.6007175457167
 31
0.0
  0
LINE
  5
A9CA
330
1A
100
AcDbEntity
  8
0
100
AcDbLine
 10
229.4000000499684
 20
113.0000001092222
 30
0.0
 11
230.2000000499685
 21
113.0000001092222
 31
0.0
  0
LINE
  5
A9CB
330
1A
100
AcDbEntity
  8
0
100
AcDbLine
 10
229.4000000499683
 20
111.8000001092222
 30
0.0
 11
230.2000000499685
 21
111.8000001092222
 31
0.0
  0
LINE
  5
A9CC
330
1A
100
AcDbEntity
  8
0
100
AcDbLine
 10
229.4000000499683
 20
121.8000001092222
 30
0.0
 11
230.2000000499685
 21
121.8000001092222
 31
0.0
  0
LINE
  5
A9CD
330
1A
100
AcDbEntity
  8
SUNPOU
100
AcDbLine
 10
230.2000000499685
 20
118.3994368529697
 30
0.0
 11
230.1951859063367
 21
118.3992826727278
 31
0.0
  0
LINE
  5
A9CE
330
1A
100
AcDbEntity
  8
0
100
AcDbLine
 10
229.4000000499684
 20
128.0000001092222
 30
0.0
 11
230.2000000499685
 21
128.0000001092222
 31
0.0
  0
LINE
  5
A9CF
330
1A
100
AcDbEntity
  8
0
100
AcDbLine
 10
229.4000000499683
 20
126.8000001092222
 30
0.0
 11
230.2000000499685
 21
126.8000001092222
 31
0.0
  0
LINE
  5
A9D0
330
1A
100
AcDbEntity
  8
0
100
AcDbLine
 10
229.4000000499684
 20
123.0000001092222
 30
0.0
 11
230.2000000499685
 21
123.0000001092222
 31
0.0
  0
LINE
  5
A9D1
330
1A
100
AcDbEntity
  8
0
100
AcDbLine
 10
229.4000000499683
 20
131.8000001092222
 30
0.0
 11
230.2000000499685
 21
131.8000001092222
 31
0.0
  0
LINE
  5
A9D2
330
1A
100
AcDbEntity
  8
0
100
AcDbLine
 10
229.4000000499684
 20
133.0000001092222
 30
0.0
 11
230.2000000499685
 21
133.0000001092222
 31
0.0
  0
LINE
  5
A9D3
330
1A
100
AcDbEntity
  8
0
100
AcDbLine
 10
229.4000000499684
 20
138.0000001092222
 30
0.0
 11
230.2000000499685
 21
138.0000001092222
 31
0.0
  0
LINE
  5
A9D4
330
1A
100
AcDbEntity
  8
0
100
AcDbLine
 10
229.4000000499683
 20
136.8000001092222
 30
0.0
 11
230.2000000499685
 21
136.8000001092222
 31
0.0
  0
LINE
  5
A9D5
330
1A
100
AcDbEntity
  8
0
100
AcDbLine
 10
229.4000000499683
 20
141.8000001092222
 30
0.0
 11
230.2000000499685
 21
141.8000001092222
 31
0.0
  0
LINE
  5
A9D6
330
1A
100
AcDbEntity
  8
0
100
AcDbLine
 10
229.4000000499684
 20
143.0000001092222
 30
0.0
 11
230.2000000499686
 21
143.0000001092222
 31
0.0
  0
LINE
  5
A9D7
330
1A
100
AcDbEntity
  8
0
100
AcDbLine
 10
229.4000000499683
 20
146.8000001092222
 30
0.0
 11
230.2000000499685
 21
146.8000001092222
 31
0.0
  0
LINE
  5
A9D8
330
1A
100
AcDbEntity
  8
0
100
AcDbLine
 10
229.4000000499684
 20
148.0000001092222
 30
0.0
 11
230.2000000499686
 21
148.0000001092222
 31
0.0
  0
LINE
  5
A9D9
330
1A
100
AcDbEntity
  8
0
100
AcDbLine
 10
229.4000000499683
 20
156.8000001092222
 30
0.0
 11
230.2000000499685
 21
156.8000001092222
 31
0.0
  0
LINE
  5
A9DA
330
1A
100
AcDbEntity
  8
0
100
AcDbLine
 10
229.4000000499684
 20
153.0000001092222
 30
0.0
 11
230.2000000499686
 21
153.0000001092222
 31
0.0
  0
LINE
  5
A9DB
330
1A
100
AcDbEntity
  8
0
100
AcDbLine
 10
229.4000000499683
 20
151.8000001092222
 30
0.0
 11
230.2000000499685
 21
151.8000001092222
 31
0.0
  0
LINE
  5
A9DC
330
1A
100
AcDbEntity
  8
0
100
AcDbLine
 10
229.4000000499683
 20
161.8000001092222
 30
0.0
 11
230.2000000499685
 21
161.8000001092222
 31
0.0
  0
LINE
  5
A9DD
330
1A
100
AcDbEntity
  8
0
100
AcDbLine
 10
229.4000000499684
 20
158.0000001092222
 30
0.0
 11
230.2000000499686
 21
158.0000001092222
 31
0.0
  0
LINE
  5
A9DE
330
1A
100
AcDbEntity
  8
0
100
AcDbLine
 10
229.4000000499684
 20
163.0000001092222
 30
0.0
 11
230.2000000499686
 21
163.0000001092222
 31
0.0
  0
LINE
  5
A9DF
330
1A
100
AcDbEntity
  8
0
100
AcDbLine
 10
229.4000000499683
 20
166.8000001092222
 30
0.0
 11
230.2000000499685
 21
166.8000001092222
 31
0.0
  0
LINE
  5
A9E0
330
1A
100
AcDbEntity
  8
0
100
AcDbLine
 10
229.4000000499684
 20
168.0000001092222
 30
0.0
 11
230.2000000499686
 21
168.0000001092222
 31
0.0
  0
LINE
  5
A9E1
330
1A
100
AcDbEntity
  8
0
100
AcDbLine
 10
229.4000000499683
 20
171.8000001092222
 30
0.0
 11
230.2000000499685
 21
171.8000001092222
 31
0.0
  0
LINE
  5
A9E2
330
1A
100
AcDbEntity
  8
0
100
AcDbLine
 10
229.4000000499684
 20
173.0000001092222
 30
0.0
 11
230.2000000499686
 21
173.0000001092222
 31
0.0
  0
ARC
  5
A9E3
330
1A
100
AcDbEntity
  8
SUNPOU
100
AcDbCircle
 10
230.2400000499684
 20
187.0050001092222
 30
0.0
 40
1.399999999999999
100
AcDbArc
 50
91.83435713273217
 51
268.1656428672678
  0
LINE
  5
A9E4
330
1A
100
AcDbEntity
  8
0
100
AcDbLine
 10
229.4000000499683
 20
176.8000001092222
 30
0.0
 11
230.2000000499685
 21
176.8000001092222
 31
0.0
  0
LINE
  5
A9E5
330
1A
100
AcDbEntity
  8
0
100
AcDbLine
 10
229.4000000499684
 20
178.0000001092222
 30
0.0
 11
230.2000000499686
 21
178.0000001092222
 31
0.0
  0
LINE
  5
A9E6
330
1A
100
AcDbEntity
  8
SUNPOU
100
AcDbLine
 10
230.2000000499686
 20
185.6055633654747
 30
0.0
 11
230.1951859063367
 21
185.6057175457167
 31
0.0
  0
LINE
  5
A9E7
330
1A
100
AcDbEntity
  8
0
100
AcDbLine
 10
229.4000000499683
 20
181.8000001092222
 30
0.0
 11
230.2000000499686
 21
181.8000001092222
 31
0.0
  0
LINE
  5
A9E8
330
1A
100
AcDbEntity
  8
0
100
AcDbLine
 10
229.4000000499684
 20
183.0000001092222
 30
0.0
 11
230.2000000499686
 21
183.0000001092222
 31
0.0
  0
LINE
  5
A9E9
330
1A
100
AcDbEntity
  8
SUNPOU
100
AcDbLine
 10
230.2000000499685
 20
188.4044368529696
 30
0.0
 11
230.1951859063367
 21
188.4042826727277
 31
0.0
  0
MTEXT
  5
AA77
330
1A
100
AcDbEntity
  8
SUNPOU
100
AcDbMText
 10
241.2608764787355
 20
231.1241558394428
 30
0.0
 40
5.0
 41
0.0
 71
     6
 72
     1
  1
(ケーブルスペース)
 73
     1
 44
1.0
  0
VIEWPORT
  5
22
330
17
100
AcDbEntity
 67
     1
  8
0
100
AcDbViewport
 10
261.5176991150442
 20
154.7242978687078
 30
0.0
 40
523.0353982300885
 41
309.4485957374157
 68
     1
 69
     1
 12
261.5176991150442
 22
154.7242978687078
 13
0.0
 23
0.0
 14
1.0
 24
1.0
 15
10.0
 25
10.0
 16
0.0
 26
0.0
 36
1.0
 17
0.0
 27
0.0
 37
0.0
 42
50.0
 43
0.0
 44
0.0
 45
309.4485957374157
 50
0.0
 51
0.0
 72
   100
 90
    32768
  1

281
     0
 71
     1
 74
     0
110
0.0
120
0.0
130
0.0
111
1.0
121
0.0
131
0.0
112
0.0
122
1.0
132
0.0
 79
     0
146
0.0
170
     0
  0
ENDSEC
  0
SECTION
  2
OBJECTS
  0
DICTIONARY
  5
C
330
0
100
AcDbDictionary
281
     1
  3
ACAD_COLOR
350
8AAA
  3
ACAD_GROUP
350
D
  3
ACAD_LAYOUT
350
8A9A
  3
ACAD_MATERIAL
350
8AA9
  3
ACAD_MLINESTYLE
350
E
  3
ACAD_PLOTSETTINGS
350
8A9B
  3
ACAD_PLOTSTYLENAME
350
8A98
  3
ACDBVARIABLEDICTIONARY
350
4B08
  3
CONTENTDICTIONARY
350
4210
  0
DICTIONARY
  5
9F8D
330
2
100
AcDbDictionary
280
     1
281
     1
  3
ACAD_LAYERSTATES
360
9F8E
  0
DICTIONARY
  5
8AAA
102
{ACAD_REACTORS
330
C
102
}
330
C
100
AcDbDictionary
281
     1
  0
DICTIONARY
  5
D
102
{ACAD_REACTORS
330
C
102
}
330
C
100
AcDbDictionary
281
     1
  3
*A1
350
52E7
  3
*A10
350
808C
  3
*A11
350
5E9C
  3
*A12
350
601E
  3
*A13
350
680A
  3
*A14
350
5FC9
  3
*A15
350
5EB8
  3
*A16
350
808E
  3
*A17
350
680E
  3
*A18
350
5F5B
  3
*A19
350
5E8D
  3
*A2
350
8001
  3
*A20
350
5FF2
  3
*A21
350
6801
  3
*A22
350
6810
  3
*A23
350
5F6A
  3
*A24
350
5FF1
  3
*A25
350
8209
  3
*A26
350
6809
  3
*A27
350
6981
  3
*A28
350
6085
  3
*A29
350
5CF3
  3
*A3
350
5FEC
  3
*A30
350
8002
  3
*A31
350
680B
  3
*A32
350
680F
  3
*A33
350
8020
  3
*A34
350
6807
  3
*A35
350
605D
  3
*A36
350
808D
  3
*A37
350
6811
  3
*A38
350
535F
  3
*A39
350
604B
  3
*A4
350
680D
  3
*A40
350
5FE9
  3
*A41
350
6805
  3
*A42
350
71FC
  3
*A43
350
8003
  3
*A44
350
8208
  3
*A45
350
6806
  3
*A46
350
820A
  3
*A47
350
680C
  3
*A48
350
6062
  3
*A49
350
6C92
  3
*A5
350
6804
  3
*A50
350
5FE3
  3
*A51
350
535E
  3
*A52
350
6802
  3
*A53
350
6803
  3
*A54
350
7006
  3
*A55
350
8000
  3
*A56
350
71CC
  3
*A6
350
71CD
  3
*A7
350
5FCE
  3
*A8
350
8012
  3
*A9
350
6808
  0
DICTIONARY
  5
8A9A
102
{ACAD_REACTORS
330
C
102
}
330
C
100
AcDbDictionary
281
     1
  3
Model
350
8A9C
  3
ﾚｲｱｳﾄ1
350
8A9D
  0
DICTIONARY
  5
8AA9
102
{ACAD_REACTORS
330
C
102
}
330
C
100
AcDbDictionary
281
     1
  0
DICTIONARY
  5
E
102
{ACAD_REACTORS
330
C
102
}
330
C
100
AcDbDictionary
281
     1
  3
STANDARD
350
13
  0
DICTIONARY
  5
8A9B
102
{ACAD_REACTORS
330
C
102
}
330
C
100
AcDbDictionary
281
     1
  0
ACDBDICTIONARYWDFLT
  5
8A98
102
{ACAD_REACTORS
330
C
102
}
330
C
100
AcDbDictionary
281
     1
  3
Normal
350
8A99
100
AcDbDictionaryWithDefault
340
8A99
  0
DICTIONARY
  5
4B08
102
{ACAD_REACTORS
330
C
102
}
330
C
100
AcDbDictionary
281
     1
  3
DIMASSOC
350
8AA2
  3
SORTENTS
350
4B09
  0
DICTIONARY
  5
4210
102
{ACAD_REACTORS
330
C
102
}
330
C
100
AcDbDictionary
281
     1
  0
DICTIONARY
  5
9F8E
102
{ACAD_REACTORS
330
9F8D
102
}
330
9F8D
100
AcDbDictionary
281
     1
  0
GROUP
  5
52E7
102
{ACAD_REACTORS
330
D
102
}
330
D
100
AcDbGroup
300

 70
     1
 71
     1
  0
GROUP
  5
808C
102
{ACAD_REACTORS
330
D
102
}
330
D
100
AcDbGroup
300

 70
     1
 71
     1
  0
GROUP
  5
5E9C
102
{ACAD_REACTORS
330
D
102
}
330
D
100
AcDbGroup
300

 70
     1
 71
     1
  0
GROUP
  5
601E
102
{ACAD_REACTORS
330
D
102
}
330
D
100
AcDbGroup
300

 70
     1
 71
     1
  0
GROUP
  5
680A
102
{ACAD_REACTORS
330
D
102
}
330
D
100
AcDbGroup
300

 70
     1
 71
     1
  0
GROUP
  5
5FC9
102
{ACAD_REACTORS
330
D
102
}
330
D
100
AcDbGroup
300

 70
     1
 71
     1
  0
GROUP
  5
5EB8
102
{ACAD_REACTORS
330
D
102
}
330
D
100
AcDbGroup
300

 70
     1
 71
     1
  0
GROUP
  5
808E
102
{ACAD_REACTORS
330
D
102
}
330
D
100
AcDbGroup
300

 70
     1
 71
     1
  0
GROUP
  5
680E
102
{ACAD_REACTORS
330
D
102
}
330
D
100
AcDbGroup
300

 70
     1
 71
     1
  0
GROUP
  5
5F5B
102
{ACAD_REACTORS
330
D
102
}
330
D
100
AcDbGroup
300

 70
     1
 71
     1
  0
GROUP
  5
5E8D
102
{ACAD_REACTORS
330
D
102
}
330
D
100
AcDbGroup
300

 70
     1
 71
     1
  0
GROUP
  5
8001
102
{ACAD_REACTORS
330
D
102
}
330
D
100
AcDbGroup
300

 70
     1
 71
     1
  0
GROUP
  5
5FF2
102
{ACAD_REACTORS
330
D
102
}
330
D
100
AcDbGroup
300

 70
     1
 71
     1
  0
GROUP
  5
6801
102
{ACAD_REACTORS
330
D
102
}
330
D
100
AcDbGroup
300

 70
     1
 71
     1
  0
GROUP
  5
6810
102
{ACAD_REACTORS
330
D
102
}
330
D
100
AcDbGroup
300

 70
     1
 71
     1
  0
GROUP
  5
5F6A
102
{ACAD_REACTORS
330
D
102
}
330
D
100
AcDbGroup
300

 70
     1
 71
     1
  0
GROUP
  5
5FF1
102
{ACAD_REACTORS
330
D
102
}
330
D
100
AcDbGroup
300

 70
     1
 71
     1
  0
GROUP
  5
8209
102
{ACAD_REACTORS
330
D
102
}
330
D
100
AcDbGroup
300

 70
     1
 71
     1
  0
GROUP
  5
6809
102
{ACAD_REACTORS
330
D
102
}
330
D
100
AcDbGroup
300

 70
     1
 71
     1
  0
GROUP
  5
6981
102
{ACAD_REACTORS
330
D
102
}
330
D
100
AcDbGroup
300

 70
     1
 71
     1
  0
GROUP
  5
6085
102
{ACAD_REACTORS
330
D
102
}
330
D
100
AcDbGroup
300

 70
     1
 71
     1
  0
GROUP
  5
5CF3
102
{ACAD_REACTORS
330
D
102
}
330
D
100
AcDbGroup
300

 70
     1
 71
     1
  0
GROUP
  5
5FEC
102
{ACAD_REACTORS
330
D
102
}
330
D
100
AcDbGroup
300

 70
     1
 71
     1
  0
GROUP
  5
8002
102
{ACAD_REACTORS
330
D
102
}
330
D
100
AcDbGroup
300

 70
     1
 71
     1
  0
GROUP
  5
680B
102
{ACAD_REACTORS
330
D
102
}
330
D
100
AcDbGroup
300

 70
     1
 71
     1
  0
GROUP
  5
680F
102
{ACAD_REACTORS
330
D
102
}
330
D
100
AcDbGroup
300

 70
     1
 71
     1
  0
GROUP
  5
8020
102
{ACAD_REACTORS
330
D
102
}
330
D
100
AcDbGroup
300

 70
     1
 71
     1
  0
GROUP
  5
6807
102
{ACAD_REACTORS
330
D
102
}
330
D
100
AcDbGroup
300

 70
     1
 71
     1
  0
GROUP
  5
605D
102
{ACAD_REACTORS
330
D
102
}
330
D
100
AcDbGroup
300

 70
     1
 71
     1
  0
GROUP
  5
808D
102
{ACAD_REACTORS
330
D
102
}
330
D
100
AcDbGroup
300

 70
     1
 71
     1
  0
GROUP
  5
6811
102
{ACAD_REACTORS
330
D
102
}
330
D
100
AcDbGroup
300

 70
     1
 71
     1
  0
GROUP
  5
535F
102
{ACAD_REACTORS
330
D
102
}
330
D
100
AcDbGroup
300

 70
     1
 71
     1
  0
GROUP
  5
604B
102
{ACAD_REACTORS
330
D
102
}
330
D
100
AcDbGroup
300

 70
     1
 71
     1
  0
GROUP
  5
680D
102
{ACAD_REACTORS
330
D
102
}
330
D
100
AcDbGroup
300

 70
     1
 71
     1
  0
GROUP
  5
5FE9
102
{ACAD_REACTORS
330
D
102
}
330
D
100
AcDbGroup
300

 70
     1
 71
     1
  0
GROUP
  5
6805
102
{ACAD_REACTORS
330
D
102
}
330
D
100
AcDbGroup
300

 70
     1
 71
     1
  0
GROUP
  5
71FC
102
{ACAD_REACTORS
330
D
102
}
330
D
100
AcDbGroup
300

 70
     1
 71
     1
  0
GROUP
  5
8003
102
{ACAD_REACTORS
330
D
102
}
330
D
100
AcDbGroup
300

 70
     1
 71
     1
  0
GROUP
  5
8208
102
{ACAD_REACTORS
330
D
102
}
330
D
100
AcDbGroup
300

 70
     1
 71
     1
  0
GROUP
  5
6806
102
{ACAD_REACTORS
330
D
102
}
330
D
100
AcDbGroup
300

 70
     1
 71
     1
  0
GROUP
  5
820A
102
{ACAD_REACTORS
330
D
102
}
330
D
100
AcDbGroup
300

 70
     1
 71
     1
  0
GROUP
  5
680C
102
{ACAD_REACTORS
330
D
102
}
330
D
100
AcDbGroup
300

 70
     1
 71
     1
  0
GROUP
  5
6062
102
{ACAD_REACTORS
330
D
102
}
330
D
100
AcDbGroup
300

 70
     1
 71
     1
  0
GROUP
  5
6C92
102
{ACAD_REACTORS
330
D
102
}
330
D
100
AcDbGroup
300

 70
     1
 71
     1
  0
GROUP
  5
6804
102
{ACAD_REACTORS
330
D
102
}
330
D
100
AcDbGroup
300

 70
     1
 71
     1
  0
GROUP
  5
5FE3
102
{ACAD_REACTORS
330
D
102
}
330
D
100
AcDbGroup
300

 70
     1
 71
     1
  0
GROUP
  5
535E
102
{ACAD_REACTORS
330
D
102
}
330
D
100
AcDbGroup
300

 70
     1
 71
     1
  0
GROUP
  5
6802
102
{ACAD_REACTORS
330
D
102
}
330
D
100
AcDbGroup
300

 70
     1
 71
     1
  0
GROUP
  5
6803
102
{ACAD_REACTORS
330
D
102
}
330
D
100
AcDbGroup
300

 70
     1
 71
     1
  0
GROUP
  5
7006
102
{ACAD_REACTORS
330
D
102
}
330
D
100
AcDbGroup
300

 70
     1
 71
     1
  0
GROUP
  5
8000
102
{ACAD_REACTORS
330
D
102
}
330
D
100
AcDbGroup
300

 70
     1
 71
     1
  0
GROUP
  5
71CC
102
{ACAD_REACTORS
330
D
102
}
330
D
100
AcDbGroup
300

 70
     1
 71
     1
  0
GROUP
  5
71CD
102
{ACAD_REACTORS
330
D
102
}
330
D
100
AcDbGroup
300

 70
     1
 71
     1
  0
GROUP
  5
5FCE
102
{ACAD_REACTORS
330
D
102
}
330
D
100
AcDbGroup
300

 70
     1
 71
     1
  0
GROUP
  5
8012
102
{ACAD_REACTORS
330
D
102
}
330
D
100
AcDbGroup
300

 70
     1
 71
     1
  0
GROUP
  5
6808
102
{ACAD_REACTORS
330
D
102
}
330
D
100
AcDbGroup
300

 70
     1
 71
     1
  0
LAYOUT
  5
8A9C
102
{ACAD_REACTORS
330
8A9A
102
}
330
8A9A
100
AcDbPlotSettings
  1

  2
pdf_A3横.pc3
  4
A3
  6

 40
3.174999952316284
 41
3.174999952316284
 42
3.17498779296875
 43
3.17498779296875
 44
420.1583251953125
 45
297.0530090332031
 46
0.0
 47
0.0
 48
0.0
 49
0.0
140
0.0
141
0.0
142
1.0
143
1.0
 70
 11952
 72
     1
 73
     0
 74
     2
  7
tmi_penstyle.ctb
 75
    16
147
1.0
 76
     0
 77
     2
 78
   300
148
0.0
149
0.0
100
AcDbLayout
  1
Model
 70
     1
 71
     0
 10
0.0
 20
0.0
 11
12.0
 21
9.0
 12
0.0
 22
0.0
 32
0.0
 14
0.0
 24
0.0
 34
0.0
 15
0.0
 25
0.0
 35
0.0
146
0.0
 13
0.0
 23
0.0
 33
0.0
 16
1.0
 26
0.0
 36
0.0
 17
0.0
 27
1.0
 37
0.0
 76
     0
330
1A
  0
LAYOUT
  5
8A9D
102
{ACAD_REACTORS
330
8A9A
102
}
330
8A9A
100
AcDbPlotSettings
  1

  2
EPSON LP-8300 (TMINETWORK)
  4

  6

 40
0.0
 41
0.0
 42
0.0
 43
0.0
 44
0.0
 45
0.0
 46
0.0
 47
0.0
 48
0.0
 49
0.0
140
0.0
141
0.0
142
1.0
143
1.0
 70
   688
 72
     0
 73
     0
 74
     5
  7
tmi_penstyle.ctb
 75
    16
147
1.0
 76
     0
 77
     2
 78
   300
148
0.0
149
0.0
100
AcDbLayout
  1
ﾚｲｱｳﾄ1
 70
     1
 71
     1
 10
0.0
 20
0.0
 11
420.0
 21
297.0
 12
0.0
 22
0.0
 32
0.0
 14
1.000000000000000E+20
 24
1.000000000000000E+20
 34
1.000000000000000E+20
 15
-1.000000000000000E+20
 25
-1.000000000000000E+20
 35
-1.000000000000000E+20
146
0.0
 13
0.0
 23
0.0
 33
0.0
 16
1.0
 26
0.0
 36
0.0
 17
0.0
 27
1.0
 37
0.0
 76
     0
330
17
331
22
  0
MLINESTYLE
  5
13
102
{ACAD_REACTORS
330
E
102
}
330
E
100
AcDbMlineStyle
  2
STANDARD
 70
     0
  3

 62
     0
 51
90.0
 52
90.0
 71
     2
 49
0.5
 62
   256
  6
BYLAYER
 49
-0.5
 62
   256
  6
BYLAYER
  0
ACDBPLACEHOLDER
  5
8A99
102
{ACAD_REACTORS
330
8A98
102
}
330
8A98
  0
DICTIONARYVAR
  5
8AA2
102
{ACAD_REACTORS
330
4B08
102
}
330
4B08
100
DictionaryVariables
280
     0
  1
1
  0
DICTIONARYVAR
  5
4B09
102
{ACAD_REACTORS
330
4B08
102
}
330
4B08
100
DictionaryVariables
280
     0
  1
96
  0
ENDSEC
  0
EOF
