  0
SECTION
  2
HEADER
  9
$ACADVER
  1
AC1015
  9
$ACADMAINTVER
 70
    20
  9
$DWGCODEPAGE
  3
ANSI_932
  9
$INSBASE
 10
0.0
 20
0.0
 30
0.0
  9
$EXTMIN
 10
19.98230080583869
 20
4.998642665099623
 30
-0.000000000000013
  9
$EXTMAX
 10
405.0164804526332
 20
280.0145880740771
 30
0.0000000000000023
  9
$LIMMIN
 10
0.0
 20
0.0
  9
$LIMMAX
 10
420.0
 20
297.0
  9
$ORTHOMODE
 70
     0
  9
$REGENMODE
 70
     1
  9
$FILLMODE
 70
     1
  9
$QTEXTMODE
 70
     0
  9
$MIRRTEXT
 70
     1
  9
$LTSCALE
 40
15.0
  9
$ATTMODE
 70
     1
  9
$TEXTSIZE
 40
4.0
  9
$TRACEWID
 40
1.0
  9
$TEXTSTYLE
  7
STANDARD
  9
$CLAYER
  8
0
  9
$CELTYPE
  6
BYLAYER
  9
$CECOLOR
 62
   256
  9
$CELTSCALE
 40
1.0
  9
$DISPSILH
 70
     0
  9
$DIMSCALE
 40
0.0
  9
$DIMASZ
 40
2.5
  9
$DIMEXO
 40
0.5
  9
$DIMDLI
 40
10.0
  9
$DIMRND
 40
0.0
  9
$DIMDLE
 40
0.0
  9
$DIMEXE
 40
0.5
  9
$DIMTP
 40
0.0
  9
$DIMTM
 40
0.0
  9
$DIMTXT
 40
4.0
  9
$DIMCEN
 40
0.0
  9
$DIMTSZ
 40
0.0
  9
$DIMTOL
 70
     0
  9
$DIMLIM
 70
     0
  9
$DIMTIH
 70
     0
  9
$DIMTOH
 70
     0
  9
$DIMSE1
 70
     0
  9
$DIMSE2
 70
     0
  9
$DIMTAD
 70
     1
  9
$DIMZIN
 70
     0
  9
$DIMBLK
  1

  9
$DIMASO
 70
     1
  9
$DIMSHO
 70
     1
  9
$DIMPOST
  1

  9
$DIMAPOST
  1

  9
$DIMALT
 70
     0
  9
$DIMALTD
 70
     2
  9
$DIMALTF
 40
25.4
  9
$DIMLFAC
 40
1.0
  9
$DIMTOFL
 70
     0
  9
$DIMTVP
 40
0.0
  9
$DIMTIX
 70
     0
  9
$DIMSOXD
 70
     0
  9
$DIMSAH
 70
     1
  9
$DIMBLK1
  1
OPEN
  9
$DIMBLK2
  1
OPEN
  9
$DIMSTYLE
  2
STANDARD
  9
$DIMCLRD
 70
     0
  9
$DIMCLRE
 70
     0
  9
$DIMCLRT
 70
     0
  9
$DIMTFAC
 40
1.0
  9
$DIMGAP
 40
0.5
  9
$DIMJUST
 70
     0
  9
$DIMSD1
 70
     0
  9
$DIMSD2
 70
     0
  9
$DIMTOLJ
 70
     1
  9
$DIMTZIN
 70
     0
  9
$DIMALTZ
 70
     0
  9
$DIMALTTZ
 70
     0
  9
$DIMUPT
 70
     0
  9
$DIMDEC
 70
     0
  9
$DIMTDEC
 70
     0
  9
$DIMALTU
 70
     2
  9
$DIMALTTD
 70
     2
  9
$DIMTXSTY
  7
STANDARD
  9
$DIMAUNIT
 70
     0
  9
$DIMADEC
 70
     0
  9
$DIMALTRND
 40
0.0
  9
$DIMAZIN
 70
     0
  9
$DIMDSEP
 70
    46
  9
$DIMATFIT
 70
     3
  9
$DIMFRAC
 70
     0
  9
$DIMLDRBLK
  1
OPEN
  9
$DIMLUNIT
 70
     2
  9
$DIMLWD
 70
    -2
  9
$DIMLWE
 70
    -2
  9
$DIMTMOVE
 70
     0
  9
$LUNITS
 70
     2
  9
$LUPREC
 70
     4
  9
$SKETCHINC
 40
1.0
  9
$FILLETRAD
 40
1.0
  9
$AUNITS
 70
     0
  9
$AUPREC
 70
     0
  9
$MENU
  1
.
  9
$ELEVATION
 40
0.0
  9
$PELEVATION
 40
0.0
  9
$THICKNESS
 40
0.0
  9
$LIMCHECK
 70
     0
  9
$CHAMFERA
 40
1.0
  9
$CHAMFERB
 40
1.0
  9
$CHAMFERC
 40
20.0
  9
$CHAMFERD
 40
0.0
  9
$SKPOLY
 70
     0
  9
$TDCREATE
 40
2450857.620429745
  9
$TDUCREATE
 40
2450857.245429745
  9
$TDUPDATE
 40
2458599.423741077
  9
$TDUUPDATE
 40
2458599.048741077
  9
$TDINDWG
 40
6.3951300463
  9
$TDUSRTIMER
 40
6.3951300463
  9
$USRTIMER
 70
     1
  9
$ANGBASE
 50
0.0
  9
$ANGDIR
 70
     0
  9
$PDMODE
 70
     0
  9
$PDSIZE
 40
0.0
  9
$PLINEWID
 40
0.0
  9
$SPLFRAME
 70
     0
  9
$SPLINETYPE
 70
     6
  9
$SPLINESEGS
 70
     8
  9
$HANDSEED
  5
B53E
  9
$SURFTAB1
 70
     6
  9
$SURFTAB2
 70
     6
  9
$SURFTYPE
 70
     6
  9
$SURFU
 70
     6
  9
$SURFV
 70
     6
  9
$UCSBASE
  2

  9
$UCSNAME
  2

  9
$UCSORG
 10
0.0
 20
0.0
 30
0.0
  9
$UCSXDIR
 10
1.0
 20
0.0
 30
0.0
  9
$UCSYDIR
 10
0.0
 20
1.0
 30
0.0
  9
$UCSORTHOREF
  2

  9
$UCSORTHOVIEW
 70
     0
  9
$UCSORGTOP
 10
0.0
 20
0.0
 30
0.0
  9
$UCSORGBOTTOM
 10
0.0
 20
0.0
 30
0.0
  9
$UCSORGLEFT
 10
0.0
 20
0.0
 30
0.0
  9
$UCSORGRIGHT
 10
0.0
 20
0.0
 30
0.0
  9
$UCSORGFRONT
 10
0.0
 20
0.0
 30
0.0
  9
$UCSORGBACK
 10
0.0
 20
0.0
 30
0.0
  9
$PUCSBASE
  2

  9
$PUCSNAME
  2

  9
$PUCSORG
 10
0.0
 20
0.0
 30
0.0
  9
$PUCSXDIR
 10
1.0
 20
0.0
 30
0.0
  9
$PUCSYDIR
 10
0.0
 20
1.0
 30
0.0
  9
$PUCSORTHOREF
  2

  9
$PUCSORTHOVIEW
 70
     0
  9
$PUCSORGTOP
 10
0.0
 20
0.0
 30
0.0
  9
$PUCSORGBOTTOM
 10
0.0
 20
0.0
 30
0.0
  9
$PUCSORGLEFT
 10
0.0
 20
0.0
 30
0.0
  9
$PUCSORGRIGHT
 10
0.0
 20
0.0
 30
0.0
  9
$PUCSORGFRONT
 10
0.0
 20
0.0
 30
0.0
  9
$PUCSORGBACK
 10
0.0
 20
0.0
 30
0.0
  9
$USERI1
 70
     0
  9
$USERI2
 70
     0
  9
$USERI3
 70
     0
  9
$USERI4
 70
     0
  9
$USERI5
 70
     0
  9
$USERR1
 40
0.0
  9
$USERR2
 40
0.0
  9
$USERR3
 40
0.0
  9
$USERR4
 40
0.0
  9
$USERR5
 40
0.0
  9
$WORLDVIEW
 70
     1
  9
$SHADEDGE
 70
     3
  9
$SHADEDIF
 70
    70
  9
$TILEMODE
 70
     1
  9
$MAXACTVP
 70
    16
  9
$PINSBASE
 10
0.0
 20
0.0
 30
0.0
  9
$PLIMCHECK
 70
     0
  9
$PEXTMIN
 10
1.000000000000000E+20
 20
1.000000000000000E+20
 30
1.000000000000000E+20
  9
$PEXTMAX
 10
-1.000000000000000E+20
 20
-1.000000000000000E+20
 30
-1.000000000000000E+20
  9
$PLIMMIN
 10
0.0
 20
0.0
  9
$PLIMMAX
 10
420.0
 20
297.0
  9
$UNITMODE
 70
     0
  9
$VISRETAIN
 70
     0
  9
$PLINEGEN
 70
     0
  9
$PSLTSCALE
 70
     1
  9
$TREEDEPTH
 70
  3020
  9
$CMLSTYLE
  2
STANDARD
  9
$CMLJUST
 70
     0
  9
$CMLSCALE
 40
1.0
  9
$PROXYGRAPHICS
 70
     1
  9
$MEASUREMENT
 70
     0
  9
$CELWEIGHT
370
    -1
  9
$ENDCAPS
280
     0
  9
$JOINSTYLE
280
     0
  9
$LWDISPLAY
290
     0
  9
$INSUNITS
 70
     0
  9
$HYPERLINKBASE
  1

  9
$STYLESHEET
  1
tmi_penstyle.ctb
  9
$XEDIT
290
     1
  9
$CEPSNTYPE
380
     0
  9
$PSTYLEMODE
290
     1
  9
$FINGERPRINTGUID
  2
{0CF6AC2F-CFB7-4513-B486-3088CC22C71C}
  9
$VERSIONGUID
  2
{BDF324EB-AD2E-47F8-A35A-0973C3647DDB}
  9
$EXTNAMES
290
     1
  9
$PSVPSCALE
 40
0.0
  9
$OLESTARTUP
290
     0
  0
ENDSEC
  0
SECTION
  2
CLASSES
  0
CLASS
  1
DICTIONARYVAR
  2
AcDbDictionaryVar
  3
ObjectDBX Classes
 90
        0
280
     0
281
     0
  0
CLASS
  1
ACDBDICTIONARYWDFLT
  2
AcDbDictionaryWithDefault
  3
ObjectDBX Classes
 90
        0
280
     0
281
     0
  0
CLASS
  1
ACDBPLACEHOLDER
  2
AcDbPlaceHolder
  3
ObjectDBX Classes
 90
        0
280
     0
281
     0
  0
CLASS
  1
LAYOUT
  2
AcDbLayout
  3
ObjectDBX Classes
 90
        0
280
     0
281
     0
  0
ENDSEC
  0
SECTION
  2
TABLES
  0
TABLE
  2
VPORT
  5
8
330
0
100
AcDbSymbolTable
 70
     6
  0
VPORT
  5
B534
330
8
100
AcDbSymbolTableRecord
100
AcDbViewportTableRecord
  2
*Active
 70
     0
 10
0.0
 20
0.0
 11
1.0
 21
1.0
 12
212.499390629236
 22
142.5066153695883
 13
0.0
 23
0.0
 14
0.5
 24
0.5
 15
5.0
 25
5.0
 16
0.0
 26
0.0
 36
1.0
 17
0.0
 27
0.0
 37
0.0
 40
276.994477390337
 41
2.153661464585834
 42
50.0
 43
0.0
 44
0.0
 50
0.0
 51
0.0
 71
     0
 72
   100
 73
     1
 74
     0
 75
     0
 76
     1
 77
     0
 78
     0
281
     0
 65
     1
110
0.0
120
0.0
130
0.0
111
1.0
121
0.0
131
0.0
112
0.0
122
1.0
132
0.0
 79
     0
146
0.0
  0
ENDTAB
  0
TABLE
  2
LTYPE
  5
5
330
0
100
AcDbSymbolTable
 70
     3
  0
LTYPE
  5
14
330
5
100
AcDbSymbolTableRecord
100
AcDbLinetypeTableRecord
  2
BYBLOCK
 70
     0
  3

 72
    65
 73
     0
 40
0.0
  0
LTYPE
  5
15
330
5
100
AcDbSymbolTableRecord
100
AcDbLinetypeTableRecord
  2
BYLAYER
 70
     0
  3

 72
    65
 73
     0
 40
0.0
  0
LTYPE
  5
16
330
5
100
AcDbSymbolTableRecord
100
AcDbLinetypeTableRecord
  2
CONTINUOUS
 70
     0
  3
Solid line
 72
    65
 73
     0
 40
0.0
  0
LTYPE
  5
61
330
5
100
AcDbSymbolTableRecord
100
AcDbLinetypeTableRecord
  2
CENTER2
 70
     0
  3
___ _ ___ _ ___ _ ___ _ ___ _ ___ _ ___ _ ___ _
 72
    65
 73
     4
 40
1.125
 49
0.75
 74
     0
 49
-0.125
 74
     0
 49
0.125
 74
     0
 49
-0.125
 74
     0
  0
LTYPE
  5
62
330
5
100
AcDbSymbolTableRecord
100
AcDbLinetypeTableRecord
  2
DASHED2
 70
     0
  3
_ _ _ _ _ _ _ _ _ _ _ _ _ _ _ _ _ _ _ _ _ _ _ _
 72
    65
 73
     2
 40
0.375
 49
0.25
 74
     0
 49
-0.125
 74
     0
  0
ENDTAB
  0
TABLE
  2
LAYER
  5
2
102
{ACAD_XDICTIONARY
360
9F8D
102
}
330
0
100
AcDbSymbolTable
 70
     9
  0
LAYER
  5
F
330
2
100
AcDbSymbolTableRecord
100
AcDbLayerTableRecord
  2
0
 70
     0
 62
     7
  6
CONTINUOUS
370
    -3
390
8A99
  0
LAYER
  5
63
330
2
100
AcDbSymbolTableRecord
100
AcDbLayerTableRecord
  2
WAKU
 70
     0
 62
     7
  6
CONTINUOUS
370
    -3
390
8A99
  0
LAYER
  5
64
330
2
100
AcDbSymbolTableRecord
100
AcDbLayerTableRecord
  2
SUNPOU
 70
     0
 62
     5
  6
CONTINUOUS
370
    -3
390
8A99
  0
LAYER
  5
65
330
2
100
AcDbSymbolTableRecord
100
AcDbLayerTableRecord
  2
CENTER
 70
     0
 62
    14
  6
CENTER2
370
    -3
390
8A99
  0
LAYER
  5
66
330
2
100
AcDbSymbolTableRecord
100
AcDbLayerTableRecord
  2
KAGESEN
 70
     0
 62
     5
  6
DASHED2
370
    -3
390
8A99
  0
LAYER
  5
7DC
330
2
100
AcDbSymbolTableRecord
100
AcDbLayerTableRecord
  2
DEFPOINTS
 70
     0
 62
     7
  6
CONTINUOUS
290
     0
370
    -3
390
8A99
  0
LAYER
  5
A792
330
2
100
AcDbSymbolTableRecord
100
AcDbLayerTableRecord
  2
PCB
 70
     0
 62
     1
  6
CONTINUOUS
370
    -3
390
8A99
  0
LAYER
  5
A793
330
2
100
AcDbSymbolTableRecord
100
AcDbLayerTableRecord
  2
CASE
 70
     0
 62
    14
  6
CONTINUOUS
370
    -3
390
8A99
  0
LAYER
  5
ABD4
330
2
100
AcDbSymbolTableRecord
100
AcDbLayerTableRecord
  2
PARTS
 70
     0
 62
     5
  6
CONTINUOUS
370
    -3
390
8A99
  0
ENDTAB
  0
TABLE
  2
STYLE
  5
3
330
0
100
AcDbSymbolTable
 70
     1
  0
STYLE
  5
10
330
3
100
AcDbSymbolTableRecord
100
AcDbTextStyleTableRecord
  2
STANDARD
 70
     0
 40
0.0
 41
1.0
 50
0.0
 71
     0
 42
4.0
  3
C:\Program Files\AutoCAD LT\romans.shx
  4
C:\Program Files\AutoCAD LT\extfont.shx
  0
ENDTAB
  0
TABLE
  2
VIEW
  5
6
330
0
100
AcDbSymbolTable
 70
     0
  0
ENDTAB
  0
TABLE
  2
UCS
  5
7
330
0
100
AcDbSymbolTable
 70
     0
  0
ENDTAB
  0
TABLE
  2
APPID
  5
9
330
0
100
AcDbSymbolTable
 70
     3
  0
APPID
  5
11
330
9
100
AcDbSymbolTableRecord
100
AcDbRegAppTableRecord
  2
ACAD
 70
     0
  0
APPID
  5
4211
330
9
100
AcDbSymbolTableRecord
100
AcDbRegAppTableRecord
  2
CONTENTTABDATA
 70
     0
  0
APPID
  5
4212
330
9
100
AcDbSymbolTableRecord
100
AcDbRegAppTableRecord
  2
CONTENTCURRENTTAB
 70
     0
  0
ENDTAB
  0
TABLE
  2
DIMSTYLE
  5
A
330
0
100
AcDbSymbolTable
 70
     8
100
AcDbDimStyleTable
 71
     1
340
1D
  0
DIMSTYLE
105
1D
102
{ACAD_REACTORS
330
8A52
330
8A6B
330
8A78
330
8A85
330
8A92
330
9F02
102
}
330
A
100
AcDbSymbolTableRecord
100
AcDbDimStyleTableRecord
  2
STANDARD
 70
     0
340
10
  0
DIMSTYLE
105
24
330
A
100
AcDbSymbolTableRecord
100
AcDbDimStyleTableRecord
  2
ISO-25
 70
     0
 41
2.5
 42
0.625
 43
3.75
 44
1.25
 74
     0
 77
     1
 78
     8
140
2.5
141
2.5
143
0.0394
145
1.0
147
0.625
172
     1
340
10
  0
DIMSTYLE
105
25
330
A
100
AcDbSymbolTableRecord
100
AcDbDimStyleTableRecord
  2
ISO-35
 70
     0
 41
3.5
 42
0.875
 43
5.25
 44
1.75
 74
     0
 77
     1
 78
     8
140
3.5
141
3.5
143
0.0394
145
1.399999999999999
147
0.875
172
     1
340
10
  0
DIMSTYLE
105
26
330
A
100
AcDbSymbolTableRecord
100
AcDbDimStyleTableRecord
  2
ISO-5
 70
     0
 41
5.0
 42
1.25
 43
7.5
 44
2.5
 74
     0
 77
     1
 78
     8
140
5.0
141
5.0
143
0.0394
145
2.0
147
1.25
172
     1
340
10
  0
DIMSTYLE
105
27
330
A
100
AcDbSymbolTableRecord
100
AcDbDimStyleTableRecord
  2
ISO-7
 70
     0
 41
7.0
 42
1.75
 43
10.5
 44
3.5
 74
     0
 77
     1
 78
     8
140
7.0
141
7.0
143
0.0394
145
2.799999999999999
147
1.75
172
     1
340
10
  0
DIMSTYLE
105
28
330
A
100
AcDbSymbolTableRecord
100
AcDbDimStyleTableRecord
  2
ISO1
 70
     0
 41
10.0
 42
2.5
 43
15.0
 44
5.0
 74
     0
 77
     1
 78
     8
140
10.0
141
10.0
143
0.0394
145
4.0
147
2.5
172
     1
340
10
  0
DIMSTYLE
105
29
330
A
100
AcDbSymbolTableRecord
100
AcDbDimStyleTableRecord
  2
ISO1-4
 70
     0
 41
14.0
 42
3.5
 43
21.0
 44
7.0
 74
     0
 77
     1
 78
     8
140
14.0
141
14.0
143
0.0394
145
5.599999999999999
147
3.5
172
     1
340
10
  0
DIMSTYLE
105
2A
330
A
100
AcDbSymbolTableRecord
100
AcDbDimStyleTableRecord
  2
ISO2
 70
     0
 41
20.0
 42
5.0
 43
30.0
 44
10.0
 74
     0
 77
     1
 78
     8
140
20.0
141
20.0
143
0.0394
145
8.0
147
5.0
172
     1
340
10
  0
ENDTAB
  0
TABLE
  2
BLOCK_RECORD
  5
1
330
0
100
AcDbSymbolTable
 70
    51
  0
BLOCK_RECORD
  5
1A
330
1
100
AcDbSymbolTableRecord
100
AcDbBlockTableRecord
  2
*MODEL_SPACE
340
8A9C
  0
BLOCK_RECORD
  5
17
330
1
100
AcDbSymbolTableRecord
100
AcDbBlockTableRecord
  2
*PAPER_SPACE
340
8A9D
  0
BLOCK_RECORD
  5
BA
330
1
100
AcDbSymbolTableRecord
100
AcDbBlockTableRecord
  2
_OPEN
340
0
102
{BLKREFS
331
9F2D
331
9F2E
331
AA35
331
AA36
331
AA3E
331
AA3F
331
AA47
331
AA48
331
AA50
331
AA51
331
AFB4
331
AFB5
331
AFA8
331
AFA9
331
AF9C
331
AF9D
331
AF90
331
AF91
331
B14E
331
B14F
331
B142
331
B143
331
B135
331
B136
331
B110
331
B111
331
B105
331
B106
331
B0F7
331
B0F8
331
B0EB
331
B0EC
331
B0DF
331
B0E0
331
B0D3
331
B0D4
331
B3DE
331
B3DF
331
B3E7
331
B3E8
331
B3F0
331
B3F1
331
B3F9
331
B3FA
331
B402
331
B403
331
B40B
331
B40C
331
B414
331
B415
331
B41D
331
B41E
331
B428
331
B429
331
B430
331
B431
331
B439
331
B43A
331
B443
331
B444
331
B44C
331
B44D
331
B521
331
B522
102
}
  0
BLOCK_RECORD
  5
5786
330
1
100
AcDbSymbolTableRecord
100
AcDbBlockTableRecord
  2
A$C2086655F
340
0
102
{BLKREFS
331
57A4
102
}
  0
BLOCK_RECORD
  5
57A3
330
1
100
AcDbSymbolTableRecord
100
AcDbBlockTableRecord
  2
A$C1A9113A3
340
0
102
{BLKREFS
331
AD2D
331
AD2E
102
}
  0
BLOCK_RECORD
  5
8A46
330
1
100
AcDbSymbolTableRecord
100
AcDbBlockTableRecord
  2
*D3
340
0
  0
BLOCK_RECORD
  5
8A5F
330
1
100
AcDbSymbolTableRecord
100
AcDbBlockTableRecord
  2
*D4
340
0
  0
BLOCK_RECORD
  5
8A6C
330
1
100
AcDbSymbolTableRecord
100
AcDbBlockTableRecord
  2
*D5
340
0
  0
BLOCK_RECORD
  5
8A79
330
1
100
AcDbSymbolTableRecord
100
AcDbBlockTableRecord
  2
*D6
340
0
  0
BLOCK_RECORD
  5
8A86
330
1
100
AcDbSymbolTableRecord
100
AcDbBlockTableRecord
  2
*D7
340
0
  0
BLOCK_RECORD
  5
98E8
330
1
100
AcDbSymbolTableRecord
100
AcDbBlockTableRecord
  2
A$C34EE125E
340
0
102
{BLKREFS
331
9E43
331
9E4C
331
AD46
331
AD47
331
AF35
102
}
  0
BLOCK_RECORD
  5
9F03
330
1
100
AcDbSymbolTableRecord
100
AcDbBlockTableRecord
  2
*D9
340
0
  0
BLOCK_RECORD
  5
AA9F
330
1
100
AcDbSymbolTableRecord
100
AcDbBlockTableRecord
  2
F2361AX-10P-1
340
0
310
2800000020000000200000000100080000000000000400000000000000000000000000000000000000000000000080000080000000808000800000008000800080800000C0C0C000C0DCC000F0CAA6000020400000206000002080000020A0000020C0000020E00000400000004020000040400000406000004080000040A0
310
000040C0000040E00000600000006020000060400000606000006080000060A0000060C0000060E00000800000008020000080400000806000008080000080A0000080C0000080E00000A0000000A0200000A0400000A0600000A0800000A0A00000A0C00000A0E00000C0000000C0200000C0400000C0600000C0800000C0
310
A00000C0C00000C0E00000E0000000E0200000E0400000E0600000E0800000E0A00000E0C00000E0E00040000000400020004000400040006000400080004000A0004000C0004000E00040200000402020004020400040206000402080004020A0004020C0004020E000404000004040200040404000404060004040800040
310
40A0004040C0004040E00040600000406020004060400040606000406080004060A0004060C0004060E00040800000408020004080400040806000408080004080A0004080C0004080E00040A0000040A0200040A0400040A0600040A0800040A0A00040A0C00040A0E00040C0000040C0200040C0400040C0600040C08000
310
40C0A00040C0C00040C0E00040E0000040E0200040E0400040E0600040E0800040E0A00040E0C00040E0E00080000000800020008000400080006000800080008000A0008000C0008000E00080200000802020008020400080206000802080008020A0008020C0008020E00080400000804020008040400080406000804080
310
008040A0008040C0008040E00080600000806020008060400080606000806080008060A0008060C0008060E00080800000808020008080400080806000808080008080A0008080C0008080E00080A0000080A0200080A0400080A0600080A0800080A0A00080A0C00080A0E00080C0000080C0200080C0400080C0600080C0
310
800080C0A00080C0C00080C0E00080E0000080E0200080E0400080E0600080E0800080E0A00080E0C00080E0E000C0000000C0002000C0004000C0006000C0008000C000A000C000C000C000E000C0200000C0202000C0204000C0206000C0208000C020A000C020C000C020E000C0400000C0402000C0404000C0406000C0
310
408000C040A000C040C000C040E000C0600000C0602000C0604000C0606000C0608000C060A000C060C000C060E000C0800000C0802000C0804000C0806000C0808000C080A000C080C000C080E000C0A00000C0A02000C0A04000C0A06000C0A08000C0A0A000C0A0C000C0A0E000C0C00000C0C02000C0C04000C0C06000
310
C0C08000C0C0A000F0FBFF00A4A0A000808080000000FF0000FF000000FFFF00FF000000FF00FF00FFFF0000FFFFFF00FFFFFFFFFFFFFFFFFFFFFFFFFFFFFFFFFFFFFFFFFFFFFFFFFFFFFFFFFFFFFFFFFFFFFFFFFFFFFFFFFFFFFFFFFF000000000000FFFFFFFFFFFFFFFFFFFFFFFFFFFFFFFFFFFFFFFFFFFFFFFFFFFF0000
310
00000000FFFFFFFFFFFFFFFFFFFFFFFFFFFFFFFFFFFFFFFFFFFFFFFFFFFF000000000000FFFFFFFFFFFFFFFFFFFFFFFFFFFFFFFFFFFFFFFFFFFFFFFFFFFF000000000000FFFFFFFFFFFFFFFFFFFFFFFFFFFFFFFFFFFFFFFFFFFFFFFFFFFF000000000000FFFFFFFFFFFFFFFFFFFFFFFFFFFFFFFFFFFFFFFFFFFFFFFFFFFF00
310
0000000000FFFFFFFFFFFFFFFFFFFFFFFFFFFFFFFFFFFFFFFFFFFFFFFFFFFF000000000000FFFFFFFFFFFFFFFFFFFFFFFFFFFFFFFFFFFFFFFFFFFFFFFFFFFF000000000000FFFFFFFFFFFFFFFFFFFFFFFFFFFFFFFFFFFFFFFFFFFFFFFFFFFF000000000000FFFFFFFFFFFFFFFFFFFFFFFFFFFFFFFFFFFFFFFFFFFFFFFFFFFF
310
000000000000FFFFFFFFFFFFFFFFFFFFFFFFFFFFFFFFFFFFFFFFFFFFFFFFFFFF000000000000FFFFFFFFFFFFFFFFFFFFFFFFFFFFFFFFFFFFFFFFFFFFFFFFFFFF000000000000FFFFFFFFFFFFFFFFFFFFFFFFFFFFFFFFFFFFFFFFFFFFFFFFFFFF000000000000FFFFFFFFFFFFFFFFFFFFFFFFFFFFFFFFFFFFFFFFFFFFFFFFFF
310
FF000000000000FFFFFFFFFFFFFFFFFFFFFFFFFFFFFFFFFFFFFFFFFFFFFFFFFFFF000000000000FFFFFFFFFFFFFFFFFFFFFFFFFFFFFFFFFFFFFFFFFFFFFFFFFFFF000000000000FFFFFFFFFFFFFFFFFFFFFFFFFFFFFFFFFFFFFFFFFFFFFFFFFFFF000000000000FFFFFFFFFFFFFFFFFFFFFFFFFFFFFFFFFFFFFFFFFFFFFFFF
310
FFFF000000000000FFFFFFFFFFFFFFFFFFFFFFFFFFFFFFFFFFFFFFFFFFFFFFFFFFFF000000000000FFFFFFFFFFFFFFFFFFFFFFFFFFFFFFFFFFFFFFFFFFFFFFFFFFFF000000000000FFFFFFFFFFFFFFFFFFFFFFFFFFFFFFFFFFFFFFFFFFFFFFFFFFFF000000000000FFFFFFFFFFFFFFFFFFFFFFFFFFFFFFFFFFFFFFFFFFFFFF
310
FFFFFF000000000000FFFFFFFFFFFFFFFFFFFFFFFFFFFFFFFFFFFFFFFFFFFFFFFFFFFF000000000000FFFFFFFFFFFFFFFFFFFFFFFFFFFFFFFFFFFFFFFFFFFFFFFFFFFF000000000000FFFFFFFFFFFFFFFFFFFFFFFFFFFFFFFFFFFFFFFFFFFFFFFFFFFF000000000000FFFFFFFFFFFFFFFFFFFFFFFFFFFFFFFFFFFFFFFFFFFF
310
FFFFFFFF000000000000FFFFFFFFFFFFFFFFFFFFFFFFFFFFFFFFFFFFFFFFFFFFFFFFFFFF000000000000FFFFFFFFFFFFFFFFFFFFFFFFFFFFFFFFFFFFFFFFFFFFFFFFFFFF000000000000FFFFFFFFFFFFFFFFFFFFFFFFFFFFFFFFFFFFFFFFFFFFFFFFFFFF000000000000FFFFFFFFFFFFFFFFFFFFFFFFFFFFFFFFFFFFFFFFFF
310
FFFFFFFFFF000000000000FFFFFFFFFFFFFFFFFFFFFFFFFFFFFFFFFFFFFFFFFFFFFFFFFFFFFFFFFFFFFFFFFFFFFFFFFFFFFFFFFFFFFFFFFF
102
{BLKREFS
331
AD32
102
}
  0
ENDTAB
  0
ENDSEC
  0
SECTION
  2
BLOCKS
  0
BLOCK
  5
1B
330
1A
100
AcDbEntity
  8
0
100
AcDbBlockBegin
  2
*MODEL_SPACE
 70
     0
 10
0.0
 20
0.0
 30
0.0
  3
*MODEL_SPACE
  1

  0
ENDBLK
  5
1C
330
1A
100
AcDbEntity
  8
0
100
AcDbBlockEnd
  0
BLOCK
  5
18
330
17
100
AcDbEntity
 67
     1
  8
0
100
AcDbBlockBegin
  2
*PAPER_SPACE
 70
     0
 10
0.0
 20
0.0
 30
0.0
  3
*PAPER_SPACE
  1

  0
ENDBLK
  5
19
330
17
100
AcDbEntity
 67
     1
  8
0
100
AcDbBlockEnd
  0
BLOCK
  5
BB
330
BA
100
AcDbEntity
  8
0
100
AcDbBlockBegin
  2
_OPEN
 70
     0
 10
0.0
 20
0.0
 30
0.0
  3
_OPEN
  1

  0
LINE
  5
BC
330
BA
100
AcDbEntity
  8
0
  6
ByBlock
 62
     0
100
AcDbLine
 10
-1.0
 20
0.1666666666666666
 30
0.0
 11
0.0
 21
0.0
 31
0.0
  0
LINE
  5
BD
330
BA
100
AcDbEntity
  8
0
  6
ByBlock
 62
     0
100
AcDbLine
 10
0.0
 20
0.0
 30
0.0
 11
-1.0
 21
-0.1666666666666666
 31
0.0
  0
LINE
  5
BE
330
BA
100
AcDbEntity
  8
0
  6
ByBlock
 62
     0
100
AcDbLine
 10
0.0
 20
0.0
 30
0.0
 11
-1.0
 21
0.0
 31
0.0
  0
ENDBLK
  5
BF
330
BA
100
AcDbEntity
  8
0
100
AcDbBlockEnd
  0
BLOCK
  5
57A1
330
5786
100
AcDbEntity
  8
0
100
AcDbBlockBegin
  2
A$C2086655F
 70
     0
 10
0.0
 20
0.0
 30
0.0
  3
A$C2086655F
  1

  0
TEXT
  5
5787
330
5786
100
AcDbEntity
  8
SUNPOU
100
AcDbText
 10
4.719687007603707
 20
2.680727273328233
 30
0.0
 40
2.0
  1
D
 50
157.5
 41
0.6
 72
     1
 11
4.138962730025184
 21
2.921271145100575
 31
0.0
100
AcDbText
 73
     1
  0
LINE
  5
5788
330
5786
100
AcDbEntity
  8
0
100
AcDbLine
 10
3.50000045284662
 20
5.000000093250946
 30
0.0
 11
6.50000045284662
 21
5.000000093250946
 31
0.0
  0
LINE
  5
5789
330
5786
100
AcDbEntity
  8
0
100
AcDbLine
 10
3.50000045284662
 20
5.000000093250946
 30
0.0
 11
4.50000045284662
 21
4.500000093250946
 31
0.0
  0
LINE
  5
578A
330
5786
100
AcDbEntity
  8
0
100
AcDbLine
 10
3.50000045284662
 20
5.000000093250946
 30
0.0
 11
4.50000045284662
 21
5.500000093250946
 31
0.0
  0
CIRCLE
  5
578B
330
5786
100
AcDbEntity
  8
0
100
AcDbCircle
 10
5.00000045284662
 20
5.000000093250946
 30
0.0
 40
2.0
  0
LINE
  5
578C
330
5786
100
AcDbEntity
  8
0
100
AcDbLine
 10
10.00000045284662
 20
9.500000093250946
 30
0.0
 11
2.50000045284662
 21
9.500000093250946
 31
0.0
  0
LINE
  5
578D
330
5786
100
AcDbEntity
  8
0
100
AcDbLine
 10
10.00000045284662
 20
10.00000009325094
 30
0.0
 11
0.0000004528466206
 21
10.00000009325094
 31
0.0
  0
LINE
  5
578E
330
5786
100
AcDbEntity
  8
0
100
AcDbLine
 10
0.0000004528466206
 20
0.0000000932509465
 30
0.0
 11
10.00000045284662
 21
0.0000000932509465
 31
0.0
  0
TEXT
  5
578F
330
5786
100
AcDbEntity
  8
SUNPOU
100
AcDbText
 10
2.75000045284662
 20
4.428571521822375
 30
0.0
 40
2.0
  1
0
 50
90.0
 41
0.6
 72
     1
 11
2.75000045284662
 21
5.000000093250946
 31
0.0
100
AcDbText
 73
     1
  0
LINE
  5
5790
330
5786
100
AcDbEntity
  8
0
100
AcDbLine
 10
0.0000004528466206
 20
10.00000009325094
 30
0.0
 11
0.0000004528466206
 21
0.0000000932509465
 31
0.0
  0
TEXT
  5
5791
330
5786
100
AcDbEntity
  8
SUNPOU
100
AcDbText
 10
3.150881564115275
 20
3.584634650922709
 30
0.0
 40
2.0
  1
F
 50
112.5
 41
0.6
 72
     1
 11
2.921271504696221
 21
4.138962370429482
 31
0.0
100
AcDbText
 73
     1
  0
TEXT
  5
5792
330
5786
100
AcDbEntity
  8
SUNPOU
100
AcDbText
 10
3.833274263888832
 20
2.984745766869301
 30
0.0
 40
2.0
  1
E
 50
135.0
 41
0.6
 72
     1
 11
3.409010195176904
 21
3.40900983558123
 31
0.0
100
AcDbText
 73
     1
  0
LINE
  5
5793
330
5786
100
AcDbEntity
  8
0
100
AcDbLine
 10
0.0000004528466206
 20
7.000000093250946
 30
0.0
 11
3.00000045284662
 21
10.00000009325094
 31
0.0
  0
TEXT
  5
5794
330
5786
100
AcDbEntity
  8
SUNPOU
100
AcDbText
 10
2.735396694690349
 20
5.412296328852629
 30
0.0
 40
2.0
  1
1
 50
67.5
 41
0.6
 72
     1
 11
2.92127150469625
 21
5.861037816072396
 31
0.0
100
AcDbText
 73
     1
  0
TEXT
  5
5795
330
5786
100
AcDbEntity
  8
SUNPOU
100
AcDbText
 10
3.004949177356019
 20
6.186929333099793
 30
0.0
 40
2.0
  1
2
 50
45.0
 41
0.6
 72
     1
 11
3.409010195176904
 21
6.590990350920677
 31
0.0
100
AcDbText
 73
     1
  0
TEXT
  5
5796
330
5786
100
AcDbEntity
  8
SUNPOU
100
AcDbText
 10
3.611031568590135
 20
6.860052794335565
 30
0.0
 40
2.0
  1
3
 50
22.50000000000001
 41
0.6
 72
     1
 11
4.138962730025156
 21
7.078729041401331
 31
0.0
100
AcDbText
 73
     1
  0
TEXT
  5
5797
330
5786
100
AcDbEntity
  8
SUNPOU
100
AcDbText
 10
7.25000045284662
 20
5.571428664679489
 30
0.0
 40
2.0
  1
8
 50
270.0
 41
0.6
 72
     1
 11
7.25000045284662
 21
5.000000093250918
 31
0.0
100
AcDbText
 73
     1
  0
LINE
  5
5798
330
5786
100
AcDbEntity
  8
0
100
AcDbLine
 10
10.00000045284662
 20
0.0000000932509465
 30
0.0
 11
10.00000045284662
 21
10.00000009325094
 31
0.0
  0
TEXT
  5
5799
330
5786
100
AcDbEntity
  8
SUNPOU
100
AcDbText
 10
7.28647183570944
 20
4.64049697379278
 30
0.0
 40
2.0
  1
9
 50
247.5
 41
0.6
 72
     1
 11
7.078729400996962
 21
4.13896237042951
 31
0.0
100
AcDbText
 73
     1
  0
TEXT
  5
579A
330
5786
100
AcDbEntity
  8
SUNPOU
100
AcDbText
 10
6.954645626555104
 20
3.772664751620026
 30
0.0
 40
2.0
  1
A
 50
225.0
 41
0.6
 72
     1
 11
6.590990710516308
 21
3.40900983558123
 31
0.0
100
AcDbText
 73
     1
  0
TEXT
  5
579B
330
5786
100
AcDbEntity
  8
SUNPOU
100
AcDbText
 10
6.441762453246579
 20
3.161815016872917
 30
0.0
 40
2.0
  1
B
 50
202.5
 41
0.6
 72
     1
 11
5.861038175668056
 21
2.921271145100575
 31
0.0
100
AcDbText
 73
     1
  0
TEXT
  5
579C
330
5786
100
AcDbEntity
  8
SUNPOU
100
AcDbText
 10
5.60000045284662
 20
2.750000093250946
 30
0.0
 40
2.0
  1
C
 50
180.0
 41
0.6
 72
     1
 11
5.00000045284662
 21
2.750000093250946
 31
0.0
100
AcDbText
 73
     1
  0
TEXT
  5
579D
330
5786
100
AcDbEntity
  8
SUNPOU
100
AcDbText
 10
6.860053153931225
 20
6.388968977507445
 30
0.0
 40
2.0
  1
7
 50
292.5
 41
0.6
 72
     1
 11
7.078729400996991
 21
5.861037816072425
 31
0.0
100
AcDbText
 73
     1
  0
TEXT
  5
579E
330
5786
100
AcDbEntity
  8
SUNPOU
100
AcDbText
 10
4.400000452846621
 20
7.250000093250946
 30
0.0
 40
2.0
  1
4
 41
0.6
 72
     1
 11
5.00000045284662
 21
7.250000093250946
 31
0.0
100
AcDbText
 73
     1
  0
TEXT
  5
579F
330
5786
100
AcDbEntity
  8
SUNPOU
100
AcDbText
 10
5.333107014233007
 20
7.297405288467096
 30
0.0
 40
2.0
  1
5
 50
337.5
 41
0.6
 72
     1
 11
5.861038175668028
 21
7.078729041401331
 31
0.0
100
AcDbText
 73
     1
  0
TEXT
  5
57A0
330
5786
100
AcDbEntity
  8
SUNPOU
100
AcDbText
 10
6.16672664180438
 20
7.015254419632605
 30
0.0
 40
2.0
  1
6
 50
315.0
 41
0.6
 72
     1
 11
6.590990710516308
 21
6.590990350920677
 31
0.0
100
AcDbText
 73
     1
  0
ENDBLK
  5
57A2
330
5786
100
AcDbEntity
  8
0
100
AcDbBlockEnd
  0
BLOCK
  5
57A5
330
57A3
100
AcDbEntity
  8
0
100
AcDbBlockBegin
  2
A$C1A9113A3
 70
     0
 10
0.0
 20
0.0
 30
0.0
  3
A$C1A9113A3
  1

  0
INSERT
  5
57A4
330
57A3
100
AcDbEntity
  8
0
100
AcDbBlockReference
  2
A$C2086655F
 10
-0.000000598731333
 20
0.0000001667667675
 30
0.0
  0
ENDBLK
  5
57A6
330
57A3
100
AcDbEntity
  8
0
100
AcDbBlockEnd
  0
BLOCK
  5
8A47
330
8A46
100
AcDbEntity
  8
0
100
AcDbBlockBegin
  2
*D3
 70
     1
 10
0.0
 20
0.0
 30
0.0
  3
*D3
  1

  0
LINE
  5
9F2A
330
8A46
100
AcDbEntity
  8
SUNPOU
 62
     0
370
    -2
100
AcDbLine
 10
230.2000000499686
 20
191.2000001092222
 30
0.0
 11
230.2000000499686
 21
220.5
 31
0.0
  0
LINE
  5
9F2B
330
8A46
100
AcDbEntity
  8
SUNPOU
 62
     0
370
    -2
100
AcDbLine
 10
310.2000000499685
 20
201.0000001092223
 30
0.0
 11
310.2000000499685
 21
220.5
 31
0.0
  0
LINE
  5
9F2C
330
8A46
100
AcDbEntity
  8
SUNPOU
 62
     0
370
    -2
100
AcDbLine
 10
232.7000000499686
 20
220.0
 30
0.0
 11
307.7000000499686
 21
220.0
 31
0.0
  0
INSERT
  5
9F2D
330
8A46
100
AcDbEntity
  8
SUNPOU
 62
     0
370
    -2
100
AcDbBlockReference
  2
_OPEN
 10
230.2000000499686
 20
220.0
 30
0.0
 41
2.5
 42
2.5
 43
2.5
 50
180.0
  0
INSERT
  5
9F2E
330
8A46
100
AcDbEntity
  8
SUNPOU
 62
     0
370
    -2
100
AcDbBlockReference
  2
_OPEN
 10
310.2000000499685
 20
220.0
 30
0.0
 41
2.5
 42
2.5
 43
2.5
  0
MTEXT
  5
9F2F
330
8A46
100
AcDbEntity
  8
SUNPOU
 62
     0
100
AcDbMText
 10
270.2000000499686
 20
223.5
 30
0.0
 40
6.0
 41
0.0
 71
     5
 72
     1
  1
\A1;80
 73
     1
 44
1.0
1001
ACAD
1000
MTEXTBEGIN
1070
    73
1070
     1
1070
    44
1040
1.0
1070
    74
1070
     0
1000
MTEXTEND
  0
POINT
  5
9F30
330
8A46
100
AcDbEntity
  8
DEFPOINTS
 62
     0
100
AcDbPoint
 10
230.2000000499686
 20
190.7000001092222
 30
0.0
  0
POINT
  5
9F31
330
8A46
100
AcDbEntity
  8
DEFPOINTS
 62
     0
100
AcDbPoint
 10
310.2000000499685
 20
200.5000001092223
 30
0.0
  0
POINT
  5
9F32
330
8A46
100
AcDbEntity
  8
DEFPOINTS
 62
     0
100
AcDbPoint
 10
310.2000000499685
 20
220.0
 30
0.0
  0
ENDBLK
  5
8A51
330
8A46
100
AcDbEntity
  8
0
100
AcDbBlockEnd
  0
BLOCK
  5
8A60
330
8A5F
100
AcDbEntity
  8
0
100
AcDbBlockBegin
  2
*D4
 70
     1
 10
0.0
 20
0.0
 30
0.0
  3
*D4
  1

  0
LINE
  5
AA4D
330
8A5F
100
AcDbEntity
  8
SUNPOU
 62
     0
370
    -2
100
AcDbLine
 10
102.5
 20
200.5000001092223
 30
0.0
 11
102.5
 21
221.5000001092223
 31
0.0
  0
LINE
  5
AA4E
330
8A5F
100
AcDbEntity
  8
SUNPOU
 62
     0
370
    -2
100
AcDbLine
 10
147.5
 20
200.5000001092223
 30
0.0
 11
147.5
 21
221.5000001092223
 31
0.0
  0
LINE
  5
AA4F
330
8A5F
100
AcDbEntity
  8
SUNPOU
 62
     0
370
    -2
100
AcDbLine
 10
105.0
 20
221.0000001092223
 30
0.0
 11
145.0
 21
221.0000001092223
 31
0.0
  0
INSERT
  5
AA50
330
8A5F
100
AcDbEntity
  8
SUNPOU
 62
     0
370
    -2
100
AcDbBlockReference
  2
_OPEN
 10
102.5
 20
221.0000001092223
 30
0.0
 41
2.5
 42
2.5
 43
2.5
 50
180.0
  0
INSERT
  5
AA51
330
8A5F
100
AcDbEntity
  8
SUNPOU
 62
     0
370
    -2
100
AcDbBlockReference
  2
_OPEN
 10
147.5
 20
221.0000001092223
 30
0.0
 41
2.5
 42
2.5
 43
2.5
  0
MTEXT
  5
AA52
330
8A5F
100
AcDbEntity
  8
SUNPOU
 62
     0
100
AcDbMText
 10
125.0
 20
224.5000001092223
 30
0.0
 40
6.0
 41
0.0
 71
     5
 72
     1
  1
\A1;45
 73
     1
 44
1.0
1001
ACAD
1000
MTEXTBEGIN
1070
    73
1070
     1
1070
    44
1040
1.0
1070
    74
1070
     0
1000
MTEXTEND
  0
POINT
  5
AA53
330
8A5F
100
AcDbEntity
  8
DEFPOINTS
 62
     0
100
AcDbPoint
 10
102.5
 20
200.0000001092223
 30
0.0
  0
POINT
  5
AA54
330
8A5F
100
AcDbEntity
  8
DEFPOINTS
 62
     0
100
AcDbPoint
 10
147.5
 20
200.0000001092223
 30
0.0
  0
POINT
  5
AA55
330
8A5F
100
AcDbEntity
  8
DEFPOINTS
 62
     0
100
AcDbPoint
 10
147.5
 20
221.0000001092223
 30
0.0
  0
ENDBLK
  5
8A6A
330
8A5F
100
AcDbEntity
  8
0
100
AcDbBlockEnd
  0
BLOCK
  5
8A6D
330
8A6C
100
AcDbEntity
  8
0
100
AcDbBlockBegin
  2
*D5
 70
     1
 10
0.0
 20
0.0
 30
0.0
  3
*D5
  1

  0
LINE
  5
AA44
330
8A6C
100
AcDbEntity
  8
SUNPOU
 62
     0
370
    -2
100
AcDbLine
 10
147.2
 20
192.5000001092222
 30
0.0
 11
163.0
 21
192.5000001092222
 31
0.0
  0
LINE
  5
AA45
330
8A6C
100
AcDbEntity
  8
SUNPOU
 62
     0
370
    -2
100
AcDbLine
 10
147.2
 20
99.50000010922233
 30
0.0
 11
163.0
 21
99.50000010922231
 31
0.0
  0
LINE
  5
AA46
330
8A6C
100
AcDbEntity
  8
SUNPOU
 62
     0
370
    -2
100
AcDbLine
 10
162.5
 20
190.0000001092222
 30
0.0
 11
162.5
 21
102.0000001092223
 31
0.0
  0
INSERT
  5
AA47
330
8A6C
100
AcDbEntity
  8
SUNPOU
 62
     0
370
    -2
100
AcDbBlockReference
  2
_OPEN
 10
162.5
 20
192.5000001092222
 30
0.0
 41
2.5
 42
2.5
 43
2.5
 50
90.0
  0
INSERT
  5
AA48
330
8A6C
100
AcDbEntity
  8
SUNPOU
 62
     0
370
    -2
100
AcDbBlockReference
  2
_OPEN
 10
162.5
 20
99.50000010922231
 30
0.0
 41
2.5
 42
2.5
 43
2.5
 50
270.0
  0
MTEXT
  5
AA49
330
8A6C
100
AcDbEntity
  8
SUNPOU
 62
     0
100
AcDbMText
 10
159.0
 20
146.0000001092223
 30
0.0
 40
6.0
 41
0.0
 71
     5
 72
     1
  1
\A1;93
 11
0.0000000000000001
 21
1.0
 31
0.0
 73
     1
 44
1.0
1001
ACAD
1000
MTEXTBEGIN
1070
    73
1070
     1
1070
    44
1040
1.0
1070
    74
1070
     0
1000
MTEXTEND
  0
POINT
  5
AA4A
330
8A6C
100
AcDbEntity
  8
DEFPOINTS
 62
     0
100
AcDbPoint
 10
146.7
 20
192.5000001092222
 30
0.0
  0
POINT
  5
AA4B
330
8A6C
100
AcDbEntity
  8
DEFPOINTS
 62
     0
100
AcDbPoint
 10
146.7
 20
99.50000010922233
 30
0.0
  0
POINT
  5
AA4C
330
8A6C
100
AcDbEntity
  8
DEFPOINTS
 62
     0
100
AcDbPoint
 10
162.5
 20
99.50000010922231
 30
0.0
  0
ENDBLK
  5
8A77
330
8A6C
100
AcDbEntity
  8
0
100
AcDbBlockEnd
  0
BLOCK
  5
8A7A
330
8A79
100
AcDbEntity
  8
0
100
AcDbBlockBegin
  2
*D6
 70
     1
 10
0.0
 20
0.0
 30
0.0
  3
*D6
  1

  0
LINE
  5
AA3B
330
8A79
100
AcDbEntity
  8
SUNPOU
 62
     0
370
    -2
100
AcDbLine
 10
125.5
 20
197.5000001092223
 30
0.0
 11
173.0
 21
197.5000001092223
 31
0.0
  0
LINE
  5
AA3C
330
8A79
100
AcDbEntity
  8
SUNPOU
 62
     0
370
    -2
100
AcDbLine
 10
125.5
 20
94.50000010922222
 30
0.0
 11
173.0
 21
94.5000001092222
 31
0.0
  0
LINE
  5
AA3D
330
8A79
100
AcDbEntity
  8
SUNPOU
 62
     0
370
    -2
100
AcDbLine
 10
172.5
 20
195.0000001092223
 30
0.0
 11
172.5
 21
97.0000001092222
 31
0.0
  0
INSERT
  5
AA3E
330
8A79
100
AcDbEntity
  8
SUNPOU
 62
     0
370
    -2
100
AcDbBlockReference
  2
_OPEN
 10
172.5
 20
197.5000001092223
 30
0.0
 41
2.5
 42
2.5
 43
2.5
 50
90.0
  0
INSERT
  5
AA3F
330
8A79
100
AcDbEntity
  8
SUNPOU
 62
     0
370
    -2
100
AcDbBlockReference
  2
_OPEN
 10
172.5
 20
94.5000001092222
 30
0.0
 41
2.5
 42
2.5
 43
2.5
 50
270.0
  0
MTEXT
  5
AA40
330
8A79
100
AcDbEntity
  8
SUNPOU
 62
     0
100
AcDbMText
 10
168.9999999999999
 20
146.0000001092223
 30
0.0
 40
6.0
 41
0.0
 71
     5
 72
     1
  1
\A1;103
 11
0.0000000000000001
 21
1.0
 31
0.0
 73
     1
 44
1.0
1001
ACAD
1000
MTEXTBEGIN
1070
    73
1070
     1
1070
    44
1040
1.0
1070
    74
1070
     0
1000
MTEXTEND
  0
POINT
  5
AA41
330
8A79
100
AcDbEntity
  8
DEFPOINTS
 62
     0
100
AcDbPoint
 10
125.0
 20
197.5000001092223
 30
0.0
  0
POINT
  5
AA42
330
8A79
100
AcDbEntity
  8
DEFPOINTS
 62
     0
100
AcDbPoint
 10
125.0
 20
94.50000010922222
 30
0.0
  0
POINT
  5
AA43
330
8A79
100
AcDbEntity
  8
DEFPOINTS
 62
     0
100
AcDbPoint
 10
172.5
 20
94.5000001092222
 30
0.0
  0
ENDBLK
  5
8A84
330
8A79
100
AcDbEntity
  8
0
100
AcDbBlockEnd
  0
BLOCK
  5
8A87
330
8A86
100
AcDbEntity
  8
0
100
AcDbBlockBegin
  2
*D7
 70
     1
 10
0.0
 20
0.0
 30
0.0
  3
*D7
  1

  0
LINE
  5
AA32
330
8A86
100
AcDbEntity
  8
SUNPOU
 62
     0
370
    -2
100
AcDbLine
 10
147.0
 20
201.0000001092223
 30
0.0
 11
183.0
 21
201.0000001092223
 31
0.0
  0
LINE
  5
AA33
330
8A86
100
AcDbEntity
  8
SUNPOU
 62
     0
370
    -2
100
AcDbLine
 10
147.0
 20
91.00000010922228
 30
0.0
 11
183.0
 21
91.00000010922226
 31
0.0
  0
LINE
  5
AA34
330
8A86
100
AcDbEntity
  8
SUNPOU
 62
     0
370
    -2
100
AcDbLine
 10
182.5
 20
198.5000001092223
 30
0.0
 11
182.5
 21
93.50000010922226
 31
0.0
  0
INSERT
  5
AA35
330
8A86
100
AcDbEntity
  8
SUNPOU
 62
     0
370
    -2
100
AcDbBlockReference
  2
_OPEN
 10
182.5
 20
201.0000001092223
 30
0.0
 41
2.5
 42
2.5
 43
2.5
 50
90.0
  0
INSERT
  5
AA36
330
8A86
100
AcDbEntity
  8
SUNPOU
 62
     0
370
    -2
100
AcDbBlockReference
  2
_OPEN
 10
182.5
 20
91.00000010922226
 30
0.0
 41
2.5
 42
2.5
 43
2.5
 50
270.0
  0
MTEXT
  5
AA37
330
8A86
100
AcDbEntity
  8
SUNPOU
 62
     0
100
AcDbMText
 10
179.0
 20
146.0000001092223
 30
0.0
 40
6.0
 41
0.0
 71
     5
 72
     1
  1
\A1;110
 11
0.0000000000000001
 21
1.0
 31
0.0
 73
     1
 44
1.0
1001
ACAD
1000
MTEXTBEGIN
1070
    73
1070
     1
1070
    44
1040
1.0
1070
    74
1070
     0
1000
MTEXTEND
  0
POINT
  5
AA38
330
8A86
100
AcDbEntity
  8
DEFPOINTS
 62
     0
100
AcDbPoint
 10
146.5
 20
201.0000001092223
 30
0.0
  0
POINT
  5
AA39
330
8A86
100
AcDbEntity
  8
DEFPOINTS
 62
     0
100
AcDbPoint
 10
146.5
 20
91.00000010922228
 30
0.0
  0
POINT
  5
AA3A
330
8A86
100
AcDbEntity
  8
DEFPOINTS
 62
     0
100
AcDbPoint
 10
182.5
 20
91.00000010922226
 30
0.0
  0
ENDBLK
  5
8A91
330
8A86
100
AcDbEntity
  8
0
100
AcDbBlockEnd
  0
BLOCK
  5
98E9
330
98E8
100
AcDbEntity
  8
0
100
AcDbBlockBegin
  2
A$C34EE125E
 70
     0
 10
0.0
 20
0.0
 30
0.0
  3
A$C34EE125E
  1

  0
ELLIPSE
  5
98EA
330
98E8
100
AcDbEntity
  8
0
100
AcDbEllipse
 10
-0.0000004725021654
 20
3.999999853018834
 30
0.0
 11
0.0
 21
-3.0
 31
0.0
210
0.0
220
0.0
230
-1.0
 40
0.8333333333333333
 41
-2.94023473279946
 42
-0.2013579207903324
  0
LINE
  5
98EB
330
98E8
100
AcDbEntity
  8
0
100
AcDbLine
 10
-0.0000004725021654
 20
7.999999853018834
 30
0.0
 11
-0.0000004725021654
 21
-0.000000146981165
 31
0.0
  0
LINE
  5
98EC
330
98E8
100
AcDbEntity
  8
0
100
AcDbLine
 10
0.4999995274978346
 20
-0.000000146981165
 30
0.0
 11
0.4999995274978346
 21
7.999999853018834
 31
0.0
  0
LINE
  5
98ED
330
98E8
100
AcDbEntity
  8
0
100
AcDbLine
 10
-0.0000004725021654
 20
-0.000000146981165
 30
0.0
 11
0.4999995274978346
 21
-0.000000146981165
 31
0.0
  0
LINE
  5
98EE
330
98E8
100
AcDbEntity
  8
0
100
AcDbLine
 10
0.4999995274978346
 20
7.999999853018834
 30
0.0
 11
-0.0000004725021654
 21
7.999999853018834
 31
0.0
  0
ENDBLK
  5
98EF
330
98E8
100
AcDbEntity
  8
0
100
AcDbBlockEnd
  0
BLOCK
  5
9F0D
330
9F03
100
AcDbEntity
  8
0
100
AcDbBlockBegin
  2
*D9
 70
     1
 10
0.0
 20
0.0
 30
0.0
  3
*D9
  1

  0
LINE
  5
B51E
330
9F03
100
AcDbEntity
  8
SUNPOU
 62
     0
370
    -2
100
AcDbLine
 10
213.6000000499685
 20
183.6900001092222
 30
0.0
 11
213.6000000499685
 21
220.5
 31
0.0
  0
LINE
  5
B51F
330
9F03
100
AcDbEntity
  8
SUNPOU
 62
     0
370
    -2
100
AcDbLine
 10
230.2000000499685
 20
192.2000001092222
 30
0.0
 11
230.2000000499685
 21
220.5
 31
0.0
  0
LINE
  5
B520
330
9F03
100
AcDbEntity
  8
SUNPOU
 62
     0
370
    -2
100
AcDbLine
 10
216.1000000499685
 20
220.0
 30
0.0
 11
227.7000000499685
 21
220.0
 31
0.0
  0
INSERT
  5
B521
330
9F03
100
AcDbEntity
  8
SUNPOU
 62
     0
370
    -2
100
AcDbBlockReference
  2
_OPEN
 10
213.6000000499685
 20
220.0
 30
0.0
 41
2.5
 42
2.5
 43
2.5
 50
180.0
  0
INSERT
  5
B522
330
9F03
100
AcDbEntity
  8
SUNPOU
 62
     0
370
    -2
100
AcDbBlockReference
  2
_OPEN
 10
230.2000000499685
 20
220.0
 30
0.0
 41
2.5
 42
2.5
 43
2.5
  0
MTEXT
  5
B523
330
9F03
100
AcDbEntity
  8
SUNPOU
 62
     0
100
AcDbMText
 10
221.9000000499685
 20
223.5
 30
0.0
 40
6.0
 41
0.0
 71
     5
 72
     1
  1
\A1;17
 73
     1
 44
1.0
1001
ACAD
1000
MTEXTBEGIN
1070
    73
1070
     1
1070
    44
1040
1.0
1070
    74
1070
     0
1000
MTEXTEND
  0
POINT
  5
B524
330
9F03
100
AcDbEntity
  8
DEFPOINTS
 62
     0
100
AcDbPoint
 10
213.6000000499685
 20
183.1900001092222
 30
0.0
  0
POINT
  5
B525
330
9F03
100
AcDbEntity
  8
DEFPOINTS
 62
     0
100
AcDbPoint
 10
230.2000000499685
 20
191.7000001092221
 30
0.0
  0
POINT
  5
B526
330
9F03
100
AcDbEntity
  8
DEFPOINTS
 62
     0
100
AcDbPoint
 10
230.2000000499685
 20
220.0
 30
0.0
  0
ENDBLK
  5
9F0E
330
9F03
100
AcDbEntity
  8
0
100
AcDbBlockEnd
  0
BLOCK
  5
AAA0
330
AA9F
100
AcDbEntity
  8
0
100
AcDbBlockBegin
  2
F2361AX-10P-1
 70
     0
 10
0.0
 20
0.0
 30
0.0
  3
F2361AX-10P-1
  1

  0
LINE
  5
AAA1
330
AA9F
100
AcDbEntity
  8
0
100
AcDbLine
 10
0.0000000000000142
 20
39.69000000000017
 30
0.0
 11
11.99999999999998
 21
39.69000000000017
 31
0.0
  0
LINE
  5
AAA2
330
AA9F
100
AcDbEntity
  8
0
100
AcDbLine
 10
-0.0000000000000142
 20
-39.6900000000001
 30
0.0
 11
11.99999999999998
 21
-39.6900000000001
 31
0.0
  0
CIRCLE
  5
AAA3
330
AA9F
100
AcDbEntity
  8
0
100
AcDbCircle
 10
6.500000000000014
 20
-26.67000000000006
 30
0.0
 40
2.6
  0
LINE
  5
AAA4
330
AA9F
100
AcDbEntity
  8
0
100
AcDbLine
 10
3.499999999999985
 20
-23.47000000000007
 30
0.0
 11
3.499999999999985
 21
-29.87000000000011
 31
0.0
  0
LINE
  5
AAA5
330
AA9F
100
AcDbEntity
  8
0
100
AcDbLine
 10
1.899999999999963
 20
-23.47000000000007
 30
0.0
 11
1.899999999999963
 21
-29.86999999999999
 31
0.0
  0
LINE
  5
AAA6
330
AA9F
100
AcDbEntity
  8
0
100
AcDbLine
 10
3.299999999999997
 20
-25.92000000000006
 30
0.0
 11
3.299999999999997
 21
-27.42000000000006
 31
0.0
  0
LINE
  5
AAA7
330
AA9F
100
AcDbEntity
  8
0
100
AcDbLine
 10
2.699999999999974
 20
-25.17000000000006
 30
0.0
 11
3.499999999999985
 21
-25.17000000000006
 31
0.0
  0
LINE
  5
AAA8
330
AA9F
100
AcDbEntity
  8
0
100
AcDbLine
 10
2.699999999999974
 20
-28.17000000000006
 30
0.0
 11
3.499999999999985
 21
-28.17000000000006
 31
0.0
  0
LINE
  5
AAA9
330
AA9F
100
AcDbEntity
  8
0
100
AcDbLine
 10
2.699999999999974
 20
-25.17000000000006
 30
0.0
 11
2.699999999999974
 21
-28.17000000000006
 31
0.0
  0
LINE
  5
AAAA
330
AA9F
100
AcDbEntity
  8
0
100
AcDbLine
 10
2.499999999999985
 20
-25.92000000000006
 30
0.0
 11
2.499999999999985
 21
-27.42000000000006
 31
0.0
  0
LINE
  5
AAAB
330
AA9F
100
AcDbEntity
  8
0
100
AcDbLine
 10
2.499999999999985
 20
-25.92000000000006
 30
0.0
 11
3.299999999999997
 21
-25.92000000000006
 31
0.0
  0
LINE
  5
AAAC
330
AA9F
100
AcDbEntity
  8
0
100
AcDbLine
 10
2.499999999999985
 20
-27.42000000000011
 30
0.0
 11
3.299999999999997
 21
-27.42000000000006
 31
0.0
  0
LINE
  5
AAAD
330
AA9F
100
AcDbEntity
  8
0
100
AcDbLine
 10
11.09999999999995
 20
-23.47000000000001
 30
0.0
 11
11.09999999999995
 21
-29.87000000000011
 31
0.0
  0
LINE
  5
AAAE
330
AA9F
100
AcDbEntity
  8
0
100
AcDbLine
 10
9.499999999999985
 20
-23.47000000000001
 30
0.0
 11
9.499999999999985
 21
-29.87000000000011
 31
0.0
  0
LINE
  5
AAAF
330
AA9F
100
AcDbEntity
  8
0
100
AcDbLine
 10
9.499999999999985
 20
-23.47000000000001
 30
0.0
 11
9.499999999999985
 21
-29.87000000000011
 31
0.0
  0
LINE
  5
AAB0
330
AA9F
100
AcDbEntity
  8
0
100
AcDbLine
 10
9.499999999999985
 20
-25.17000000000006
 30
0.0
 11
10.3
 21
-25.17000000000006
 31
0.0
  0
LINE
  5
AAB1
330
AA9F
100
AcDbEntity
  8
0
100
AcDbLine
 10
9.499999999999985
 20
-28.17000000000006
 30
0.0
 11
10.3
 21
-28.17000000000006
 31
0.0
  0
LINE
  5
AAB2
330
AA9F
100
AcDbEntity
  8
0
100
AcDbLine
 10
10.3
 20
-25.17000000000006
 30
0.0
 11
10.3
 21
-28.17000000000006
 31
0.0
  0
LINE
  5
AAB3
330
AA9F
100
AcDbEntity
  8
0
100
AcDbLine
 10
4.909009742330241
 20
-25.78611652351689
 30
0.0
 11
5.616116523516808
 21
-25.07900974233031
 31
0.0
  0
LINE
  5
AAB4
330
AA9F
100
AcDbEntity
  8
0
100
AcDbLine
 10
7.383883476483163
 20
-28.26099025766983
 30
0.0
 11
8.090990257669744
 21
-27.55388347648325
 31
0.0
  0
LINE
  5
AAB5
330
AA9F
100
AcDbEntity
  8
0
100
AcDbLine
 10
7.383883476483205
 20
-25.07900974233034
 30
0.0
 11
8.090990257669758
 21
-25.78611652351689
 31
0.0
  0
LINE
  5
AAB6
330
AA9F
100
AcDbEntity
  8
0
100
AcDbLine
 10
4.909009742330269
 20
-27.55388347648328
 30
0.0
 11
5.616116523516822
 21
-28.26099025766983
 31
0.0
  0
LINE
  5
AAB7
330
AA9F
100
AcDbEntity
  8
0
100
AcDbLine
 10
7.950608464673607
 20
-24.51228475413994
 30
0.0
 11
6.500000000000028
 21
-25.96289321881354
 31
0.0
  0
LINE
  5
AAB8
330
AA9F
100
AcDbEntity
  8
0
100
AcDbLine
 10
8.65771524586016
 20
-25.21939153532649
 30
0.0
 11
7.207106781186567
 21
-26.67000000000006
 31
0.0
  0
LINE
  5
AAB9
330
AA9F
100
AcDbEntity
  8
0
100
AcDbLine
 10
4.909009742330241
 20
-25.78611652351689
 30
0.0
 11
5.792893218813446
 21
-26.67000000000012
 31
0.0
  0
LINE
  5
AABA
330
AA9F
100
AcDbEntity
  8
0
100
AcDbLine
 10
5.616116523516822
 20
-25.07900974233034
 30
0.0
 11
6.500000000000028
 21
-25.96289321881354
 31
0.0
  0
LINE
  5
AABB
330
AA9F
100
AcDbEntity
  8
0
100
AcDbLine
 10
6.5
 20
-27.37710678118667
 30
0.0
 11
7.383883476483148
 21
-28.26099025766983
 31
0.0
  0
LINE
  5
AABC
330
AA9F
100
AcDbEntity
  8
0
100
AcDbLine
 10
5.792893218813446
 20
-26.67000000000012
 30
0.0
 11
4.342284754139868
 21
-28.12060846467368
 31
0.0
  0
LINE
  5
AABD
330
AA9F
100
AcDbEntity
  8
0
100
AcDbLine
 10
7.207106781186567
 20
-26.67000000000006
 30
0.0
 11
8.090990257669744
 21
-27.55388347648325
 31
0.0
  0
LINE
  5
AABE
330
AA9F
100
AcDbEntity
  8
0
100
AcDbLine
 10
6.5
 20
-27.37710678118667
 30
0.0
 11
5.049391535326421
 21
-28.82771524586024
 31
0.0
  0
LINE
  5
AABF
330
AA9F
100
AcDbEntity
  8
0
100
AcDbLine
 10
6.5
 20
-34.99710678118669
 30
0.0
 11
5.049391535326421
 21
-36.44771524586024
 31
0.0
  0
LINE
  5
AAC0
330
AA9F
100
AcDbEntity
  8
0
100
AcDbLine
 10
7.207106781186567
 20
-34.29000000000009
 30
0.0
 11
8.090990257669744
 21
-35.17388347648327
 31
0.0
  0
LINE
  5
AAC1
330
AA9F
100
AcDbEntity
  8
0
100
AcDbLine
 10
5.792893218813446
 20
-34.29000000000012
 30
0.0
 11
4.342284754139868
 21
-35.74060846467368
 31
0.0
  0
LINE
  5
AAC2
330
AA9F
100
AcDbEntity
  8
0
100
AcDbLine
 10
6.5
 20
-34.99710678118669
 30
0.0
 11
7.383883476483148
 21
-35.88099025766984
 31
0.0
  0
LINE
  5
AAC3
330
AA9F
100
AcDbEntity
  8
0
100
AcDbLine
 10
5.616116523516822
 20
-32.69900974233035
 30
0.0
 11
6.500000000000028
 21
-33.58289321881355
 31
0.0
  0
LINE
  5
AAC4
330
AA9F
100
AcDbEntity
  8
0
100
AcDbLine
 10
4.909009742330241
 20
-33.40611652351693
 30
0.0
 11
5.792893218813446
 21
-34.29000000000012
 31
0.0
  0
LINE
  5
AAC5
330
AA9F
100
AcDbEntity
  8
0
100
AcDbLine
 10
0.0000000000000036
 20
-37.49000000000009
 30
0.0
 11
11.99999999999998
 21
-37.49000000000009
 31
0.0
  0
LINE
  5
AAC6
330
AA9F
100
AcDbEntity
  8
0
100
AcDbLine
 10
0.0000000000000053
 20
-31.09000000000011
 30
0.0
 11
11.99999999999998
 21
-31.09000000000011
 31
0.0
  0
LINE
  5
AAC7
330
AA9F
100
AcDbEntity
  8
0
100
AcDbLine
 10
8.65771524586016
 20
-32.8393915353265
 30
0.0
 11
7.207106781186567
 21
-34.29000000000009
 31
0.0
  0
LINE
  5
AAC8
330
AA9F
100
AcDbEntity
  8
0
100
AcDbLine
 10
7.950608464673607
 20
-32.13228475413995
 30
0.0
 11
6.500000000000028
 21
-33.58289321881355
 31
0.0
  0
LINE
  5
AAC9
330
AA9F
100
AcDbEntity
  8
0
100
AcDbLine
 10
4.909009742330269
 20
-35.17388347648328
 30
0.0
 11
5.616116523516822
 21
-35.88099025766984
 31
0.0
  0
LINE
  5
AACA
330
AA9F
100
AcDbEntity
  8
0
100
AcDbLine
 10
7.383883476483205
 20
-32.69900974233038
 30
0.0
 11
8.090990257669758
 21
-33.40611652351693
 31
0.0
  0
LINE
  5
AACB
330
AA9F
100
AcDbEntity
  8
0
100
AcDbLine
 10
7.383883476483163
 20
-35.88099025766985
 30
0.0
 11
8.090990257669744
 21
-35.17388347648327
 31
0.0
  0
LINE
  5
AACC
330
AA9F
100
AcDbEntity
  8
0
100
AcDbLine
 10
4.909009742330241
 20
-33.40611652351693
 30
0.0
 11
5.616116523516808
 21
-32.69900974233034
 31
0.0
  0
LINE
  5
AACD
330
AA9F
100
AcDbEntity
  8
0
100
AcDbLine
 10
10.3
 20
-32.79000000000009
 30
0.0
 11
10.3
 21
-35.79000000000009
 31
0.0
  0
LINE
  5
AACE
330
AA9F
100
AcDbEntity
  8
0
100
AcDbLine
 10
9.499999999999985
 20
-35.79000000000009
 30
0.0
 11
10.3
 21
-35.79000000000009
 31
0.0
  0
LINE
  5
AACF
330
AA9F
100
AcDbEntity
  8
0
100
AcDbLine
 10
9.499999999999985
 20
-32.79000000000009
 30
0.0
 11
10.3
 21
-32.79000000000009
 31
0.0
  0
LINE
  5
AAD0
330
AA9F
100
AcDbEntity
  8
0
100
AcDbLine
 10
9.499999999999985
 20
-31.09000000000005
 30
0.0
 11
9.499999999999985
 21
-37.49000000000014
 31
0.0
  0
LINE
  5
AAD1
330
AA9F
100
AcDbEntity
  8
0
100
AcDbLine
 10
9.499999999999985
 20
-31.09000000000005
 30
0.0
 11
9.499999999999985
 21
-37.49000000000014
 31
0.0
  0
LINE
  5
AAD2
330
AA9F
100
AcDbEntity
  8
0
100
AcDbLine
 10
11.09999999999995
 20
-31.09000000000005
 30
0.0
 11
11.09999999999995
 21
-37.49000000000014
 31
0.0
  0
LINE
  5
AAD3
330
AA9F
100
AcDbEntity
  8
0
100
AcDbLine
 10
2.499999999999985
 20
-35.04000000000015
 30
0.0
 11
3.299999999999997
 21
-35.04000000000009
 31
0.0
  0
LINE
  5
AAD4
330
AA9F
100
AcDbEntity
  8
0
100
AcDbLine
 10
2.499999999999985
 20
-33.54000000000009
 30
0.0
 11
3.299999999999997
 21
-33.54000000000009
 31
0.0
  0
LINE
  5
AAD5
330
AA9F
100
AcDbEntity
  8
0
100
AcDbLine
 10
2.499999999999985
 20
-33.54000000000009
 30
0.0
 11
2.499999999999985
 21
-35.04000000000009
 31
0.0
  0
LINE
  5
AAD6
330
AA9F
100
AcDbEntity
  8
0
100
AcDbLine
 10
2.699999999999974
 20
-32.79000000000009
 30
0.0
 11
2.699999999999974
 21
-35.79000000000009
 31
0.0
  0
LINE
  5
AAD7
330
AA9F
100
AcDbEntity
  8
0
100
AcDbLine
 10
2.699999999999974
 20
-35.79000000000009
 30
0.0
 11
3.499999999999985
 21
-35.79000000000009
 31
0.0
  0
LINE
  5
AAD8
330
AA9F
100
AcDbEntity
  8
0
100
AcDbLine
 10
2.699999999999974
 20
-32.79000000000009
 30
0.0
 11
3.499999999999985
 21
-32.79000000000009
 31
0.0
  0
LINE
  5
AAD9
330
AA9F
100
AcDbEntity
  8
0
100
AcDbLine
 10
3.299999999999997
 20
-33.54000000000009
 30
0.0
 11
3.299999999999997
 21
-35.04000000000009
 31
0.0
  0
LINE
  5
AADA
330
AA9F
100
AcDbEntity
  8
0
100
AcDbLine
 10
1.899999999999963
 20
-31.09000000000011
 30
0.0
 11
1.899999999999963
 21
-37.49000000000002
 31
0.0
  0
LINE
  5
AADB
330
AA9F
100
AcDbEntity
  8
0
100
AcDbLine
 10
3.499999999999985
 20
-31.09000000000011
 30
0.0
 11
3.499999999999985
 21
-37.49000000000014
 31
0.0
  0
LINE
  5
AADC
330
AA9F
100
AcDbEntity
  8
0
100
AcDbLine
 10
-0.0000000000000142
 20
-29.87000000000002
 30
0.0
 11
11.99999999999998
 21
-29.87000000000008
 31
0.0
  0
LINE
  5
AADD
330
AA9F
100
AcDbEntity
  8
0
100
AcDbLine
 10
-0.0000000000000142
 20
-38.71000000000016
 30
0.0
 11
11.99999999999998
 21
-38.71000000000011
 31
0.0
  0
CIRCLE
  5
AADE
330
AA9F
100
AcDbEntity
  8
0
100
AcDbCircle
 10
6.500000000000014
 20
-34.29000000000009
 30
0.0
 40
2.6
  0
CIRCLE
  5
AADF
330
AA9F
100
AcDbEntity
  8
0
100
AcDbCircle
 10
6.500000000000014
 20
-19.05000000000005
 30
0.0
 40
2.6
  0
LINE
  5
AAE0
330
AA9F
100
AcDbEntity
  8
0
100
AcDbLine
 10
-0.0000000000000142
 20
-23.47000000000013
 30
0.0
 11
11.99999999999998
 21
-23.47000000000007
 31
0.0
  0
LINE
  5
AAE1
330
AA9F
100
AcDbEntity
  8
0
100
AcDbLine
 10
-0.0000000000000142
 20
-14.62999999999998
 30
0.0
 11
11.99999999999998
 21
-14.63000000000004
 31
0.0
  0
LINE
  5
AAE2
330
AA9F
100
AcDbEntity
  8
0
100
AcDbLine
 10
3.499999999999985
 20
-15.85000000000006
 30
0.0
 11
3.499999999999985
 21
-22.2500000000001
 31
0.0
  0
LINE
  5
AAE3
330
AA9F
100
AcDbEntity
  8
0
100
AcDbLine
 10
1.899999999999963
 20
-15.85000000000006
 30
0.0
 11
1.899999999999963
 21
-22.24999999999999
 31
0.0
  0
LINE
  5
AAE4
330
AA9F
100
AcDbEntity
  8
0
100
AcDbLine
 10
3.299999999999997
 20
-18.30000000000005
 30
0.0
 11
3.299999999999997
 21
-19.80000000000005
 31
0.0
  0
LINE
  5
AAE5
330
AA9F
100
AcDbEntity
  8
0
100
AcDbLine
 10
2.699999999999974
 20
-17.55000000000005
 30
0.0
 11
3.499999999999985
 21
-17.55000000000005
 31
0.0
  0
LINE
  5
AAE6
330
AA9F
100
AcDbEntity
  8
0
100
AcDbLine
 10
2.699999999999974
 20
-20.55000000000005
 30
0.0
 11
3.499999999999985
 21
-20.55000000000005
 31
0.0
  0
LINE
  5
AAE7
330
AA9F
100
AcDbEntity
  8
0
100
AcDbLine
 10
2.699999999999974
 20
-17.55000000000005
 30
0.0
 11
2.699999999999974
 21
-20.55000000000005
 31
0.0
  0
LINE
  5
AAE8
330
AA9F
100
AcDbEntity
  8
0
100
AcDbLine
 10
2.499999999999985
 20
-18.30000000000005
 30
0.0
 11
2.499999999999985
 21
-19.80000000000005
 31
0.0
  0
LINE
  5
AAE9
330
AA9F
100
AcDbEntity
  8
0
100
AcDbLine
 10
2.499999999999985
 20
-18.30000000000005
 30
0.0
 11
3.299999999999997
 21
-18.30000000000005
 31
0.0
  0
LINE
  5
AAEA
330
AA9F
100
AcDbEntity
  8
0
100
AcDbLine
 10
2.499999999999985
 20
-19.80000000000011
 30
0.0
 11
3.299999999999997
 21
-19.80000000000005
 31
0.0
  0
LINE
  5
AAEB
330
AA9F
100
AcDbEntity
  8
0
100
AcDbLine
 10
11.09999999999995
 20
-15.85000000000001
 30
0.0
 11
11.09999999999995
 21
-22.2500000000001
 31
0.0
  0
LINE
  5
AAEC
330
AA9F
100
AcDbEntity
  8
0
100
AcDbLine
 10
9.499999999999985
 20
-15.85000000000001
 30
0.0
 11
9.499999999999985
 21
-22.2500000000001
 31
0.0
  0
LINE
  5
AAED
330
AA9F
100
AcDbEntity
  8
0
100
AcDbLine
 10
9.499999999999985
 20
-15.85000000000001
 30
0.0
 11
9.499999999999985
 21
-22.2500000000001
 31
0.0
  0
LINE
  5
AAEE
330
AA9F
100
AcDbEntity
  8
0
100
AcDbLine
 10
9.499999999999985
 20
-17.55000000000005
 30
0.0
 11
10.3
 21
-17.55000000000005
 31
0.0
  0
LINE
  5
AAEF
330
AA9F
100
AcDbEntity
  8
0
100
AcDbLine
 10
9.499999999999985
 20
-20.55000000000005
 30
0.0
 11
10.3
 21
-20.55000000000005
 31
0.0
  0
LINE
  5
AAF0
330
AA9F
100
AcDbEntity
  8
0
100
AcDbLine
 10
10.3
 20
-17.55000000000005
 30
0.0
 11
10.3
 21
-20.55000000000005
 31
0.0
  0
LINE
  5
AAF1
330
AA9F
100
AcDbEntity
  8
0
100
AcDbLine
 10
4.909009742330241
 20
-18.16611652351689
 30
0.0
 11
5.616116523516808
 21
-17.45900974233029
 31
0.0
  0
LINE
  5
AAF2
330
AA9F
100
AcDbEntity
  8
0
100
AcDbLine
 10
7.383883476483163
 20
-20.64099025766982
 30
0.0
 11
8.090990257669744
 21
-19.93388347648323
 31
0.0
  0
LINE
  5
AAF3
330
AA9F
100
AcDbEntity
  8
0
100
AcDbLine
 10
7.383883476483205
 20
-17.45900974233034
 30
0.0
 11
8.090990257669758
 21
-18.16611652351689
 31
0.0
  0
LINE
  5
AAF4
330
AA9F
100
AcDbEntity
  8
0
100
AcDbLine
 10
4.909009742330269
 20
-19.93388347648324
 30
0.0
 11
5.616116523516822
 21
-20.6409902576698
 31
0.0
  0
LINE
  5
AAF5
330
AA9F
100
AcDbEntity
  8
0
100
AcDbLine
 10
7.950608464673607
 20
-16.8922847541399
 30
0.0
 11
6.500000000000028
 21
-18.34289321881351
 31
0.0
  0
LINE
  5
AAF6
330
AA9F
100
AcDbEntity
  8
0
100
AcDbLine
 10
8.65771524586016
 20
-17.59939153532646
 30
0.0
 11
7.207106781186567
 21
-19.05000000000005
 31
0.0
  0
LINE
  5
AAF7
330
AA9F
100
AcDbEntity
  8
0
100
AcDbLine
 10
0.0000000000000053
 20
-15.85000000000006
 30
0.0
 11
11.99999999999998
 21
-15.85000000000006
 31
0.0
  0
LINE
  5
AAF8
330
AA9F
100
AcDbEntity
  8
0
100
AcDbLine
 10
0.0000000000000036
 20
-22.25000000000006
 30
0.0
 11
11.99999999999998
 21
-22.25000000000006
 31
0.0
  0
LINE
  5
AAF9
330
AA9F
100
AcDbEntity
  8
0
100
AcDbLine
 10
4.909009742330241
 20
-18.16611652351689
 30
0.0
 11
5.792893218813446
 21
-19.05000000000008
 31
0.0
  0
LINE
  5
AAFA
330
AA9F
100
AcDbEntity
  8
0
100
AcDbLine
 10
5.616116523516822
 20
-17.45900974233031
 30
0.0
 11
6.500000000000028
 21
-18.34289321881351
 31
0.0
  0
LINE
  5
AAFB
330
AA9F
100
AcDbEntity
  8
0
100
AcDbLine
 10
6.5
 20
-19.75710678118665
 30
0.0
 11
7.383883476483148
 21
-20.6409902576698
 31
0.0
  0
LINE
  5
AAFC
330
AA9F
100
AcDbEntity
  8
0
100
AcDbLine
 10
5.792893218813446
 20
-19.05000000000008
 30
0.0
 11
4.342284754139868
 21
-20.50060846467365
 31
0.0
  0
LINE
  5
AAFD
330
AA9F
100
AcDbEntity
  8
0
100
AcDbLine
 10
7.207106781186567
 20
-19.05000000000005
 30
0.0
 11
8.090990257669744
 21
-19.93388347648323
 31
0.0
  0
LINE
  5
AAFE
330
AA9F
100
AcDbEntity
  8
0
100
AcDbLine
 10
6.5
 20
-19.75710678118665
 30
0.0
 11
5.049391535326421
 21
-21.2077152458602
 31
0.0
  0
LINE
  5
AAFF
330
AA9F
100
AcDbEntity
  8
0
100
AcDbLine
 10
6.5
 20
-12.13710678118663
 30
0.0
 11
5.049391535326421
 21
-13.58771524586019
 31
0.0
  0
LINE
  5
AB00
330
AA9F
100
AcDbEntity
  8
0
100
AcDbLine
 10
7.207106781186567
 20
-11.43000000000002
 30
0.0
 11
8.090990257669744
 21
-12.31388347648321
 31
0.0
  0
LINE
  5
AB01
330
AA9F
100
AcDbEntity
  8
0
100
AcDbLine
 10
5.792893218813446
 20
-11.43000000000008
 30
0.0
 11
4.342284754139868
 21
-12.88060846467364
 31
0.0
  0
LINE
  5
AB02
330
AA9F
100
AcDbEntity
  8
0
100
AcDbLine
 10
6.5
 20
-12.13710678118663
 30
0.0
 11
7.383883476483148
 21
-13.02099025766979
 31
0.0
  0
LINE
  5
AB03
330
AA9F
100
AcDbEntity
  8
0
100
AcDbLine
 10
5.616116523516822
 20
-9.839009742330304
 30
0.0
 11
6.500000000000028
 21
-10.72289321881349
 31
0.0
  0
LINE
  5
AB04
330
AA9F
100
AcDbEntity
  8
0
100
AcDbLine
 10
4.909009742330241
 20
-10.54611652351685
 30
0.0
 11
5.792893218813446
 21
-11.43000000000008
 31
0.0
  0
LINE
  5
AB05
330
AA9F
100
AcDbEntity
  8
0
100
AcDbLine
 10
0.0000000000000053
 20
-8.230000000000032
 30
0.0
 11
11.99999999999998
 21
-8.230000000000032
 31
0.0
  0
LINE
  5
AB06
330
AA9F
100
AcDbEntity
  8
0
100
AcDbLine
 10
8.65771524586016
 20
-9.979391535326456
 30
0.0
 11
7.207106781186567
 21
-11.43000000000002
 31
0.0
  0
LINE
  5
AB07
330
AA9F
100
AcDbEntity
  8
0
100
AcDbLine
 10
7.950608464673607
 20
-9.272284754139903
 30
0.0
 11
6.500000000000028
 21
-10.72289321881349
 31
0.0
  0
LINE
  5
AB08
330
AA9F
100
AcDbEntity
  8
0
100
AcDbLine
 10
4.909009742330269
 20
-12.31388347648324
 30
0.0
 11
5.616116523516822
 21
-13.02099025766979
 31
0.0
  0
LINE
  5
AB09
330
AA9F
100
AcDbEntity
  8
0
100
AcDbLine
 10
7.383883476483205
 20
-9.839009742330304
 30
0.0
 11
8.090990257669758
 21
-10.54611652351685
 31
0.0
  0
LINE
  5
AB0A
330
AA9F
100
AcDbEntity
  8
0
100
AcDbLine
 10
7.383883476483163
 20
-13.02099025766979
 30
0.0
 11
8.090990257669744
 21
-12.31388347648321
 31
0.0
  0
LINE
  5
AB0B
330
AA9F
100
AcDbEntity
  8
0
100
AcDbLine
 10
4.909009742330241
 20
-10.54611652351685
 30
0.0
 11
5.616116523516808
 21
-9.839009742330276
 31
0.0
  0
LINE
  5
AB0C
330
AA9F
100
AcDbEntity
  8
0
100
AcDbLine
 10
10.3
 20
-9.930000000000021
 30
0.0
 11
10.3
 21
-12.93000000000002
 31
0.0
  0
LINE
  5
AB0D
330
AA9F
100
AcDbEntity
  8
0
100
AcDbLine
 10
9.499999999999985
 20
-12.93000000000002
 30
0.0
 11
10.3
 21
-12.93000000000002
 31
0.0
  0
LINE
  5
AB0E
330
AA9F
100
AcDbEntity
  8
0
100
AcDbLine
 10
9.499999999999985
 20
-9.930000000000021
 30
0.0
 11
10.3
 21
-9.930000000000021
 31
0.0
  0
LINE
  5
AB0F
330
AA9F
100
AcDbEntity
  8
0
100
AcDbLine
 10
9.499999999999985
 20
-8.229999999999975
 30
0.0
 11
9.499999999999985
 21
-14.63000000000007
 31
0.0
  0
LINE
  5
AB10
330
AA9F
100
AcDbEntity
  8
0
100
AcDbLine
 10
9.499999999999985
 20
-8.229999999999975
 30
0.0
 11
9.499999999999985
 21
-14.63000000000007
 31
0.0
  0
LINE
  5
AB11
330
AA9F
100
AcDbEntity
  8
0
100
AcDbLine
 10
11.09999999999995
 20
-8.229999999999975
 30
0.0
 11
11.09999999999995
 21
-14.63000000000007
 31
0.0
  0
LINE
  5
AB12
330
AA9F
100
AcDbEntity
  8
0
100
AcDbLine
 10
2.499999999999985
 20
-12.18000000000008
 30
0.0
 11
3.299999999999997
 21
-12.18000000000002
 31
0.0
  0
LINE
  5
AB13
330
AA9F
100
AcDbEntity
  8
0
100
AcDbLine
 10
2.499999999999985
 20
-10.68000000000002
 30
0.0
 11
3.299999999999997
 21
-10.68000000000002
 31
0.0
  0
LINE
  5
AB14
330
AA9F
100
AcDbEntity
  8
0
100
AcDbLine
 10
2.499999999999985
 20
-10.68000000000002
 30
0.0
 11
2.499999999999985
 21
-12.18000000000002
 31
0.0
  0
LINE
  5
AB15
330
AA9F
100
AcDbEntity
  8
0
100
AcDbLine
 10
2.699999999999974
 20
-9.930000000000021
 30
0.0
 11
2.699999999999974
 21
-12.93000000000002
 31
0.0
  0
LINE
  5
AB16
330
AA9F
100
AcDbEntity
  8
0
100
AcDbLine
 10
2.699999999999974
 20
-12.93000000000002
 30
0.0
 11
3.499999999999985
 21
-12.93000000000002
 31
0.0
  0
LINE
  5
AB17
330
AA9F
100
AcDbEntity
  8
0
100
AcDbLine
 10
2.699999999999974
 20
-9.930000000000021
 30
0.0
 11
3.499999999999985
 21
-9.930000000000021
 31
0.0
  0
LINE
  5
AB18
330
AA9F
100
AcDbEntity
  8
0
100
AcDbLine
 10
3.299999999999997
 20
-10.68000000000002
 30
0.0
 11
3.299999999999997
 21
-12.18000000000002
 31
0.0
  0
LINE
  5
AB19
330
AA9F
100
AcDbEntity
  8
0
100
AcDbLine
 10
1.899999999999963
 20
-8.230000000000032
 30
0.0
 11
1.899999999999963
 21
-14.62999999999995
 31
0.0
  0
LINE
  5
AB1A
330
AA9F
100
AcDbEntity
  8
0
100
AcDbLine
 10
3.499999999999985
 20
-8.230000000000032
 30
0.0
 11
3.499999999999985
 21
-14.63000000000007
 31
0.0
  0
LINE
  5
AB1B
330
AA9F
100
AcDbEntity
  8
0
100
AcDbLine
 10
-0.0000000000000142
 20
-7.009999999999948
 30
0.0
 11
11.99999999999998
 21
-7.010000000000005
 31
0.0
  0
CIRCLE
  5
AB1C
330
AA9F
100
AcDbEntity
  8
0
100
AcDbCircle
 10
6.500000000000014
 20
-11.43000000000002
 30
0.0
 40
2.6
  0
CIRCLE
  5
AB1D
330
AA9F
100
AcDbEntity
  8
0
100
AcDbCircle
 10
6.500000000000014
 20
3.810000000000044
 30
0.0
 40
2.6
  0
LINE
  5
AB1E
330
AA9F
100
AcDbEntity
  8
0
100
AcDbLine
 10
3.499999999999985
 20
7.010000000000033
 30
0.0
 11
3.499999999999985
 21
0.6099999999999995
 31
0.0
  0
LINE
  5
AB1F
330
AA9F
100
AcDbEntity
  8
0
100
AcDbLine
 10
1.899999999999963
 20
7.010000000000033
 30
0.0
 11
1.899999999999963
 21
0.6100000000001132
 31
0.0
  0
LINE
  5
AB20
330
AA9F
100
AcDbEntity
  8
0
100
AcDbLine
 10
3.299999999999997
 20
4.560000000000044
 30
0.0
 11
3.299999999999997
 21
3.060000000000044
 31
0.0
  0
LINE
  5
AB21
330
AA9F
100
AcDbEntity
  8
0
100
AcDbLine
 10
2.699999999999974
 20
5.310000000000044
 30
0.0
 11
3.499999999999985
 21
5.310000000000044
 31
0.0
  0
LINE
  5
AB22
330
AA9F
100
AcDbEntity
  8
0
100
AcDbLine
 10
2.699999999999974
 20
2.310000000000044
 30
0.0
 11
3.499999999999985
 21
2.310000000000044
 31
0.0
  0
LINE
  5
AB23
330
AA9F
100
AcDbEntity
  8
0
100
AcDbLine
 10
2.699999999999974
 20
5.310000000000044
 30
0.0
 11
2.699999999999974
 21
2.310000000000044
 31
0.0
  0
LINE
  5
AB24
330
AA9F
100
AcDbEntity
  8
0
100
AcDbLine
 10
2.499999999999985
 20
4.560000000000044
 30
0.0
 11
2.499999999999985
 21
3.060000000000044
 31
0.0
  0
LINE
  5
AB25
330
AA9F
100
AcDbEntity
  8
0
100
AcDbLine
 10
2.499999999999985
 20
4.560000000000044
 30
0.0
 11
3.299999999999997
 21
4.560000000000044
 31
0.0
  0
LINE
  5
AB26
330
AA9F
100
AcDbEntity
  8
0
100
AcDbLine
 10
2.499999999999985
 20
3.059999999999988
 30
0.0
 11
3.299999999999997
 21
3.060000000000044
 31
0.0
  0
LINE
  5
AB27
330
AA9F
100
AcDbEntity
  8
0
100
AcDbLine
 10
11.09999999999995
 20
7.01000000000009
 30
0.0
 11
11.09999999999995
 21
0.6099999999999995
 31
0.0
  0
LINE
  5
AB28
330
AA9F
100
AcDbEntity
  8
0
100
AcDbLine
 10
9.499999999999985
 20
7.01000000000009
 30
0.0
 11
9.499999999999985
 21
0.6099999999999995
 31
0.0
  0
LINE
  5
AB29
330
AA9F
100
AcDbEntity
  8
0
100
AcDbLine
 10
9.499999999999985
 20
7.01000000000009
 30
0.0
 11
9.499999999999985
 21
0.6099999999999995
 31
0.0
  0
LINE
  5
AB2A
330
AA9F
100
AcDbEntity
  8
0
100
AcDbLine
 10
9.499999999999985
 20
5.310000000000044
 30
0.0
 11
10.3
 21
5.310000000000044
 31
0.0
  0
LINE
  5
AB2B
330
AA9F
100
AcDbEntity
  8
0
100
AcDbLine
 10
9.499999999999985
 20
2.310000000000044
 30
0.0
 11
10.3
 21
2.310000000000044
 31
0.0
  0
LINE
  5
AB2C
330
AA9F
100
AcDbEntity
  8
0
100
AcDbLine
 10
10.3
 20
5.310000000000044
 30
0.0
 11
10.3
 21
2.310000000000044
 31
0.0
  0
LINE
  5
AB2D
330
AA9F
100
AcDbEntity
  8
0
100
AcDbLine
 10
4.909009742330241
 20
4.693883476483208
 30
0.0
 11
5.616116523516808
 21
5.400990257669761
 31
0.0
  0
LINE
  5
AB2E
330
AA9F
100
AcDbEntity
  8
0
100
AcDbLine
 10
7.383883476483163
 20
2.219009742330271
 30
0.0
 11
8.090990257669744
 21
2.926116523516824
 31
0.0
  0
LINE
  5
AB2F
330
AA9F
100
AcDbEntity
  8
0
100
AcDbLine
 10
7.383883476483205
 20
5.400990257669761
 30
0.0
 11
8.090990257669758
 21
4.693883476483208
 31
0.0
  0
LINE
  5
AB30
330
AA9F
100
AcDbEntity
  8
0
100
AcDbLine
 10
4.909009742330269
 20
2.926116523516824
 30
0.0
 11
5.616116523516822
 21
2.219009742330271
 31
0.0
  0
LINE
  5
AB31
330
AA9F
100
AcDbEntity
  8
0
100
AcDbLine
 10
7.950608464673607
 20
5.967715245860162
 30
0.0
 11
6.500000000000028
 21
4.517106781186541
 31
0.0
  0
LINE
  5
AB32
330
AA9F
100
AcDbEntity
  8
0
100
AcDbLine
 10
8.65771524586016
 20
5.260608464673609
 30
0.0
 11
7.207106781186567
 21
3.810000000000044
 31
0.0
  0
LINE
  5
AB33
330
AA9F
100
AcDbEntity
  8
0
100
AcDbLine
 10
4.909009742330241
 20
4.693883476483208
 30
0.0
 11
5.792893218813446
 21
3.809999999999988
 31
0.0
  0
LINE
  5
AB34
330
AA9F
100
AcDbEntity
  8
0
100
AcDbLine
 10
5.616116523516822
 20
5.400990257669761
 30
0.0
 11
6.500000000000028
 21
4.517106781186541
 31
0.0
  0
LINE
  5
AB35
330
AA9F
100
AcDbEntity
  8
0
100
AcDbLine
 10
6.5
 20
3.102893218813434
 30
0.0
 11
7.383883476483148
 21
2.219009742330271
 31
0.0
  0
LINE
  5
AB36
330
AA9F
100
AcDbEntity
  8
0
100
AcDbLine
 10
5.792893218813446
 20
3.809999999999988
 30
0.0
 11
4.342284754139868
 21
2.359391535326423
 31
0.0
  0
LINE
  5
AB37
330
AA9F
100
AcDbEntity
  8
0
100
AcDbLine
 10
7.207106781186567
 20
3.810000000000044
 30
0.0
 11
8.090990257669744
 21
2.926116523516824
 31
0.0
  0
LINE
  5
AB38
330
AA9F
100
AcDbEntity
  8
0
100
AcDbLine
 10
6.5
 20
3.102893218813434
 30
0.0
 11
5.049391535326421
 21
1.65228475413987
 31
0.0
  0
LINE
  5
AB39
330
AA9F
100
AcDbEntity
  8
0
100
AcDbLine
 10
6.5
 20
-4.517106781186598
 30
0.0
 11
5.049391535326421
 21
-5.967715245860134
 31
0.0
  0
LINE
  5
AB3A
330
AA9F
100
AcDbEntity
  8
0
100
AcDbLine
 10
7.207106781186567
 20
-3.810000000000016
 30
0.0
 11
8.090990257669744
 21
-4.693883476483179
 31
0.0
  0
LINE
  5
AB3B
330
AA9F
100
AcDbEntity
  8
0
100
AcDbLine
 10
5.792893218813446
 20
-3.810000000000016
 30
0.0
 11
4.342284754139868
 21
-5.26060846467358
 31
0.0
  0
LINE
  5
AB3C
330
AA9F
100
AcDbEntity
  8
0
100
AcDbLine
 10
6.5
 20
-4.517106781186598
 30
0.0
 11
7.383883476483148
 21
-5.400990257669732
 31
0.0
  0
LINE
  5
AB3D
330
AA9F
100
AcDbEntity
  8
0
100
AcDbLine
 10
5.616116523516822
 20
-2.219009742330243
 30
0.0
 11
6.500000000000028
 21
-3.102893218813463
 31
0.0
  0
LINE
  5
AB3E
330
AA9F
100
AcDbEntity
  8
0
100
AcDbLine
 10
4.909009742330241
 20
-2.926116523516853
 30
0.0
 11
5.792893218813446
 21
-3.810000000000016
 31
0.0
  0
LINE
  5
AB3F
330
AA9F
100
AcDbEntity
  8
0
100
AcDbLine
 10
0.0000000000000053
 20
-0.6100000000000279
 30
0.0
 11
11.99999999999998
 21
-0.6100000000000279
 31
0.0
  0
LINE
  5
AB40
330
AA9F
100
AcDbEntity
  8
0
100
AcDbLine
 10
8.65771524586016
 20
-2.359391535326395
 30
0.0
 11
7.207106781186567
 21
-3.810000000000016
 31
0.0
  0
LINE
  5
AB41
330
AA9F
100
AcDbEntity
  8
0
100
AcDbLine
 10
7.950608464673607
 20
-1.652284754139841
 30
0.0
 11
6.500000000000028
 21
-3.102893218813463
 31
0.0
  0
LINE
  5
AB42
330
AA9F
100
AcDbEntity
  8
0
100
AcDbLine
 10
4.909009742330269
 20
-4.693883476483179
 30
0.0
 11
5.616116523516822
 21
-5.400990257669732
 31
0.0
  0
LINE
  5
AB43
330
AA9F
100
AcDbEntity
  8
0
100
AcDbLine
 10
7.383883476483205
 20
-2.2190097423303
 30
0.0
 11
8.090990257669758
 21
-2.926116523516853
 31
0.0
  0
LINE
  5
AB44
330
AA9F
100
AcDbEntity
  8
0
100
AcDbLine
 10
7.383883476483163
 20
-5.400990257669761
 30
0.0
 11
8.090990257669744
 21
-4.693883476483179
 31
0.0
  0
LINE
  5
AB45
330
AA9F
100
AcDbEntity
  8
0
100
AcDbLine
 10
4.909009742330241
 20
-2.926116523516853
 30
0.0
 11
5.616116523516808
 21
-2.219009742330243
 31
0.0
  0
LINE
  5
AB46
330
AA9F
100
AcDbEntity
  8
0
100
AcDbLine
 10
10.3
 20
-2.310000000000016
 30
0.0
 11
10.3
 21
-5.310000000000016
 31
0.0
  0
LINE
  5
AB47
330
AA9F
100
AcDbEntity
  8
0
100
AcDbLine
 10
9.499999999999985
 20
-5.310000000000016
 30
0.0
 11
10.3
 21
-5.310000000000016
 31
0.0
  0
LINE
  5
AB48
330
AA9F
100
AcDbEntity
  8
0
100
AcDbLine
 10
9.499999999999985
 20
-2.310000000000016
 30
0.0
 11
10.3
 21
-2.310000000000016
 31
0.0
  0
LINE
  5
AB49
330
AA9F
100
AcDbEntity
  8
0
100
AcDbLine
 10
9.499999999999985
 20
-0.609999999999971
 30
0.0
 11
9.499999999999985
 21
-7.010000000000061
 31
0.0
  0
LINE
  5
AB4A
330
AA9F
100
AcDbEntity
  8
0
100
AcDbLine
 10
9.499999999999985
 20
-0.609999999999971
 30
0.0
 11
9.499999999999985
 21
-7.010000000000061
 31
0.0
  0
LINE
  5
AB4B
330
AA9F
100
AcDbEntity
  8
0
100
AcDbLine
 10
11.09999999999995
 20
-0.609999999999971
 30
0.0
 11
11.09999999999995
 21
-7.010000000000061
 31
0.0
  0
LINE
  5
AB4C
330
AA9F
100
AcDbEntity
  8
0
100
AcDbLine
 10
2.499999999999985
 20
-4.560000000000073
 30
0.0
 11
3.299999999999997
 21
-4.560000000000016
 31
0.0
  0
LINE
  5
AB4D
330
AA9F
100
AcDbEntity
  8
0
100
AcDbLine
 10
2.499999999999985
 20
-3.060000000000016
 30
0.0
 11
3.299999999999997
 21
-3.060000000000016
 31
0.0
  0
LINE
  5
AB4E
330
AA9F
100
AcDbEntity
  8
0
100
AcDbLine
 10
2.499999999999985
 20
-3.060000000000016
 30
0.0
 11
2.499999999999985
 21
-4.560000000000016
 31
0.0
  0
LINE
  5
AB4F
330
AA9F
100
AcDbEntity
  8
0
100
AcDbLine
 10
2.699999999999974
 20
-2.310000000000016
 30
0.0
 11
2.699999999999974
 21
-5.310000000000016
 31
0.0
  0
LINE
  5
AB50
330
AA9F
100
AcDbEntity
  8
0
100
AcDbLine
 10
2.699999999999974
 20
-5.310000000000016
 30
0.0
 11
3.499999999999985
 21
-5.310000000000016
 31
0.0
  0
LINE
  5
AB51
330
AA9F
100
AcDbEntity
  8
0
100
AcDbLine
 10
2.699999999999974
 20
-2.310000000000016
 30
0.0
 11
3.499999999999985
 21
-2.310000000000016
 31
0.0
  0
LINE
  5
AB52
330
AA9F
100
AcDbEntity
  8
0
100
AcDbLine
 10
3.299999999999997
 20
-3.060000000000016
 30
0.0
 11
3.299999999999997
 21
-4.560000000000016
 31
0.0
  0
LINE
  5
AB53
330
AA9F
100
AcDbEntity
  8
0
100
AcDbLine
 10
1.899999999999963
 20
-0.6100000000000279
 30
0.0
 11
1.899999999999963
 21
-7.009999999999948
 31
0.0
  0
LINE
  5
AB54
330
AA9F
100
AcDbEntity
  8
0
100
AcDbLine
 10
3.499999999999985
 20
-0.6100000000000279
 30
0.0
 11
3.499999999999985
 21
-7.010000000000061
 31
0.0
  0
LINE
  5
AB55
330
AA9F
100
AcDbEntity
  8
0
100
AcDbLine
 10
-0.0000000000000142
 20
0.6100000000000563
 30
0.0
 11
11.99999999999998
 21
0.6099999999999995
 31
0.0
  0
CIRCLE
  5
AB56
330
AA9F
100
AcDbEntity
  8
0
100
AcDbCircle
 10
6.500000000000014
 20
-3.810000000000016
 30
0.0
 40
2.6
  0
CIRCLE
  5
AB57
330
AA9F
100
AcDbEntity
  8
0
100
AcDbCircle
 10
6.500000000000014
 20
26.6700000000001
 30
0.0
 40
2.6
  0
LINE
  5
AB58
330
AA9F
100
AcDbEntity
  8
0
100
AcDbLine
 10
-0.0000000000000142
 20
31.09000000000018
 30
0.0
 11
11.99999999999998
 21
31.09000000000012
 31
0.0
  0
LINE
  5
AB59
330
AA9F
100
AcDbEntity
  8
0
100
AcDbLine
 10
3.499999999999985
 20
29.87000000000009
 30
0.0
 11
3.499999999999985
 21
23.47000000000006
 31
0.0
  0
LINE
  5
AB5A
330
AA9F
100
AcDbEntity
  8
0
100
AcDbLine
 10
1.899999999999963
 20
29.87000000000009
 30
0.0
 11
1.899999999999963
 21
23.47000000000017
 31
0.0
  0
LINE
  5
AB5B
330
AA9F
100
AcDbEntity
  8
0
100
AcDbLine
 10
3.299999999999997
 20
27.4200000000001
 30
0.0
 11
3.299999999999997
 21
25.9200000000001
 31
0.0
  0
LINE
  5
AB5C
330
AA9F
100
AcDbEntity
  8
0
100
AcDbLine
 10
2.699999999999974
 20
28.1700000000001
 30
0.0
 11
3.499999999999985
 21
28.1700000000001
 31
0.0
  0
LINE
  5
AB5D
330
AA9F
100
AcDbEntity
  8
0
100
AcDbLine
 10
2.699999999999974
 20
25.1700000000001
 30
0.0
 11
3.499999999999985
 21
25.1700000000001
 31
0.0
  0
LINE
  5
AB5E
330
AA9F
100
AcDbEntity
  8
0
100
AcDbLine
 10
2.699999999999974
 20
28.1700000000001
 30
0.0
 11
2.699999999999974
 21
25.1700000000001
 31
0.0
  0
LINE
  5
AB5F
330
AA9F
100
AcDbEntity
  8
0
100
AcDbLine
 10
2.499999999999985
 20
27.4200000000001
 30
0.0
 11
2.499999999999985
 21
25.9200000000001
 31
0.0
  0
LINE
  5
AB60
330
AA9F
100
AcDbEntity
  8
0
100
AcDbLine
 10
2.499999999999985
 20
27.4200000000001
 30
0.0
 11
3.299999999999997
 21
27.4200000000001
 31
0.0
  0
LINE
  5
AB61
330
AA9F
100
AcDbEntity
  8
0
100
AcDbLine
 10
2.499999999999985
 20
25.92000000000004
 30
0.0
 11
3.299999999999997
 21
25.9200000000001
 31
0.0
  0
LINE
  5
AB62
330
AA9F
100
AcDbEntity
  8
0
100
AcDbLine
 10
11.09999999999995
 20
29.87000000000015
 30
0.0
 11
11.09999999999995
 21
23.47000000000006
 31
0.0
  0
LINE
  5
AB63
330
AA9F
100
AcDbEntity
  8
0
100
AcDbLine
 10
9.499999999999985
 20
29.87000000000015
 30
0.0
 11
9.499999999999985
 21
23.47000000000006
 31
0.0
  0
LINE
  5
AB64
330
AA9F
100
AcDbEntity
  8
0
100
AcDbLine
 10
9.499999999999985
 20
29.87000000000015
 30
0.0
 11
9.499999999999985
 21
23.47000000000006
 31
0.0
  0
LINE
  5
AB65
330
AA9F
100
AcDbEntity
  8
0
100
AcDbLine
 10
9.499999999999985
 20
28.1700000000001
 30
0.0
 11
10.3
 21
28.1700000000001
 31
0.0
  0
LINE
  5
AB66
330
AA9F
100
AcDbEntity
  8
0
100
AcDbLine
 10
9.499999999999985
 20
25.1700000000001
 30
0.0
 11
10.3
 21
25.1700000000001
 31
0.0
  0
LINE
  5
AB67
330
AA9F
100
AcDbEntity
  8
0
100
AcDbLine
 10
10.3
 20
28.1700000000001
 30
0.0
 11
10.3
 21
25.1700000000001
 31
0.0
  0
LINE
  5
AB68
330
AA9F
100
AcDbEntity
  8
0
100
AcDbLine
 10
4.909009742330241
 20
27.55388347648326
 30
0.0
 11
5.616116523516808
 21
28.26099025766988
 31
0.0
  0
LINE
  5
AB69
330
AA9F
100
AcDbEntity
  8
0
100
AcDbLine
 10
7.383883476483163
 20
25.07900974233036
 30
0.0
 11
8.090990257669744
 21
25.78611652351694
 31
0.0
  0
LINE
  5
AB6A
330
AA9F
100
AcDbEntity
  8
0
100
AcDbLine
 10
7.383883476483205
 20
28.26099025766982
 30
0.0
 11
8.090990257669758
 21
27.55388347648326
 31
0.0
  0
LINE
  5
AB6B
330
AA9F
100
AcDbEntity
  8
0
100
AcDbLine
 10
4.909009742330269
 20
25.78611652351694
 30
0.0
 11
5.616116523516822
 21
25.07900974233038
 31
0.0
  0
LINE
  5
AB6C
330
AA9F
100
AcDbEntity
  8
0
100
AcDbLine
 10
7.950608464673607
 20
28.82771524586028
 30
0.0
 11
6.500000000000028
 21
27.37710678118665
 31
0.0
  0
LINE
  5
AB6D
330
AA9F
100
AcDbEntity
  8
0
100
AcDbLine
 10
8.65771524586016
 20
28.12060846467372
 30
0.0
 11
7.207106781186567
 21
26.6700000000001
 31
0.0
  0
LINE
  5
AB6E
330
AA9F
100
AcDbEntity
  8
0
100
AcDbLine
 10
0.0000000000000053
 20
29.87000000000009
 30
0.0
 11
11.99999999999998
 21
29.87000000000009
 31
0.0
  0
LINE
  5
AB6F
330
AA9F
100
AcDbEntity
  8
0
100
AcDbLine
 10
4.909009742330241
 20
27.55388347648326
 30
0.0
 11
5.792893218813446
 21
26.6700000000001
 31
0.0
  0
LINE
  5
AB70
330
AA9F
100
AcDbEntity
  8
0
100
AcDbLine
 10
5.616116523516822
 20
28.26099025766988
 30
0.0
 11
6.500000000000028
 21
27.37710678118665
 31
0.0
  0
LINE
  5
AB71
330
AA9F
100
AcDbEntity
  8
0
100
AcDbLine
 10
6.5
 20
25.96289321881352
 30
0.0
 11
7.383883476483148
 21
25.07900974233038
 31
0.0
  0
LINE
  5
AB72
330
AA9F
100
AcDbEntity
  8
0
100
AcDbLine
 10
5.792893218813446
 20
26.6700000000001
 30
0.0
 11
4.342284754139868
 21
25.21939153532654
 31
0.0
  0
LINE
  5
AB73
330
AA9F
100
AcDbEntity
  8
0
100
AcDbLine
 10
7.207106781186567
 20
26.6700000000001
 30
0.0
 11
8.090990257669744
 21
25.78611652351694
 31
0.0
  0
LINE
  5
AB74
330
AA9F
100
AcDbEntity
  8
0
100
AcDbLine
 10
6.5
 20
25.96289321881352
 30
0.0
 11
5.049391535326421
 21
24.51228475413998
 31
0.0
  0
LINE
  5
AB75
330
AA9F
100
AcDbEntity
  8
0
100
AcDbLine
 10
6.5
 20
33.58289321881355
 30
0.0
 11
5.049391535326421
 21
32.13228475413999
 31
0.0
  0
LINE
  5
AB76
330
AA9F
100
AcDbEntity
  8
0
100
AcDbLine
 10
7.207106781186567
 20
34.29000000000016
 30
0.0
 11
8.090990257669744
 21
33.40611652351694
 31
0.0
  0
LINE
  5
AB77
330
AA9F
100
AcDbEntity
  8
0
100
AcDbLine
 10
5.792893218813446
 20
34.29000000000011
 30
0.0
 11
4.342284754139868
 21
32.83939153532654
 31
0.0
  0
LINE
  5
AB78
330
AA9F
100
AcDbEntity
  8
0
100
AcDbLine
 10
6.5
 20
33.58289321881355
 30
0.0
 11
7.383883476483148
 21
32.69900974233039
 31
0.0
  0
LINE
  5
AB79
330
AA9F
100
AcDbEntity
  8
0
100
AcDbLine
 10
5.616116523516822
 20
35.88099025766988
 30
0.0
 11
6.500000000000028
 21
34.99710678118666
 31
0.0
  0
LINE
  5
AB7A
330
AA9F
100
AcDbEntity
  8
0
100
AcDbLine
 10
4.909009742330241
 20
35.17388347648333
 30
0.0
 11
5.792893218813446
 21
34.29000000000011
 31
0.0
  0
LINE
  5
AB7B
330
AA9F
100
AcDbEntity
  8
0
100
AcDbLine
 10
0.0000000000000053
 20
37.49000000000015
 30
0.0
 11
11.99999999999998
 21
37.49000000000015
 31
0.0
  0
LINE
  5
AB7C
330
AA9F
100
AcDbEntity
  8
0
100
AcDbLine
 10
8.65771524586016
 20
35.74060846467373
 30
0.0
 11
7.207106781186567
 21
34.29000000000016
 31
0.0
  0
LINE
  5
AB7D
330
AA9F
100
AcDbEntity
  8
0
100
AcDbLine
 10
7.950608464673607
 20
36.44771524586028
 30
0.0
 11
6.500000000000028
 21
34.99710678118666
 31
0.0
  0
LINE
  5
AB7E
330
AA9F
100
AcDbEntity
  8
0
100
AcDbLine
 10
4.909009742330269
 20
33.40611652351694
 30
0.0
 11
5.616116523516822
 21
32.69900974233039
 31
0.0
  0
LINE
  5
AB7F
330
AA9F
100
AcDbEntity
  8
0
100
AcDbLine
 10
7.383883476483205
 20
35.88099025766988
 30
0.0
 11
8.090990257669758
 21
35.17388347648333
 31
0.0
  0
LINE
  5
AB80
330
AA9F
100
AcDbEntity
  8
0
100
AcDbLine
 10
7.383883476483163
 20
32.69900974233039
 30
0.0
 11
8.090990257669744
 21
33.40611652351694
 31
0.0
  0
LINE
  5
AB81
330
AA9F
100
AcDbEntity
  8
0
100
AcDbLine
 10
4.909009742330241
 20
35.17388347648333
 30
0.0
 11
5.616116523516808
 21
35.88099025766988
 31
0.0
  0
LINE
  5
AB82
330
AA9F
100
AcDbEntity
  8
0
100
AcDbLine
 10
10.3
 20
35.79000000000017
 30
0.0
 11
10.3
 21
32.79000000000016
 31
0.0
  0
LINE
  5
AB83
330
AA9F
100
AcDbEntity
  8
0
100
AcDbLine
 10
9.499999999999985
 20
32.79000000000016
 30
0.0
 11
10.3
 21
32.79000000000016
 31
0.0
  0
LINE
  5
AB84
330
AA9F
100
AcDbEntity
  8
0
100
AcDbLine
 10
9.499999999999985
 20
35.79000000000017
 30
0.0
 11
10.3
 21
35.79000000000017
 31
0.0
  0
LINE
  5
AB85
330
AA9F
100
AcDbEntity
  8
0
100
AcDbLine
 10
9.499999999999985
 20
37.49000000000021
 30
0.0
 11
9.499999999999985
 21
31.09000000000012
 31
0.0
  0
LINE
  5
AB86
330
AA9F
100
AcDbEntity
  8
0
100
AcDbLine
 10
9.499999999999985
 20
37.49000000000021
 30
0.0
 11
9.499999999999985
 21
31.09000000000012
 31
0.0
  0
LINE
  5
AB87
330
AA9F
100
AcDbEntity
  8
0
100
AcDbLine
 10
11.09999999999995
 20
37.49000000000021
 30
0.0
 11
11.09999999999995
 21
31.09000000000012
 31
0.0
  0
LINE
  5
AB88
330
AA9F
100
AcDbEntity
  8
0
100
AcDbLine
 10
2.499999999999985
 20
33.54000000000011
 30
0.0
 11
3.299999999999997
 21
33.54000000000016
 31
0.0
  0
LINE
  5
AB89
330
AA9F
100
AcDbEntity
  8
0
100
AcDbLine
 10
2.499999999999985
 20
35.04000000000016
 30
0.0
 11
3.299999999999997
 21
35.04000000000016
 31
0.0
  0
LINE
  5
AB8A
330
AA9F
100
AcDbEntity
  8
0
100
AcDbLine
 10
2.499999999999985
 20
35.04000000000016
 30
0.0
 11
2.499999999999985
 21
33.54000000000016
 31
0.0
  0
LINE
  5
AB8B
330
AA9F
100
AcDbEntity
  8
0
100
AcDbLine
 10
2.699999999999974
 20
35.79000000000017
 30
0.0
 11
2.699999999999974
 21
32.79000000000016
 31
0.0
  0
LINE
  5
AB8C
330
AA9F
100
AcDbEntity
  8
0
100
AcDbLine
 10
2.699999999999974
 20
32.79000000000016
 30
0.0
 11
3.499999999999985
 21
32.79000000000016
 31
0.0
  0
LINE
  5
AB8D
330
AA9F
100
AcDbEntity
  8
0
100
AcDbLine
 10
2.699999999999974
 20
35.79000000000017
 30
0.0
 11
3.499999999999985
 21
35.79000000000017
 31
0.0
  0
LINE
  5
AB8E
330
AA9F
100
AcDbEntity
  8
0
100
AcDbLine
 10
3.299999999999997
 20
35.04000000000016
 30
0.0
 11
3.299999999999997
 21
33.54000000000016
 31
0.0
  0
LINE
  5
AB8F
330
AA9F
100
AcDbEntity
  8
0
100
AcDbLine
 10
1.899999999999963
 20
37.49000000000015
 30
0.0
 11
1.899999999999963
 21
31.09000000000023
 31
0.0
  0
LINE
  5
AB90
330
AA9F
100
AcDbEntity
  8
0
100
AcDbLine
 10
3.499999999999985
 20
37.49000000000015
 30
0.0
 11
3.499999999999985
 21
31.09000000000012
 31
0.0
  0
LINE
  5
AB91
330
AA9F
100
AcDbEntity
  8
0
100
AcDbLine
 10
-0.0000000000000142
 20
38.71000000000023
 30
0.0
 11
11.99999999999998
 21
38.71000000000018
 31
0.0
  0
CIRCLE
  5
AB92
330
AA9F
100
AcDbEntity
  8
0
100
AcDbCircle
 10
6.500000000000014
 20
34.29000000000016
 30
0.0
 40
2.6
  0
CIRCLE
  5
AB93
330
AA9F
100
AcDbEntity
  8
0
100
AcDbCircle
 10
6.500000000000014
 20
19.0500000000001
 30
0.0
 40
2.6
  0
LINE
  5
AB94
330
AA9F
100
AcDbEntity
  8
0
100
AcDbLine
 10
-0.0000000000000142
 20
23.47000000000017
 30
0.0
 11
11.99999999999998
 21
23.47000000000011
 31
0.0
  0
LINE
  5
AB95
330
AA9F
100
AcDbEntity
  8
0
100
AcDbLine
 10
3.499999999999985
 20
22.25000000000008
 30
0.0
 11
3.499999999999985
 21
15.85000000000005
 31
0.0
  0
LINE
  5
AB96
330
AA9F
100
AcDbEntity
  8
0
100
AcDbLine
 10
1.899999999999963
 20
22.25000000000008
 30
0.0
 11
1.899999999999963
 21
15.85000000000016
 31
0.0
  0
LINE
  5
AB97
330
AA9F
100
AcDbEntity
  8
0
100
AcDbLine
 10
3.299999999999997
 20
19.8000000000001
 30
0.0
 11
3.299999999999997
 21
18.3000000000001
 31
0.0
  0
LINE
  5
AB98
330
AA9F
100
AcDbEntity
  8
0
100
AcDbLine
 10
2.699999999999974
 20
20.5500000000001
 30
0.0
 11
3.499999999999985
 21
20.5500000000001
 31
0.0
  0
LINE
  5
AB99
330
AA9F
100
AcDbEntity
  8
0
100
AcDbLine
 10
2.699999999999974
 20
17.55000000000009
 30
0.0
 11
3.499999999999985
 21
17.55000000000009
 31
0.0
  0
LINE
  5
AB9A
330
AA9F
100
AcDbEntity
  8
0
100
AcDbLine
 10
2.699999999999974
 20
20.5500000000001
 30
0.0
 11
2.699999999999974
 21
17.55000000000009
 31
0.0
  0
LINE
  5
AB9B
330
AA9F
100
AcDbEntity
  8
0
100
AcDbLine
 10
2.499999999999985
 20
19.8000000000001
 30
0.0
 11
2.499999999999985
 21
18.3000000000001
 31
0.0
  0
LINE
  5
AB9C
330
AA9F
100
AcDbEntity
  8
0
100
AcDbLine
 10
2.499999999999985
 20
19.8000000000001
 30
0.0
 11
3.299999999999997
 21
19.8000000000001
 31
0.0
  0
LINE
  5
AB9D
330
AA9F
100
AcDbEntity
  8
0
100
AcDbLine
 10
2.499999999999985
 20
18.30000000000004
 30
0.0
 11
3.299999999999997
 21
18.3000000000001
 31
0.0
  0
LINE
  5
AB9E
330
AA9F
100
AcDbEntity
  8
0
100
AcDbLine
 10
11.09999999999995
 20
22.25000000000014
 30
0.0
 11
11.09999999999995
 21
15.85000000000005
 31
0.0
  0
LINE
  5
AB9F
330
AA9F
100
AcDbEntity
  8
0
100
AcDbLine
 10
9.499999999999985
 20
22.25000000000014
 30
0.0
 11
9.499999999999985
 21
15.85000000000005
 31
0.0
  0
LINE
  5
ABA0
330
AA9F
100
AcDbEntity
  8
0
100
AcDbLine
 10
9.499999999999985
 20
22.25000000000014
 30
0.0
 11
9.499999999999985
 21
15.85000000000005
 31
0.0
  0
LINE
  5
ABA1
330
AA9F
100
AcDbEntity
  8
0
100
AcDbLine
 10
9.499999999999985
 20
20.5500000000001
 30
0.0
 11
10.3
 21
20.5500000000001
 31
0.0
  0
LINE
  5
ABA2
330
AA9F
100
AcDbEntity
  8
0
100
AcDbLine
 10
9.499999999999985
 20
17.55000000000009
 30
0.0
 11
10.3
 21
17.55000000000009
 31
0.0
  0
LINE
  5
ABA3
330
AA9F
100
AcDbEntity
  8
0
100
AcDbLine
 10
10.3
 20
20.5500000000001
 30
0.0
 11
10.3
 21
17.55000000000009
 31
0.0
  0
LINE
  5
ABA4
330
AA9F
100
AcDbEntity
  8
0
100
AcDbLine
 10
4.909009742330241
 20
19.93388347648326
 30
0.0
 11
5.616116523516808
 21
20.64099025766984
 31
0.0
  0
LINE
  5
ABA5
330
AA9F
100
AcDbEntity
  8
0
100
AcDbLine
 10
7.383883476483163
 20
17.45900974233032
 30
0.0
 11
8.090990257669744
 21
18.1661165235169
 31
0.0
  0
LINE
  5
ABA6
330
AA9F
100
AcDbEntity
  8
0
100
AcDbLine
 10
7.383883476483205
 20
20.64099025766982
 30
0.0
 11
8.090990257669758
 21
19.93388347648326
 31
0.0
  0
LINE
  5
ABA7
330
AA9F
100
AcDbEntity
  8
0
100
AcDbLine
 10
4.909009742330269
 20
18.16611652351688
 30
0.0
 11
5.616116523516822
 21
17.45900974233032
 31
0.0
  0
LINE
  5
ABA8
330
AA9F
100
AcDbEntity
  8
0
100
AcDbLine
 10
7.950608464673607
 20
21.20771524586022
 30
0.0
 11
6.500000000000028
 21
19.75710678118662
 31
0.0
  0
LINE
  5
ABA9
330
AA9F
100
AcDbEntity
  8
0
100
AcDbLine
 10
8.65771524586016
 20
20.50060846467366
 30
0.0
 11
7.207106781186567
 21
19.0500000000001
 31
0.0
  0
LINE
  5
ABAA
330
AA9F
100
AcDbEntity
  8
0
100
AcDbLine
 10
0.0000000000000053
 20
22.25000000000008
 30
0.0
 11
11.99999999999998
 21
22.25000000000008
 31
0.0
  0
LINE
  5
ABAB
330
AA9F
100
AcDbEntity
  8
0
100
AcDbLine
 10
4.909009742330241
 20
19.93388347648326
 30
0.0
 11
5.792893218813446
 21
19.05000000000004
 31
0.0
  0
LINE
  5
ABAC
330
AA9F
100
AcDbEntity
  8
0
100
AcDbLine
 10
5.616116523516822
 20
20.64099025766982
 30
0.0
 11
6.500000000000028
 21
19.75710678118662
 31
0.0
  0
LINE
  5
ABAD
330
AA9F
100
AcDbEntity
  8
0
100
AcDbLine
 10
6.5
 20
18.34289321881349
 30
0.0
 11
7.383883476483148
 21
17.45900974233032
 31
0.0
  0
LINE
  5
ABAE
330
AA9F
100
AcDbEntity
  8
0
100
AcDbLine
 10
5.792893218813446
 20
19.05000000000004
 30
0.0
 11
4.342284754139868
 21
17.59939153532647
 31
0.0
  0
LINE
  5
ABAF
330
AA9F
100
AcDbEntity
  8
0
100
AcDbLine
 10
7.207106781186567
 20
19.0500000000001
 30
0.0
 11
8.090990257669744
 21
18.1661165235169
 31
0.0
  0
LINE
  5
ABB0
330
AA9F
100
AcDbEntity
  8
0
100
AcDbLine
 10
6.5
 20
18.34289321881349
 30
0.0
 11
5.049391535326421
 21
16.89228475413992
 31
0.0
  0
LINE
  5
ABB1
330
AA9F
100
AcDbEntity
  8
0
100
AcDbLine
 10
6.5
 20
10.72289321881346
 30
0.0
 11
5.049391535326421
 21
9.272284754139917
 31
0.0
  0
LINE
  5
ABB2
330
AA9F
100
AcDbEntity
  8
0
100
AcDbLine
 10
7.207106781186567
 20
11.43000000000006
 30
0.0
 11
8.090990257669744
 21
10.54611652351688
 31
0.0
  0
LINE
  5
ABB3
330
AA9F
100
AcDbEntity
  8
0
100
AcDbLine
 10
5.792893218813446
 20
11.43000000000003
 30
0.0
 11
4.342284754139868
 21
9.97939153532647
 31
0.0
  0
LINE
  5
ABB4
330
AA9F
100
AcDbEntity
  8
0
100
AcDbLine
 10
6.5
 20
10.72289321881346
 30
0.0
 11
7.383883476483148
 21
9.839009742330318
 31
0.0
  0
LINE
  5
ABB5
330
AA9F
100
AcDbEntity
  8
0
100
AcDbLine
 10
5.616116523516822
 20
13.02099025766981
 30
0.0
 11
6.500000000000028
 21
12.1371067811866
 31
0.0
  0
LINE
  5
ABB6
330
AA9F
100
AcDbEntity
  8
0
100
AcDbLine
 10
4.909009742330241
 20
12.31388347648322
 30
0.0
 11
5.792893218813446
 21
11.43000000000003
 31
0.0
  0
LINE
  5
ABB7
330
AA9F
100
AcDbEntity
  8
0
100
AcDbLine
 10
0.0000000000000027
 20
8.23000000000006
 30
0.0
 11
11.99999999999998
 21
8.23000000000006
 31
0.0
  0
LINE
  5
ABB8
330
AA9F
100
AcDbEntity
  8
0
100
AcDbLine
 10
0.0000000000000053
 20
14.63000000000005
 30
0.0
 11
11.99999999999998
 21
14.63000000000005
 31
0.0
  0
LINE
  5
ABB9
330
AA9F
100
AcDbEntity
  8
0
100
AcDbLine
 10
8.65771524586016
 20
12.88060846467365
 30
0.0
 11
7.207106781186567
 21
11.43000000000006
 31
0.0
  0
LINE
  5
ABBA
330
AA9F
100
AcDbEntity
  8
0
100
AcDbLine
 10
7.950608464673607
 20
13.58771524586021
 30
0.0
 11
6.500000000000028
 21
12.1371067811866
 31
0.0
  0
LINE
  5
ABBB
330
AA9F
100
AcDbEntity
  8
0
100
AcDbLine
 10
4.909009742330269
 20
10.54611652351687
 30
0.0
 11
5.616116523516822
 21
9.839009742330318
 31
0.0
  0
LINE
  5
ABBC
330
AA9F
100
AcDbEntity
  8
0
100
AcDbLine
 10
7.383883476483205
 20
13.02099025766978
 30
0.0
 11
8.090990257669758
 21
12.31388347648322
 31
0.0
  0
LINE
  5
ABBD
330
AA9F
100
AcDbEntity
  8
0
100
AcDbLine
 10
7.383883476483163
 20
9.839009742330304
 30
0.0
 11
8.090990257669744
 21
10.54611652351688
 31
0.0
  0
LINE
  5
ABBE
330
AA9F
100
AcDbEntity
  8
0
100
AcDbLine
 10
4.909009742330241
 20
12.31388347648322
 30
0.0
 11
5.616116523516808
 21
13.02099025766982
 31
0.0
  0
LINE
  5
ABBF
330
AA9F
100
AcDbEntity
  8
0
100
AcDbLine
 10
10.3
 20
12.93000000000006
 30
0.0
 11
10.3
 21
9.930000000000063
 31
0.0
  0
LINE
  5
ABC0
330
AA9F
100
AcDbEntity
  8
0
100
AcDbLine
 10
9.499999999999985
 20
9.930000000000063
 30
0.0
 11
10.3
 21
9.930000000000063
 31
0.0
  0
LINE
  5
ABC1
330
AA9F
100
AcDbEntity
  8
0
100
AcDbLine
 10
9.499999999999985
 20
12.93000000000006
 30
0.0
 11
10.3
 21
12.93000000000006
 31
0.0
  0
LINE
  5
ABC2
330
AA9F
100
AcDbEntity
  8
0
100
AcDbLine
 10
9.499999999999985
 20
14.63000000000011
 30
0.0
 11
9.499999999999985
 21
8.230000000000018
 31
0.0
  0
LINE
  5
ABC3
330
AA9F
100
AcDbEntity
  8
0
100
AcDbLine
 10
9.499999999999985
 20
14.63000000000011
 30
0.0
 11
9.499999999999985
 21
8.230000000000018
 31
0.0
  0
LINE
  5
ABC4
330
AA9F
100
AcDbEntity
  8
0
100
AcDbLine
 10
11.09999999999995
 20
14.63000000000011
 30
0.0
 11
11.09999999999995
 21
8.230000000000018
 31
0.0
  0
LINE
  5
ABC5
330
AA9F
100
AcDbEntity
  8
0
100
AcDbLine
 10
2.499999999999985
 20
10.68
 30
0.0
 11
3.299999999999997
 21
10.68000000000006
 31
0.0
  0
LINE
  5
ABC6
330
AA9F
100
AcDbEntity
  8
0
100
AcDbLine
 10
2.499999999999985
 20
12.18000000000006
 30
0.0
 11
3.299999999999997
 21
12.18000000000006
 31
0.0
  0
LINE
  5
ABC7
330
AA9F
100
AcDbEntity
  8
0
100
AcDbLine
 10
2.499999999999985
 20
12.18000000000006
 30
0.0
 11
2.499999999999985
 21
10.68000000000006
 31
0.0
  0
LINE
  5
ABC8
330
AA9F
100
AcDbEntity
  8
0
100
AcDbLine
 10
2.699999999999974
 20
12.93000000000006
 30
0.0
 11
2.699999999999974
 21
9.930000000000063
 31
0.0
  0
LINE
  5
ABC9
330
AA9F
100
AcDbEntity
  8
0
100
AcDbLine
 10
2.699999999999974
 20
9.930000000000063
 30
0.0
 11
3.499999999999985
 21
9.930000000000063
 31
0.0
  0
LINE
  5
ABCA
330
AA9F
100
AcDbEntity
  8
0
100
AcDbLine
 10
2.699999999999974
 20
12.93000000000006
 30
0.0
 11
3.499999999999985
 21
12.93000000000006
 31
0.0
  0
LINE
  5
ABCB
330
AA9F
100
AcDbEntity
  8
0
100
AcDbLine
 10
3.299999999999997
 20
12.18000000000006
 30
0.0
 11
3.299999999999997
 21
10.68000000000006
 31
0.0
  0
LINE
  5
ABCC
330
AA9F
100
AcDbEntity
  8
0
100
AcDbLine
 10
1.899999999999963
 20
14.63000000000005
 30
0.0
 11
1.899999999999963
 21
8.230000000000131
 31
0.0
  0
LINE
  5
ABCD
330
AA9F
100
AcDbEntity
  8
0
100
AcDbLine
 10
3.499999999999985
 20
14.63000000000005
 30
0.0
 11
3.499999999999985
 21
8.230000000000018
 31
0.0
  0
LINE
  5
ABCE
330
AA9F
100
AcDbEntity
  8
0
100
AcDbLine
 10
-0.0000000000000142
 20
15.85000000000013
 30
0.0
 11
11.99999999999998
 21
15.85000000000008
 31
0.0
  0
LINE
  5
ABCF
330
AA9F
100
AcDbEntity
  8
0
100
AcDbLine
 10
-0.0000000000000142
 20
7.00999999999999
 30
0.0
 11
11.99999999999998
 21
7.010000000000047
 31
0.0
  0
CIRCLE
  5
ABD0
330
AA9F
100
AcDbEntity
  8
0
100
AcDbCircle
 10
6.500000000000014
 20
11.43000000000006
 30
0.0
 40
2.6
  0
LINE
  5
ABD1
330
AA9F
100
AcDbEntity
  8
0
100
AcDbLine
 10
0.0000000000000142
 20
39.69000000000011
 30
0.0
 11
-0.0000000000000142
 21
-39.6900000000001
 31
0.0
  0
LINE
  5
ABD2
330
AA9F
100
AcDbEntity
  8
0
100
AcDbLine
 10
11.99999999999998
 20
39.69000000000006
 30
0.0
 11
11.99999999999998
 21
-39.6900000000001
 31
0.0
  0
ENDBLK
  5
ABD3
330
AA9F
100
AcDbEntity
  8
0
100
AcDbBlockEnd
  0
ENDSEC
  0
SECTION
  2
ENTITIES
  0
LINE
  5
C9
330
1A
100
AcDbEntity
  8
WAKU
 62
     7
100
AcDbLine
 10
405.0
 20
280.0
 30
0.0
 11
20.0
 21
280.0
 31
0.0
  0
LINE
  5
CB
330
1A
100
AcDbEntity
  8
WAKU
 62
     7
100
AcDbLine
 10
20.0
 20
5.0
 30
0.0
 11
405.0
 21
5.0
 31
0.0
  0
LINE
  5
D4
330
1A
100
AcDbEntity
  8
WAKU
100
AcDbLine
 10
405.0
 20
5.0
 30
0.0
 11
405.0
 21
280.0
 31
0.0
  0
LINE
  5
D5
330
1A
100
AcDbEntity
  8
WAKU
100
AcDbLine
 10
20.0
 20
280.0
 30
0.0
 11
20.0
 21
5.0
 31
0.0
  0
LINE
  5
D6
330
1A
100
AcDbEntity
  8
WAKU
 62
     7
100
AcDbLine
 10
225.0
 20
50.0
 30
0.0
 11
405.0
 21
50.0
 31
0.0
  0
LINE
  5
D7
330
1A
100
AcDbEntity
  8
WAKU
100
AcDbLine
 10
225.0
 20
5.0
 30
0.0
 11
225.0
 21
50.0
 31
0.0
  0
LINE
  5
D8
330
1A
100
AcDbEntity
  8
WAKU
100
AcDbLine
 10
345.0
 20
5.0
 30
0.0
 11
345.0
 21
50.0
 31
0.0
  0
LINE
  5
D9
330
1A
100
AcDbEntity
  8
WAKU
 62
     7
100
AcDbLine
 10
345.0
 20
15.0
 30
0.0
 11
405.0
 21
15.0
 31
0.0
  0
LINE
  5
DA
330
1A
100
AcDbEntity
  8
WAKU
 62
     7
100
AcDbLine
 10
345.0
 20
22.0
 30
0.0
 11
405.0
 21
22.0
 31
0.0
  0
LINE
  5
DB
330
1A
100
AcDbEntity
  8
WAKU
 62
     7
100
AcDbLine
 10
345.0
 20
29.0
 30
0.0
 11
405.0
 21
29.0
 31
0.0
  0
LINE
  5
DC
330
1A
100
AcDbEntity
  8
WAKU
 62
     7
100
AcDbLine
 10
345.0
 20
36.0
 30
0.0
 11
405.0
 21
36.0
 31
0.0
  0
LINE
  5
DD
330
1A
100
AcDbEntity
  8
WAKU
 62
     7
100
AcDbLine
 10
345.0
 20
43.0
 30
0.0
 11
405.0
 21
43.0
 31
0.0
  0
LINE
  5
DE
330
1A
100
AcDbEntity
  8
WAKU
100
AcDbLine
 10
360.0
 20
15.0
 30
0.0
 11
360.0
 21
50.0
 31
0.0
  0
LINE
  5
DF
330
1A
100
AcDbEntity
  8
WAKU
100
AcDbLine
 10
352.0
 20
5.0
 30
0.0
 11
352.0
 21
15.0
 31
0.0
  0
LINE
  5
E0
330
1A
100
AcDbEntity
  8
WAKU
100
AcDbLine
 10
330.0
 20
13.0
 30
0.0
 11
330.0
 21
34.0
 31
0.0
  0
LINE
  5
E1
330
1A
100
AcDbEntity
  8
WAKU
100
AcDbLine
 10
315.0
 20
13.0
 30
0.0
 11
315.0
 21
34.0
 31
0.0
  0
LINE
  5
E2
330
1A
100
AcDbEntity
  8
WAKU
100
AcDbLine
 10
300.0
 20
34.0
 30
0.0
 11
300.0
 21
50.0
 31
0.0
  0
LINE
  5
E3
330
1A
100
AcDbEntity
  8
WAKU
100
AcDbLine
 10
285.0
 20
13.0
 30
0.0
 11
285.0
 21
50.0
 31
0.0
  0
LINE
  5
E4
330
1A
100
AcDbEntity
  8
WAKU
100
AcDbLine
 10
345.0
 20
40.0
 30
0.0
 11
285.0
 21
40.0
 31
0.0
  0
LINE
  5
E5
330
1A
100
AcDbEntity
  8
WAKU
100
AcDbLine
 10
345.0
 20
34.0
 30
0.0
 11
285.0
 21
34.0
 31
0.0
  0
LINE
  5
E6
330
1A
100
AcDbEntity
  8
WAKU
100
AcDbLine
 10
345.0
 20
28.0
 30
0.0
 11
285.0
 21
28.0
 31
0.0
  0
LINE
  5
E7
330
1A
100
AcDbEntity
  8
WAKU
100
AcDbLine
 10
345.0
 20
13.0
 30
0.0
 11
225.0
 21
13.0
 31
0.0
  0
MTEXT
  5
E9
330
1A
100
AcDbEntity
  8
WAKU
100
AcDbMText
 10
345.0
 20
43.0
 30
0.0
 40
4.0
 41
15.0
 71
     1
 72
     5
  1

 73
     1
 44
1.0
1001
ACAD
1000
MTEXTBEGIN
1070
    73
1070
     1
1070
    44
1040
1.0
1070
    74
1070
     0
1000
MTEXTEND
  0
MTEXT
  5
EA
330
1A
100
AcDbEntity
  8
WAKU
100
AcDbMText
 10
345.0
 20
49.0
 30
0.0
 40
4.0
 41
14.0
 71
     1
 72
     5
  1

 73
     1
 44
1.0
1001
ACAD
1000
MTEXTBEGIN
1070
    73
1070
     1
1070
    44
1040
1.0
1070
    74
1070
     0
1000
MTEXTEND
  0
MTEXT
  5
ED
330
1A
100
AcDbEntity
  8
WAKU
100
AcDbMText
 10
347.3192310662242
 20
34.48051906497278
 30
0.0
 40
3.0
 41
11.0
 71
     1
 72
     5
  1
部品表
 73
     1
 44
1.0
1001
ACAD
1000
MTEXTBEGIN
1070
    73
1070
     1
1070
    44
1040
1.0
1070
    74
1070
     0
1000
MTEXTEND
  0
MTEXT
  5
EE
330
1A
100
AcDbEntity
  8
WAKU
100
AcDbMText
 10
327.0
 20
82.0
 30
0.0
 40
3.0
 41
37.0
 71
     1
 72
     5
  1

 73
     1
 44
1.0
1001
ACAD
1000
MTEXTBEGIN
1070
    73
1070
     1
1070
    44
1040
1.0
1070
    74
1070
     0
1000
MTEXTEND
  0
MTEXT
  5
F0
330
1A
100
AcDbEntity
  8
WAKU
100
AcDbMText
 10
347.2
 20
47.7
 30
0.0
 40
3.0
 41
10.0
 71
     1
 72
     5
  1
機種名
 73
     1
 44
1.0
1001
ACAD
1000
MTEXTBEGIN
1070
    73
1070
     1
1070
    44
1040
1.0
1070
    74
1070
     0
1000
MTEXTEND
  0
MTEXT
  5
F1
330
1A
100
AcDbEntity
  8
WAKU
100
AcDbMText
 10
347.2999999999999
 20
40.69999999999999
 30
0.0
 40
3.0
 41
10.0
 71
     1
 72
     5
  1
部　名
 73
     1
 44
1.0
1001
ACAD
1000
MTEXTBEGIN
1070
    73
1070
     1
1070
    44
1040
1.0
1070
    74
1070
     0
1000
MTEXTEND
  0
MTEXT
  5
F2
330
1A
100
AcDbEntity
  8
WAKU
100
AcDbMText
 10
346.0
 20
27.0
 30
0.0
 40
3.0
 41
10.0
 71
     1
 72
     5
  1
ｽﾄｯｸNo.
 73
     1
 44
1.0
1001
ACAD
1000
MTEXTBEGIN
1070
    73
1070
     1
1070
    44
1040
1.0
1070
    74
1070
     0
1000
MTEXTEND
  0
MTEXT
  5
F3
330
1A
100
AcDbEntity
  8
WAKU
100
AcDbMText
 10
347.0
 20
20.0
 30
0.0
 40
3.0
 41
12.0
 71
     1
 72
     5
  1
適用ﾛｯﾄ
 73
     1
 44
1.0
1001
ACAD
1000
MTEXTBEGIN
1070
    73
1070
     1
1070
    44
1040
1.0
1070
    74
1070
     0
1000
MTEXTEND
  0
MTEXT
  5
F5
330
1A
100
AcDbEntity
  8
WAKU
100
AcDbMText
 10
330.0
 20
85.0
 30
0.0
 40
3.0
 41
12.0
 71
     1
 72
     5
  1

 73
     1
 44
1.0
1001
ACAD
1000
MTEXTBEGIN
1070
    73
1070
     1
1070
    44
1040
1.0
1070
    74
1070
     0
1000
MTEXTEND
  0
MTEXT
  5
FF
330
1A
100
AcDbEntity
  8
WAKU
100
AcDbMText
 10
271.0
 20
82.0
 30
0.0
 40
3.0
 41
74.0
 71
     1
 72
     5
  1

 73
     1
 44
1.0
1001
ACAD
1000
MTEXTBEGIN
1070
    73
1070
     1
1070
    44
1040
1.0
1070
    74
1070
     0
1000
MTEXTEND
  0
MTEXT
  5
106
330
1A
100
AcDbEntity
  8
WAKU
100
AcDbMText
 10
314.791664707496
 20
38.86071114661275
 30
0.0
 40
3.0
 41
13.6217958711934
 71
     1
 72
     5
  1
名　　称
 73
     1
 44
1.0
1001
ACAD
1000
MTEXTBEGIN
1070
    73
1070
     1
1070
    44
1040
1.0
1070
    74
1070
     0
1000
MTEXTEND
  0
LINE
  5
78B
330
1A
100
AcDbEntity
  8
WAKU
100
AcDbLine
 10
285.0
 20
17.0
 30
0.0
 11
225.0
 21
17.0
 31
0.0
  0
LINE
  5
78C
330
1A
100
AcDbEntity
  8
WAKU
100
AcDbLine
 10
285.0
 20
21.0
 30
0.0
 11
225.0
 21
21.0
 31
0.0
  0
LINE
  5
78D
330
1A
100
AcDbEntity
  8
WAKU
100
AcDbLine
 10
285.0
 20
25.0
 30
0.0
 11
225.0
 21
25.0
 31
0.0
  0
LINE
  5
78E
330
1A
100
AcDbEntity
  8
WAKU
100
AcDbLine
 10
285.0
 20
29.0
 30
0.0
 11
225.0
 21
29.0
 31
0.0
  0
LINE
  5
78F
330
1A
100
AcDbEntity
  8
WAKU
100
AcDbLine
 10
285.0
 20
33.0
 30
0.0
 11
225.0
 21
33.0
 31
0.0
  0
LINE
  5
790
330
1A
100
AcDbEntity
  8
WAKU
100
AcDbLine
 10
285.0
 20
37.0
 30
0.0
 11
225.0
 21
37.0
 31
0.0
  0
LINE
  5
791
330
1A
100
AcDbEntity
  8
WAKU
100
AcDbLine
 10
285.0
 20
41.0
 30
0.0
 11
225.0
 21
41.0
 31
0.0
  0
LINE
  5
792
330
1A
100
AcDbEntity
  8
WAKU
100
AcDbLine
 10
285.0
 20
45.0
 30
0.0
 11
225.0
 21
45.0
 31
0.0
  0
LINE
  5
794
330
1A
100
AcDbEntity
  8
WAKU
100
AcDbLine
 10
233.0
 20
13.0
 30
0.0
 11
233.0
 21
50.0
 31
0.0
  0
LINE
  5
795
330
1A
100
AcDbEntity
  8
WAKU
100
AcDbLine
 10
246.0
 20
13.0
 30
0.0
 11
246.0
 21
50.0
 31
0.0
  0
LINE
  5
796
330
1A
100
AcDbEntity
  8
WAKU
100
AcDbLine
 10
256.0
 20
13.0
 30
0.0
 11
256.0
 21
50.0
 31
0.0
  0
TEXT
  5
797
330
1A
100
AcDbEntity
  8
WAKU
100
AcDbText
 10
226.0
 20
46.0
 30
0.0
 40
3.0
  1
記号
100
AcDbText
  0
TEXT
  5
798
330
1A
100
AcDbEntity
  8
WAKU
100
AcDbText
 10
234.5
 20
46.0
 30
0.0
 40
3.0
  1
年月日
100
AcDbText
  0
TEXT
  5
799
330
1A
100
AcDbEntity
  8
WAKU
100
AcDbText
 10
248.0
 20
46.0
 30
0.0
 40
3.0
  1
担当
100
AcDbText
  0
TEXT
  5
79A
330
1A
100
AcDbEntity
  8
WAKU
100
AcDbText
 10
263.5
 20
46.0
 30
0.0
 40
3.0
  1
改連No.
100
AcDbText
  0
TEXT
  5
7CC
330
1A
100
AcDbEntity
  8
WAKU
100
AcDbText
 10
226.0
 20
13.5
 30
0.0
 40
3.0
  1
設置
100
AcDbText
  0
TEXT
  5
7CD
330
1A
100
AcDbEntity
  8
WAKU
100
AcDbText
 10
287.5
 20
35.5
 30
0.0
 40
3.0
  1
尺　度
 72
     4
 11
292.5
 21
37.0
 31
0.0
100
AcDbText
  0
LINE
  5
7CE
330
1A
100
AcDbEntity
  8
WAKU
100
AcDbLine
 10
298.0
 20
48.0
 30
0.0
 11
287.0
 21
42.0
 31
0.0
  0
TEXT
  5
7CF
330
1A
100
AcDbEntity
  8
WAKU
100
AcDbText
 10
346.5
 20
10.5
 30
0.0
 40
3.0
  1
図
100
AcDbText
  0
TEXT
  5
7D0
330
1A
100
AcDbEntity
  8
WAKU
100
AcDbText
 10
346.5
 20
6.0
 30
0.0
 40
3.0
  1
番
100
AcDbText
  0
TEXT
  5
7D1
330
1A
100
AcDbEntity
  8
WAKU
100
AcDbText
 10
256.5
 20
6.0
 30
0.0
 40
6.0
  1
東洋測器株式会社
100
AcDbText
  0
TEXT
  5
8C1
330
1A
100
AcDbEntity
  8
0
100
AcDbText
 10
293.0
 20
41.5
 30
0.0
 40
3.0
  1
1
100
AcDbText
  0
TEXT
  5
8C4
330
1A
100
AcDbEntity
  8
0
100
AcDbText
 10
312.5
 20
42.5
 30
0.0
 40
4.0
  1
外 形 図
100
AcDbText
  0
TEXT
  5
8C5
330
1A
100
AcDbEntity
  8
0
100
AcDbText
 10
363.5
 20
44.5
 30
0.0
 40
3.0
  1
LA-1024A
100
AcDbText
  0
TEXT
  5
8C6
330
1A
100
AcDbEntity
  8
0
100
AcDbText
 10
287.5
 20
44.5
 30
0.0
 40
3.0
  1
1
100
AcDbText
  0
TEXT
  5
222A
330
1A
100
AcDbEntity
  8
0
100
AcDbText
 10
358.0
 20
7.5
 30
0.0
 40
3.0
  1
EA3-00146
100
AcDbText
  0
TEXT
  5
222B
330
1A
100
AcDbEntity
  8
WAKU
100
AcDbText
 10
286.0
 20
14.0
 30
0.0
 40
2.0
  1
19.04.25
100
AcDbText
  0
TEXT
  5
2240
330
1A
100
AcDbEntity
  8
WAKU
100
AcDbText
 10
288.0
 20
19.0
 30
0.0
 40
4.0
  1
金子
100
AcDbText
  0
TEXT
  5
52B1
330
1A
100
AcDbEntity
  8
WAKU
100
AcDbText
 10
234.0
 20
14.0
 30
0.0
 40
1.8
  1
19.04.24
 41
0.9
100
AcDbText
  0
TEXT
  5
52B2
330
1A
100
AcDbEntity
  8
WAKU
100
AcDbText
 10
248.0
 20
13.5
 30
0.0
 40
3.0
  1
大野
100
AcDbText
  0
LWPOLYLINE
  5
8846
330
1A
100
AcDbEntity
  8
0
100
AcDbPolyline
 90
        3
 70
     1
 43
0.0
 10
398.0002991937029
 20
13.75002575180714
 10
393.6701721747807
 20
6.250025751807143
 10
402.330426212625
 20
6.250025751807143
  0
LWPOLYLINE
  5
8847
330
1A
100
AcDbEntity
  8
0
100
AcDbPolyline
 90
        3
 70
     1
 43
0.0
 10
229.0
 20
37.0
 10
226.8349364905389
 20
33.25
 10
231.1650635094611
 20
33.25
  0
TEXT
  5
8848
330
1A
100
AcDbEntity
  8
WAKU
100
AcDbText
 10
228.0
 20
17.5
 30
0.0
 40
2.0
  1
1
100
AcDbText
  0
LWPOLYLINE
  5
8849
330
1A
100
AcDbEntity
  8
0
100
AcDbPolyline
 90
        3
 70
     1
 43
0.0
 10
229.0
 20
21.0
 10
226.8349364905389
 20
17.25
 10
231.1650635094611
 20
17.25
  0
LWPOLYLINE
  5
884A
330
1A
100
AcDbEntity
  8
0
100
AcDbPolyline
 90
        3
 70
     1
 43
0.0
 10
229.0
 20
25.0
 10
226.8349364905389
 20
21.25
 10
231.1650635094611
 20
21.25
  0
TEXT
  5
884B
330
1A
100
AcDbEntity
  8
WAKU
100
AcDbText
 10
228.0
 20
21.5
 30
0.0
 40
2.0
  1
2
100
AcDbText
  0
TEXT
  5
884C
330
1A
100
AcDbEntity
  8
WAKU
100
AcDbText
 10
228.0
 20
29.5
 30
0.0
 40
2.0
  1
4
100
AcDbText
  0
LWPOLYLINE
  5
884D
330
1A
100
AcDbEntity
  8
0
100
AcDbPolyline
 90
        3
 70
     1
 43
0.0
 10
229.0
 20
33.0
 10
226.8349364905389
 20
29.25
 10
231.1650635094611
 20
29.25
  0
LWPOLYLINE
  5
884E
330
1A
100
AcDbEntity
  8
0
100
AcDbPolyline
 90
        3
 70
     1
 43
0.0
 10
229.0
 20
29.0
 10
226.8349364905389
 20
25.25
 10
231.1650635094611
 20
25.25
  0
TEXT
  5
884F
330
1A
100
AcDbEntity
  8
WAKU
100
AcDbText
 10
228.0
 20
25.5
 30
0.0
 40
2.0
  1
3
100
AcDbText
  0
TEXT
  5
8850
330
1A
100
AcDbEntity
  8
WAKU
100
AcDbText
 10
228.0
 20
33.5
 30
0.0
 40
2.0
  1
5
100
AcDbText
  0
TEXT
  5
8851
330
1A
100
AcDbEntity
  8
WAKU
100
AcDbText
 10
228.0
 20
41.5
 30
0.0
 40
2.0
  1
7
100
AcDbText
  0
LWPOLYLINE
  5
8852
330
1A
100
AcDbEntity
  8
0
100
AcDbPolyline
 90
        3
 70
     1
 43
0.0
 10
229.0
 20
45.0
 10
226.8349364905389
 20
41.25
 10
231.1650635094611
 20
41.25
  0
LWPOLYLINE
  5
8853
330
1A
100
AcDbEntity
  8
0
100
AcDbPolyline
 90
        3
 70
     1
 43
0.0
 10
229.0
 20
41.0
 10
226.8349364905389
 20
37.25
 10
231.1650635094611
 20
37.25
  0
TEXT
  5
8854
330
1A
100
AcDbEntity
  8
WAKU
100
AcDbText
 10
228.0
 20
37.5
 30
0.0
 40
2.0
  1
6
100
AcDbText
  0
DIMENSION
  5
8A52
330
1A
100
AcDbEntity
  8
SUNPOU
100
AcDbDimension
  2
*D3
 10
310.2000000499685
 20
220.0
 30
0.0
 11
270.2000000499686
 21
223.5
 31
0.0
 70
    32
 71
     5
 42
79.99999999999994
  3
STANDARD
100
AcDbAlignedDimension
 13
230.2000000499686
 23
190.7000001092222
 33
0.0
 14
310.2000000499685
 24
200.5000001092223
 34
0.0
100
AcDbRotatedDimension
1001
ACAD
1000
DSTYLE
1002
{
1070
   140
1040
6.0
1070
    74
1070
     0
1070
    73
1070
     0
1070
   272
1070
     0
1070
    77
1070
     1
1070
   173
1070
     1
1070
   147
1040
0.5
1070
    42
1040
0.5
1070
    44
1040
0.5
1070
    43
1040
10.0
1070
   271
1070
     0
1070
   141
1040
0.0
1070
     7
1000
_OPEN
1070
     6
1000
_OPEN
1070
    41
1040
2.5
1002
}
  0
DIMENSION
  5
8A6B
330
1A
100
AcDbEntity
  8
SUNPOU
100
AcDbDimension
  2
*D4
 10
147.5
 20
221.0000001092223
 30
0.0
 11
125.0
 21
224.5000001092223
 31
0.0
 70
    32
 71
     5
 42
45.0
  3
STANDARD
100
AcDbAlignedDimension
 13
102.5
 23
200.0000001092223
 33
0.0
 14
147.5
 24
200.0000001092223
 34
0.0
100
AcDbRotatedDimension
1001
ACAD
1000
DSTYLE
1002
{
1070
   140
1040
6.0
1070
    74
1070
     0
1070
    73
1070
     0
1070
   272
1070
     0
1070
    77
1070
     1
1070
   173
1070
     1
1070
   147
1040
0.5
1070
    42
1040
0.5
1070
    44
1040
0.5
1070
    43
1040
10.0
1070
   271
1070
     0
1070
   141
1040
0.0
1070
     7
1000
_OPEN
1070
     6
1000
_OPEN
1070
    41
1040
2.5
1002
}
  0
DIMENSION
  5
8A78
330
1A
100
AcDbEntity
  8
SUNPOU
100
AcDbDimension
  2
*D5
 10
162.5
 20
99.50000010922231
 30
0.0
 11
159.0
 21
146.0000001092223
 31
0.0
 70
    32
 71
     5
 42
92.99999999999988
  3
STANDARD
100
AcDbAlignedDimension
 13
146.7
 23
192.5000001092222
 33
0.0
 14
146.7
 24
99.50000010922233
 34
0.0
 50
90.0
100
AcDbRotatedDimension
1001
ACAD
1000
DSTYLE
1002
{
1070
   140
1040
6.0
1070
    74
1070
     0
1070
    73
1070
     0
1070
   272
1070
     0
1070
    77
1070
     1
1070
   173
1070
     1
1070
   147
1040
0.5
1070
    42
1040
0.5
1070
    44
1040
0.5
1070
    43
1040
10.0
1070
   271
1070
     0
1070
   141
1040
0.0
1070
     7
1000
_OPEN
1070
     6
1000
_OPEN
1070
    41
1040
2.5
1002
}
  0
DIMENSION
  5
8A85
330
1A
100
AcDbEntity
  8
SUNPOU
100
AcDbDimension
  2
*D6
 10
172.5
 20
94.5000001092222
 30
0.0
 11
168.9999999999999
 21
146.0000001092223
 31
0.0
 70
    32
 71
     5
 42
103.0000000000001
  3
STANDARD
100
AcDbAlignedDimension
 13
125.0
 23
197.5000001092223
 33
0.0
 14
125.0
 24
94.50000010922222
 34
0.0
 50
90.0
100
AcDbRotatedDimension
1001
ACAD
1000
DSTYLE
1002
{
1070
   140
1040
6.0
1070
    74
1070
     0
1070
    73
1070
     0
1070
   272
1070
     0
1070
    77
1070
     1
1070
   173
1070
     1
1070
   147
1040
0.5
1070
    42
1040
0.5
1070
    44
1040
0.5
1070
    43
1040
10.0
1070
   271
1070
     0
1070
   141
1040
0.0
1070
     7
1000
_OPEN
1070
     6
1000
_OPEN
1070
    41
1040
2.5
1002
}
  0
DIMENSION
  5
8A92
330
1A
100
AcDbEntity
  8
SUNPOU
100
AcDbDimension
  2
*D7
 10
182.5
 20
91.00000010922226
 30
0.0
 11
179.0
 21
146.0000001092223
 31
0.0
 70
    32
 71
     5
 42
110.0
  3
STANDARD
100
AcDbAlignedDimension
 13
146.5
 23
201.0000001092223
 33
0.0
 14
146.5
 24
91.00000010922228
 34
0.0
 50
90.0
100
AcDbRotatedDimension
1001
ACAD
1000
DSTYLE
1002
{
1070
   140
1040
6.0
1070
    74
1070
     0
1070
    73
1070
     0
1070
   272
1070
     0
1070
    77
1070
     1
1070
   173
1070
     1
1070
   147
1040
0.5
1070
    42
1040
0.5
1070
    44
1040
0.5
1070
    43
1040
10.0
1070
   271
1070
     0
1070
   141
1040
0.0
1070
     7
1000
_OPEN
1070
     6
1000
_OPEN
1070
    41
1040
2.5
1002
}
  0
MTEXT
  5
8CA6
102
{ACAD_REACTORS
330
8CA7
102
}
330
1A
100
AcDbEntity
  8
SUNPOU
100
AcDbMText
 10
104.7608764787355
 20
80.62415594866511
 30
0.0
 40
5.0
 41
0.0
 71
     6
 72
     1
  1
2-φ4.0
 73
     1
 44
1.0
1001
ACAD
1000
MTEXTBEGIN
1070
    73
1070
     1
1070
    44
1040
1.0
1070
    74
1070
     0
1000
MTEXTEND
  0
LEADER
  5
8CA7
330
1A
100
AcDbEntity
  8
SUNPOU
100
AcDbLeader
  3
STANDARD
 73
     0
 75
     1
 40
5.0
 41
27.42857142857143
 76
     3
 10
123.3812483054451
 20
92.72009668581549
 30
0.0
 10
107.7608764787355
 20
77.6241559486651
 30
0.0
 10
105.2608764787355
 20
77.6241559486651
 30
0.0
340
8CA6
1001
ACAD
1000
DSTYLE
1002
{
1070
   341
1005
BA
1070
    41
1040
2.5
1070
    42
1040
0.5
1070
    43
1040
10.0
1070
    44
1040
0.5
1070
    73
1070
     0
1070
    74
1070
     0
1070
    77
1070
     1
1070
   140
1040
2.0
1070
   141
1040
0.0
1070
   147
1040
0.5
1070
   173
1070
     1
1070
   271
1070
     1
1070
   272
1070
     0
1070
   343
1005
BA
1070
   344
1005
BA
1002
}
  0
MTEXT
  5
8CA8
330
1A
100
AcDbEntity
  8
SUNPOU
100
AcDbMText
 10
109.7608764787355
 20
71.6241558394428
 30
0.0
 40
5.0
 41
0.0
 71
     6
 72
     1
  1
\A1;(固定用穴)
 73
     1
 44
1.0
1001
ACAD
1000
MTEXTBEGIN
1070
    73
1070
     1
1070
    44
1040
1.0
1070
    74
1070
     0
1000
MTEXTEND
  0
LINE
  5
9A62
330
1A
100
AcDbEntity
  8
0
100
AcDbLine
 10
308.4000000499685
 20
191.5000001092222
 30
0.0
 11
308.4000000499685
 21
100.5000001092222
 31
0.0
  0
LINE
  5
9A63
330
1A
100
AcDbEntity
  8
0
100
AcDbLine
 10
235.2000000499685
 20
100.5000001092222
 30
0.0
 11
308.4000000499685
 21
100.5000001092222
 31
0.0
  0
LINE
  5
9A65
330
1A
100
AcDbEntity
  8
0
100
AcDbLine
 10
235.2000000499686
 20
191.5000001092223
 30
0.0
 11
308.4000000499685
 21
191.5000001092223
 31
0.0
  0
LINE
  5
9A66
330
1A
100
AcDbEntity
  8
0
100
AcDbLine
 10
308.6000000499686
 20
92.00000010922224
 30
0.0
 11
310.2000000499685
 21
92.00000010922224
 31
0.0
  0
LINE
  5
9A67
330
1A
100
AcDbEntity
  8
0
100
AcDbLine
 10
308.6000000499686
 20
200.0000001092224
 30
0.0
 11
310.2000000499686
 21
200.0000001092224
 31
0.0
  0
LINE
  5
9A6A
330
1A
100
AcDbEntity
  8
0
100
AcDbLine
 10
235.2000000499686
 20
191.7000001092221
 30
0.0
 11
235.2000000499685
 21
100.3000001092223
 31
0.0
  0
LINE
  5
9A7A
330
1A
100
AcDbEntity
  8
0
100
AcDbLine
 10
245.2000000499685
 20
100.3000001092223
 30
0.0
 11
245.2000000499685
 21
99.50000010922231
 31
0.0
  0
LINE
  5
9A7B
330
1A
100
AcDbEntity
  8
0
100
AcDbLine
 10
245.2000000499686
 20
192.5000001092222
 30
0.0
 11
245.2000000499686
 21
191.7000001092221
 31
0.0
  0
LINE
  5
9A7F
330
1A
100
AcDbEntity
  8
0
100
AcDbLine
 10
310.2000000499685
 20
201.0000001092223
 30
0.0
 11
308.6000000499685
 21
201.0000001092223
 31
0.0
  0
LINE
  5
9A80
330
1A
100
AcDbEntity
  8
0
100
AcDbLine
 10
308.6000000499685
 20
91.00000010922224
 30
0.0
 11
310.2000000499685
 21
91.00000010922224
 31
0.0
  0
LINE
  5
9A81
330
1A
100
AcDbEntity
  8
0
100
AcDbLine
 10
310.2000000499685
 20
201.0000001092223
 30
0.0
 11
310.2000000499685
 21
91.00000010922224
 31
0.0
  0
LINE
  5
9A82
330
1A
100
AcDbEntity
  8
0
100
AcDbLine
 10
308.6000000499685
 20
201.0000001092223
 30
0.0
 11
308.6000000499685
 21
91.00000010922224
 31
0.0
  0
ARC
  5
9A83
330
1A
100
AcDbEntity
  8
0
100
AcDbCircle
 10
231.0000000499686
 20
191.7000001092221
 30
0.0
 40
0.8
100
AcDbArc
 50
90.0
 51
180.0
  0
ARC
  5
9A84
330
1A
100
AcDbEntity
  8
0
100
AcDbCircle
 10
231.0000000499685
 20
100.3000001092223
 30
0.0
 40
0.8
100
AcDbArc
 50
180.0
 51
270.0
  0
LINE
  5
9A85
330
1A
100
AcDbEntity
  8
0
100
AcDbLine
 10
231.0000000499685
 20
99.50000010922231
 30
0.0
 11
245.2000000499685
 21
99.50000010922231
 31
0.0
  0
LINE
  5
9A86
330
1A
100
AcDbEntity
  8
0
100
AcDbLine
 10
231.0000000499686
 20
100.3000001092223
 30
0.0
 11
245.2000000499685
 21
100.3000001092223
 31
0.0
  0
LINE
  5
9A87
330
1A
100
AcDbEntity
  8
0
100
AcDbLine
 10
231.0000000499686
 20
191.7000001092221
 30
0.0
 11
245.2000000499686
 21
191.7000001092221
 31
0.0
  0
LINE
  5
9A88
330
1A
100
AcDbEntity
  8
0
100
AcDbLine
 10
231.0000000499686
 20
192.5000001092222
 30
0.0
 11
245.2000000499686
 21
192.5000001092222
 31
0.0
  0
LINE
  5
9A8A
330
1A
100
AcDbEntity
  8
0
100
AcDbLine
 10
230.2000000499686
 20
191.7000001092221
 30
0.0
 11
230.2000000499685
 21
100.3000001092223
 31
0.0
  0
INSERT
  5
9E43
330
1A
100
AcDbEntity
  8
0
100
AcDbBlockReference
  2
A$C34EE125E
 10
236.2000001969497
 20
192.5000005817244
 30
0.0
 41
-1.0
 50
270.0
  0
INSERT
  5
9E4C
330
1A
100
AcDbEntity
  8
0
100
AcDbBlockReference
  2
A$C34EE125E
 10
236.2000001969497
 20
99.49999963672013
 30
0.0
 50
270.0
  0
DIMENSION
  5
9F02
330
1A
100
AcDbEntity
  8
SUNPOU
100
AcDbDimension
  2
*D9
 10
230.2000000499685
 20
220.0
 30
0.0
 11
221.9000000499685
 21
223.5
 31
0.0
 70
    32
 71
     5
 42
16.60000000000005
  3
STANDARD
100
AcDbAlignedDimension
 13
213.6000000499685
 23
183.1900001092222
 33
0.0
 14
230.2000000499685
 24
191.7000001092221
 34
0.0
100
AcDbRotatedDimension
1001
ACAD
1000
DSTYLE
1002
{
1070
   140
1040
6.0
1070
    74
1070
     0
1070
    73
1070
     0
1070
   272
1070
     0
1070
    77
1070
     1
1070
   173
1070
     1
1070
   147
1040
0.5
1070
    42
1040
0.5
1070
    44
1040
0.5
1070
    43
1040
10.0
1070
   271
1070
     0
1070
   141
1040
0.0
1070
     7
1000
_OPEN
1070
     6
1000
_OPEN
1070
    41
1040
2.5
1002
}
  0
TEXT
  5
9F60
330
1A
100
AcDbEntity
  8
0
100
AcDbText
 10
396.5
 20
7.5
 30
0.0
 40
3.0
  1
_
100
AcDbText
  0
TEXT
  5
9F6C
330
1A
100
AcDbEntity
  8
WAKU
100
AcDbText
 10
318.0
 20
19.0
 30
0.0
 40
4.0
  1
奥野
100
AcDbText
  0
TEXT
  5
9F6D
330
1A
100
AcDbEntity
  8
WAKU
100
AcDbText
 10
316.0
 20
14.0
 30
0.0
 40
2.0
  1
19.04.25
100
AcDbText
  0
TEXT
  5
9F6E
330
1A
100
AcDbEntity
  8
WAKU
100
AcDbText
 10
331.0
 20
14.0
 30
0.0
 40
2.0
  1
19.04.25
100
AcDbText
  0
TEXT
  5
9F6F
330
1A
100
AcDbEntity
  8
WAKU
100
AcDbText
 10
333.0
 20
19.0
 30
0.0
 40
4.0
  1
大野
100
AcDbText
  0
LINE
  5
A302
330
1A
100
AcDbEntity
  8
WAKU
100
AcDbLine
 10
300.0
 20
13.0
 30
0.0
 11
300.0
 21
28.0
 31
0.0
  0
TEXT
  5
A306
330
1A
100
AcDbEntity
  8
WAKU
100
AcDbText
 10
317.6
 20
29.5
 30
0.0
 40
3.0
  1
検　図
 72
     4
 11
322.5
 21
31.0
 31
0.0
100
AcDbText
  0
TEXT
  5
A307
330
1A
100
AcDbEntity
  8
WAKU
100
AcDbText
 10
332.5
 20
29.5
 30
0.0
 40
3.0
  1
設　計
 72
     4
 11
337.5
 21
31.0
 31
0.0
100
AcDbText
  0
TEXT
  5
A308
330
1A
100
AcDbEntity
  8
WAKU
100
AcDbText
 10
295.0
 20
29.5
 30
0.0
 40
3.0
  1
承　認
 72
     4
 11
300.0
 21
31.0
 31
0.0
100
AcDbText
  0
ARC
  5
A9E3
330
1A
100
AcDbEntity
  8
SUNPOU
100
AcDbCircle
 10
230.2400000499684
 20
187.0050001092222
 30
0.0
 40
1.399999999999999
100
AcDbArc
 50
91.83435713273217
 51
268.1656428672678
  0
LINE
  5
A9E6
330
1A
100
AcDbEntity
  8
SUNPOU
100
AcDbLine
 10
230.2000000499686
 20
185.6055633654747
 30
0.0
 11
230.1951859063367
 21
185.6057175457167
 31
0.0
  0
LINE
  5
A9E9
330
1A
100
AcDbEntity
  8
SUNPOU
100
AcDbLine
 10
230.2000000499685
 20
188.4044368529696
 30
0.0
 11
230.1951859063367
 21
188.4042826727277
 31
0.0
  0
MTEXT
  5
AC91
330
1A
100
AcDbEntity
  8
0
 62
     0
100
AcDbMText
 10
145.5
 20
101.5000001092223
 30
0.0
 40
3.0
 41
42.00000000000005
 71
     9
 72
     5
  1
{\fTahoma|b0|i0|c0|p34;TOYO SOKKI}
 73
     1
 44
1.0
1001
ACAD
1000
MTEXTBEGIN
1070
    73
1070
     1
1070
    44
1040
1.0
1070
    74
1070
     0
1000
MTEXTEND
  0
LINE
  5
AC92
330
1A
100
AcDbEntity
  8
0
100
AcDbLine
 10
141.5
 20
133.7300001092223
 30
0.0
 11
143.0
 21
133.7300001092223
 31
0.0
  0
LINE
  5
AC93
330
1A
100
AcDbEntity
  8
0
100
AcDbLine
 10
143.0
 20
133.7300001092223
 30
0.0
 11
143.0
 21
126.5000001092222
 31
0.0
  0
MTEXT
  5
AC94
330
1A
100
AcDbEntity
  8
0
100
AcDbMText
 10
143.0
 20
126.5000001092222
 30
0.0
 40
2.5
 41
10.86666666666666
 71
     3
 72
     5
  1
{\fTahoma|b0|i0|c0|p34;RANGE}
 73
     1
 44
1.0
1001
ACAD
1000
MTEXTBEGIN
1070
    73
1070
     1
1070
    44
1040
1.0
1070
    74
1070
     0
1000
MTEXTEND
  0
LINE
  5
AC95
330
1A
100
AcDbEntity
  8
0
100
AcDbLine
 10
140.0
 20
138.3400001092223
 30
0.0
 11
140.0
 21
129.1200001092223
 31
0.0
  0
LINE
  5
AC96
330
1A
100
AcDbEntity
  8
0
100
AcDbLine
 10
141.5
 20
138.3400001092223
 30
0.0
 11
140.0
 21
129.1200001092223
 31
0.0
  0
LINE
  5
AC97
330
1A
100
AcDbEntity
  8
0
100
AcDbLine
 10
140.0
 20
138.3400001092223
 30
0.0
 11
141.5
 21
138.3400001092223
 31
0.0
  0
MTEXT
  5
AC98
330
1A
100
AcDbEntity
  8
0
100
AcDbMText
 10
140.3
 20
140.0800001092223
 30
0.0
 40
2.5
 41
3.066666666666666
 71
     4
 72
     5
  1
{\fTahoma|b0|i0|c0|p34;H}
 73
     1
 44
1.0
1001
ACAD
1000
MTEXTBEGIN
1070
    73
1070
     1
1070
    44
1040
1.0
1070
    74
1070
     0
1000
MTEXTEND
  0
MTEXT
  5
AC99
330
1A
100
AcDbEntity
  8
0
100
AcDbMText
 10
130.8
 20
140.0800001092223
 30
0.0
 40
2.5
 41
3.066666666666666
 71
     6
 72
     5
  1
{\fTahoma|b0|i0|c0|p34;L}
 73
     1
 44
1.0
1001
ACAD
1000
MTEXTBEGIN
1070
    73
1070
     1
1070
    44
1040
1.0
1070
    74
1070
     0
1000
MTEXTEND
  0
LINE
  5
AC9A
330
1A
100
AcDbEntity
  8
0
100
AcDbLine
 10
138.3
 20
127.6600001092223
 30
0.0
 11
138.3
 21
142.3400001092223
 31
0.0
  0
LINE
  5
AC9B
330
1A
100
AcDbEntity
  8
SUNPOU
100
AcDbLine
 10
136.7
 20
128.6700001092223
 30
0.0
 11
136.7
 21
141.3300001092223
 31
0.0
  0
LINE
  5
AC9C
330
1A
100
AcDbEntity
  8
0
100
AcDbLine
 10
133.3
 20
127.6600001092223
 30
0.0
 11
133.3
 21
142.3400001092223
 31
0.0
  0
LINE
  5
AC9D
330
1A
100
AcDbEntity
  8
0
100
AcDbLine
 10
133.3
 20
127.6600001092224
 30
0.0
 11
139.0
 21
127.6600001092223
 31
0.0
  0
TEXT
  5
AC9E
330
1A
100
AcDbEntity
  8
SUNPOU
100
AcDbText
 10
137.9918946420855
 20
127.8500507813982
 30
0.0
 40
0.8
  1
ON
 50
90.0
100
AcDbText
  0
TEXT
  5
AC9F
330
1A
100
AcDbEntity
  8
SUNPOU
100
AcDbText
 10
138.0189979253314
 20
137.0767036488969
 30
0.0
 40
1.0
  1
4
 50
90.0
100
AcDbText
  0
TEXT
  5
ACA0
330
1A
100
AcDbEntity
  8
SUNPOU
100
AcDbText
 10
138.0189979253314
 20
139.6167036488969
 30
0.0
 40
1.0
  1
5
 50
90.0
100
AcDbText
  0
TEXT
  5
ACA1
330
1A
100
AcDbEntity
  8
SUNPOU
100
AcDbText
 10
138.0189979253314
 20
134.5367036488968
 30
0.0
 40
1.0
  1
3
 50
90.0
100
AcDbText
  0
TEXT
  5
ACA2
330
1A
100
AcDbEntity
  8
SUNPOU
100
AcDbText
 10
138.0189979253314
 20
129.4567036488969
 30
0.0
 40
1.0
  1
1
 50
90.0
100
AcDbText
  0
TEXT
  5
ACA3
330
1A
100
AcDbEntity
  8
SUNPOU
100
AcDbText
 10
138.0189979253314
 20
131.9967036488968
 30
0.0
 40
1.0
  1
2
 50
90.0
100
AcDbText
  0
LINE
  5
ACA4
330
1A
100
AcDbEntity
  8
0
100
AcDbLine
 10
138.3
 20
131.6600001092222
 30
0.0
 11
139.0
 21
131.6600001092222
 31
0.0
  0
LINE
  5
ACA5
330
1A
100
AcDbEntity
  8
0
100
AcDbLine
 10
138.3
 20
129.1200001092223
 30
0.0
 11
139.0
 21
129.1200001092223
 31
0.0
  0
LINE
  5
ACA6
330
1A
100
AcDbEntity
  8
0
100
AcDbLine
 10
139.0
 20
130.7200001092223
 30
0.0
 11
138.3
 21
130.7200001092223
 31
0.0
  0
LINE
  5
ACA7
330
1A
100
AcDbEntity
  8
0
100
AcDbLine
 10
139.0
 20
135.8000001092224
 30
0.0
 11
138.3
 21
135.8000001092223
 31
0.0
  0
LINE
  5
ACA8
330
1A
100
AcDbEntity
  8
0
100
AcDbLine
 10
138.3
 20
134.2000001092223
 30
0.0
 11
139.0
 21
134.2000001092223
 31
0.0
  0
LINE
  5
ACA9
330
1A
100
AcDbEntity
  8
0
100
AcDbLine
 10
138.3
 20
136.7400001092223
 30
0.0
 11
139.0
 21
136.7400001092223
 31
0.0
  0
LINE
  5
ACAA
330
1A
100
AcDbEntity
  8
0
100
AcDbLine
 10
139.0
 20
133.2600001092223
 30
0.0
 11
138.3
 21
133.2600001092223
 31
0.0
  0
LINE
  5
ACAB
330
1A
100
AcDbEntity
  8
0
100
AcDbLine
 10
139.0
 20
140.8800001092224
 30
0.0
 11
138.3
 21
140.8800001092223
 31
0.0
  0
LINE
  5
ACAC
330
1A
100
AcDbEntity
  8
0
100
AcDbLine
 10
138.3
 20
139.2800001092223
 30
0.0
 11
139.0
 21
139.2800001092223
 31
0.0
  0
LINE
  5
ACAD
330
1A
100
AcDbEntity
  8
0
100
AcDbLine
 10
139.0
 20
138.3400001092223
 30
0.0
 11
138.3
 21
138.3400001092223
 31
0.0
  0
LINE
  5
ACAE
330
1A
100
AcDbEntity
  8
0
100
AcDbLine
 10
136.35
 20
131.7100001092223
 30
0.0
 11
136.35
 21
133.2100001092223
 31
0.0
  0
LINE
  5
ACAF
330
1A
100
AcDbEntity
  8
0
100
AcDbLine
 10
133.35
 20
131.7100001092223
 30
0.0
 11
133.35
 21
133.2100001092223
 31
0.0
  0
LINE
  5
ACB0
330
1A
100
AcDbEntity
  8
0
100
AcDbLine
 10
134.35
 20
131.7100001092223
 30
0.0
 11
134.35
 21
133.2100001092223
 31
0.0
  0
LINE
  5
ACB1
330
1A
100
AcDbEntity
  8
SUNPOU
100
AcDbLine
 10
136.8996275025102
 20
128.1172742690191
 30
0.0
 11
136.2323865083062
 21
127.7306651686207
 31
0.0
  0
LINE
  5
ACB2
330
1A
100
AcDbEntity
  8
SUNPOU
100
AcDbLine
 10
134.8996275025102
 20
128.1172742690191
 30
0.0
 11
136.8996275025102
 21
128.1172742690191
 31
0.0
  0
LINE
  5
ACB3
330
1A
100
AcDbEntity
  8
SUNPOU
100
AcDbLine
 10
136.8996275025102
 20
128.1172742690191
 30
0.0
 11
136.226377150041
 21
128.4933209466501
 31
0.0
  0
LINE
  5
ACB4
330
1A
100
AcDbEntity
  8
SUNPOU
100
AcDbLine
 10
136.7
 20
128.6700001092223
 30
0.0
 11
133.3
 21
128.6700001092223
 31
0.0
  0
LINE
  5
ACB5
330
1A
100
AcDbEntity
  8
0
100
AcDbLine
 10
133.35
 20
131.7100001092223
 30
0.0
 11
136.35
 21
131.7100001092223
 31
0.0
  0
LINE
  5
ACB6
330
1A
100
AcDbEntity
  8
0
100
AcDbLine
 10
133.35
 20
130.6700001092223
 30
0.0
 11
136.35
 21
130.6700001092223
 31
0.0
  0
LINE
  5
ACB7
330
1A
100
AcDbEntity
  8
0
100
AcDbLine
 10
133.35
 20
129.1700001092223
 30
0.0
 11
136.35
 21
129.1700001092223
 31
0.0
  0
LINE
  5
ACB8
330
1A
100
AcDbEntity
  8
0
100
AcDbLine
 10
136.35
 20
129.1700001092223
 30
0.0
 11
136.35
 21
130.6700001092223
 31
0.0
  0
LINE
  5
ACB9
330
1A
100
AcDbEntity
  8
0
100
AcDbLine
 10
133.35
 20
129.1700001092223
 30
0.0
 11
133.35
 21
130.6700001092223
 31
0.0
  0
LINE
  5
ACBA
330
1A
100
AcDbEntity
  8
0
100
AcDbLine
 10
134.35
 20
129.1700001092223
 30
0.0
 11
134.35
 21
130.6700001092223
 31
0.0
  0
LINE
  5
ACBB
330
1A
100
AcDbEntity
  8
0
100
AcDbLine
 10
136.35
 20
136.7900001092223
 30
0.0
 11
136.35
 21
138.2900001092224
 31
0.0
  0
LINE
  5
ACBC
330
1A
100
AcDbEntity
  8
0
100
AcDbLine
 10
133.35
 20
136.7900001092223
 30
0.0
 11
133.35
 21
138.2900001092224
 31
0.0
  0
LINE
  5
ACBD
330
1A
100
AcDbEntity
  8
0
100
AcDbLine
 10
134.35
 20
136.7900001092223
 30
0.0
 11
134.35
 21
138.2900001092224
 31
0.0
  0
LINE
  5
ACBE
330
1A
100
AcDbEntity
  8
0
100
AcDbLine
 10
133.35
 20
135.7500001092223
 30
0.0
 11
136.35
 21
135.7500001092223
 31
0.0
  0
LINE
  5
ACBF
330
1A
100
AcDbEntity
  8
0
100
AcDbLine
 10
133.35
 20
133.2100001092223
 30
0.0
 11
136.35
 21
133.2100001092223
 31
0.0
  0
LINE
  5
ACC0
330
1A
100
AcDbEntity
  8
0
100
AcDbLine
 10
133.35
 20
134.2500001092223
 30
0.0
 11
136.35
 21
134.2500001092223
 31
0.0
  0
LINE
  5
ACC1
330
1A
100
AcDbEntity
  8
0
100
AcDbLine
 10
133.35
 20
136.7900001092223
 30
0.0
 11
136.35
 21
136.7900001092223
 31
0.0
  0
LINE
  5
ACC2
330
1A
100
AcDbEntity
  8
0
100
AcDbLine
 10
136.35
 20
134.2500001092223
 30
0.0
 11
136.35
 21
135.7500001092223
 31
0.0
  0
LINE
  5
ACC3
330
1A
100
AcDbEntity
  8
0
100
AcDbLine
 10
133.35
 20
134.2500001092223
 30
0.0
 11
133.35
 21
135.7500001092223
 31
0.0
  0
LINE
  5
ACC4
330
1A
100
AcDbEntity
  8
0
100
AcDbLine
 10
134.35
 20
134.2500001092223
 30
0.0
 11
134.35
 21
135.7500001092223
 31
0.0
  0
LINE
  5
ACC5
330
1A
100
AcDbEntity
  8
0
100
AcDbLine
 10
134.35
 20
139.3300001092223
 30
0.0
 11
134.35
 21
140.8300001092223
 31
0.0
  0
LINE
  5
ACC6
330
1A
100
AcDbEntity
  8
0
100
AcDbLine
 10
133.35
 20
139.3300001092223
 30
0.0
 11
133.35
 21
140.8300001092223
 31
0.0
  0
LINE
  5
ACC7
330
1A
100
AcDbEntity
  8
0
100
AcDbLine
 10
136.35
 20
139.3300001092223
 30
0.0
 11
136.35
 21
140.8300001092223
 31
0.0
  0
LINE
  5
ACC8
330
1A
100
AcDbEntity
  8
0
100
AcDbLine
 10
133.35
 20
139.3300001092223
 30
0.0
 11
136.35
 21
139.3300001092223
 31
0.0
  0
LINE
  5
ACC9
330
1A
100
AcDbEntity
  8
0
100
AcDbLine
 10
133.35
 20
140.8300001092223
 30
0.0
 11
136.35
 21
140.8300001092223
 31
0.0
  0
LINE
  5
ACCA
330
1A
100
AcDbEntity
  8
0
100
AcDbLine
 10
133.35
 20
138.2900001092224
 30
0.0
 11
136.35
 21
138.2900001092224
 31
0.0
  0
LINE
  5
ACCB
330
1A
100
AcDbEntity
  8
0
100
AcDbLine
 10
133.3
 20
142.3400001092223
 30
0.0
 11
139.0
 21
142.3400001092223
 31
0.0
  0
LINE
  5
ACCC
330
1A
100
AcDbEntity
  8
SUNPOU
100
AcDbLine
 10
136.7
 20
141.3300001092223
 30
0.0
 11
133.3
 21
141.3300001092223
 31
0.0
  0
CIRCLE
  5
ACCD
330
1A
100
AcDbEntity
  8
0
100
AcDbCircle
 10
113.6
 20
187.0050001092222
 30
0.0
 40
2.0
  0
LINE
  5
ACCE
330
1A
100
AcDbEntity
  8
0
100
AcDbLine
 10
125.5
 20
128.8700001092222
 30
0.0
 11
125.5
 21
131.8700001092222
 31
0.0
  0
LINE
  5
ACCF
330
1A
100
AcDbEntity
  8
0
100
AcDbLine
 10
121.5999999999999
 20
128.8700001092222
 30
0.0
 11
125.5
 21
128.8700001092222
 31
0.0
  0
LINE
  5
ACD0
330
1A
100
AcDbEntity
  8
0
100
AcDbLine
 10
125.5
 20
142.8900001092222
 30
0.0
 11
125.5
 21
139.8900001092222
 31
0.0
  0
LINE
  5
ACD1
330
1A
100
AcDbEntity
  8
0
100
AcDbLine
 10
121.5999999999999
 20
142.8900001092222
 30
0.0
 11
125.5
 21
142.8900001092222
 31
0.0
  0
MTEXT
  5
ACD2
330
1A
100
AcDbEntity
  8
0
100
AcDbMText
 10
124.5999999999999
 20
135.8800001092222
 30
0.0
 40
2.5
 41
9.9
 71
     8
 72
     5
  1
{\fTahoma|b0|i0|c0|p34;OUT}
 11
-0.0000000000000002
 21
-1.0
 31
0.0
 73
     1
 44
1.0
1001
ACAD
1000
MTEXTBEGIN
1070
    73
1070
     1
1070
    44
1040
1.0
1070
    74
1070
     0
1000
MTEXTEND
  0
MTEXT
  5
ACD3
330
1A
100
AcDbEntity
  8
0
100
AcDbMText
 10
121.5999999999999
 20
132.0700001092222
 30
0.0
 40
2.5
 41
9.9
 71
     8
 72
     5
  1
{\fMS Gothic|b0|i0|c128|p49;-}
 11
-0.0000000000000002
 21
-1.0
 31
0.0
 73
     1
 44
1.0
1001
ACAD
1000
MTEXTBEGIN
1070
    73
1070
     1
1070
    44
1040
1.0
1070
    74
1070
     0
1000
MTEXTEND
  0
MTEXT
  5
ACD4
330
1A
100
AcDbEntity
  8
0
100
AcDbMText
 10
121.5999999999999
 20
139.6900001092223
 30
0.0
 40
2.5
 41
9.9
 71
     8
 72
     5
  1
{\fMS Gothic|b0|i0|c128|p49;+}
 11
-0.0000000000000002
 21
-1.0
 31
0.0
 73
     1
 44
1.0
1001
ACAD
1000
MTEXTBEGIN
1070
    73
1070
     1
1070
    44
1040
1.0
1070
    74
1070
     0
1000
MTEXTEND
  0
MTEXT
  5
ACD5
330
1A
100
AcDbEntity
  8
0
100
AcDbMText
 10
121.5999999999999
 20
109.2100001092221
 30
0.0
 40
2.5
 41
9.9
 71
     8
 72
     5
  1
{\fTahoma|b0|i0|c0|p34;0V}
 11
-0.0000000000000002
 21
-1.0
 31
0.0
 73
     1
 44
1.0
1001
ACAD
1000
MTEXTBEGIN
1070
    73
1070
     1
1070
    44
1040
1.0
1070
    74
1070
     0
1000
MTEXTEND
  0
MTEXT
  5
ACD6
330
1A
100
AcDbEntity
  8
0
100
AcDbMText
 10
121.5999999999999
 20
116.8300001092222
 30
0.0
 40
2.5
 41
9.9
 71
     8
 72
     5
  1
{\fTahoma|b0|i0|c0|p34;+24V}
 11
-0.0000000000000002
 21
-1.0
 31
0.0
 73
     1
 44
1.0
1001
ACAD
1000
MTEXTBEGIN
1070
    73
1070
     1
1070
    44
1040
1.0
1070
    74
1070
     0
1000
MTEXTEND
  0
MTEXT
  5
ACD7
330
1A
100
AcDbEntity
  8
0
100
AcDbMText
 10
121.5999999999999
 20
124.4500001092222
 30
0.0
 40
2.5
 41
9.9
 71
     8
 72
     5
  1
{\fTahoma|b0|i0|c0|p34;E}
 11
-0.0000000000000002
 21
-1.0
 31
0.0
 73
     1
 44
1.0
1001
ACAD
1000
MTEXTBEGIN
1070
    73
1070
     1
1070
    44
1040
1.0
1070
    74
1070
     0
1000
MTEXTEND
  0
MTEXT
  5
ACD8
330
1A
100
AcDbEntity
  8
0
100
AcDbMText
 10
121.5999999999999
 20
147.3100001092223
 30
0.0
 40
2.5
 41
9.9
 71
     8
 72
     5
  1
{\fTahoma|b0|i0|c0|p34;SHL}
 11
-0.0000000000000002
 21
-1.0
 31
0.0
 73
     1
 44
1.0
1001
ACAD
1000
MTEXTBEGIN
1070
    73
1070
     1
1070
    44
1040
1.0
1070
    74
1070
     0
1000
MTEXTEND
  0
MTEXT
  5
ACD9
330
1A
100
AcDbEntity
  8
0
100
AcDbMText
 10
121.5999999999999
 20
162.5500001092223
 30
0.0
 40
2.5
 41
9.9
 71
     8
 72
     5
  1
{\fMS Gothic|b0|i0|c128|p49;+}
 11
-0.0000000000000002
 21
-1.0
 31
0.0
 73
     1
 44
1.0
1001
ACAD
1000
MTEXTBEGIN
1070
    73
1070
     1
1070
    44
1040
1.0
1070
    74
1070
     0
1000
MTEXTEND
  0
MTEXT
  5
ACDA
330
1A
100
AcDbEntity
  8
0
100
AcDbMText
 10
121.5999999999999
 20
154.9300001092223
 30
0.0
 40
2.5
 41
9.9
 71
     8
 72
     5
  1
{\fMS Gothic|b0|i0|c128|p49;-}
 11
-0.0000000000000002
 21
-1.0
 31
0.0
 73
     1
 44
1.0
1001
ACAD
1000
MTEXTBEGIN
1070
    73
1070
     1
1070
    44
1040
1.0
1070
    74
1070
     0
1000
MTEXTEND
  0
MTEXT
  5
ACDB
330
1A
100
AcDbEntity
  8
0
100
AcDbMText
 10
124.5999999999999
 20
158.7400001092223
 30
0.0
 40
2.5
 41
9.9
 71
     8
 72
     5
  1
{\fTahoma|b0|i0|c0|p34;SIG}
 11
-0.0000000000000002
 21
-1.0
 31
0.0
 73
     1
 44
1.0
1001
ACAD
1000
MTEXTBEGIN
1070
    73
1070
     1
1070
    44
1040
1.0
1070
    74
1070
     0
1000
MTEXTEND
  0
LINE
  5
ACDC
330
1A
100
AcDbEntity
  8
0
100
AcDbLine
 10
121.5999999999999
 20
165.7500001092223
 30
0.0
 11
125.5
 21
165.7500001092223
 31
0.0
  0
LINE
  5
ACDD
330
1A
100
AcDbEntity
  8
0
100
AcDbLine
 10
125.5
 20
165.7500001092223
 30
0.0
 11
125.5
 21
162.7500001092223
 31
0.0
  0
LINE
  5
ACDE
330
1A
100
AcDbEntity
  8
0
100
AcDbLine
 10
121.5999999999999
 20
151.7300001092223
 30
0.0
 11
125.5
 21
151.7300001092223
 31
0.0
  0
LINE
  5
ACDF
330
1A
100
AcDbEntity
  8
0
100
AcDbLine
 10
125.5
 20
151.7300001092223
 30
0.0
 11
125.5
 21
154.7300001092223
 31
0.0
  0
LINE
  5
ACE0
330
1A
100
AcDbEntity
  8
0
100
AcDbLine
 10
125.5
 20
166.9700001092224
 30
0.0
 11
125.5
 21
169.9700001092224
 31
0.0
  0
LINE
  5
ACE1
330
1A
100
AcDbEntity
  8
0
100
AcDbLine
 10
121.5999999999999
 20
166.9700001092224
 30
0.0
 11
125.5
 21
166.9700001092224
 31
0.0
  0
LINE
  5
ACE2
330
1A
100
AcDbEntity
  8
0
100
AcDbLine
 10
125.5
 20
180.9900001092224
 30
0.0
 11
125.5
 21
177.9900001092224
 31
0.0
  0
LINE
  5
ACE3
330
1A
100
AcDbEntity
  8
0
100
AcDbLine
 10
121.5999999999999
 20
180.9900001092224
 30
0.0
 11
125.5
 21
180.9900001092224
 31
0.0
  0
LINE
  5
ACE4
330
1A
100
AcDbEntity
  8
0
100
AcDbLine
 10
117.6
 20
174.5900001092224
 30
0.0
 11
117.6
 21
173.3700001092224
 31
0.0
  0
MTEXT
  5
ACE5
330
1A
100
AcDbEntity
  8
0
100
AcDbMText
 10
124.5999999999999
 20
173.9800001092224
 30
0.0
 40
2.5
 41
9.9
 71
     8
 72
     5
  1
{\fTahoma|b0|i0|c0|p34;EXC}
 11
-0.0000000000000002
 21
-1.0
 31
0.0
 73
     1
 44
1.0
1001
ACAD
1000
MTEXTBEGIN
1070
    73
1070
     1
1070
    44
1040
1.0
1070
    74
1070
     0
1000
MTEXTEND
  0
MTEXT
  5
ACE6
330
1A
100
AcDbEntity
  8
0
100
AcDbMText
 10
121.5999999999999
 20
170.1700001092224
 30
0.0
 40
2.5
 41
9.9
 71
     8
 72
     5
  1
{\fMS Gothic|b0|i0|c128|p49;-}
 11
-0.0000000000000002
 21
-1.0
 31
0.0
 73
     1
 44
1.0
1001
ACAD
1000
MTEXTBEGIN
1070
    73
1070
     1
1070
    44
1040
1.0
1070
    74
1070
     0
1000
MTEXTEND
  0
MTEXT
  5
ACE7
330
1A
100
AcDbEntity
  8
0
100
AcDbMText
 10
121.5999999999999
 20
177.7900001092224
 30
0.0
 40
2.5
 41
9.9
 71
     8
 72
     5
  1
{\fMS Gothic|b0|i0|c128|p49;+}
 11
-0.0000000000000002
 21
-1.0
 31
0.0
 73
     1
 44
1.0
1001
ACAD
1000
MTEXTBEGIN
1070
    73
1070
     1
1070
    44
1040
1.0
1070
    74
1070
     0
1000
MTEXTEND
  0
LINE
  5
ACE8
330
1A
100
AcDbEntity
  8
0
100
AcDbLine
 10
139.0
 20
142.5000001092223
 30
0.0
 11
139.0
 21
127.5000001092222
 31
0.0
  0
LINE
  5
ACE9
330
1A
100
AcDbEntity
  8
0
100
AcDbLine
 10
132.0
 20
142.5000001092223
 30
0.0
 11
139.0
 21
142.5000001092223
 31
0.0
  0
LINE
  5
ACEA
330
1A
100
AcDbEntity
  8
0
100
AcDbLine
 10
132.0
 20
142.5000001092223
 30
0.0
 11
132.0
 21
127.5000001092222
 31
0.0
  0
LINE
  5
ACEB
330
1A
100
AcDbEntity
  8
0
100
AcDbLine
 10
132.0
 20
127.5000001092222
 30
0.0
 11
139.0
 21
127.5000001092222
 31
0.0
  0
MTEXT
  5
ACEC
330
1A
100
AcDbEntity
  8
0
100
AcDbMText
 10
141.5999999999999
 20
163.5000001092223
 30
0.0
 40
2.5
 41
12.23333333333333
 71
     8
 72
     5
  1
{\fTahoma|b0|i0|c0|p34;TARE}
 11
-0.0000000000000002
 21
-1.0
 31
0.0
 73
     1
 44
1.0
1001
ACAD
1000
MTEXTBEGIN
1070
    73
1070
     1
1070
    44
1040
1.0
1070
    74
1070
     0
1000
MTEXTEND
  0
MTEXT
  5
ACED
330
1A
100
AcDbEntity
  8
0
100
AcDbMText
 10
141.5999999999999
 20
174.0000001092223
 30
0.0
 40
2.5
 41
12.23333333333333
 71
     8
 72
     5
  1
{\fTahoma|b0|i0|c0|p34;CHECK}
 11
-0.0000000000000002
 21
-1.0
 31
0.0
 73
     1
 44
1.0
1001
ACAD
1000
MTEXTBEGIN
1070
    73
1070
     1
1070
    44
1040
1.0
1070
    74
1070
     0
1000
MTEXTEND
  0
LINE
  5
ACEE
330
1A
100
AcDbEntity
  8
0
100
AcDbLine
 10
142.9
 20
180.0000001092223
 30
0.0
 11
142.9
 21
181.5600001092222
 31
0.0
  0
MTEXT
  5
ACEF
330
1A
100
AcDbEntity
  8
0
100
AcDbMText
 10
106.5999999999999
 20
109.2100001092221
 30
0.0
 40
2.5
 41
5.907407407407408
 71
     6
 72
     5
  1
{\fTahoma|b0|i0|c0|p34;10}
 73
     1
 44
1.0
1001
ACAD
1000
MTEXTBEGIN
1070
    73
1070
     1
1070
    44
1040
1.0
1070
    74
1070
     0
1000
MTEXTEND
  0
MTEXT
  5
ACF0
330
1A
100
AcDbEntity
  8
0
100
AcDbMText
 10
106.5999999999999
 20
116.8300001092222
 30
0.0
 40
2.5
 41
5.907407407407408
 71
     6
 72
     5
  1
{\fTahoma|b0|i0|c0|p34;9}
 73
     1
 44
1.0
1001
ACAD
1000
MTEXTBEGIN
1070
    73
1070
     1
1070
    44
1040
1.0
1070
    74
1070
     0
1000
MTEXTEND
  0
MTEXT
  5
ACF1
330
1A
100
AcDbEntity
  8
0
100
AcDbMText
 10
106.5999999999999
 20
139.6900001092223
 30
0.0
 40
2.5
 41
5.907407407407408
 71
     6
 72
     5
  1
{\fTahoma|b0|i0|c0|p34;6}
 73
     1
 44
1.0
1001
ACAD
1000
MTEXTBEGIN
1070
    73
1070
     1
1070
    44
1040
1.0
1070
    74
1070
     0
1000
MTEXTEND
  0
MTEXT
  5
ACF2
330
1A
100
AcDbEntity
  8
0
100
AcDbMText
 10
106.5999999999999
 20
147.3100001092223
 30
0.0
 40
2.5
 41
5.907407407407408
 71
     6
 72
     5
  1
{\fTahoma|b0|i0|c0|p34;5}
 73
     1
 44
1.0
1001
ACAD
1000
MTEXTBEGIN
1070
    73
1070
     1
1070
    44
1040
1.0
1070
    74
1070
     0
1000
MTEXTEND
  0
MTEXT
  5
ACF3
330
1A
100
AcDbEntity
  8
0
100
AcDbMText
 10
106.5999999999999
 20
132.0700001092222
 30
0.0
 40
2.5
 41
5.907407407407408
 71
     6
 72
     5
  1
{\fTahoma|b0|i0|c0|p34;7}
 73
     1
 44
1.0
1001
ACAD
1000
MTEXTBEGIN
1070
    73
1070
     1
1070
    44
1040
1.0
1070
    74
1070
     0
1000
MTEXTEND
  0
MTEXT
  5
ACF4
330
1A
100
AcDbEntity
  8
0
100
AcDbMText
 10
106.5999999999999
 20
124.4500001092222
 30
0.0
 40
2.5
 41
5.907407407407408
 71
     6
 72
     5
  1
{\fArial|b0|i0|c0|p32;8}
 73
     1
 44
1.0
1001
ACAD
1000
MTEXTBEGIN
1070
    73
1070
     1
1070
    44
1040
1.0
1070
    74
1070
     0
1000
MTEXTEND
  0
MTEXT
  5
ACF5
330
1A
100
AcDbEntity
  8
0
100
AcDbMText
 10
106.5999999999999
 20
154.9300001092223
 30
0.0
 40
2.5
 41
5.907407407407408
 71
     6
 72
     5
  1
{\fTahoma|b0|i0|c0|p34;4}
 73
     1
 44
1.0
1001
ACAD
1000
MTEXTBEGIN
1070
    73
1070
     1
1070
    44
1040
1.0
1070
    74
1070
     0
1000
MTEXTEND
  0
MTEXT
  5
ACF6
330
1A
100
AcDbEntity
  8
0
100
AcDbMText
 10
106.5999999999999
 20
162.5500001092223
 30
0.0
 40
2.5
 41
5.907407407407408
 71
     6
 72
     5
  1
{\fTahoma|b0|i0|c0|p34;3}
 73
     1
 44
1.0
1001
ACAD
1000
MTEXTBEGIN
1070
    73
1070
     1
1070
    44
1040
1.0
1070
    74
1070
     0
1000
MTEXTEND
  0
MTEXT
  5
ACF7
330
1A
100
AcDbEntity
  8
0
100
AcDbMText
 10
106.5999999999999
 20
177.7900001092224
 30
0.0
 40
2.5
 41
5.907407407407408
 71
     6
 72
     5
  1
{\fTahoma|b0|i0|c0|p34;1}
 73
     1
 44
1.0
1001
ACAD
1000
MTEXTBEGIN
1070
    73
1070
     1
1070
    44
1040
1.0
1070
    74
1070
     0
1000
MTEXTEND
  0
MTEXT
  5
ACF8
330
1A
100
AcDbEntity
  8
0
100
AcDbMText
 10
106.5999999999999
 20
170.1700001092224
 30
0.0
 40
2.5
 41
5.907407407407408
 71
     6
 72
     5
  1
{\fTahoma|b0|i0|c0|p34;2}
 73
     1
 44
1.0
1001
ACAD
1000
MTEXTBEGIN
1070
    73
1070
     1
1070
    44
1040
1.0
1070
    74
1070
     0
1000
MTEXTEND
  0
LINE
  5
ACF9
330
1A
100
AcDbEntity
  8
SUNPOU
100
AcDbLine
 10
134.1999999999999
 20
121.920937380452
 30
0.0
 11
134.1999999999999
 21
118.0790628379923
 31
0.0
  0
LINE
  5
ACFA
330
1A
100
AcDbEntity
  8
SUNPOU
100
AcDbLine
 10
134.2999999999999
 20
118.0000001092222
 30
0.0
 11
136.0999999999999
 21
118.0000001092222
 31
0.0
  0
LINE
  5
ACFB
330
1A
100
AcDbEntity
  8
SUNPOU
100
AcDbLine
 10
136.0999999999999
 20
118.0000001092222
 30
0.0
 11
136.0999999999999
 21
117.518065380024
 31
0.0
  0
LINE
  5
ACFC
330
1A
100
AcDbEntity
  8
SUNPOU
100
AcDbLine
 10
135.4999999999999
 20
121.1101802747809
 30
0.0
 11
135.4999999999999
 21
118.8898199436635
 31
0.0
  0
LINE
  5
ACFD
330
1A
100
AcDbEntity
  8
SUNPOU
100
AcDbLine
 10
136.0999999999999
 20
121.1101802747809
 30
0.0
 11
136.0999999999999
 21
118.8898199436635
 31
0.0
  0
CIRCLE
  5
ACFE
330
1A
100
AcDbEntity
  8
SUNPOU
100
AcDbCircle
 10
135.7999999999999
 20
120.0000001092222
 30
0.0
 40
1.149999999999999
  0
CIRCLE
  5
ACFF
330
1A
100
AcDbEntity
  8
SUNPOU
100
AcDbCircle
 10
135.7999999999999
 20
113.0000001092222
 30
0.0
 40
1.149999999999999
  0
LINE
  5
AD00
330
1A
100
AcDbEntity
  8
SUNPOU
100
AcDbLine
 10
136.0999999999999
 20
114.1101802747809
 30
0.0
 11
136.0999999999999
 21
111.8898199436635
 31
0.0
  0
LINE
  5
AD01
330
1A
100
AcDbEntity
  8
SUNPOU
100
AcDbLine
 10
135.4999999999999
 20
114.1101802747809
 30
0.0
 11
135.4999999999999
 21
111.8898199436635
 31
0.0
  0
LINE
  5
AD02
330
1A
100
AcDbEntity
  8
SUNPOU
100
AcDbLine
 10
136.0999999999999
 20
111.0000001092222
 30
0.0
 11
136.0999999999999
 21
110.518065380024
 31
0.0
  0
LINE
  5
AD03
330
1A
100
AcDbEntity
  8
SUNPOU
100
AcDbLine
 10
134.2999999999999
 20
111.0000001092222
 30
0.0
 11
136.1
 21
111.0000001092222
 31
0.0
  0
LINE
  5
AD04
330
1A
100
AcDbEntity
  8
SUNPOU
100
AcDbLine
 10
134.2
 20
114.9209373804521
 30
0.0
 11
134.1999999999999
 21
111.0790628379923
 31
0.0
  0
LINE
  5
AD05
330
1A
100
AcDbEntity
  8
SUNPOU
100
AcDbLine
 10
134.2
 20
148.920937380452
 30
0.0
 11
134.1999999999999
 21
145.0790628379923
 31
0.0
  0
LINE
  5
AD06
330
1A
100
AcDbEntity
  8
SUNPOU
100
AcDbLine
 10
134.2999999999999
 20
145.0000001092222
 30
0.0
 11
136.1
 21
145.0000001092222
 31
0.0
  0
LINE
  5
AD07
330
1A
100
AcDbEntity
  8
SUNPOU
100
AcDbLine
 10
136.0999999999999
 20
145.0000001092222
 30
0.0
 11
136.0999999999999
 21
144.518065380024
 31
0.0
  0
LINE
  5
AD08
330
1A
100
AcDbEntity
  8
SUNPOU
100
AcDbLine
 10
135.4999999999999
 20
148.1101802747809
 30
0.0
 11
135.4999999999999
 21
145.8898199436635
 31
0.0
  0
LINE
  5
AD09
330
1A
100
AcDbEntity
  8
SUNPOU
100
AcDbLine
 10
136.0999999999999
 20
148.1101802747809
 30
0.0
 11
136.0999999999999
 21
145.8898199436635
 31
0.0
  0
CIRCLE
  5
AD0A
330
1A
100
AcDbEntity
  8
SUNPOU
100
AcDbCircle
 10
135.7999999999999
 20
147.0000001092222
 30
0.0
 40
1.149999999999999
  0
CIRCLE
  5
AD0B
330
1A
100
AcDbEntity
  8
SUNPOU
100
AcDbCircle
 10
135.7999999999999
 20
154.0000001092222
 30
0.0
 40
1.149999999999999
  0
LINE
  5
AD0C
330
1A
100
AcDbEntity
  8
SUNPOU
100
AcDbLine
 10
136.0999999999999
 20
155.1101802747809
 30
0.0
 11
136.0999999999999
 21
152.8898199436635
 31
0.0
  0
LINE
  5
AD0D
330
1A
100
AcDbEntity
  8
SUNPOU
100
AcDbLine
 10
135.4999999999999
 20
155.1101802747809
 30
0.0
 11
135.4999999999999
 21
152.8898199436635
 31
0.0
  0
LINE
  5
AD0E
330
1A
100
AcDbEntity
  8
SUNPOU
100
AcDbLine
 10
136.0999999999999
 20
152.0000001092222
 30
0.0
 11
136.0999999999999
 21
151.518065380024
 31
0.0
  0
LINE
  5
AD0F
330
1A
100
AcDbEntity
  8
SUNPOU
100
AcDbLine
 10
134.2999999999999
 20
152.0000001092222
 30
0.0
 11
136.0999999999999
 21
152.0000001092222
 31
0.0
  0
LINE
  5
AD10
330
1A
100
AcDbEntity
  8
SUNPOU
100
AcDbLine
 10
134.1999999999999
 20
155.920937380452
 30
0.0
 11
134.1999999999999
 21
152.0790628379923
 31
0.0
  0
LINE
  5
AD11
330
1A
100
AcDbEntity
  8
0
100
AcDbLine
 10
143.2999999999998
 20
113.5600001092222
 30
0.0
 11
143.2999999999998
 21
112.0000001092222
 31
0.0
  0
LINE
  5
AD12
330
1A
100
AcDbEntity
  8
0
100
AcDbLine
 10
143.2999999999998
 20
112.0000001092222
 30
0.0
 11
139.2999999999998
 21
112.0000001092222
 31
0.0
  0
LINE
  5
AD13
330
1A
100
AcDbEntity
  8
0
100
AcDbLine
 10
143.2999999999998
 20
121.0000001092222
 30
0.0
 11
143.2999999999998
 21
119.4400001092222
 31
0.0
  0
LINE
  5
AD14
330
1A
100
AcDbEntity
  8
0
100
AcDbLine
 10
143.2999999999998
 20
121.0000001092222
 30
0.0
 11
139.2999999999999
 21
121.0000001092222
 31
0.0
  0
MTEXT
  5
AD15
330
1A
100
AcDbEntity
  8
0
100
AcDbMText
 10
138.25
 20
116.5000001092223
 30
0.0
 40
2.5
 41
9.9
 71
     4
 72
     5
  1
{\fTahoma|b0|i0|c0|p34;SPAN}
 73
     1
 44
1.0
1001
ACAD
1000
MTEXTBEGIN
1070
    73
1070
     1
1070
    44
1040
1.0
1070
    74
1070
     0
1000
MTEXTEND
  0
MTEXT
  5
AD16
330
1A
100
AcDbEntity
  8
0
100
AcDbMText
 10
132.2999999999999
 20
120.0000001092222
 30
0.0
 40
2.5
 41
3.066666666666666
 71
     6
 72
     5
  1
{\fTahoma|b0|i0|c0|p34;C}
 73
     1
 44
1.0
1001
ACAD
1000
MTEXTBEGIN
1070
    73
1070
     1
1070
    44
1040
1.0
1070
    74
1070
     0
1000
MTEXTEND
  0
MTEXT
  5
AD17
330
1A
100
AcDbEntity
  8
0
100
AcDbMText
 10
132.2999999999999
 20
113.0000001092222
 30
0.0
 40
2.5
 41
3.066666666666666
 71
     6
 72
     5
  1
{\fTahoma|b0|i0|c0|p34;F}
 73
     1
 44
1.0
1001
ACAD
1000
MTEXTBEGIN
1070
    73
1070
     1
1070
    44
1040
1.0
1070
    74
1070
     0
1000
MTEXTEND
  0
MTEXT
  5
AD18
330
1A
100
AcDbEntity
  8
0
100
AcDbMText
 10
132.2999999999999
 20
147.0000001092222
 30
0.0
 40
2.5
 41
3.066666666666666
 71
     6
 72
     5
  1
{\fTahoma|b0|i0|c0|p34;F}
 73
     1
 44
1.0
1001
ACAD
1000
MTEXTBEGIN
1070
    73
1070
     1
1070
    44
1040
1.0
1070
    74
1070
     0
1000
MTEXTEND
  0
MTEXT
  5
AD19
330
1A
100
AcDbEntity
  8
0
100
AcDbMText
 10
132.2999999999999
 20
154.0000001092222
 30
0.0
 40
2.5
 41
3.066666666666666
 71
     6
 72
     5
  1
{\fTahoma|b0|i0|c0|p34;C}
 73
     1
 44
1.0
1001
ACAD
1000
MTEXTBEGIN
1070
    73
1070
     1
1070
    44
1040
1.0
1070
    74
1070
     0
1000
MTEXTEND
  0
MTEXT
  5
AD1A
330
1A
100
AcDbEntity
  8
0
100
AcDbMText
 10
138.25
 20
150.5000001092223
 30
0.0
 40
2.5
 41
9.9
 71
     4
 72
     5
  1
{\fTahoma|b0|i0|c0|p34;ZERO}
 73
     1
 44
1.0
1001
ACAD
1000
MTEXTBEGIN
1070
    73
1070
     1
1070
    44
1040
1.0
1070
    74
1070
     0
1000
MTEXTEND
  0
LINE
  5
AD1B
330
1A
100
AcDbEntity
  8
0
100
AcDbLine
 10
143.2999999999999
 20
146.0000001092222
 30
0.0
 11
139.2999999999999
 21
146.0000001092222
 31
0.0
  0
LINE
  5
AD1C
330
1A
100
AcDbEntity
  8
0
100
AcDbLine
 10
143.2999999999999
 20
147.5600001092222
 30
0.0
 11
143.2999999999999
 21
146.0000001092222
 31
0.0
  0
LINE
  5
AD1D
330
1A
100
AcDbEntity
  8
0
100
AcDbLine
 10
143.2999999999999
 20
155.0000001092222
 30
0.0
 11
139.2999999999999
 21
155.0000001092222
 31
0.0
  0
LINE
  5
AD1E
330
1A
100
AcDbEntity
  8
0
100
AcDbLine
 10
143.2999999999999
 20
155.0000001092222
 30
0.0
 11
143.2999999999999
 21
153.4400001092222
 31
0.0
  0
MTEXT
  5
AD1F
330
1A
100
AcDbEntity
  8
0
100
AcDbMText
 10
140.75
 20
183.5000001092223
 30
0.0
 40
2.5
 41
5.907407407407408
 71
     4
 72
     5
  1
{\fTahoma|b0|i0|c0|p34;ON}
 73
     1
 44
1.0
1001
ACAD
1000
MTEXTBEGIN
1070
    73
1070
     1
1070
    44
1040
1.0
1070
    74
1070
     0
1000
MTEXTEND
  0
MTEXT
  5
AD20
330
1A
100
AcDbEntity
  8
0
 62
   252
100
AcDbMText
 10
144.5
 20
190.5000001092222
 30
0.0
 40
3.0
 41
50.52000000000006
 71
     3
 72
     5
  1
{\fTahoma|b0|i0|c0|p34;\C7;LA-1024A}
 73
     1
 44
1.0
1001
ACAD
1000
MTEXTBEGIN
1070
    73
1070
     1
1070
    44
1040
1.0
1070
    74
1070
     0
1000
MTEXTEND
  0
CIRCLE
  5
AD21
330
1A
100
AcDbEntity
  8
SUNPOU
100
AcDbCircle
 10
113.6
 20
187.0050001092222
 30
0.0
 40
1.5
  0
MTEXT
  5
AD22
330
1A
100
AcDbEntity
  8
0
100
AcDbMText
 10
110.6
 20
187.0050001092222
 30
0.0
 40
2.5
 41
5.907407407407408
 71
     6
 72
     5
  1
{\fTahoma|b0|i0|c0|p34;PW}
 73
     1
 44
1.0
1001
ACAD
1000
MTEXTBEGIN
1070
    73
1070
     1
1070
    44
1040
1.0
1070
    74
1070
     0
1000
MTEXTEND
  0
CIRCLE
  5
AD23
330
1A
100
AcDbEntity
  8
0
100
AcDbCircle
 10
137.4999999999999
 20
183.5000001092223
 30
0.0
 40
1.25
  0
CIRCLE
  5
AD24
330
1A
100
AcDbEntity
  8
0
100
AcDbCircle
 10
137.5
 20
183.5000001092223
 30
0.0
 40
2.25
  0
LINE
  5
AD25
330
1A
100
AcDbEntity
  8
0
100
AcDbLine
 10
140.5999999999999
 20
158.5000001092223
 30
0.0
 11
130.5999999999999
 21
158.5000001092223
 31
0.0
  0
LINE
  5
AD26
330
1A
100
AcDbEntity
  8
0
100
AcDbLine
 10
130.5999999999999
 20
178.5000001092223
 30
0.0
 11
140.5999999999999
 21
178.5000001092223
 31
0.0
  0
LINE
  5
AD27
330
1A
100
AcDbEntity
  8
0
100
AcDbLine
 10
140.5999999999999
 20
178.5000001092223
 30
0.0
 11
140.5999999999999
 21
158.5000001092223
 31
0.0
  0
LINE
  5
AD28
330
1A
100
AcDbEntity
  8
0
100
AcDbLine
 10
130.5999999999999
 20
158.5000001092223
 30
0.0
 11
130.5999999999999
 21
178.5000001092223
 31
0.0
  0
CIRCLE
  5
AD29
330
1A
100
AcDbEntity
  8
0
100
AcDbCircle
 10
135.7999999999999
 20
120.0000001092222
 30
0.0
 40
2.5
  0
CIRCLE
  5
AD2A
330
1A
100
AcDbEntity
  8
0
100
AcDbCircle
 10
135.7999999999999
 20
113.0000001092222
 30
0.0
 40
2.5
  0
CIRCLE
  5
AD2B
330
1A
100
AcDbEntity
  8
0
100
AcDbCircle
 10
135.7999999999999
 20
147.0000001092222
 30
0.0
 40
2.5
  0
CIRCLE
  5
AD2C
330
1A
100
AcDbEntity
  8
0
100
AcDbCircle
 10
135.7999999999999
 20
154.0000001092222
 30
0.0
 40
2.5
  0
INSERT
  5
AD2D
330
1A
100
AcDbEntity
  8
SUNPOU
100
AcDbBlockReference
  2
A$C1A9113A3
 10
140.5999998541152
 20
168.50000036924
 30
0.0
 50
180.0
  0
INSERT
  5
AD2E
330
1A
100
AcDbEntity
  8
SUNPOU
100
AcDbBlockReference
  2
A$C1A9113A3
 10
140.5999998541152
 20
178.50000036924
 30
0.0
 50
180.0
  0
LINE
  5
AD2F
330
1A
100
AcDbEntity
  8
0
100
AcDbLine
 10
120.5999999999999
 20
183.6900001092224
 30
0.0
 11
107.5999999999999
 21
183.6900001092224
 31
0.0
  0
LINE
  5
AD30
330
1A
100
AcDbEntity
  8
0
100
AcDbLine
 10
107.5999999999999
 20
183.6900001092224
 30
0.0
 11
107.5999999999999
 21
103.3100001092221
 31
0.0
  0
LINE
  5
AD31
330
1A
100
AcDbEntity
  8
0
100
AcDbLine
 10
120.5999999999999
 20
103.3100001092221
 30
0.0
 11
107.5999999999999
 21
103.3100001092221
 31
0.0
  0
INSERT
  5
AD32
330
1A
100
AcDbEntity
  8
PARTS
100
AcDbBlockReference
  2
F2361AX-10P-1
 10
108.1
 20
143.5000001092222
 30
0.0
  0
LINE
  5
AD33
330
1A
100
AcDbEntity
  8
0
100
AcDbLine
 10
120.5999999999999
 20
183.6900001092224
 30
0.0
 11
120.5999999999999
 21
103.3100001092221
 31
0.0
  0
CIRCLE
  5
AD34
330
1A
100
AcDbEntity
  8
0
100
AcDbCircle
 10
125.0
 20
94.50000010922222
 30
0.0
 40
2.0
  0
CIRCLE
  5
AD35
330
1A
100
AcDbEntity
  8
0
100
AcDbCircle
 10
125.0
 20
197.5000001092223
 30
0.0
 40
2.0
  0
LINE
  5
AD36
330
1A
100
AcDbEntity
  8
0
100
AcDbLine
 10
102.4999999999999
 20
92.00000010922227
 30
0.0
 11
103.4999999999999
 21
91.00000010922228
 31
0.0
  0
LINE
  5
AD37
330
1A
100
AcDbEntity
  8
0
100
AcDbLine
 10
147.5
 20
92.00000010922227
 30
0.0
 11
146.5
 21
91.00000010922228
 31
0.0
  0
LINE
  5
AD38
330
1A
100
AcDbEntity
  8
0
100
AcDbLine
 10
146.5
 20
201.0000001092223
 30
0.0
 11
147.5
 21
200.0000001092223
 31
0.0
  0
LINE
  5
AD39
330
1A
100
AcDbEntity
  8
0
100
AcDbLine
 10
102.5
 20
200.0000001092223
 30
0.0
 11
103.5
 21
201.0000001092223
 31
0.0
  0
LINE
  5
AD3A
330
1A
100
AcDbEntity
  8
0
100
AcDbLine
 10
147.5
 20
92.00000010922227
 30
0.0
 11
147.5
 21
200.0000001092223
 31
0.0
  0
LINE
  5
AD3B
330
1A
100
AcDbEntity
  8
0
100
AcDbLine
 10
102.4999999999999
 20
92.00000010922227
 30
0.0
 11
102.5
 21
200.0000001092223
 31
0.0
  0
LINE
  5
AD3C
330
1A
100
AcDbEntity
  8
0
100
AcDbLine
 10
146.5
 20
91.00000010922228
 30
0.0
 11
103.4999999999999
 21
91.00000010922228
 31
0.0
  0
LINE
  5
AD3D
330
1A
100
AcDbEntity
  8
0
100
AcDbLine
 10
146.5
 20
201.0000001092223
 30
0.0
 11
103.5
 21
201.0000001092223
 31
0.0
  0
ARC
  5
AD3E
330
1A
100
AcDbEntity
  8
0
100
AcDbCircle
 10
103.3
 20
100.3000001092223
 30
0.0
 40
0.8
100
AcDbArc
 50
180.0
 51
270.0
  0
ARC
  5
AD3F
330
1A
100
AcDbEntity
  8
0
100
AcDbCircle
 10
146.7
 20
100.3000001092223
 30
0.0
 40
0.8
100
AcDbArc
 50
270.0
 51
0.0
  0
ARC
  5
AD40
330
1A
100
AcDbEntity
  8
0
100
AcDbCircle
 10
146.7
 20
191.7000001092222
 30
0.0
 40
0.8
100
AcDbArc
 50
0.0
 51
90.0
  0
ARC
  5
AD41
330
1A
100
AcDbEntity
  8
0
100
AcDbCircle
 10
103.2999999999999
 20
191.7000001092222
 30
0.0
 40
0.8
100
AcDbArc
 50
90.0
 51
180.0
  0
LINE
  5
AD42
330
1A
100
AcDbEntity
  8
0
100
AcDbLine
 10
146.7
 20
192.5000001092222
 30
0.0
 11
103.2999999999999
 21
192.5000001092221
 31
0.0
  0
LINE
  5
AD43
330
1A
100
AcDbEntity
  8
0
100
AcDbLine
 10
147.5
 20
191.7000001092222
 30
0.0
 11
147.5
 21
100.3000001092223
 31
0.0
  0
LINE
  5
AD44
330
1A
100
AcDbEntity
  8
0
100
AcDbLine
 10
102.5
 20
100.3000001092223
 30
0.0
 11
102.5
 21
191.7000001092222
 31
0.0
  0
LINE
  5
AD45
330
1A
100
AcDbEntity
  8
0
100
AcDbLine
 10
103.3
 20
99.50000010922233
 30
0.0
 11
146.7
 21
99.50000010922233
 31
0.0
  0
INSERT
  5
AD46
330
1A
100
AcDbEntity
  8
0
100
AcDbBlockReference
  2
A$C34EE125E
 10
121.0000001469811
 20
192.5000005817244
 30
0.0
 41
-1.0
 50
270.0
  0
INSERT
  5
AD47
330
1A
100
AcDbEntity
  8
0
100
AcDbBlockReference
  2
A$C34EE125E
 10
121.0000001469811
 20
99.49999963672016
 30
0.0
 50
270.0
  0
LINE
  5
ADDF
102
{ACAD_REACTORS
330
ADE1
102
}
330
1A
100
AcDbEntity
  8
0
100
AcDbLine
 10
276.4
 20
140.0
 30
0.0
 11
299.9
 21
140.0
 31
0.0
  0
LINE
  5
ADE0
102
{ACAD_REACTORS
330
ADE1
102
}
330
1A
100
AcDbEntity
  8
0
100
AcDbLine
 10
299.9
 20
145.0
 30
0.0
 11
276.4
 21
145.0
 31
0.0
  0
HATCH
  5
ADE1
330
1A
100
AcDbEntity
  8
0
100
AcDbHatch
 10
0.0
 20
0.0
 30
0.0
210
0.0
220
0.0
230
1.0
  2
SOLID
 70
     1
 71
     1
 91
        1
 92
        7
 72
     0
 73
     1
 93
        4
 10
276.4
 20
145.0
 10
276.4
 20
140.0
 10
299.9
 20
140.0
 10
299.9
 20
145.0
 97
        4
330
ADE0
330
AE4C
330
ADDF
330
AE70
 75
     0
 76
     1
 47
0.089586599651223
 98
        1
 10
286.15
 20
143.5
  0
MTEXT
  5
ADE2
330
1A
100
AcDbEntity
  8
0
100
AcDbMText
 10
274.9
 20
126.2500000000001
 30
0.0
 40
2.0
 41
5.742222222222222
 71
     4
 72
     5
  1
{\fTahoma|b0|i0|c0|p34;2.5V}
 73
     1
 44
1.0
1001
ACAD
1000
MTEXTBEGIN
1070
    73
1070
     1
1070
    44
1040
1.0
1070
    74
1070
     0
1000
MTEXTEND
  0
MTEXT
  5
ADE3
330
1A
100
AcDbEntity
  8
0
100
AcDbMText
 10
274.9
 20
122.25
 30
0.0
 40
2.0
 41
3.084444444444444
 71
     4
 72
     5
  1
{\fTahoma|b0|i0|c0|p34;10}
 73
     1
 44
1.0
1001
ACAD
1000
MTEXTBEGIN
1070
    73
1070
     1
1070
    44
1040
1.0
1070
    74
1070
     0
1000
MTEXTEND
  0
MTEXT
  5
ADE4
330
1A
100
AcDbEntity
  8
0
100
AcDbMText
 10
274.9
 20
118.25
 30
0.0
 40
2.0
 41
5.217777777777778
 71
     4
 72
     5
  1
{\fTahoma|b0|i0|c0|p34;500}
 73
     1
 44
1.0
1001
ACAD
1000
MTEXTBEGIN
1070
    73
1070
     1
1070
    44
1040
1.0
1070
    74
1070
     0
1000
MTEXTEND
  0
MTEXT
  5
ADE5
330
1A
100
AcDbEntity
  8
0
100
AcDbMText
 10
276.4
 20
136.25
 30
0.0
 40
2.5
 41
19.99999999999999
 71
     4
 72
     5
  1
{\fTahoma|b0|i0|c0|p34;-2:V-out}
 73
     1
 44
1.0
1001
ACAD
1000
MTEXTBEGIN
1070
    73
1070
     1
1070
    44
1040
1.0
1070
    74
1070
     0
1000
MTEXTEND
  0
LINE
  5
ADE6
330
1A
100
AcDbEntity
  8
0
100
AcDbLine
 10
243.9
 20
116.25
 30
0.0
 11
299.9
 21
116.2500000000001
 31
0.0
  0
LINE
  5
ADE7
330
1A
100
AcDbEntity
  8
0
100
AcDbLine
 10
243.9
 20
124.25
 30
0.0
 11
299.9
 21
124.2500000000001
 31
0.0
  0
LINE
  5
ADE8
330
1A
100
AcDbEntity
  8
0
100
AcDbLine
 10
252.9
 20
120.25
 30
0.0
 11
299.9
 21
120.2500000000001
 31
0.0
  0
LINE
  5
ADE9
102
{ACAD_REACTORS
330
ADED
102
}
330
1A
100
AcDbEntity
  8
0
100
AcDbLine
 10
253.9
 20
128.75
 30
0.0
 11
278.9
 21
128.75
 31
0.0
  0
LINE
  5
ADEA
330
1A
100
AcDbEntity
  8
0
100
AcDbLine
 10
243.9
 20
128.2500000000001
 30
0.0
 11
299.9
 21
128.2499999999999
 31
0.0
  0
LINE
  5
ADEB
102
{ACAD_REACTORS
330
ADED
102
}
330
1A
100
AcDbEntity
  8
0
100
AcDbLine
 10
278.9
 20
132.75
 30
0.0
 11
253.9
 21
132.75
 31
0.0
  0
LINE
  5
ADEC
330
1A
100
AcDbEntity
  8
0
100
AcDbLine
 10
243.9
 20
133.2500000000001
 30
0.0
 11
299.9
 21
133.25
 31
0.0
  0
HATCH
  5
ADED
330
1A
100
AcDbEntity
  8
0
100
AcDbHatch
 10
0.0
 20
0.0
 30
0.0
210
0.0
220
0.0
230
1.0
  2
SOLID
 70
     1
 71
     1
 91
        1
 92
        7
 72
     0
 73
     1
 93
        4
 10
253.9
 20
132.75
 10
253.9
 20
128.75
 10
278.9
 20
128.75
 10
278.9
 20
132.75
 97
        4
330
ADEB
330
ADF4
330
ADE9
330
AE56
 75
     0
 76
     1
 47
0.1707774271980734
 98
        1
 10
255.65
 20
131.5
  0
LINE
  5
ADEE
330
1A
100
AcDbEntity
  8
0
100
AcDbLine
 10
243.9
 20
112.2500000000001
 30
0.0
 11
299.9
 21
112.2500000000001
 31
0.0
  0
HATCH
  5
ADEF
330
1A
100
AcDbEntity
  8
0
100
AcDbHatch
 10
0.0
 20
0.0
 30
0.0
210
0.0
220
0.0
230
1.0
  2
SOLID
 70
     1
 71
     1
 91
        2
 92
       16
 93
        4
 72
     1
 10
242.9
 20
146.0
 11
300.9
 21
146.0
 72
     1
 10
300.9
 20
146.0
 11
300.9
 21
108.0
 72
     1
 10
300.9
 20
108.0
 11
242.9
 21
108.0
 72
     1
 10
242.9
 20
108.0
 11
242.9
 21
146.0
 97
        4
330
ADF1
330
AE59
330
ADF0
330
ADF8
 92
        1
 93
        4
 72
     1
 10
301.9
 20
147.0
 11
241.9
 21
147.0
 72
     1
 10
241.9
 20
147.0
 11
241.9
 21
107.0
 72
     1
 10
241.9
 20
107.0
 11
301.9
 21
107.0
 72
     1
 10
301.9
 20
107.0
 11
301.9
 21
147.0
 97
        4
330
ADF3
330
ADF9
330
ADF2
330
AE5A
 75
     0
 76
     1
 98
        1
 10
0.9000000000000056
 20
-88.0
  0
LINE
  5
ADF0
102
{ACAD_REACTORS
330
ADEF
102
}
330
1A
100
AcDbEntity
  8
0
100
AcDbLine
 10
242.9
 20
108.0
 30
0.0
 11
300.9
 21
108.0
 31
0.0
  0
LINE
  5
ADF1
102
{ACAD_REACTORS
330
ADEF
102
}
330
1A
100
AcDbEntity
  8
0
100
AcDbLine
 10
242.9
 20
146.0
 30
0.0
 11
300.9
 21
146.0
 31
0.0
  0
LINE
  5
ADF2
102
{ACAD_REACTORS
330
ADEF
102
}
330
1A
100
AcDbEntity
  8
0
100
AcDbLine
 10
301.9
 20
107.0
 30
0.0
 11
241.9
 21
107.0
 31
0.0
  0
LINE
  5
ADF3
102
{ACAD_REACTORS
330
ADEF
102
}
330
1A
100
AcDbEntity
  8
0
100
AcDbLine
 10
301.9
 20
147.0
 30
0.0
 11
241.9
 21
147.0
 31
0.0
  0
LINE
  5
ADF4
102
{ACAD_REACTORS
330
ADED
102
}
330
1A
100
AcDbEntity
  8
0
100
AcDbLine
 10
253.9
 20
132.75
 30
0.0
 11
253.9
 21
128.75
 31
0.0
  0
MTEXT
  5
ADF5
330
1A
100
AcDbEntity
  8
0
100
AcDbMText
 10
244.9
 20
130.7500000000001
 30
0.0
 40
2.0
 41
8.999999999999992
 71
     4
 72
     5
  1
{\fTahoma|b0|i0|c0|p34;\H0.9x;CHECK}
 73
     1
 44
1.0
1001
ACAD
1000
MTEXTBEGIN
1070
    73
1070
     1
1070
    44
1040
1.0
1070
    74
1070
     0
1000
MTEXTEND
  0
LINE
  5
ADF6
330
1A
100
AcDbEntity
  8
0
100
AcDbLine
 10
243.9
 20
112.2500000000001
 30
0.0
 11
243.9
 21
133.2500000000001
 31
0.0
  0
LINE
  5
ADF7
330
1A
100
AcDbEntity
  8
0
100
AcDbLine
 10
252.9
 20
112.2500000000001
 30
0.0
 11
252.9
 21
133.2500000000001
 31
0.0
  0
LINE
  5
ADF8
102
{ACAD_REACTORS
330
ADEF
102
}
330
1A
100
AcDbEntity
  8
0
100
AcDbLine
 10
242.9
 20
146.0
 30
0.0
 11
242.9
 21
108.0
 31
0.0
  0
LINE
  5
ADF9
102
{ACAD_REACTORS
330
ADEF
102
}
330
1A
100
AcDbEntity
  8
0
100
AcDbLine
 10
241.9
 20
147.0
 30
0.0
 11
241.9
 21
107.0
 31
0.0
  0
MTEXT
  5
ADFA
330
1A
100
AcDbEntity
  8
0
100
AcDbMText
 10
256.9
 20
118.25
 30
0.0
 40
2.0
 41
5.217777777777778
 71
     4
 72
     5
  1
{\fTahoma|b0|i0|c0|p34;100}
 73
     1
 44
1.0
1001
ACAD
1000
MTEXTBEGIN
1070
    73
1070
     1
1070
    44
1040
1.0
1070
    74
1070
     0
1000
MTEXTEND
  0
MTEXT
  5
ADFB
330
1A
100
AcDbEntity
  8
0
100
AcDbMText
 10
256.9
 20
126.2500000000001
 30
0.0
 40
2.0
 41
5.208888888888888
 71
     4
 72
     5
  1
{\fTahoma|b0|i0|c0|p34;10V}
 73
     1
 44
1.0
1001
ACAD
1000
MTEXTBEGIN
1070
    73
1070
     1
1070
    44
1040
1.0
1070
    74
1070
     0
1000
MTEXTEND
  0
MTEXT
  5
ADFC
330
1A
100
AcDbEntity
  8
0
100
AcDbMText
 10
244.9
 20
108.5
 30
0.0
 40
2.0
 41
20.02888888888889
 71
     7
 72
     5
  1
{\fTahoma|b0|i0|c0|p34;Made in Japan}
 73
     1
 44
1.0
1001
ACAD
1000
MTEXTBEGIN
1070
    73
1070
     1
1070
    44
1040
1.0
1070
    74
1070
     0
1000
MTEXTEND
  0
MTEXT
  5
ADFD
330
1A
100
AcDbEntity
  8
0
100
AcDbMText
 10
253.9
 20
114.25
 30
0.0
 40
2.0
 41
8.999999999999992
 71
     4
 72
     5
  1
{\fTahoma|b0|i0|c0|p34;20-27V}
 73
     1
 44
1.0
1001
ACAD
1000
MTEXTBEGIN
1070
    73
1070
     1
1070
    44
1040
1.0
1070
    74
1070
     0
1000
MTEXTEND
  0
LINE
  5
ADFE
102
{ACAD_REACTORS
330
AE00
102
}
330
1A
100
AcDbEntity
  8
0
100
AcDbLine
 10
253.9
 20
119.75
 30
0.0
 11
253.9
 21
116.75
 31
0.0
  0
LINE
  5
ADFF
102
{ACAD_REACTORS
330
AE00
102
}
330
1A
100
AcDbEntity
  8
0
100
AcDbLine
 10
256.4
 20
116.75
 30
0.0
 11
256.4
 21
119.75
 31
0.0
  0
HATCH
  5
AE00
330
1A
100
AcDbEntity
  8
0
100
AcDbHatch
 10
0.0
 20
0.0
 30
0.0
210
0.0
220
0.0
230
1.0
  2
SOLID
 70
     1
 71
     1
 91
        1
 92
        7
 72
     0
 73
     1
 93
        4
 10
256.4
 20
119.75
 10
253.9000000000001
 20
119.75
 10
253.9
 20
116.75
 10
256.4
 20
116.75
 97
        4
330
AE0A
330
ADFE
330
AE03
330
ADFF
 75
     0
 76
     1
 47
0.1707774271980734
 98
        1
 10
255.65
 20
118.5
  0
MTEXT
  5
AE01
330
1A
100
AcDbEntity
  8
0
100
AcDbMText
 10
244.9
 20
118.25
 30
0.0
 40
2.0
 41
8.999999999999992
 71
     4
 72
     5
  1
{\fTahoma|b0|i0|c0|p34;( Hz )}
 73
     1
 44
1.0
1001
ACAD
1000
MTEXTBEGIN
1070
    73
1070
     1
1070
    44
1040
1.0
1070
    74
1070
     0
1000
MTEXTEND
  0
MTEXT
  5
AE02
330
1A
100
AcDbEntity
  8
0
100
AcDbMText
 10
244.9
 20
114.25
 30
0.0
 40
2.0
 41
8.999999999999992
 71
     4
 72
     5
  1
{\fTahoma|b0|i0|c0|p34;Power}
 73
     1
 44
1.0
1001
ACAD
1000
MTEXTBEGIN
1070
    73
1070
     1
1070
    44
1040
1.0
1070
    74
1070
     0
1000
MTEXTEND
  0
LINE
  5
AE03
102
{ACAD_REACTORS
330
AE00
102
}
330
1A
100
AcDbEntity
  8
0
100
AcDbLine
 10
253.9
 20
116.75
 30
0.0
 11
256.4
 21
116.75
 31
0.0
  0
MTEXT
  5
AE04
330
1A
100
AcDbEntity
  8
0
100
AcDbMText
 10
244.9
 20
122.25
 30
0.0
 40
2.0
 41
8.999999999999992
 71
     4
 72
     5
  1
{\fTahoma|b0|i0|c0|p34;Filter}
 73
     1
 44
1.0
1001
ACAD
1000
MTEXTBEGIN
1070
    73
1070
     1
1070
    44
1040
1.0
1070
    74
1070
     0
1000
MTEXTEND
  0
MTEXT
  5
AE05
330
1A
100
AcDbEntity
  8
0
100
AcDbMText
 10
244.9
 20
126.2500000000001
 30
0.0
 40
2.0
 41
8.999999999999992
 71
     4
 72
     5
  1
{\fTahoma|b0|i0|c0|p34;EXC}
 73
     1
 44
1.0
1001
ACAD
1000
MTEXTBEGIN
1070
    73
1070
     1
1070
    44
1040
1.0
1070
    74
1070
     0
1000
MTEXTEND
  0
HATCH
  5
AE06
330
1A
100
AcDbEntity
  8
0
100
AcDbHatch
 10
0.0
 20
0.0
 30
0.0
210
0.0
220
0.0
230
1.0
  2
SOLID
 70
     1
 71
     1
 91
        1
 92
        7
 72
     0
 73
     1
 93
        4
 10
256.4
 20
123.75
 10
253.9000000000001
 20
123.75
 10
253.9000000000001
 20
120.75
 10
256.4
 20
120.75
 97
        4
330
AE0F
330
AE08
330
AE0B
330
AE07
 75
     0
 76
     1
 47
0.1707774271980734
 98
        1
 10
255.65
 20
122.5
  0
LINE
  5
AE07
102
{ACAD_REACTORS
330
AE06
102
}
330
1A
100
AcDbEntity
  8
0
100
AcDbLine
 10
256.4
 20
120.75
 30
0.0
 11
256.4
 21
123.75
 31
0.0
  0
LINE
  5
AE08
102
{ACAD_REACTORS
330
AE06
102
}
330
1A
100
AcDbEntity
  8
0
100
AcDbLine
 10
253.9
 20
123.75
 30
0.0
 11
253.9
 21
120.75
 31
0.0
  0
MTEXT
  5
AE09
330
1A
100
AcDbEntity
  8
0
100
AcDbMText
 10
256.9
 20
122.25
 30
0.0
 40
2.0
 41
3.084444444444444
 71
     4
 72
     5
  1
{\fTahoma|b0|i0|c0|p34;2}
 73
     1
 44
1.0
1001
ACAD
1000
MTEXTBEGIN
1070
    73
1070
     1
1070
    44
1040
1.0
1070
    74
1070
     0
1000
MTEXTEND
  0
LINE
  5
AE0A
102
{ACAD_REACTORS
330
AE00
102
}
330
1A
100
AcDbEntity
  8
0
100
AcDbLine
 10
256.4
 20
119.75
 30
0.0
 11
253.9
 21
119.75
 31
0.0
  0
LINE
  5
AE0B
102
{ACAD_REACTORS
330
AE06
102
}
330
1A
100
AcDbEntity
  8
0
100
AcDbLine
 10
253.9
 20
120.75
 30
0.0
 11
256.4
 21
120.75
 31
0.0
  0
LINE
  5
AE0C
102
{ACAD_REACTORS
330
AE0E
102
}
330
1A
100
AcDbEntity
  8
0
100
AcDbLine
 10
256.4
 20
127.75
 30
0.0
 11
253.9
 21
127.75
 31
0.0
  0
LINE
  5
AE0D
102
{ACAD_REACTORS
330
AE0E
102
}
330
1A
100
AcDbEntity
  8
0
100
AcDbLine
 10
253.9
 20
124.75
 30
0.0
 11
256.4
 21
124.75
 31
0.0
  0
HATCH
  5
AE0E
330
1A
100
AcDbEntity
  8
0
100
AcDbHatch
 10
0.0
 20
0.0
 30
0.0
210
0.0
220
0.0
230
1.0
  2
SOLID
 70
     1
 71
     1
 91
        1
 92
        7
 72
     0
 73
     1
 93
        4
 10
256.4
 20
127.75
 10
253.9000000000001
 20
127.75
 10
253.9
 20
124.75
 10
256.4
 20
124.75
 97
        4
330
AE0C
330
AE10
330
AE0D
330
AE11
 75
     0
 76
     1
 47
0.1707774271980734
 98
        1
 10
255.65
 20
126.5
  0
LINE
  5
AE0F
102
{ACAD_REACTORS
330
AE06
102
}
330
1A
100
AcDbEntity
  8
0
100
AcDbLine
 10
256.4
 20
123.75
 30
0.0
 11
253.9
 21
123.75
 31
0.0
  0
LINE
  5
AE10
102
{ACAD_REACTORS
330
AE0E
102
}
330
1A
100
AcDbEntity
  8
0
100
AcDbLine
 10
253.9
 20
127.75
 30
0.0
 11
253.9
 21
124.75
 31
0.0
  0
LINE
  5
AE11
102
{ACAD_REACTORS
330
AE0E
102
}
330
1A
100
AcDbEntity
  8
0
100
AcDbLine
 10
256.4
 20
124.75
 30
0.0
 11
256.4
 21
127.75
 31
0.0
  0
LINE
  5
AE12
102
{ACAD_REACTORS
330
AE18
102
}
330
1A
100
AcDbEntity
  8
0
100
AcDbLine
 10
274.4
 20
116.75
 30
0.0
 11
274.4
 21
119.75
 31
0.0
  0
MTEXT
  5
AE13
330
1A
100
AcDbEntity
  8
0
100
AcDbMText
 10
265.9
 20
118.25
 30
0.0
 40
2.0
 41
5.217777777777778
 71
     4
 72
     5
  1
{\fTahoma|b0|i0|c0|p34;200}
 73
     1
 44
1.0
1001
ACAD
1000
MTEXTBEGIN
1070
    73
1070
     1
1070
    44
1040
1.0
1070
    74
1070
     0
1000
MTEXTEND
  0
LINE
  5
AE14
102
{ACAD_REACTORS
330
AE17
102
}
330
1A
100
AcDbEntity
  8
0
100
AcDbLine
 10
265.4
 20
116.75
 30
0.0
 11
265.4
 21
119.75
 31
0.0
  0
LINE
  5
AE15
102
{ACAD_REACTORS
330
AE18
102
}
330
1A
100
AcDbEntity
  8
0
100
AcDbLine
 10
271.9
 20
119.75
 30
0.0
 11
271.9
 21
116.75
 31
0.0
  0
LINE
  5
AE16
102
{ACAD_REACTORS
330
AE17
102
}
330
1A
100
AcDbEntity
  8
0
100
AcDbLine
 10
262.9
 20
119.75
 30
0.0
 11
262.9
 21
116.75
 31
0.0
  0
HATCH
  5
AE17
330
1A
100
AcDbEntity
  8
0
100
AcDbHatch
 10
0.0
 20
0.0
 30
0.0
210
0.0
220
0.0
230
1.0
  2
SOLID
 70
     1
 71
     1
 91
        1
 92
        7
 72
     0
 73
     1
 93
        4
 10
265.4
 20
119.75
 10
262.9
 20
119.75
 10
262.9
 20
116.75
 10
265.4
 20
116.75
 97
        4
330
AE32
330
AE16
330
AE1F
330
AE14
 75
     0
 76
     1
 47
0.1707774271980734
 98
        1
 10
264.65
 20
118.5
  0
HATCH
  5
AE18
330
1A
100
AcDbEntity
  8
0
100
AcDbHatch
 10
0.0
 20
0.0
 30
0.0
210
0.0
220
0.0
230
1.0
  2
SOLID
 70
     1
 71
     1
 91
        1
 92
        7
 72
     0
 73
     1
 93
        4
 10
274.4
 20
119.75
 10
271.9
 20
119.75
 10
271.9
 20
116.75
 10
274.4
 20
116.75
 97
        4
330
AE3E
330
AE15
330
AE2C
330
AE12
 75
     0
 76
     1
 47
0.1707774271980734
 98
        1
 10
273.65
 20
118.5
  0
MTEXT
  5
AE19
330
1A
100
AcDbEntity
  8
0
100
AcDbMText
 10
268.4
 20
114.25
 30
0.0
 40
2.0
 41
8.999999999999992
 71
     4
 72
     5
  1
{\fTahoma|b0|i0|c0|p34;0.5A}
 73
     1
 44
1.0
1001
ACAD
1000
MTEXTBEGIN
1070
    73
1070
     1
1070
    44
1040
1.0
1070
    74
1070
     0
1000
MTEXTEND
  0
LINE
  5
AE1A
102
{ACAD_REACTORS
330
AE1E
102
}
330
1A
100
AcDbEntity
  8
0
100
AcDbLine
 10
263.9
 20
113.91
 30
0.0
 11
264.6
 21
113.91
 31
0.0
  0
LINE
  5
AE1B
102
{ACAD_REACTORS
330
AE1E
102
}
330
1A
100
AcDbEntity
  8
0
100
AcDbLine
 10
263.9
 20
114.0
 30
0.0
 11
264.6
 21
114.0
 31
0.0
  0
LINE
  5
AE1C
102
{ACAD_REACTORS
330
AE1E
102
}
330
1A
100
AcDbEntity
  8
0
100
AcDbLine
 10
263.9
 20
114.66
 30
0.0
 11
266.9
 21
114.66
 31
0.0
  0
LINE
  5
AE1D
102
{ACAD_REACTORS
330
AE1E
102
}
330
1A
100
AcDbEntity
  8
0
100
AcDbLine
 10
263.9
 20
114.75
 30
0.0
 11
266.9
 21
114.75
 31
0.0
  0
HATCH
  5
AE1E
330
1A
100
AcDbEntity
  8
0
100
AcDbHatch
 10
0.0
 20
0.0
 30
0.0
210
0.0
220
0.0
230
1.0
  2
SOLID
 70
     1
 71
     1
 91
        4
 92
        1
 93
        4
 72
     1
 10
266.9
 20
114.0
 11
266.9
 21
113.91
 72
     1
 10
266.9
 20
113.91
 11
266.2
 21
113.91
 72
     1
 10
266.2
 20
113.91
 11
266.2
 21
114.0
 72
     1
 10
266.2
 20
114.0
 11
266.9
 21
114.0
 97
        4
330
AE26
330
AE23
330
AE25
330
AE24
 92
        1
 93
        4
 72
     1
 10
264.6
 20
114.0
 11
264.6
 21
113.91
 72
     1
 10
264.6
 20
113.91
 11
263.9
 21
113.91
 72
     1
 10
263.9
 20
113.91
 11
263.9
 21
114.0
 72
     1
 10
263.9
 20
114.0
 11
264.6
 21
114.0
 97
        4
330
AE28
330
AE1A
330
AE21
330
AE1B
 92
        1
 93
        4
 72
     1
 10
265.75
 20
114.0
 11
265.75
 21
113.91
 72
     1
 10
265.75
 20
113.91
 11
265.05
 21
113.91
 72
     1
 10
265.05
 20
113.91
 11
265.05
 21
114.0
 72
     1
 10
265.05
 20
114.0
 11
265.75
 21
114.0
 97
        4
330
AE27
330
AE2A
330
AE29
330
AE2B
 92
        1
 93
        4
 72
     1
 10
266.9
 20
114.75
 11
266.9
 21
114.66
 72
     1
 10
266.9
 20
114.66
 11
263.9
 21
114.66
 72
     1
 10
263.9
 20
114.66
 11
263.9
 21
114.75
 72
     1
 10
263.9
 20
114.75
 11
266.9
 21
114.75
 97
        4
330
AE22
330
AE1C
330
AE20
330
AE1D
 75
     0
 76
     1
 98
        1
 10
161.9
 20
-65.4
  0
LINE
  5
AE1F
102
{ACAD_REACTORS
330
AE17
102
}
330
1A
100
AcDbEntity
  8
0
100
AcDbLine
 10
262.9
 20
116.75
 30
0.0
 11
265.4
 21
116.75
 31
0.0
  0
LINE
  5
AE20
102
{ACAD_REACTORS
330
AE1E
102
}
330
1A
100
AcDbEntity
  8
0
100
AcDbLine
 10
263.9
 20
114.75
 30
0.0
 11
263.9
 21
114.66
 31
0.0
  0
LINE
  5
AE21
102
{ACAD_REACTORS
330
AE1E
102
}
330
1A
100
AcDbEntity
  8
0
100
AcDbLine
 10
263.9
 20
114.0
 30
0.0
 11
263.9
 21
113.91
 31
0.0
  0
LINE
  5
AE22
102
{ACAD_REACTORS
330
AE1E
102
}
330
1A
100
AcDbEntity
  8
0
100
AcDbLine
 10
266.9
 20
114.75
 30
0.0
 11
266.9
 21
114.66
 31
0.0
  0
LINE
  5
AE23
102
{ACAD_REACTORS
330
AE1E
102
}
330
1A
100
AcDbEntity
  8
0
100
AcDbLine
 10
266.2
 20
113.91
 30
0.0
 11
266.9
 21
113.91
 31
0.0
  0
LINE
  5
AE24
102
{ACAD_REACTORS
330
AE1E
102
}
330
1A
100
AcDbEntity
  8
0
100
AcDbLine
 10
266.2
 20
114.0
 30
0.0
 11
266.9
 21
114.0
 31
0.0
  0
LINE
  5
AE25
102
{ACAD_REACTORS
330
AE1E
102
}
330
1A
100
AcDbEntity
  8
0
100
AcDbLine
 10
266.2
 20
114.0
 30
0.0
 11
266.2
 21
113.91
 31
0.0
  0
LINE
  5
AE26
102
{ACAD_REACTORS
330
AE1E
102
}
330
1A
100
AcDbEntity
  8
0
100
AcDbLine
 10
266.9
 20
114.0
 30
0.0
 11
266.9
 21
113.91
 31
0.0
  0
LINE
  5
AE27
102
{ACAD_REACTORS
330
AE1E
102
}
330
1A
100
AcDbEntity
  8
0
100
AcDbLine
 10
265.75
 20
114.0
 30
0.0
 11
265.75
 21
113.91
 31
0.0
  0
LINE
  5
AE28
102
{ACAD_REACTORS
330
AE1E
102
}
330
1A
100
AcDbEntity
  8
0
100
AcDbLine
 10
264.6
 20
114.0
 30
0.0
 11
264.6
 21
113.91
 31
0.0
  0
LINE
  5
AE29
102
{ACAD_REACTORS
330
AE1E
102
}
330
1A
100
AcDbEntity
  8
0
100
AcDbLine
 10
265.05
 20
114.0
 30
0.0
 11
265.05
 21
113.91
 31
0.0
  0
LINE
  5
AE2A
102
{ACAD_REACTORS
330
AE1E
102
}
330
1A
100
AcDbEntity
  8
0
100
AcDbLine
 10
265.05
 20
113.91
 30
0.0
 11
265.75
 21
113.91
 31
0.0
  0
LINE
  5
AE2B
102
{ACAD_REACTORS
330
AE1E
102
}
330
1A
100
AcDbEntity
  8
0
100
AcDbLine
 10
265.05
 20
114.0
 30
0.0
 11
265.75
 21
114.0
 31
0.0
  0
LINE
  5
AE2C
102
{ACAD_REACTORS
330
AE18
102
}
330
1A
100
AcDbEntity
  8
0
100
AcDbLine
 10
271.9
 20
116.75
 30
0.0
 11
274.4
 21
116.75
 31
0.0
  0
MTEXT
  5
AE2D
330
1A
100
AcDbEntity
  8
0
100
AcDbMText
 10
265.9
 20
126.2500000000001
 30
0.0
 40
2.0
 41
5.075555555555554
 71
     4
 72
     5
  1
{\fTahoma|b0|i0|c0|p34;5V}
 73
     1
 44
1.0
1001
ACAD
1000
MTEXTBEGIN
1070
    73
1070
     1
1070
    44
1040
1.0
1070
    74
1070
     0
1000
MTEXTEND
  0
MTEXT
  5
AE2E
330
1A
100
AcDbEntity
  8
0
100
AcDbMText
 10
265.9
 20
122.25
 30
0.0
 40
2.0
 41
3.084444444444444
 71
     4
 72
     5
  1
{\fTahoma|b0|i0|c0|p34;5}
 73
     1
 44
1.0
1001
ACAD
1000
MTEXTBEGIN
1070
    73
1070
     1
1070
    44
1040
1.0
1070
    74
1070
     0
1000
MTEXTEND
  0
LINE
  5
AE2F
102
{ACAD_REACTORS
330
AE31
102
}
330
1A
100
AcDbEntity
  8
0
100
AcDbLine
 10
265.4
 20
120.75
 30
0.0
 11
265.4
 21
123.75
 31
0.0
  0
LINE
  5
AE30
102
{ACAD_REACTORS
330
AE31
102
}
330
1A
100
AcDbEntity
  8
0
100
AcDbLine
 10
262.9
 20
123.75
 30
0.0
 11
262.9
 21
120.75
 31
0.0
  0
HATCH
  5
AE31
330
1A
100
AcDbEntity
  8
0
100
AcDbHatch
 10
0.0
 20
0.0
 30
0.0
210
0.0
220
0.0
230
1.0
  2
SOLID
 70
     1
 71
     1
 91
        1
 92
        7
 72
     0
 73
     1
 93
        4
 10
265.4
 20
123.75
 10
262.9
 20
123.75
 10
262.9
 20
120.75
 10
265.4
 20
120.75
 97
        4
330
AE37
330
AE30
330
AE33
330
AE2F
 75
     0
 76
     1
 47
0.1707774271980734
 98
        1
 10
264.65
 20
122.5
  0
LINE
  5
AE32
102
{ACAD_REACTORS
330
AE17
102
}
330
1A
100
AcDbEntity
  8
0
100
AcDbLine
 10
265.4
 20
119.75
 30
0.0
 11
262.9
 21
119.75
 31
0.0
  0
LINE
  5
AE33
102
{ACAD_REACTORS
330
AE31
102
}
330
1A
100
AcDbEntity
  8
0
100
AcDbLine
 10
262.9
 20
120.75
 30
0.0
 11
265.4
 21
120.75
 31
0.0
  0
LINE
  5
AE34
102
{ACAD_REACTORS
330
AE36
102
}
330
1A
100
AcDbEntity
  8
0
100
AcDbLine
 10
265.4
 20
127.75
 30
0.0
 11
262.9
 21
127.75
 31
0.0
  0
LINE
  5
AE35
102
{ACAD_REACTORS
330
AE36
102
}
330
1A
100
AcDbEntity
  8
0
100
AcDbLine
 10
262.9
 20
124.75
 30
0.0
 11
265.4
 21
124.75
 31
0.0
  0
HATCH
  5
AE36
330
1A
100
AcDbEntity
  8
0
100
AcDbHatch
 10
0.0
 20
0.0
 30
0.0
210
0.0
220
0.0
230
1.0
  2
SOLID
 70
     1
 71
     1
 91
        1
 92
        7
 72
     0
 73
     1
 93
        4
 10
265.4
 20
127.75
 10
262.9
 20
127.75
 10
262.9
 20
124.75
 10
265.4
 20
124.75
 97
        4
330
AE34
330
AE38
330
AE35
330
AE39
 75
     0
 76
     1
 47
0.1707774271980734
 98
        1
 10
264.65
 20
126.5
  0
LINE
  5
AE37
102
{ACAD_REACTORS
330
AE31
102
}
330
1A
100
AcDbEntity
  8
0
100
AcDbLine
 10
265.4
 20
123.75
 30
0.0
 11
262.9
 21
123.75
 31
0.0
  0
LINE
  5
AE38
102
{ACAD_REACTORS
330
AE36
102
}
330
1A
100
AcDbEntity
  8
0
100
AcDbLine
 10
262.9
 20
127.75
 30
0.0
 11
262.9
 21
124.75
 31
0.0
  0
LINE
  5
AE39
102
{ACAD_REACTORS
330
AE36
102
}
330
1A
100
AcDbEntity
  8
0
100
AcDbLine
 10
265.4
 20
124.75
 30
0.0
 11
265.4
 21
127.75
 31
0.0
  0
LINE
  5
AE3A
102
{ACAD_REACTORS
330
AE3C
102
}
330
1A
100
AcDbEntity
  8
0
100
AcDbLine
 10
274.4
 20
120.75
 30
0.0
 11
274.4
 21
123.75
 31
0.0
  0
LINE
  5
AE3B
102
{ACAD_REACTORS
330
AE3C
102
}
330
1A
100
AcDbEntity
  8
0
100
AcDbLine
 10
271.9
 20
123.75
 30
0.0
 11
271.9
 21
120.75
 31
0.0
  0
HATCH
  5
AE3C
330
1A
100
AcDbEntity
  8
0
100
AcDbHatch
 10
0.0
 20
0.0
 30
0.0
210
0.0
220
0.0
230
1.0
  2
SOLID
 70
     1
 71
     1
 91
        1
 92
        7
 72
     0
 73
     1
 93
        4
 10
274.4
 20
123.75
 10
271.9
 20
123.75
 10
271.9
 20
120.75
 10
274.4
 20
120.75
 97
        4
330
AE3F
330
AE3B
330
AE3D
330
AE3A
 75
     0
 76
     1
 47
0.1707774271980734
 98
        1
 10
273.65
 20
122.5
  0
LINE
  5
AE3D
102
{ACAD_REACTORS
330
AE3C
102
}
330
1A
100
AcDbEntity
  8
0
100
AcDbLine
 10
271.9
 20
120.75
 30
0.0
 11
274.4
 21
120.75
 31
0.0
  0
LINE
  5
AE3E
102
{ACAD_REACTORS
330
AE18
102
}
330
1A
100
AcDbEntity
  8
0
100
AcDbLine
 10
274.4
 20
119.75
 30
0.0
 11
271.9
 21
119.75
 31
0.0
  0
LINE
  5
AE3F
102
{ACAD_REACTORS
330
AE3C
102
}
330
1A
100
AcDbEntity
  8
0
100
AcDbLine
 10
274.4
 20
123.75
 30
0.0
 11
271.9
 21
123.75
 31
0.0
  0
LINE
  5
AE40
102
{ACAD_REACTORS
330
AE42
102
}
330
1A
100
AcDbEntity
  8
0
100
AcDbLine
 10
271.9
 20
124.75
 30
0.0
 11
274.4
 21
124.75
 31
0.0
  0
LINE
  5
AE41
102
{ACAD_REACTORS
330
AE42
102
}
330
1A
100
AcDbEntity
  8
0
100
AcDbLine
 10
274.4
 20
127.75
 30
0.0
 11
271.9
 21
127.75
 31
0.0
  0
HATCH
  5
AE42
330
1A
100
AcDbEntity
  8
0
100
AcDbHatch
 10
0.0
 20
0.0
 30
0.0
210
0.0
220
0.0
230
1.0
  2
SOLID
 70
     1
 71
     1
 91
        1
 92
        7
 72
     0
 73
     1
 93
        4
 10
274.4
 20
127.75
 10
271.9
 20
127.75
 10
271.9
 20
124.75
 10
274.4
 20
124.75
 97
        4
330
AE41
330
AE43
330
AE40
330
AE44
 75
     0
 76
     1
 47
0.1707774271980734
 98
        1
 10
273.65
 20
126.5
  0
LINE
  5
AE43
102
{ACAD_REACTORS
330
AE42
102
}
330
1A
100
AcDbEntity
  8
0
100
AcDbLine
 10
271.9
 20
127.75
 30
0.0
 11
271.9
 21
124.75
 31
0.0
  0
LINE
  5
AE44
102
{ACAD_REACTORS
330
AE42
102
}
330
1A
100
AcDbEntity
  8
0
100
AcDbLine
 10
274.4
 20
124.75
 30
0.0
 11
274.4
 21
127.75
 31
0.0
  0
MTEXT
  5
AE45
330
1A
100
AcDbEntity
  8
0
100
AcDbMText
 10
244.9
 20
142.5496076610695
 30
0.0
 40
4.0
 41
26.45333333333334
 71
     4
 72
     5
  1
{\fTahoma|b0|i0|c0|p34;LA-1024A}
 73
     1
 44
1.0
1001
ACAD
1000
MTEXTBEGIN
1070
    73
1070
     1
1070
    44
1040
1.0
1070
    74
1070
     0
1000
MTEXTEND
  0
MTEXT
  5
AE46
330
1A
100
AcDbEntity
  8
0
100
AcDbMText
 10
249.4
 20
136.25
 30
0.0
 40
2.5
 41
19.99999999999999
 71
     4
 72
     5
  1
{\fTahoma|b0|i0|c0|p34;-1:CURR-out}
 73
     1
 44
1.0
1001
ACAD
1000
MTEXTBEGIN
1070
    73
1070
     1
1070
    44
1040
1.0
1070
    74
1070
     0
1000
MTEXTEND
  0
LINE
  5
AE47
102
{ACAD_REACTORS
330
AE49
102
}
330
1A
100
AcDbEntity
  8
0
100
AcDbLine
 10
244.9
 20
138.25
 30
0.0
 11
244.9
 21
134.25
 31
0.0
  0
LINE
  5
AE48
102
{ACAD_REACTORS
330
AE49
102
}
330
1A
100
AcDbEntity
  8
0
100
AcDbLine
 10
248.4
 20
134.25
 30
0.0
 11
248.4
 21
138.25
 31
0.0
  0
HATCH
  5
AE49
330
1A
100
AcDbEntity
  8
0
100
AcDbHatch
 10
0.0
 20
0.0
 30
0.0
210
0.0
220
0.0
230
1.0
  2
SOLID
 70
     1
 71
     1
 91
        1
 92
        7
 72
     0
 73
     1
 93
        4
 10
244.9
 20
138.25
 10
244.9
 20
134.25
 10
248.4
 20
134.25
 10
248.4
 20
138.25
 97
        4
330
AE4B
330
AE47
330
AE4A
330
AE48
 75
     0
 76
     1
 47
0.1707774271980734
 98
        1
 10
246.65
 20
137.0
  0
LINE
  5
AE4A
102
{ACAD_REACTORS
330
AE49
102
}
330
1A
100
AcDbEntity
  8
0
100
AcDbLine
 10
244.9
 20
134.25
 30
0.0
 11
248.4
 21
134.25
 31
0.0
  0
LINE
  5
AE4B
102
{ACAD_REACTORS
330
AE49
102
}
330
1A
100
AcDbEntity
  8
0
100
AcDbLine
 10
248.4
 20
138.25
 30
0.0
 11
244.9
 21
138.25
 31
0.0
  0
LINE
  5
AE4C
102
{ACAD_REACTORS
330
ADE1
102
}
330
1A
100
AcDbEntity
  8
0
100
AcDbLine
 10
276.4
 20
145.0
 30
0.0
 11
276.4
 21
140.0
 31
0.0
  0
MTEXT
  5
AE4D
330
1A
100
AcDbEntity
  8
0
100
AcDbMText
 10
275.4
 20
142.5
 30
0.0
 40
2.5
 41
6.822222222222221
 71
     6
 72
     5
  1
{\fTahoma|b0|i0|c0|p34;No.}
 73
     1
 44
1.0
1001
ACAD
1000
MTEXTBEGIN
1070
    73
1070
     1
1070
    44
1040
1.0
1070
    74
1070
     0
1000
MTEXTEND
  0
LINE
  5
AE4E
102
{ACAD_REACTORS
330
AE50
102
}
330
1A
100
AcDbEntity
  8
0
100
AcDbLine
 10
275.4
 20
134.25
 30
0.0
 11
275.4
 21
138.25
 31
0.0
  0
LINE
  5
AE4F
102
{ACAD_REACTORS
330
AE50
102
}
330
1A
100
AcDbEntity
  8
0
100
AcDbLine
 10
271.9
 20
138.25
 30
0.0
 11
271.9
 21
134.25
 31
0.0
  0
HATCH
  5
AE50
330
1A
100
AcDbEntity
  8
0
100
AcDbHatch
 10
0.0
 20
0.0
 30
0.0
210
0.0
220
0.0
230
1.0
  2
SOLID
 70
     1
 71
     1
 91
        1
 92
        7
 72
     0
 73
     1
 93
        4
 10
275.4
 20
138.25
 10
271.8999999999999
 20
138.25
 10
271.9
 20
134.25
 10
275.3999999999999
 20
134.25
 97
        4
330
AE52
330
AE4F
330
AE51
330
AE4E
 75
     0
 76
     1
 47
0.1707774271980734
 98
        1
 10
274.65
 20
137.0
  0
LINE
  5
AE51
102
{ACAD_REACTORS
330
AE50
102
}
330
1A
100
AcDbEntity
  8
0
100
AcDbLine
 10
271.9
 20
134.25
 30
0.0
 11
275.4
 21
134.25
 31
0.0
  0
LINE
  5
AE52
102
{ACAD_REACTORS
330
AE50
102
}
330
1A
100
AcDbEntity
  8
0
100
AcDbLine
 10
275.4
 20
138.25
 30
0.0
 11
271.9
 21
138.25
 31
0.0
  0
LINE
  5
AE53
102
{ACAD_REACTORS
330
AE57
102
}
330
1A
100
AcDbEntity
  8
0
100
AcDbLine
 10
294.4
 20
128.75
 30
0.0
 11
294.4
 21
132.75
 31
0.0
  0
LINE
  5
AE54
102
{ACAD_REACTORS
330
AE57
102
}
330
1A
100
AcDbEntity
  8
0
100
AcDbLine
 10
288.4
 20
132.75
 30
0.0
 11
288.4
 21
128.75
 31
0.0
  0
MTEXT
  5
AE55
330
1A
100
AcDbEntity
  8
0
100
AcDbMText
 10
287.4
 20
130.75
 30
0.0
 40
2.0
 41
8.999999999999992
 71
     6
 72
     5
  1
{\fTahoma|b0|i0|c0|p34;POS}
 73
     1
 44
1.0
1001
ACAD
1000
MTEXTBEGIN
1070
    73
1070
     1
1070
    44
1040
1.0
1070
    74
1070
     0
1000
MTEXTEND
  0
LINE
  5
AE56
102
{ACAD_REACTORS
330
ADED
102
}
330
1A
100
AcDbEntity
  8
0
100
AcDbLine
 10
278.9
 20
128.75
 30
0.0
 11
278.9
 21
132.75
 31
0.0
  0
HATCH
  5
AE57
330
1A
100
AcDbEntity
  8
0
100
AcDbHatch
 10
0.0
 20
0.0
 30
0.0
210
0.0
220
0.0
230
1.0
  2
SOLID
 70
     1
 71
     1
 91
        1
 92
        7
 72
     0
 73
     1
 93
        4
 10
288.4
 20
132.75
 10
288.4
 20
128.75
 10
294.4
 20
128.75
 10
294.4
 20
132.75
 97
        4
330
AE6F
330
AE54
330
AE5C
330
AE53
 75
     0
 76
     1
 47
0.1707774271980734
 98
        1
 10
292.65
 20
131.5
  0
LINE
  5
AE58
330
1A
100
AcDbEntity
  8
0
100
AcDbLine
 10
299.9
 20
112.2500000000001
 30
0.0
 11
299.9
 21
133.25
 31
0.0
  0
LINE
  5
AE59
102
{ACAD_REACTORS
330
ADEF
102
}
330
1A
100
AcDbEntity
  8
0
100
AcDbLine
 10
300.9
 20
146.0
 30
0.0
 11
300.9
 21
108.0
 31
0.0
  0
LINE
  5
AE5A
102
{ACAD_REACTORS
330
ADEF
102
}
330
1A
100
AcDbEntity
  8
0
100
AcDbLine
 10
301.9
 20
147.0
 30
0.0
 11
301.9
 21
107.0
 31
0.0
  0
MTEXT
  5
AE5B
330
1A
100
AcDbEntity
  8
0
100
AcDbMText
 10
292.9
 20
122.25
 30
0.0
 40
2.0
 41
3.084444444444444
 71
     4
 72
     5
  1
{\fTahoma|b0|i0|c0|p34;50}
 73
     1
 44
1.0
1001
ACAD
1000
MTEXTBEGIN
1070
    73
1070
     1
1070
    44
1040
1.0
1070
    74
1070
     0
1000
MTEXTEND
  0
LINE
  5
AE5C
102
{ACAD_REACTORS
330
AE57
102
}
330
1A
100
AcDbEntity
  8
0
100
AcDbLine
 10
288.4
 20
128.75
 30
0.0
 11
294.4
 21
128.75
 31
0.0
  0
MTEXT
  5
AE5D
330
1A
100
AcDbEntity
  8
0
100
AcDbMText
 10
298.9
 20
110.125
 30
0.0
 40
2.5
 41
21.50000000000001
 71
     6
 72
     5
  1
{\fTahoma|b0|i0|c0|p34;TOYO SOKKI}
 73
     1
 44
1.0
1001
ACAD
1000
MTEXTBEGIN
1070
    73
1070
     1
1070
    44
1040
1.0
1070
    74
1070
     0
1000
MTEXTEND
  0
LINE
  5
AE5E
102
{ACAD_REACTORS
330
AE61
102
}
330
1A
100
AcDbEntity
  8
0
100
AcDbLine
 10
283.3999999999999
 20
116.75
 30
0.0
 11
283.3999999999999
 21
119.75
 31
0.0
  0
MTEXT
  5
AE5F
330
1A
100
AcDbEntity
  8
0
100
AcDbMText
 10
283.9
 20
118.25
 30
0.0
 40
2.0
 41
5.217777777777778
 71
     4
 72
     5
  1
{\fTahoma|b0|i0|c0|p34;1k}
 73
     1
 44
1.0
1001
ACAD
1000
MTEXTBEGIN
1070
    73
1070
     1
1070
    44
1040
1.0
1070
    74
1070
     0
1000
MTEXTEND
  0
LINE
  5
AE60
102
{ACAD_REACTORS
330
AE61
102
}
330
1A
100
AcDbEntity
  8
0
100
AcDbLine
 10
280.9
 20
119.75
 30
0.0
 11
280.9
 21
116.75
 31
0.0
  0
HATCH
  5
AE61
330
1A
100
AcDbEntity
  8
0
100
AcDbHatch
 10
0.0
 20
0.0
 30
0.0
210
0.0
220
0.0
230
1.0
  2
SOLID
 70
     1
 71
     1
 91
        1
 92
        7
 72
     0
 73
     1
 93
        4
 10
283.3999999999999
 20
119.75
 10
280.9
 20
119.75
 10
280.9
 20
116.75
 10
283.3999999999999
 20
116.75
 97
        4
330
AE68
330
AE60
330
AE62
330
AE5E
 75
     0
 76
     1
 47
0.1707774271980734
 98
        1
 10
282.65
 20
118.5
  0
LINE
  5
AE62
102
{ACAD_REACTORS
330
AE61
102
}
330
1A
100
AcDbEntity
  8
0
100
AcDbLine
 10
280.9
 20
116.75
 30
0.0
 11
283.3999999999999
 21
116.75
 31
0.0
  0
MTEXT
  5
AE63
330
1A
100
AcDbEntity
  8
0
100
AcDbMText
 10
283.9
 20
122.25
 30
0.0
 40
2.0
 41
3.084444444444444
 71
     4
 72
     5
  1
{\fTahoma|b0|i0|c0|p34;20}
 73
     1
 44
1.0
1001
ACAD
1000
MTEXTBEGIN
1070
    73
1070
     1
1070
    44
1040
1.0
1070
    74
1070
     0
1000
MTEXTEND
  0
LINE
  5
AE64
102
{ACAD_REACTORS
330
AE66
102
}
330
1A
100
AcDbEntity
  8
0
100
AcDbLine
 10
283.3999999999999
 20
120.75
 30
0.0
 11
283.3999999999999
 21
123.75
 31
0.0
  0
LINE
  5
AE65
102
{ACAD_REACTORS
330
AE66
102
}
330
1A
100
AcDbEntity
  8
0
100
AcDbLine
 10
280.9
 20
123.75
 30
0.0
 11
280.9
 21
120.75
 31
0.0
  0
HATCH
  5
AE66
330
1A
100
AcDbEntity
  8
0
100
AcDbHatch
 10
0.0
 20
0.0
 30
0.0
210
0.0
220
0.0
230
1.0
  2
SOLID
 70
     1
 71
     1
 91
        1
 92
        7
 72
     0
 73
     1
 93
        4
 10
283.3999999999999
 20
123.75
 10
280.9
 20
123.75
 10
280.9
 20
120.75
 10
283.3999999999999
 20
120.75
 97
        4
330
AE69
330
AE65
330
AE67
330
AE64
 75
     0
 76
     1
 47
0.1707774271980734
 98
        1
 10
282.65
 20
122.5
  0
LINE
  5
AE67
102
{ACAD_REACTORS
330
AE66
102
}
330
1A
100
AcDbEntity
  8
0
100
AcDbLine
 10
280.9
 20
120.75
 30
0.0
 11
283.3999999999999
 21
120.75
 31
0.0
  0
LINE
  5
AE68
102
{ACAD_REACTORS
330
AE61
102
}
330
1A
100
AcDbEntity
  8
0
100
AcDbLine
 10
283.3999999999999
 20
119.75
 30
0.0
 11
280.9
 21
119.75
 31
0.0
  0
LINE
  5
AE69
102
{ACAD_REACTORS
330
AE66
102
}
330
1A
100
AcDbEntity
  8
0
100
AcDbLine
 10
283.3999999999999
 20
123.75
 30
0.0
 11
280.9
 21
123.75
 31
0.0
  0
LINE
  5
AE6A
102
{ACAD_REACTORS
330
AE6C
102
}
330
1A
100
AcDbEntity
  8
0
100
AcDbLine
 10
289.9
 20
123.75
 30
0.0
 11
289.9
 21
120.75
 31
0.0
  0
LINE
  5
AE6B
102
{ACAD_REACTORS
330
AE6C
102
}
330
1A
100
AcDbEntity
  8
0
100
AcDbLine
 10
292.4
 20
120.75
 30
0.0
 11
292.4
 21
123.75
 31
0.0
  0
HATCH
  5
AE6C
330
1A
100
AcDbEntity
  8
0
100
AcDbHatch
 10
0.0
 20
0.0
 30
0.0
210
0.0
220
0.0
230
1.0
  2
SOLID
 70
     1
 71
     1
 91
        1
 92
        7
 72
     0
 73
     1
 93
        4
 10
292.4
 20
123.75
 10
289.9
 20
123.75
 10
289.9
 20
120.75
 10
292.4
 20
120.75
 97
        4
330
AE6E
330
AE6A
330
AE6D
330
AE6B
 75
     0
 76
     1
 47
0.1707774271980734
 98
        1
 10
291.65
 20
122.5
  0
LINE
  5
AE6D
102
{ACAD_REACTORS
330
AE6C
102
}
330
1A
100
AcDbEntity
  8
0
100
AcDbLine
 10
289.9
 20
120.75
 30
0.0
 11
292.4
 21
120.75
 31
0.0
  0
LINE
  5
AE6E
102
{ACAD_REACTORS
330
AE6C
102
}
330
1A
100
AcDbEntity
  8
0
100
AcDbLine
 10
292.4
 20
123.75
 30
0.0
 11
289.9
 21
123.75
 31
0.0
  0
LINE
  5
AE6F
102
{ACAD_REACTORS
330
AE57
102
}
330
1A
100
AcDbEntity
  8
0
100
AcDbLine
 10
294.4
 20
132.75
 30
0.0
 11
288.4
 21
132.75
 31
0.0
  0
LINE
  5
AE70
102
{ACAD_REACTORS
330
ADE1
102
}
330
1A
100
AcDbEntity
  8
0
100
AcDbLine
 10
299.9
 20
145.0
 30
0.0
 11
299.9
 21
140.0
 31
0.0
  0
LINE
  5
B47E
330
1A
100
AcDbEntity
  8
SUNPOU
100
AcDbLine
 10
224.4000000499685
 20
183.1900001092222
 30
0.0
 11
224.4000000499685
 21
182.2100001092222
 31
0.0
  0
LINE
  5
B47F
330
1A
100
AcDbEntity
  8
SUNPOU
100
AcDbLine
 10
217.4000000499685
 20
183.1900001092222
 30
0.0
 11
213.6000000499685
 21
183.1900001092222
 31
0.0
  0
LINE
  5
B480
330
1A
100
AcDbEntity
  8
0
100
AcDbLine
 10
215.4000000499685
 20
182.2100001092222
 30
0.0
 11
215.4000000499685
 21
180.9900001092222
 31
0.0
  0
LINE
  5
B481
330
1A
100
AcDbEntity
  8
0
100
AcDbLine
 10
221.9000000499685
 20
180.4700001092222
 30
0.0
 11
224.4000000499685
 21
180.4700001092222
 31
0.0
  0
LINE
  5
B482
330
1A
100
AcDbEntity
  8
0
100
AcDbLine
 10
224.4000000499685
 20
175.1700001092222
 30
0.0
 11
221.9000000499685
 21
175.1700001092222
 31
0.0
  0
LINE
  5
B483
330
1A
100
AcDbEntity
  8
0
100
AcDbLine
 10
223.4000000499685
 20
180.4700001092222
 30
0.0
 11
223.4000000499686
 21
175.1700001092222
 31
0.0
  0
LINE
  5
B484
330
1A
100
AcDbEntity
  8
0
100
AcDbLine
 10
221.9000000499685
 20
180.4700001092222
 30
0.0
 11
221.9000000499685
 21
175.1700001092222
 31
0.0
  0
LINE
  5
B485
330
1A
100
AcDbEntity
  8
0
100
AcDbLine
 10
215.4000000499685
 20
180.9900001092222
 30
0.0
 11
227.9000000499685
 21
180.9900001092222
 31
0.0
  0
ELLIPSE
  5
B486
330
1A
100
AcDbEntity
  8
0
100
AcDbEllipse
 10
221.1000000499685
 20
177.7700001092222
 30
0.0
 11
-0.000000000000001
 21
-2.399999999999977
 31
0.0
210
0.0
220
0.0
230
1.0
 40
0.5416666666666529
 41
2.478718829939674
 42
6.946059130829823
  0
LINE
  5
B487
330
1A
100
AcDbEntity
  8
0
100
AcDbLine
 10
221.9000000499685
 20
165.2300001092222
 30
0.0
 11
224.4000000499685
 21
165.2300001092222
 31
0.0
  0
LINE
  5
B488
330
1A
100
AcDbEntity
  8
0
100
AcDbLine
 10
224.4000000499685
 20
167.5700001092222
 30
0.0
 11
221.9000000499685
 21
167.5700001092222
 31
0.0
  0
LINE
  5
B489
330
1A
100
AcDbEntity
  8
0
100
AcDbLine
 10
221.9000000499685
 20
172.8700001092222
 30
0.0
 11
224.4000000499685
 21
172.8700001092222
 31
0.0
  0
LINE
  5
B48A
330
1A
100
AcDbEntity
  8
0
100
AcDbLine
 10
223.4000000499685
 20
172.8700001092222
 30
0.0
 11
223.4000000499686
 21
167.5700001092222
 31
0.0
  0
LINE
  5
B48B
330
1A
100
AcDbEntity
  8
0
100
AcDbLine
 10
221.9000000499685
 20
172.8700001092222
 30
0.0
 11
221.9000000499685
 21
167.5700001092222
 31
0.0
  0
LINE
  5
B48C
330
1A
100
AcDbEntity
  8
0
100
AcDbLine
 10
227.9000000499685
 20
173.3700001092222
 30
0.0
 11
227.9000000499685
 21
166.9700001092222
 31
0.0
  0
LINE
  5
B48D
330
1A
100
AcDbEntity
  8
0
100
AcDbLine
 10
224.4000000499685
 20
173.3700001092222
 30
0.0
 11
224.4000000499685
 21
166.9700001092222
 31
0.0
  0
LINE
  5
B48E
330
1A
100
AcDbEntity
  8
0
100
AcDbLine
 10
215.4000000499685
 20
166.9700001092222
 30
0.0
 11
215.4000000499685
 21
165.7500001092223
 31
0.0
  0
LINE
  5
B48F
330
1A
100
AcDbEntity
  8
0
100
AcDbLine
 10
215.4000000499685
 20
174.5900001092222
 30
0.0
 11
215.4000000499685
 21
173.3700001092222
 31
0.0
  0
LINE
  5
B490
330
1A
100
AcDbEntity
  8
0
100
AcDbLine
 10
215.4000000499685
 20
166.9700001092222
 30
0.0
 11
227.9000000499685
 21
166.9700001092222
 31
0.0
  0
LINE
  5
B491
330
1A
100
AcDbEntity
  8
0
100
AcDbLine
 10
215.4000000499685
 20
165.7500001092222
 30
0.0
 11
227.9000000499685
 21
165.7500001092222
 31
0.0
  0
LINE
  5
B492
330
1A
100
AcDbEntity
  8
0
100
AcDbLine
 10
215.4000000499685
 20
173.3700001092222
 30
0.0
 11
227.9000000499685
 21
173.3700001092222
 31
0.0
  0
LINE
  5
B493
330
1A
100
AcDbEntity
  8
0
100
AcDbLine
 10
215.4000000499685
 20
174.5900001092222
 30
0.0
 11
227.9000000499686
 21
174.5900001092222
 31
0.0
  0
ELLIPSE
  5
B494
330
1A
100
AcDbEntity
  8
0
100
AcDbEllipse
 10
221.1000000499685
 20
170.1700001092222
 30
0.0
 11
-0.000000000000001
 21
-2.399999999999977
 31
0.0
210
0.0
220
0.0
230
1.0
 40
0.5416666666666529
 41
2.478718829939674
 42
6.946059130829823
  0
LINE
  5
B495
330
1A
100
AcDbEntity
  8
0
100
AcDbLine
 10
221.9000000499685
 20
157.6300001092222
 30
0.0
 11
224.4000000499685
 21
157.6300001092222
 31
0.0
  0
LINE
  5
B496
330
1A
100
AcDbEntity
  8
0
100
AcDbLine
 10
224.4000000499685
 20
159.9300001092222
 30
0.0
 11
221.9000000499685
 21
159.9300001092222
 31
0.0
  0
LINE
  5
B497
330
1A
100
AcDbEntity
  8
0
100
AcDbLine
 10
215.4000000499685
 20
159.3500001092222
 30
0.0
 11
215.4000000499685
 21
158.1300001092222
 31
0.0
  0
LINE
  5
B498
330
1A
100
AcDbEntity
  8
0
100
AcDbLine
 10
215.4000000499685
 20
158.1300001092222
 30
0.0
 11
227.9000000499685
 21
158.1300001092222
 31
0.0
  0
LINE
  5
B499
330
1A
100
AcDbEntity
  8
0
100
AcDbLine
 10
215.4000000499685
 20
159.3500001092222
 30
0.0
 11
227.9000000499686
 21
159.3500001092222
 31
0.0
  0
ELLIPSE
  5
B49A
330
1A
100
AcDbEntity
  8
0
100
AcDbEllipse
 10
221.1000000499685
 20
162.5300001092222
 30
0.0
 11
-0.000000000000001
 21
-2.399999999999977
 31
0.0
210
0.0
220
0.0
230
1.0
 40
0.5416666666666529
 41
2.478718829939674
 42
6.946059130829823
  0
LINE
  5
B49B
330
1A
100
AcDbEntity
  8
0
100
AcDbLine
 10
223.4000000499685
 20
165.2300001092222
 30
0.0
 11
223.4000000499686
 21
159.9300001092222
 31
0.0
  0
LINE
  5
B49C
330
1A
100
AcDbEntity
  8
0
100
AcDbLine
 10
221.9000000499685
 20
165.2300001092222
 30
0.0
 11
221.9000000499685
 21
159.9300001092222
 31
0.0
  0
LINE
  5
B49D
330
1A
100
AcDbEntity
  8
0
100
AcDbLine
 10
224.4000000499685
 20
165.7500001092222
 30
0.0
 11
224.4000000499685
 21
159.3500001092222
 31
0.0
  0
LINE
  5
B49E
330
1A
100
AcDbEntity
  8
0
100
AcDbLine
 10
227.9000000499685
 20
165.7500001092222
 30
0.0
 11
227.9000000499685
 21
159.3500001092222
 31
0.0
  0
LINE
  5
B49F
330
1A
100
AcDbEntity
  8
0
100
AcDbLine
 10
224.4000000499685
 20
152.3300001092222
 30
0.0
 11
221.9000000499685
 21
152.3300001092222
 31
0.0
  0
LINE
  5
B4A0
330
1A
100
AcDbEntity
  8
0
100
AcDbLine
 10
221.9000000499684
 20
149.9900001092222
 30
0.0
 11
224.4000000499685
 21
149.9900001092222
 31
0.0
  0
LINE
  5
B4A1
330
1A
100
AcDbEntity
  8
0
100
AcDbLine
 10
215.4000000499685
 20
151.7300001092222
 30
0.0
 11
215.4000000499685
 21
150.5100001092223
 31
0.0
  0
LINE
  5
B4A2
330
1A
100
AcDbEntity
  8
0
100
AcDbLine
 10
215.4000000499685
 20
150.5100001092222
 30
0.0
 11
227.9000000499685
 21
150.5100001092222
 31
0.0
  0
LINE
  5
B4A3
330
1A
100
AcDbEntity
  8
0
100
AcDbLine
 10
215.4000000499685
 20
151.7300001092222
 30
0.0
 11
227.9000000499685
 21
151.7300001092222
 31
0.0
  0
LINE
  5
B4A4
330
1A
100
AcDbEntity
  8
0
100
AcDbLine
 10
224.4000000499685
 20
144.6900001092222
 30
0.0
 11
221.9000000499685
 21
144.6900001092222
 31
0.0
  0
LINE
  5
B4A5
330
1A
100
AcDbEntity
  8
0
100
AcDbLine
 10
221.9000000499684
 20
142.3900001092222
 30
0.0
 11
224.4000000499685
 21
142.3900001092222
 31
0.0
  0
LINE
  5
B4A6
330
1A
100
AcDbEntity
  8
0
100
AcDbLine
 10
224.4000000499684
 20
137.0900001092222
 30
0.0
 11
221.9000000499685
 21
137.0900001092222
 31
0.0
  0
LINE
  5
B4A7
330
1A
100
AcDbEntity
  8
0
100
AcDbLine
 10
221.9000000499685
 20
142.3900001092222
 30
0.0
 11
221.9000000499685
 21
137.0900001092222
 31
0.0
  0
LINE
  5
B4A8
330
1A
100
AcDbEntity
  8
0
100
AcDbLine
 10
223.4000000499685
 20
142.3900001092222
 30
0.0
 11
223.4000000499685
 21
137.0900001092222
 31
0.0
  0
LINE
  5
B4A9
330
1A
100
AcDbEntity
  8
0
100
AcDbLine
 10
224.4000000499685
 20
142.8900001092222
 30
0.0
 11
224.4000000499685
 21
136.4900001092222
 31
0.0
  0
LINE
  5
B4AA
330
1A
100
AcDbEntity
  8
0
100
AcDbLine
 10
227.9000000499685
 20
142.8900001092222
 30
0.0
 11
227.9000000499685
 21
136.4900001092222
 31
0.0
  0
LINE
  5
B4AB
330
1A
100
AcDbEntity
  8
0
100
AcDbLine
 10
215.4000000499685
 20
144.1100001092222
 30
0.0
 11
215.4000000499685
 21
142.8900001092222
 31
0.0
  0
LINE
  5
B4AC
330
1A
100
AcDbEntity
  8
0
100
AcDbLine
 10
215.4000000499685
 20
144.1100001092222
 30
0.0
 11
227.9000000499685
 21
144.1100001092222
 31
0.0
  0
LINE
  5
B4AD
330
1A
100
AcDbEntity
  8
0
100
AcDbLine
 10
215.4000000499685
 20
142.8900001092222
 30
0.0
 11
227.9000000499685
 21
142.8900001092222
 31
0.0
  0
LINE
  5
B4AE
330
1A
100
AcDbEntity
  8
0
100
AcDbLine
 10
215.4000000499685
 20
136.4900001092222
 30
0.0
 11
227.9000000499685
 21
136.4900001092222
 31
0.0
  0
ELLIPSE
  5
B4AF
330
1A
100
AcDbEntity
  8
0
100
AcDbEllipse
 10
221.1000000499685
 20
139.6900001092222
 30
0.0
 11
-0.000000000000001
 21
-2.399999999999977
 31
0.0
210
0.0
220
0.0
230
1.0
 40
0.5416666666666529
 41
2.478718829939674
 42
6.946059130829823
  0
LINE
  5
B4B0
330
1A
100
AcDbEntity
  8
0
100
AcDbLine
 10
227.9000000499685
 20
150.5100001092222
 30
0.0
 11
227.9000000499685
 21
144.1100001092222
 31
0.0
  0
LINE
  5
B4B1
330
1A
100
AcDbEntity
  8
0
100
AcDbLine
 10
224.4000000499685
 20
150.5100001092222
 30
0.0
 11
224.4000000499685
 21
144.1100001092222
 31
0.0
  0
LINE
  5
B4B2
330
1A
100
AcDbEntity
  8
0
100
AcDbLine
 10
221.9000000499685
 20
149.9900001092222
 30
0.0
 11
221.9000000499685
 21
144.6900001092222
 31
0.0
  0
LINE
  5
B4B3
330
1A
100
AcDbEntity
  8
0
100
AcDbLine
 10
223.4000000499685
 20
149.9900001092222
 30
0.0
 11
223.4000000499685
 21
144.6900001092222
 31
0.0
  0
ELLIPSE
  5
B4B4
330
1A
100
AcDbEntity
  8
0
100
AcDbEllipse
 10
221.1000000499685
 20
147.2900001092222
 30
0.0
 11
-0.000000000000001
 21
-2.399999999999977
 31
0.0
210
0.0
220
0.0
230
1.0
 40
0.5416666666666529
 41
2.478718829939674
 42
6.946059130829823
  0
LINE
  5
B4B5
330
1A
100
AcDbEntity
  8
0
100
AcDbLine
 10
223.4000000499685
 20
157.6300001092222
 30
0.0
 11
223.4000000499685
 21
152.3300001092222
 31
0.0
  0
LINE
  5
B4B6
330
1A
100
AcDbEntity
  8
0
100
AcDbLine
 10
221.9000000499685
 20
157.6300001092222
 30
0.0
 11
221.9000000499685
 21
152.3300001092222
 31
0.0
  0
ELLIPSE
  5
B4B7
330
1A
100
AcDbEntity
  8
0
100
AcDbEllipse
 10
221.1000000499685
 20
154.9300001092222
 30
0.0
 11
-0.000000000000001
 21
-2.399999999999977
 31
0.0
210
0.0
220
0.0
230
1.0
 40
0.5416666666666529
 41
2.478718829939674
 42
6.946059130829823
  0
LINE
  5
B4B8
330
1A
100
AcDbEntity
  8
0
100
AcDbLine
 10
227.9000000499685
 20
158.1300001092222
 30
0.0
 11
227.9000000499685
 21
151.7300001092222
 31
0.0
  0
LINE
  5
B4B9
330
1A
100
AcDbEntity
  8
0
100
AcDbLine
 10
224.4000000499685
 20
158.1300001092222
 30
0.0
 11
224.4000000499685
 21
151.7300001092222
 31
0.0
  0
LINE
  5
B4BA
330
1A
100
AcDbEntity
  8
0
100
AcDbLine
 10
227.9000000499685
 20
180.9900001092222
 30
0.0
 11
227.9000000499685
 21
174.5900001092222
 31
0.0
  0
LINE
  5
B4BB
330
1A
100
AcDbEntity
  8
0
100
AcDbLine
 10
224.4000000499685
 20
180.9900001092222
 30
0.0
 11
224.4000000499685
 21
174.5900001092222
 31
0.0
  0
LINE
  5
B4BC
330
1A
100
AcDbEntity
  8
0
100
AcDbLine
 10
215.4000000499685
 20
182.2100001092221
 30
0.0
 11
230.2000000499686
 21
182.2100001092222
 31
0.0
  0
LINE
  5
B4BD
330
1A
100
AcDbEntity
  8
0
100
AcDbLine
 10
230.2000000499686
 20
183.1900001092222
 30
0.0
 11
224.4000000499685
 21
183.1900001092222
 31
0.0
  0
LINE
  5
B4DA
330
1A
100
AcDbEntity
  8
0
100
AcDbLine
 10
224.4000000499684
 20
129.4700001092222
 30
0.0
 11
221.9000000499685
 21
129.4700001092222
 31
0.0
  0
LINE
  5
B4DB
330
1A
100
AcDbEntity
  8
0
100
AcDbLine
 10
221.9000000499684
 20
127.1300001092222
 30
0.0
 11
224.4000000499684
 21
127.1300001092222
 31
0.0
  0
LINE
  5
B4DC
330
1A
100
AcDbEntity
  8
0
100
AcDbLine
 10
221.9000000499684
 20
134.7700001092222
 30
0.0
 11
224.4000000499684
 21
134.7700001092222
 31
0.0
  0
LINE
  5
B4DD
330
1A
100
AcDbEntity
  8
0
100
AcDbLine
 10
221.9000000499685
 20
134.7700001092222
 30
0.0
 11
221.9000000499685
 21
129.4700001092222
 31
0.0
  0
LINE
  5
B4DE
330
1A
100
AcDbEntity
  8
0
100
AcDbLine
 10
223.4000000499685
 20
134.7700001092222
 30
0.0
 11
223.4000000499685
 21
129.4700001092222
 31
0.0
  0
LINE
  5
B4DF
330
1A
100
AcDbEntity
  8
0
100
AcDbLine
 10
227.9000000499685
 20
135.2700001092222
 30
0.0
 11
227.9000000499685
 21
128.8700001092222
 31
0.0
  0
LINE
  5
B4E0
330
1A
100
AcDbEntity
  8
0
100
AcDbLine
 10
224.4000000499685
 20
135.2700001092222
 30
0.0
 11
224.4000000499685
 21
128.8700001092222
 31
0.0
  0
LINE
  5
B4E1
330
1A
100
AcDbEntity
  8
0
100
AcDbLine
 10
215.4000000499685
 20
128.8700001092222
 30
0.0
 11
215.4000000499685
 21
127.6500001092223
 31
0.0
  0
LINE
  5
B4E2
330
1A
100
AcDbEntity
  8
0
100
AcDbLine
 10
215.4000000499685
 20
127.6500001092222
 30
0.0
 11
227.9000000499685
 21
127.6500001092222
 31
0.0
  0
LINE
  5
B4E3
330
1A
100
AcDbEntity
  8
0
100
AcDbLine
 10
215.4000000499685
 20
128.8700001092222
 30
0.0
 11
227.9000000499684
 21
128.8700001092222
 31
0.0
  0
LINE
  5
B4E4
330
1A
100
AcDbEntity
  8
0
100
AcDbLine
 10
215.4000000499685
 20
135.2700001092222
 30
0.0
 11
227.9000000499685
 21
135.2700001092222
 31
0.0
  0
ELLIPSE
  5
B4E5
330
1A
100
AcDbEntity
  8
0
100
AcDbEllipse
 10
221.1000000499685
 20
132.0700001092222
 30
0.0
 11
-0.000000000000001
 21
-2.399999999999977
 31
0.0
210
0.0
220
0.0
230
1.0
 40
0.5416666666666529
 41
2.478718829939674
 42
6.946059130829823
  0
LINE
  5
B4E6
330
1A
100
AcDbEntity
  8
0
100
AcDbLine
 10
221.9000000499684
 20
119.5300001092222
 30
0.0
 11
224.4000000499684
 21
119.5300001092222
 31
0.0
  0
LINE
  5
B4E7
330
1A
100
AcDbEntity
  8
0
100
AcDbLine
 10
224.4000000499684
 20
121.8300001092222
 30
0.0
 11
221.9000000499685
 21
121.8300001092222
 31
0.0
  0
LINE
  5
B4E8
330
1A
100
AcDbEntity
  8
0
100
AcDbLine
 10
215.4000000499685
 20
121.2500001092222
 30
0.0
 11
215.4000000499685
 21
120.0300001092222
 31
0.0
  0
LINE
  5
B4E9
330
1A
100
AcDbEntity
  8
0
100
AcDbLine
 10
215.4000000499685
 20
120.0300001092222
 30
0.0
 11
227.9000000499685
 21
120.0300001092222
 31
0.0
  0
LINE
  5
B4EA
330
1A
100
AcDbEntity
  8
0
100
AcDbLine
 10
215.4000000499685
 20
121.2500001092222
 30
0.0
 11
227.9000000499685
 21
121.2500001092222
 31
0.0
  0
LINE
  5
B4EB
330
1A
100
AcDbEntity
  8
0
100
AcDbLine
 10
221.9000000499685
 20
127.1300001092222
 30
0.0
 11
221.9000000499685
 21
121.8300001092222
 31
0.0
  0
LINE
  5
B4EC
330
1A
100
AcDbEntity
  8
0
100
AcDbLine
 10
223.4000000499684
 20
127.1300001092222
 30
0.0
 11
223.4000000499685
 21
121.8300001092222
 31
0.0
  0
ELLIPSE
  5
B4ED
330
1A
100
AcDbEntity
  8
0
100
AcDbEllipse
 10
221.1000000499685
 20
124.4300001092222
 30
0.0
 11
-0.000000000000001
 21
-2.399999999999977
 31
0.0
210
0.0
220
0.0
230
1.0
 40
0.5416666666666529
 41
2.478718829939674
 42
6.946059130829823
  0
LINE
  5
B4EE
330
1A
100
AcDbEntity
  8
0
100
AcDbLine
 10
227.9000000499685
 20
127.6500001092222
 30
0.0
 11
227.9000000499685
 21
121.2500001092222
 31
0.0
  0
LINE
  5
B4EF
330
1A
100
AcDbEntity
  8
0
100
AcDbLine
 10
224.4000000499684
 20
127.6500001092222
 30
0.0
 11
224.4000000499685
 21
121.2500001092222
 31
0.0
  0
LINE
  5
B4F0
330
1A
100
AcDbEntity
  8
0
100
AcDbLine
 10
224.4000000499684
 20
114.2300001092222
 30
0.0
 11
221.9000000499685
 21
114.2300001092222
 31
0.0
  0
LINE
  5
B4F1
330
1A
100
AcDbEntity
  8
0
100
AcDbLine
 10
224.4000000499684
 20
106.5900001092222
 30
0.0
 11
221.9000000499685
 21
106.5900001092222
 31
0.0
  0
LINE
  5
B4F2
330
1A
100
AcDbEntity
  8
0
100
AcDbLine
 10
221.9000000499684
 20
111.8900001092222
 30
0.0
 11
224.4000000499684
 21
111.8900001092222
 31
0.0
  0
LINE
  5
B4F3
330
1A
100
AcDbEntity
  8
0
100
AcDbLine
 10
223.4000000499684
 20
111.8900001092222
 30
0.0
 11
223.4000000499685
 21
106.5900001092222
 31
0.0
  0
LINE
  5
B4F4
330
1A
100
AcDbEntity
  8
0
100
AcDbLine
 10
221.9000000499685
 20
111.8900001092222
 30
0.0
 11
221.9000000499685
 21
106.5900001092222
 31
0.0
  0
LINE
  5
B4F5
330
1A
100
AcDbEntity
  8
0
100
AcDbLine
 10
227.9000000499685
 20
112.4100001092222
 30
0.0
 11
227.9000000499685
 21
106.0100001092222
 31
0.0
  0
LINE
  5
B4F6
330
1A
100
AcDbEntity
  8
0
100
AcDbLine
 10
224.4000000499684
 20
112.4100001092222
 30
0.0
 11
224.4000000499685
 21
106.0100001092222
 31
0.0
  0
LINE
  5
B4F7
330
1A
100
AcDbEntity
  8
0
100
AcDbLine
 10
215.4000000499685
 20
113.6300001092222
 30
0.0
 11
215.4000000499685
 21
112.4100001092223
 31
0.0
  0
LINE
  5
B4F8
330
1A
100
AcDbEntity
  8
0
100
AcDbLine
 10
215.4000000499685
 20
113.6300001092222
 30
0.0
 11
227.9000000499684
 21
113.6300001092222
 31
0.0
  0
LINE
  5
B4F9
330
1A
100
AcDbEntity
  8
0
100
AcDbLine
 10
215.4000000499685
 20
106.0100001092222
 30
0.0
 11
227.9000000499685
 21
106.0100001092222
 31
0.0
  0
LINE
  5
B4FA
330
1A
100
AcDbEntity
  8
0
100
AcDbLine
 10
215.4000000499685
 20
112.4100001092222
 30
0.0
 11
227.9000000499685
 21
112.4100001092222
 31
0.0
  0
ELLIPSE
  5
B4FB
330
1A
100
AcDbEntity
  8
0
100
AcDbEllipse
 10
221.1000000499685
 20
109.1900001092222
 30
0.0
 11
-0.000000000000001
 21
-2.399999999999977
 31
0.0
210
0.0
220
0.0
230
1.0
 40
0.5416666666666529
 41
2.478718829939674
 42
6.946059130829823
  0
LINE
  5
B4FC
330
1A
100
AcDbEntity
  8
0
100
AcDbLine
 10
221.9000000499685
 20
119.5300001092222
 30
0.0
 11
221.9000000499685
 21
114.2300001092222
 31
0.0
  0
LINE
  5
B4FD
330
1A
100
AcDbEntity
  8
0
100
AcDbLine
 10
223.4000000499684
 20
119.5300001092222
 30
0.0
 11
223.4000000499685
 21
114.2300001092222
 31
0.0
  0
ELLIPSE
  5
B4FE
330
1A
100
AcDbEntity
  8
0
100
AcDbEllipse
 10
221.1000000499685
 20
116.8300001092221
 30
0.0
 11
-0.000000000000001
 21
-2.399999999999977
 31
0.0
210
0.0
220
0.0
230
1.0
 40
0.5416666666666529
 41
2.478718829939674
 42
6.946059130829823
  0
LINE
  5
B4FF
330
1A
100
AcDbEntity
  8
0
100
AcDbLine
 10
227.9000000499685
 20
120.0300001092222
 30
0.0
 11
227.9000000499685
 21
113.6300001092222
 31
0.0
  0
LINE
  5
B500
330
1A
100
AcDbEntity
  8
0
100
AcDbLine
 10
224.4000000499685
 20
120.0300001092222
 30
0.0
 11
224.4000000499685
 21
113.6300001092222
 31
0.0
  0
LINE
  5
B501
330
1A
100
AcDbEntity
  8
0
100
AcDbLine
 10
224.4000000499685
 20
104.7900001092223
 30
0.0
 11
224.4000000499685
 21
103.7900001092223
 31
0.0
  0
LINE
  5
B502
330
1A
100
AcDbEntity
  8
SUNPOU
100
AcDbLine
 10
217.4000000499685
 20
103.7900001092223
 30
0.0
 11
213.6000000499684
 21
103.7900001092223
 31
0.0
  0
LINE
  5
B503
330
1A
100
AcDbEntity
  8
0
100
AcDbLine
 10
215.4000000499685
 20
106.0100001092223
 30
0.0
 11
215.4000000499685
 21
104.7900001092223
 31
0.0
  0
LINE
  5
B504
330
1A
100
AcDbEntity
  8
0
100
AcDbLine
 10
230.2000000499685
 20
103.7900001092223
 30
0.0
 11
224.4000000499685
 21
103.7900001092223
 31
0.0
  0
LINE
  5
B505
330
1A
100
AcDbEntity
  8
0
100
AcDbLine
 10
215.4000000499685
 20
104.7900001092223
 30
0.0
 11
230.2000000499685
 21
104.7900001092224
 31
0.0
  0
LINE
  5
B506
330
1A
100
AcDbEntity
  8
0
100
AcDbLine
 10
215.4000000499685
 20
136.4900001092222
 30
0.0
 11
215.4000000499685
 21
135.2700001092222
 31
0.0
  0
LINE
  5
B507
330
1A
100
AcDbEntity
  8
SUNPOU
100
AcDbLine
 10
213.6000000499684
 20
103.7900001092223
 30
0.0
 11
213.6000000499685
 21
183.1900001092222
 31
0.0
  0
LINE
  5
B508
330
1A
100
AcDbEntity
  8
SUNPOU
100
AcDbLine
 10
217.4000000499685
 20
103.7900001092223
 30
0.0
 11
217.4000000499685
 21
183.1900001092222
 31
0.0
  0
LINE
  5
B50E
330
1A
100
AcDbEntity
  8
PARTS
100
AcDbLine
 10
229.4000000499684
 20
184.7500001092222
 30
0.0
 11
229.4000000499684
 21
183.1900001092222
 31
0.0
  0
LINE
  5
B50F
330
1A
100
AcDbEntity
  8
PARTS
100
AcDbLine
 10
230.2000000499686
 20
184.7500001092222
 30
0.0
 11
229.4000000499684
 21
184.7500001092222
 31
0.0
  0
VIEWPORT
  5
22
102
{ACAD_XDICTIONARY
360
B538
102
}
330
17
100
AcDbEntity
 67
     1
  8
0
100
AcDbViewport
 10
261.5176991150442
 20
154.7242978687078
 30
0.0
 40
523.0353982300885
 41
309.4485957374157
 68
     1
 69
     1
 12
261.5176991150442
 22
154.7242978687078
 13
0.0
 23
0.0
 14
1.0
 24
1.0
 15
10.0
 25
10.0
 16
0.0
 26
0.0
 36
1.0
 17
0.0
 27
0.0
 37
0.0
 42
50.0
 43
0.0
 44
0.0
 45
309.4485957374157
 50
0.0
 51
0.0
 72
   100
 90
    32768
  1

281
     0
 71
     1
 74
     0
110
0.0
120
0.0
130
0.0
111
1.0
121
0.0
131
0.0
112
0.0
122
1.0
132
0.0
 79
     0
146
0.0
  0
ENDSEC
  0
SECTION
  2
OBJECTS
  0
DICTIONARY
  5
C
330
0
100
AcDbDictionary
281
     1
  3
ACAD_COLOR
350
8AAA
  3
ACAD_GROUP
350
D
  3
ACAD_LAYOUT
350
8A9A
  3
ACAD_MATERIAL
350
8AA9
  3
ACAD_MLINESTYLE
350
E
  3
ACAD_PLOTSETTINGS
350
8A9B
  3
ACAD_PLOTSTYLENAME
350
8A98
  3
ACDBHEADERROUNDTRIPXREC
350
B535
  3
ACDBVARIABLEDICTIONARY
350
4B08
  3
CONTENTDICTIONARY
350
4210
  0
DICTIONARY
  5
9F8D
330
2
100
AcDbDictionary
280
     1
281
     1
  3
ACAD_LAYERSTATES
360
9F8E
  0
DICTIONARY
  5
B538
330
22
100
AcDbDictionary
280
     1
281
     1
  3
ACAD_XREC_ROUNDTRIP
360
B539
  0
DICTIONARY
  5
8AAA
102
{ACAD_REACTORS
330
C
102
}
330
C
100
AcDbDictionary
281
     1
  0
DICTIONARY
  5
D
102
{ACAD_REACTORS
330
C
102
}
330
C
100
AcDbDictionary
281
     1
  3
*A1
350
52E7
  3
*A10
350
8209
  3
*A11
350
6809
  3
*A12
350
808C
  3
*A13
350
6981
  3
*A14
350
6085
  3
*A15
350
5CF3
  3
*A16
350
5FEC
  3
*A17
350
8002
  3
*A18
350
680B
  3
*A19
350
680F
  3
*A2
350
5F5B
  3
*A20
350
8020
  3
*A21
350
6807
  3
*A22
350
605D
  3
*A23
350
5E9C
  3
*A24
350
808D
  3
*A25
350
6811
  3
*A26
350
535F
  3
*A27
350
604B
  3
*A28
350
680D
  3
*A29
350
5FE9
  3
*A3
350
5E8D
  3
*A30
350
6805
  3
*A31
350
71FC
  3
*A32
350
8003
  3
*A33
350
8208
  3
*A34
350
601E
  3
*A35
350
6806
  3
*A36
350
820A
  3
*A37
350
680C
  3
*A38
350
6062
  3
*A39
350
6C92
  3
*A4
350
8001
  3
*A40
350
6804
  3
*A41
350
5FE3
  3
*A42
350
535E
  3
*A43
350
6802
  3
*A44
350
6803
  3
*A45
350
680A
  3
*A46
350
7006
  3
*A47
350
8000
  3
*A48
350
71CC
  3
*A49
350
71CD
  3
*A5
350
5FF2
  3
*A50
350
5FCE
  3
*A51
350
8012
  3
*A52
350
6808
  3
*A53
350
5FC9
  3
*A54
350
5EB8
  3
*A55
350
808E
  3
*A56
350
680E
  3
*A6
350
6801
  3
*A7
350
6810
  3
*A8
350
5F6A
  3
*A9
350
5FF1
  0
DICTIONARY
  5
8A9A
102
{ACAD_REACTORS
330
C
102
}
330
C
100
AcDbDictionary
281
     1
  3
Model
350
8A9C
  3
ﾚｲｱｳﾄ1
350
8A9D
  0
DICTIONARY
  5
8AA9
102
{ACAD_REACTORS
330
C
102
}
330
C
100
AcDbDictionary
281
     1
  0
DICTIONARY
  5
E
102
{ACAD_REACTORS
330
C
102
}
330
C
100
AcDbDictionary
281
     1
  3
STANDARD
350
13
  0
DICTIONARY
  5
8A9B
102
{ACAD_REACTORS
330
C
102
}
330
C
100
AcDbDictionary
281
     1
  0
ACDBDICTIONARYWDFLT
  5
8A98
102
{ACAD_REACTORS
330
C
102
}
330
C
100
AcDbDictionary
281
     1
  3
Normal
350
8A99
100
AcDbDictionaryWithDefault
340
8A99
  0
DICTIONARY
  5
B535
102
{ACAD_REACTORS
330
C
102
}
330
C
100
AcDbDictionary
281
     1
  3
COLORDICT
350
B537
  3
MATERIALDICT
350
B536
  0
DICTIONARY
  5
4B08
102
{ACAD_REACTORS
330
C
102
}
330
C
100
AcDbDictionary
281
     1
  3
DIMASSOC
350
8AA2
  3
PROJECTNAME
350
B529
  3
SORTENTS
350
4B09
  0
DICTIONARY
  5
4210
102
{ACAD_REACTORS
330
C
102
}
330
C
100
AcDbDictionary
281
     1
  0
DICTIONARY
  5
9F8E
102
{ACAD_REACTORS
330
9F8D
102
}
330
9F8D
100
AcDbDictionary
281
     1
  0
XRECORD
  5
B539
102
{ACAD_REACTORS
330
B538
102
}
330
B538
100
AcDbXrecord
280
     1
102
SHADEPLOT
 70
     0
  0
GROUP
  5
52E7
102
{ACAD_REACTORS
330
D
102
}
330
D
100
AcDbGroup
300

 70
     1
 71
     1
  0
GROUP
  5
8209
102
{ACAD_REACTORS
330
D
102
}
330
D
100
AcDbGroup
300

 70
     1
 71
     1
  0
GROUP
  5
6809
102
{ACAD_REACTORS
330
D
102
}
330
D
100
AcDbGroup
300

 70
     1
 71
     1
  0
GROUP
  5
808C
102
{ACAD_REACTORS
330
D
102
}
330
D
100
AcDbGroup
300

 70
     1
 71
     1
  0
GROUP
  5
6981
102
{ACAD_REACTORS
330
D
102
}
330
D
100
AcDbGroup
300

 70
     1
 71
     1
  0
GROUP
  5
6085
102
{ACAD_REACTORS
330
D
102
}
330
D
100
AcDbGroup
300

 70
     1
 71
     1
  0
GROUP
  5
5CF3
102
{ACAD_REACTORS
330
D
102
}
330
D
100
AcDbGroup
300

 70
     1
 71
     1
  0
GROUP
  5
5FEC
102
{ACAD_REACTORS
330
D
102
}
330
D
100
AcDbGroup
300

 70
     1
 71
     1
  0
GROUP
  5
8002
102
{ACAD_REACTORS
330
D
102
}
330
D
100
AcDbGroup
300

 70
     1
 71
     1
  0
GROUP
  5
680B
102
{ACAD_REACTORS
330
D
102
}
330
D
100
AcDbGroup
300

 70
     1
 71
     1
  0
GROUP
  5
680F
102
{ACAD_REACTORS
330
D
102
}
330
D
100
AcDbGroup
300

 70
     1
 71
     1
  0
GROUP
  5
5F5B
102
{ACAD_REACTORS
330
D
102
}
330
D
100
AcDbGroup
300

 70
     1
 71
     1
  0
GROUP
  5
8020
102
{ACAD_REACTORS
330
D
102
}
330
D
100
AcDbGroup
300

 70
     1
 71
     1
  0
GROUP
  5
6807
102
{ACAD_REACTORS
330
D
102
}
330
D
100
AcDbGroup
300

 70
     1
 71
     1
  0
GROUP
  5
605D
102
{ACAD_REACTORS
330
D
102
}
330
D
100
AcDbGroup
300

 70
     1
 71
     1
  0
GROUP
  5
5E9C
102
{ACAD_REACTORS
330
D
102
}
330
D
100
AcDbGroup
300

 70
     1
 71
     1
  0
GROUP
  5
808D
102
{ACAD_REACTORS
330
D
102
}
330
D
100
AcDbGroup
300

 70
     1
 71
     1
  0
GROUP
  5
6811
102
{ACAD_REACTORS
330
D
102
}
330
D
100
AcDbGroup
300

 70
     1
 71
     1
  0
GROUP
  5
535F
102
{ACAD_REACTORS
330
D
102
}
330
D
100
AcDbGroup
300

 70
     1
 71
     1
  0
GROUP
  5
604B
102
{ACAD_REACTORS
330
D
102
}
330
D
100
AcDbGroup
300

 70
     1
 71
     1
  0
GROUP
  5
680D
102
{ACAD_REACTORS
330
D
102
}
330
D
100
AcDbGroup
300

 70
     1
 71
     1
  0
GROUP
  5
5FE9
102
{ACAD_REACTORS
330
D
102
}
330
D
100
AcDbGroup
300

 70
     1
 71
     1
  0
GROUP
  5
5E8D
102
{ACAD_REACTORS
330
D
102
}
330
D
100
AcDbGroup
300

 70
     1
 71
     1
  0
GROUP
  5
6805
102
{ACAD_REACTORS
330
D
102
}
330
D
100
AcDbGroup
300

 70
     1
 71
     1
  0
GROUP
  5
71FC
102
{ACAD_REACTORS
330
D
102
}
330
D
100
AcDbGroup
300

 70
     1
 71
     1
  0
GROUP
  5
8003
102
{ACAD_REACTORS
330
D
102
}
330
D
100
AcDbGroup
300

 70
     1
 71
     1
  0
GROUP
  5
8208
102
{ACAD_REACTORS
330
D
102
}
330
D
100
AcDbGroup
300

 70
     1
 71
     1
  0
GROUP
  5
601E
102
{ACAD_REACTORS
330
D
102
}
330
D
100
AcDbGroup
300

 70
     1
 71
     1
  0
GROUP
  5
6806
102
{ACAD_REACTORS
330
D
102
}
330
D
100
AcDbGroup
300

 70
     1
 71
     1
  0
GROUP
  5
820A
102
{ACAD_REACTORS
330
D
102
}
330
D
100
AcDbGroup
300

 70
     1
 71
     1
  0
GROUP
  5
680C
102
{ACAD_REACTORS
330
D
102
}
330
D
100
AcDbGroup
300

 70
     1
 71
     1
  0
GROUP
  5
6062
102
{ACAD_REACTORS
330
D
102
}
330
D
100
AcDbGroup
300

 70
     1
 71
     1
  0
GROUP
  5
6C92
102
{ACAD_REACTORS
330
D
102
}
330
D
100
AcDbGroup
300

 70
     1
 71
     1
  0
GROUP
  5
8001
102
{ACAD_REACTORS
330
D
102
}
330
D
100
AcDbGroup
300

 70
     1
 71
     1
  0
GROUP
  5
6804
102
{ACAD_REACTORS
330
D
102
}
330
D
100
AcDbGroup
300

 70
     1
 71
     1
  0
GROUP
  5
5FE3
102
{ACAD_REACTORS
330
D
102
}
330
D
100
AcDbGroup
300

 70
     1
 71
     1
  0
GROUP
  5
535E
102
{ACAD_REACTORS
330
D
102
}
330
D
100
AcDbGroup
300

 70
     1
 71
     1
  0
GROUP
  5
6802
102
{ACAD_REACTORS
330
D
102
}
330
D
100
AcDbGroup
300

 70
     1
 71
     1
  0
GROUP
  5
6803
102
{ACAD_REACTORS
330
D
102
}
330
D
100
AcDbGroup
300

 70
     1
 71
     1
  0
GROUP
  5
680A
102
{ACAD_REACTORS
330
D
102
}
330
D
100
AcDbGroup
300

 70
     1
 71
     1
  0
GROUP
  5
7006
102
{ACAD_REACTORS
330
D
102
}
330
D
100
AcDbGroup
300

 70
     1
 71
     1
  0
GROUP
  5
8000
102
{ACAD_REACTORS
330
D
102
}
330
D
100
AcDbGroup
300

 70
     1
 71
     1
  0
GROUP
  5
71CC
102
{ACAD_REACTORS
330
D
102
}
330
D
100
AcDbGroup
300

 70
     1
 71
     1
  0
GROUP
  5
71CD
102
{ACAD_REACTORS
330
D
102
}
330
D
100
AcDbGroup
300

 70
     1
 71
     1
  0
GROUP
  5
5FF2
102
{ACAD_REACTORS
330
D
102
}
330
D
100
AcDbGroup
300

 70
     1
 71
     1
  0
GROUP
  5
5FCE
102
{ACAD_REACTORS
330
D
102
}
330
D
100
AcDbGroup
300

 70
     1
 71
     1
  0
GROUP
  5
8012
102
{ACAD_REACTORS
330
D
102
}
330
D
100
AcDbGroup
300

 70
     1
 71
     1
  0
GROUP
  5
6808
102
{ACAD_REACTORS
330
D
102
}
330
D
100
AcDbGroup
300

 70
     1
 71
     1
  0
GROUP
  5
5FC9
102
{ACAD_REACTORS
330
D
102
}
330
D
100
AcDbGroup
300

 70
     1
 71
     1
  0
GROUP
  5
5EB8
102
{ACAD_REACTORS
330
D
102
}
330
D
100
AcDbGroup
300

 70
     1
 71
     1
  0
GROUP
  5
808E
102
{ACAD_REACTORS
330
D
102
}
330
D
100
AcDbGroup
300

 70
     1
 71
     1
  0
GROUP
  5
680E
102
{ACAD_REACTORS
330
D
102
}
330
D
100
AcDbGroup
300

 70
     1
 71
     1
  0
GROUP
  5
6801
102
{ACAD_REACTORS
330
D
102
}
330
D
100
AcDbGroup
300

 70
     1
 71
     1
  0
GROUP
  5
6810
102
{ACAD_REACTORS
330
D
102
}
330
D
100
AcDbGroup
300

 70
     1
 71
     1
  0
GROUP
  5
5F6A
102
{ACAD_REACTORS
330
D
102
}
330
D
100
AcDbGroup
300

 70
     1
 71
     1
  0
GROUP
  5
5FF1
102
{ACAD_REACTORS
330
D
102
}
330
D
100
AcDbGroup
300

 70
     1
 71
     1
  0
LAYOUT
  5
8A9C
102
{ACAD_XDICTIONARY
360
B53A
102
}
102
{ACAD_REACTORS
330
8A9A
102
}
330
8A9A
100
AcDbPlotSettings
  1

  2
pdf_A3横.pc3
  4
A3
  6

 40
3.174999952316284
 41
3.174999952316284
 42
3.17498779296875
 43
3.17498779296875
 44
420.1583251953125
 45
297.0530090332031
 46
0.0
 47
0.0
 48
0.0
 49
0.0
140
0.0
141
0.0
142
1.0
143
1.0
 70
 11952
 72
     1
 73
     0
 74
     2
  7
tmi_penstyle.ctb
 75
    16
147
1.0
148
0.0
149
0.0
100
AcDbLayout
  1
Model
 70
     1
 71
     0
 10
0.0
 20
0.0
 11
12.0
 21
9.0
 12
0.0
 22
0.0
 32
0.0
 14
0.0
 24
0.0
 34
0.0
 15
0.0
 25
0.0
 35
0.0
146
0.0
 13
0.0
 23
0.0
 33
0.0
 16
1.0
 26
0.0
 36
0.0
 17
0.0
 27
1.0
 37
0.0
 76
     0
330
1A
  0
LAYOUT
  5
8A9D
102
{ACAD_XDICTIONARY
360
B53C
102
}
102
{ACAD_REACTORS
330
8A9A
102
}
330
8A9A
100
AcDbPlotSettings
  1

  2
EPSON LP-8300 (TMINETWORK)
  4

  6

 40
0.0
 41
0.0
 42
0.0
 43
0.0
 44
0.0
 45
0.0
 46
0.0
 47
0.0
 48
0.0
 49
0.0
140
0.0
141
0.0
142
1.0
143
1.0
 70
   688
 72
     0
 73
     0
 74
     5
  7
tmi_penstyle.ctb
 75
    16
147
1.0
148
0.0
149
0.0
100
AcDbLayout
  1
ﾚｲｱｳﾄ1
 70
     1
 71
     1
 10
0.0
 20
0.0
 11
420.0
 21
297.0
 12
0.0
 22
0.0
 32
0.0
 14
1.000000000000000E+20
 24
1.000000000000000E+20
 34
1.000000000000000E+20
 15
-1.000000000000000E+20
 25
-1.000000000000000E+20
 35
-1.000000000000000E+20
146
0.0
 13
0.0
 23
0.0
 33
0.0
 16
1.0
 26
0.0
 36
0.0
 17
0.0
 27
1.0
 37
0.0
 76
     0
330
17
331
22
  0
MLINESTYLE
  5
13
102
{ACAD_REACTORS
330
E
102
}
330
E
100
AcDbMlineStyle
  2
STANDARD
 70
     0
  3

 62
     0
 51
90.0
 52
90.0
 71
     2
 49
0.5
 62
   256
  6
BYLAYER
 49
-0.5
 62
   256
  6
BYLAYER
  0
ACDBPLACEHOLDER
  5
8A99
102
{ACAD_REACTORS
330
8A98
102
}
330
8A98
  0
XRECORD
  5
B537
102
{ACAD_REACTORS
330
B535
102
}
330
B535
100
AcDbXrecord
280
     1
340
8AAA
  0
XRECORD
  5
B536
102
{ACAD_REACTORS
330
B535
102
}
330
B535
100
AcDbXrecord
280
     1
340
8AA9
  0
DICTIONARYVAR
  5
8AA2
102
{ACAD_REACTORS
330
4B08
102
}
330
4B08
100
DictionaryVariables
280
     0
  1
1
  0
DICTIONARYVAR
  5
B529
102
{ACAD_REACTORS
330
4B08
102
}
330
4B08
100
DictionaryVariables
280
     0
  1

  0
DICTIONARYVAR
  5
4B09
102
{ACAD_REACTORS
330
4B08
102
}
330
4B08
100
DictionaryVariables
280
     0
  1
96
  0
DICTIONARY
  5
B53A
330
8A9C
100
AcDbDictionary
280
     1
281
     1
  3
ACAD_XREC_ROUNDTRIP
360
B53B
  0
DICTIONARY
  5
B53C
330
8A9D
100
AcDbDictionary
280
     1
281
     1
  3
ACAD_XREC_ROUNDTRIP
360
B53D
  0
XRECORD
  5
B53B
102
{ACAD_REACTORS
330
B53A
102
}
330
B53A
100
AcDbXrecord
280
     1
102
SHADEPLOT
 70
     0
102
SHADEPLOTRESLEVEL
 70
     2
102
SHADEPLOTCUSTOMDPI
 70
   300
  0
XRECORD
  5
B53D
102
{ACAD_REACTORS
330
B53C
102
}
330
B53C
100
AcDbXrecord
280
     1
102
SHADEPLOT
 70
     0
102
SHADEPLOTRESLEVEL
 70
     2
102
SHADEPLOTCUSTOMDPI
 70
   300
  0
ENDSEC
  0
EOF
