  0
SECTION
  2
HEADER
  9
$ACADVER
  1
AC1015
  9
$ACADMAINTVER
 70
    20
  9
$DWGCODEPAGE
  3
ANSI_932
  9
$INSBASE
 10
0.0
 20
0.0
 30
0.0
  9
$EXTMIN
 10
20.0
 20
5.0
 30
0.0
  9
$EXTMAX
 10
405.0
 20
280.0
 30
0.0
  9
$LIMMIN
 10
0.0
 20
0.0
  9
$LIMMAX
 10
420.0
 20
297.0
  9
$ORTHOMODE
 70
     0
  9
$REGENMODE
 70
     1
  9
$FILLMODE
 70
     1
  9
$QTEXTMODE
 70
     0
  9
$MIRRTEXT
 70
     1
  9
$LTSCALE
 40
15.0
  9
$ATTMODE
 70
     1
  9
$TEXTSIZE
 40
4.0
  9
$TRACEWID
 40
1.0
  9
$TEXTSTYLE
  7
STANDARD
  9
$CLAYER
  8
0
  9
$CELTYPE
  6
BYLAYER
  9
$CECOLOR
 62
   256
  9
$CELTSCALE
 40
1.0
  9
$DISPSILH
 70
     0
  9
$DIMSCALE
 40
0.0
  9
$DIMASZ
 40
2.5
  9
$DIMEXO
 40
0.5
  9
$DIMDLI
 40
10.0
  9
$DIMRND
 40
0.0
  9
$DIMDLE
 40
0.0
  9
$DIMEXE
 40
0.5
  9
$DIMTP
 40
0.0
  9
$DIMTM
 40
0.0
  9
$DIMTXT
 40
4.0
  9
$DIMCEN
 40
0.0
  9
$DIMTSZ
 40
0.0
  9
$DIMTOL
 70
     0
  9
$DIMLIM
 70
     0
  9
$DIMTIH
 70
     0
  9
$DIMTOH
 70
     0
  9
$DIMSE1
 70
     0
  9
$DIMSE2
 70
     0
  9
$DIMTAD
 70
     1
  9
$DIMZIN
 70
     0
  9
$DIMBLK
  1

  9
$DIMASO
 70
     1
  9
$DIMSHO
 70
     1
  9
$DIMPOST
  1

  9
$DIMAPOST
  1

  9
$DIMALT
 70
     0
  9
$DIMALTD
 70
     2
  9
$DIMALTF
 40
25.4
  9
$DIMLFAC
 40
1.0
  9
$DIMTOFL
 70
     0
  9
$DIMTVP
 40
0.0
  9
$DIMTIX
 70
     0
  9
$DIMSOXD
 70
     0
  9
$DIMSAH
 70
     1
  9
$DIMBLK1
  1
OPEN
  9
$DIMBLK2
  1
OPEN
  9
$DIMSTYLE
  2
STANDARD
  9
$DIMCLRD
 70
     0
  9
$DIMCLRE
 70
     0
  9
$DIMCLRT
 70
     0
  9
$DIMTFAC
 40
1.0
  9
$DIMGAP
 40
0.5
  9
$DIMJUST
 70
     0
  9
$DIMSD1
 70
     0
  9
$DIMSD2
 70
     0
  9
$DIMTOLJ
 70
     1
  9
$DIMTZIN
 70
     0
  9
$DIMALTZ
 70
     0
  9
$DIMALTTZ
 70
     0
  9
$DIMUPT
 70
     0
  9
$DIMDEC
 70
     2
  9
$DIMTDEC
 70
     2
  9
$DIMALTU
 70
     2
  9
$DIMALTTD
 70
     2
  9
$DIMTXSTY
  7
STANDARD
  9
$DIMAUNIT
 70
     0
  9
$DIMADEC
 70
     1
  9
$DIMALTRND
 40
0.0
  9
$DIMAZIN
 70
     0
  9
$DIMDSEP
 70
    46
  9
$DIMATFIT
 70
     3
  9
$DIMFRAC
 70
     0
  9
$DIMLDRBLK
  1
OPEN
  9
$DIMLUNIT
 70
     2
  9
$DIMLWD
 70
    -2
  9
$DIMLWE
 70
    -2
  9
$DIMTMOVE
 70
     0
  9
$LUNITS
 70
     2
  9
$LUPREC
 70
     4
  9
$SKETCHINC
 40
1.0
  9
$FILLETRAD
 40
0.8
  9
$AUNITS
 70
     0
  9
$AUPREC
 70
     0
  9
$MENU
  1
.
  9
$ELEVATION
 40
0.0
  9
$PELEVATION
 40
0.0
  9
$THICKNESS
 40
0.0
  9
$LIMCHECK
 70
     0
  9
$CHAMFERA
 40
0.3
  9
$CHAMFERB
 40
0.3
  9
$CHAMFERC
 40
20.0
  9
$CHAMFERD
 40
0.0
  9
$SKPOLY
 70
     0
  9
$TDCREATE
 40
2450857.620429745
  9
$TDUCREATE
 40
2450857.245429745
  9
$TDUPDATE
 40
2458212.443184167
  9
$TDUUPDATE
 40
2458212.068184167
  9
$TDINDWG
 40
8.6897048380
  9
$TDUSRTIMER
 40
8.6897048380
  9
$USRTIMER
 70
     1
  9
$ANGBASE
 50
0.0
  9
$ANGDIR
 70
     0
  9
$PDMODE
 70
     0
  9
$PDSIZE
 40
0.0
  9
$PLINEWID
 40
0.0
  9
$SPLFRAME
 70
     0
  9
$SPLINETYPE
 70
     6
  9
$SPLINESEGS
 70
     8
  9
$HANDSEED
  5
12EB5
  9
$SURFTAB1
 70
     6
  9
$SURFTAB2
 70
     6
  9
$SURFTYPE
 70
     6
  9
$SURFU
 70
     6
  9
$SURFV
 70
     6
  9
$UCSBASE
  2

  9
$UCSNAME
  2

  9
$UCSORG
 10
0.0
 20
0.0
 30
0.0
  9
$UCSXDIR
 10
1.0
 20
0.0
 30
0.0
  9
$UCSYDIR
 10
0.0
 20
1.0
 30
0.0
  9
$UCSORTHOREF
  2

  9
$UCSORTHOVIEW
 70
     0
  9
$UCSORGTOP
 10
0.0
 20
0.0
 30
0.0
  9
$UCSORGBOTTOM
 10
0.0
 20
0.0
 30
0.0
  9
$UCSORGLEFT
 10
0.0
 20
0.0
 30
0.0
  9
$UCSORGRIGHT
 10
0.0
 20
0.0
 30
0.0
  9
$UCSORGFRONT
 10
0.0
 20
0.0
 30
0.0
  9
$UCSORGBACK
 10
0.0
 20
0.0
 30
0.0
  9
$PUCSBASE
  2

  9
$PUCSNAME
  2

  9
$PUCSORG
 10
0.0
 20
0.0
 30
0.0
  9
$PUCSXDIR
 10
1.0
 20
0.0
 30
0.0
  9
$PUCSYDIR
 10
0.0
 20
1.0
 30
0.0
  9
$PUCSORTHOREF
  2

  9
$PUCSORTHOVIEW
 70
     0
  9
$PUCSORGTOP
 10
0.0
 20
0.0
 30
0.0
  9
$PUCSORGBOTTOM
 10
0.0
 20
0.0
 30
0.0
  9
$PUCSORGLEFT
 10
0.0
 20
0.0
 30
0.0
  9
$PUCSORGRIGHT
 10
0.0
 20
0.0
 30
0.0
  9
$PUCSORGFRONT
 10
0.0
 20
0.0
 30
0.0
  9
$PUCSORGBACK
 10
0.0
 20
0.0
 30
0.0
  9
$USERI1
 70
     0
  9
$USERI2
 70
     0
  9
$USERI3
 70
     0
  9
$USERI4
 70
     0
  9
$USERI5
 70
     0
  9
$USERR1
 40
0.0
  9
$USERR2
 40
0.0
  9
$USERR3
 40
0.0
  9
$USERR4
 40
0.0
  9
$USERR5
 40
0.0
  9
$WORLDVIEW
 70
     1
  9
$SHADEDGE
 70
     3
  9
$SHADEDIF
 70
    70
  9
$TILEMODE
 70
     1
  9
$MAXACTVP
 70
    16
  9
$PINSBASE
 10
0.0
 20
0.0
 30
0.0
  9
$PLIMCHECK
 70
     0
  9
$PEXTMIN
 10
1.000000000000000E+20
 20
1.000000000000000E+20
 30
1.000000000000000E+20
  9
$PEXTMAX
 10
-1.000000000000000E+20
 20
-1.000000000000000E+20
 30
-1.000000000000000E+20
  9
$PLIMMIN
 10
0.0
 20
0.0
  9
$PLIMMAX
 10
420.0
 20
297.0
  9
$UNITMODE
 70
     0
  9
$VISRETAIN
 70
     0
  9
$PLINEGEN
 70
     0
  9
$PSLTSCALE
 70
     1
  9
$TREEDEPTH
 70
  3020
  9
$CMLSTYLE
  2
STANDARD
  9
$CMLJUST
 70
     0
  9
$CMLSCALE
 40
1.0
  9
$PROXYGRAPHICS
 70
     1
  9
$MEASUREMENT
 70
     0
  9
$CELWEIGHT
370
    -1
  9
$ENDCAPS
280
     0
  9
$JOINSTYLE
280
     0
  9
$LWDISPLAY
290
     0
  9
$INSUNITS
 70
     0
  9
$HYPERLINKBASE
  1

  9
$STYLESHEET
  1
TMI_pen_style.ctb
  9
$XEDIT
290
     1
  9
$CEPSNTYPE
380
     0
  9
$PSTYLEMODE
290
     1
  9
$FINGERPRINTGUID
  2
{0CF6AC2F-CFB7-4513-B486-3088CC22C71C}
  9
$VERSIONGUID
  2
{9769ABF4-FF68-40F9-954F-27C217EEA465}
  9
$EXTNAMES
290
     1
  9
$PSVPSCALE
 40
0.0
  9
$OLESTARTUP
290
     0
  0
ENDSEC
  0
SECTION
  2
CLASSES
  0
CLASS
  1
DICTIONARYVAR
  2
AcDbDictionaryVar
  3
ObjectDBX Classes
 90
        0
280
     0
281
     0
  0
CLASS
  1
ACDBDICTIONARYWDFLT
  2
AcDbDictionaryWithDefault
  3
ObjectDBX Classes
 90
        0
280
     0
281
     0
  0
CLASS
  1
ACDBPLACEHOLDER
  2
AcDbPlaceHolder
  3
ObjectDBX Classes
 90
        0
280
     0
281
     0
  0
CLASS
  1
LAYOUT
  2
AcDbLayout
  3
ObjectDBX Classes
 90
        0
280
     0
281
     0
  0
ENDSEC
  0
SECTION
  2
TABLES
  0
TABLE
  2
VPORT
  5
8
330
0
100
AcDbSymbolTable
 70
     2
  0
VPORT
  5
12EAB
330
8
100
AcDbSymbolTableRecord
100
AcDbViewportTableRecord
  2
*Active
 70
     0
 10
0.0
 20
0.0
 11
1.0
 21
1.0
 12
212.499390629236
 22
142.5066153695884
 13
0.0
 23
0.0
 14
0.5
 24
0.5
 15
5.0
 25
5.0
 16
0.0
 26
0.0
 36
1.0
 17
0.0
 27
0.0
 37
0.0
 40
276.9255792640727
 41
1.822654462242562
 42
50.0
 43
0.0
 44
0.0
 50
0.0
 51
0.0
 71
     0
 72
   100
 73
     1
 74
     0
 75
     1
 76
     1
 77
     0
 78
     0
281
     0
 65
     1
110
0.0
120
0.0
130
0.0
111
1.0
121
0.0
131
0.0
112
0.0
122
1.0
132
0.0
 79
     0
146
0.0
  0
ENDTAB
  0
TABLE
  2
LTYPE
  5
5
330
0
100
AcDbSymbolTable
 70
     3
  0
LTYPE
  5
14
330
5
100
AcDbSymbolTableRecord
100
AcDbLinetypeTableRecord
  2
BYBLOCK
 70
     0
  3

 72
    65
 73
     0
 40
0.0
  0
LTYPE
  5
15
330
5
100
AcDbSymbolTableRecord
100
AcDbLinetypeTableRecord
  2
BYLAYER
 70
     0
  3

 72
    65
 73
     0
 40
0.0
  0
LTYPE
  5
16
330
5
100
AcDbSymbolTableRecord
100
AcDbLinetypeTableRecord
  2
CONTINUOUS
 70
     0
  3
Solid line
 72
    65
 73
     0
 40
0.0
  0
LTYPE
  5
61
330
5
100
AcDbSymbolTableRecord
100
AcDbLinetypeTableRecord
  2
CENTER2
 70
     0
  3
___ _ ___ _ ___ _ ___ _ ___ _ ___ _ ___ _ ___ _
 72
    65
 73
     4
 40
1.125
 49
0.75
 74
     0
 49
-0.125
 74
     0
 49
0.125
 74
     0
 49
-0.125
 74
     0
  0
LTYPE
  5
62
330
5
100
AcDbSymbolTableRecord
100
AcDbLinetypeTableRecord
  2
DASHED2
 70
     0
  3
_ _ _ _ _ _ _ _ _ _ _ _ _ _ _ _ _ _ _ _ _ _ _ _
 72
    65
 73
     2
 40
0.375
 49
0.25
 74
     0
 49
-0.125
 74
     0
  0
ENDTAB
  0
TABLE
  2
LAYER
  5
2
102
{ACAD_XDICTIONARY
360
11D08
102
}
330
0
100
AcDbSymbolTable
 70
     7
  0
LAYER
  5
F
330
2
100
AcDbSymbolTableRecord
100
AcDbLayerTableRecord
  2
0
 70
     0
 62
     7
  6
CONTINUOUS
370
    -3
390
8A99
  0
LAYER
  5
63
330
2
100
AcDbSymbolTableRecord
100
AcDbLayerTableRecord
  2
WAKU
 70
     0
 62
     7
  6
CONTINUOUS
370
    -3
390
8A99
  0
LAYER
  5
64
330
2
100
AcDbSymbolTableRecord
100
AcDbLayerTableRecord
  2
SUNPOU
 70
     0
 62
     5
  6
CONTINUOUS
370
    -3
390
8A99
  0
LAYER
  5
65
330
2
100
AcDbSymbolTableRecord
100
AcDbLayerTableRecord
  2
CENTER
 70
     0
 62
    14
  6
CENTER2
370
    -3
390
8A99
  0
LAYER
  5
66
330
2
100
AcDbSymbolTableRecord
100
AcDbLayerTableRecord
  2
KAGESEN
 70
     0
 62
     5
  6
DASHED2
370
    -3
390
8A99
  0
LAYER
  5
7DC
330
2
100
AcDbSymbolTableRecord
100
AcDbLayerTableRecord
  2
DEFPOINTS
 70
     0
 62
     7
  6
CONTINUOUS
290
     0
370
    -3
390
8A99
  0
LAYER
  5
12579
330
2
100
AcDbSymbolTableRecord
100
AcDbLayerTableRecord
  2
PARTS
 70
     0
 62
     5
  6
CONTINUOUS
370
    -3
390
8A99
  0
ENDTAB
  0
TABLE
  2
STYLE
  5
3
330
0
100
AcDbSymbolTable
 70
     2
  0
STYLE
  5
10
330
3
100
AcDbSymbolTableRecord
100
AcDbTextStyleTableRecord
  2
STANDARD
 70
     0
 40
0.0
 41
1.0
 50
0.0
 71
     0
 42
4.0
  3
C:\Program Files\AutoCAD LT\romans.shx
  4
C:\Program Files\AutoCAD LT\extfont.shx
  0
STYLE
  5
BFEC
330
3
100
AcDbSymbolTableRecord
100
AcDbTextStyleTableRecord
  2
ED_VECTOR
 70
     0
 40
0.0
 41
1.0
 50
0.0
 71
     0
 42
0.0
  3
MONOTXT.SHX
  4
BIGFONT.SHX
  0
ENDTAB
  0
TABLE
  2
VIEW
  5
6
330
0
100
AcDbSymbolTable
 70
     0
  0
ENDTAB
  0
TABLE
  2
UCS
  5
7
330
0
100
AcDbSymbolTable
 70
     0
  0
ENDTAB
  0
TABLE
  2
APPID
  5
9
330
0
100
AcDbSymbolTable
 70
     3
  0
APPID
  5
11
330
9
100
AcDbSymbolTableRecord
100
AcDbRegAppTableRecord
  2
ACAD
 70
     0
  0
APPID
  5
4211
330
9
100
AcDbSymbolTableRecord
100
AcDbRegAppTableRecord
  2
CONTENTTABDATA
 70
     0
  0
APPID
  5
4212
330
9
100
AcDbSymbolTableRecord
100
AcDbRegAppTableRecord
  2
CONTENTCURRENTTAB
 70
     0
  0
ENDTAB
  0
TABLE
  2
DIMSTYLE
  5
A
330
0
100
AcDbSymbolTable
 70
     8
100
AcDbDimStyleTable
 71
     1
340
1D
  0
DIMSTYLE
105
1D
102
{ACAD_REACTORS
330
DB56
330
D982
330
D99B
330
D99C
330
D99E
330
D9B9
102
}
330
A
100
AcDbSymbolTableRecord
100
AcDbDimStyleTableRecord
  2
STANDARD
 70
     0
340
10
  0
DIMSTYLE
105
24
330
A
100
AcDbSymbolTableRecord
100
AcDbDimStyleTableRecord
  2
ISO-25
 70
     0
 41
2.5
 42
0.625
 43
3.75
 44
1.25
 74
     0
 77
     1
 78
     8
140
2.5
141
2.5
143
0.0394
145
1.0
147
0.625
172
     1
340
10
  0
DIMSTYLE
105
25
330
A
100
AcDbSymbolTableRecord
100
AcDbDimStyleTableRecord
  2
ISO-35
 70
     0
 41
3.5
 42
0.875
 43
5.25
 44
1.75
 74
     0
 77
     1
 78
     8
140
3.5
141
3.5
143
0.0394
145
1.399999999999999
147
0.875
172
     1
340
10
  0
DIMSTYLE
105
26
330
A
100
AcDbSymbolTableRecord
100
AcDbDimStyleTableRecord
  2
ISO-5
 70
     0
 41
5.0
 42
1.25
 43
7.5
 44
2.5
 74
     0
 77
     1
 78
     8
140
5.0
141
5.0
143
0.0394
145
2.0
147
1.25
172
     1
340
10
  0
DIMSTYLE
105
27
330
A
100
AcDbSymbolTableRecord
100
AcDbDimStyleTableRecord
  2
ISO-7
 70
     0
 41
7.0
 42
1.75
 43
10.5
 44
3.5
 74
     0
 77
     1
 78
     8
140
7.0
141
7.0
143
0.0394
145
2.799999999999999
147
1.75
172
     1
340
10
  0
DIMSTYLE
105
28
330
A
100
AcDbSymbolTableRecord
100
AcDbDimStyleTableRecord
  2
ISO1
 70
     0
 41
10.0
 42
2.5
 43
15.0
 44
5.0
 74
     0
 77
     1
 78
     8
140
10.0
141
10.0
143
0.0394
145
4.0
147
2.5
172
     1
340
10
  0
DIMSTYLE
105
29
330
A
100
AcDbSymbolTableRecord
100
AcDbDimStyleTableRecord
  2
ISO1-4
 70
     0
 41
14.0
 42
3.5
 43
21.0
 44
7.0
 74
     0
 77
     1
 78
     8
140
14.0
141
14.0
143
0.0394
145
5.599999999999999
147
3.5
172
     1
340
10
  0
DIMSTYLE
105
2A
330
A
100
AcDbSymbolTableRecord
100
AcDbDimStyleTableRecord
  2
ISO2
 70
     0
 41
20.0
 42
5.0
 43
30.0
 44
10.0
 74
     0
 77
     1
 78
     8
140
20.0
141
20.0
143
0.0394
145
8.0
147
5.0
172
     1
340
10
  0
ENDTAB
  0
TABLE
  2
BLOCK_RECORD
  5
1
330
0
100
AcDbSymbolTable
 70
    29
  0
BLOCK_RECORD
  5
1A
330
1
100
AcDbSymbolTableRecord
100
AcDbBlockTableRecord
  2
*MODEL_SPACE
340
8A9C
  0
BLOCK_RECORD
  5
17
330
1
100
AcDbSymbolTableRecord
100
AcDbBlockTableRecord
  2
*PAPER_SPACE
340
8A9D
  0
BLOCK_RECORD
  5
BA
330
1
100
AcDbSymbolTableRecord
100
AcDbBlockTableRecord
  2
_OPEN
340
0
102
{BLKREFS
331
1193B
331
1193C
331
11944
331
11945
331
1194D
331
1194E
331
11956
331
11957
331
1195F
331
11960
331
11968
331
11969
102
}
  0
BLOCK_RECORD
  5
98E8
330
1
100
AcDbSymbolTableRecord
100
AcDbBlockTableRecord
  2
A$C34EE125E
340
0
102
{BLKREFS
331
110E3
331
110EC
331
12027
331
120C6
331
1276D
102
}
  0
BLOCK_RECORD
  5
D3B9
330
1
100
AcDbSymbolTableRecord
100
AcDbBlockTableRecord
  2
A$C2086655F
340
0
102
{BLKREFS
331
D3D8
102
}
  0
BLOCK_RECORD
  5
D3D6
330
1
100
AcDbSymbolTableRecord
100
AcDbBlockTableRecord
  2
A$C1A9113A3
340
0
102
{BLKREFS
331
12D4D
331
12D4F
102
}
  0
BLOCK_RECORD
  5
D45C
330
1
100
AcDbSymbolTableRecord
100
AcDbBlockTableRecord
  2
A$C4F832D76
340
0
102
{BLKREFS
331
DACB
102
}
  0
BLOCK_RECORD
  5
DB91
330
1
100
AcDbSymbolTableRecord
100
AcDbBlockTableRecord
  2
*D5
340
0
  0
BLOCK_RECORD
  5
DBAA
330
1
100
AcDbSymbolTableRecord
100
AcDbBlockTableRecord
  2
*D6
340
0
  0
BLOCK_RECORD
  5
DBB6
330
1
100
AcDbSymbolTableRecord
100
AcDbBlockTableRecord
  2
*D7
340
0
  0
BLOCK_RECORD
  5
DBC2
330
1
100
AcDbSymbolTableRecord
100
AcDbBlockTableRecord
  2
*D8
340
0
  0
BLOCK_RECORD
  5
DBCE
330
1
100
AcDbSymbolTableRecord
100
AcDbBlockTableRecord
  2
*D9
340
0
  0
BLOCK_RECORD
  5
DBDA
330
1
100
AcDbSymbolTableRecord
100
AcDbBlockTableRecord
  2
*D10
340
0
  0
BLOCK_RECORD
  5
F1C7
330
1
100
AcDbSymbolTableRecord
100
AcDbBlockTableRecord
  2
TM-14P-1
340
0
310
2800000020000000200000000100080000000000000400000000000000000000000000000000000000000000000080000080000000808000800000008000800080800000C0C0C000C0DCC000F0CAA6000020400000206000002080000020A0000020C0000020E00000400000004020000040400000406000004080000040A0
310
000040C0000040E00000600000006020000060400000606000006080000060A0000060C0000060E00000800000008020000080400000806000008080000080A0000080C0000080E00000A0000000A0200000A0400000A0600000A0800000A0A00000A0C00000A0E00000C0000000C0200000C0400000C0600000C0800000C0
310
A00000C0C00000C0E00000E0000000E0200000E0400000E0600000E0800000E0A00000E0C00000E0E00040000000400020004000400040006000400080004000A0004000C0004000E00040200000402020004020400040206000402080004020A0004020C0004020E000404000004040200040404000404060004040800040
310
40A0004040C0004040E00040600000406020004060400040606000406080004060A0004060C0004060E00040800000408020004080400040806000408080004080A0004080C0004080E00040A0000040A0200040A0400040A0600040A0800040A0A00040A0C00040A0E00040C0000040C0200040C0400040C0600040C08000
310
40C0A00040C0C00040C0E00040E0000040E0200040E0400040E0600040E0800040E0A00040E0C00040E0E00080000000800020008000400080006000800080008000A0008000C0008000E00080200000802020008020400080206000802080008020A0008020C0008020E00080400000804020008040400080406000804080
310
008040A0008040C0008040E00080600000806020008060400080606000806080008060A0008060C0008060E00080800000808020008080400080806000808080008080A0008080C0008080E00080A0000080A0200080A0400080A0600080A0800080A0A00080A0C00080A0E00080C0000080C0200080C0400080C0600080C0
310
800080C0A00080C0C00080C0E00080E0000080E0200080E0400080E0600080E0800080E0A00080E0C00080E0E000C0000000C0002000C0004000C0006000C0008000C000A000C000C000C000E000C0200000C0202000C0204000C0206000C0208000C020A000C020C000C020E000C0400000C0402000C0404000C0406000C0
310
408000C040A000C040C000C040E000C0600000C0602000C0604000C0606000C0608000C060A000C060C000C060E000C0800000C0802000C0804000C0806000C0808000C080A000C080C000C080E000C0A00000C0A02000C0A04000C0A06000C0A08000C0A0A000C0A0C000C0A0E000C0C00000C0C02000C0C04000C0C06000
310
C0C08000C0C0A000F0FBFF00A4A0A000808080000000FF0000FF000000FFFF00FF000000FF00FF00FFFF0000FFFFFF00FFFFFFFFFFFFFFFFFFFFFFFFFFFFFFFFFFFFFFFFFFFFFFFFFFFFFFFFFFFFFFFFFFFFFFFFFFFFFFFFFFFFFFFFFFFF00000000FFFFFFFFFFFFFFFFFFFFFFFFFFFFFFFFFFFFFFFFFFFFFFFFFFFFFFFF00
310
FC0000FFFFFFFFFFFFFFFFFFFFFFFFFFFFFFFFFFFFFFFFFFFFFFFFFFFFFFFF00FC0000FFFFFFFFFFFFFFFFFFFFFFFFFFFFFFFFFFFFFFFFFFFFFFFFFFFFFFFF00FCFC00FFFFFFFFFFFFFFFFFFFFFFFFFFFFFFFFFFFFFFFFFFFFFFFFFFFFFFFF00FCFC00FFFFFFFFFFFFFFFFFFFFFFFFFFFFFFFFFFFFFFFFFFFFFFFFFFFFFFFF
310
00FCFC00FFFFFFFFFFFFFFFFFFFFFFFFFFFFFFFFFFFFFFFFFFFFFFFFFFFFFFFF00FCFC00FFFFFFFFFFFFFFFFFFFFFFFFFFFFFFFFFFFFFFFFFFFFFFFFFFFFFFFF00FC0000FFFFFFFFFFFFFFFFFFFFFFFFFFFFFFFFFFFFFFFFFFFFFFFFFFFFFFFF00FC0000FFFFFFFFFFFFFFFFFFFFFFFFFFFFFFFFFFFFFFFFFFFFFFFFFFFFFF
310
FF00FCFC00FFFFFFFFFFFFFFFFFFFFFFFFFFFFFFFFFFFFFFFFFFFFFFFFFFFFFFFF00FCFC00FFFFFFFFFFFFFFFFFFFFFFFFFFFFFFFFFFFFFFFFFFFFFFFFFFFFFFFF00FC0000FFFFFFFFFFFFFFFFFFFFFFFFFFFFFFFFFFFFFFFFFFFFFFFFFFFFFFFF00FC0000FFFFFFFFFFFFFFFFFFFFFFFFFFFFFFFFFFFFFFFFFFFFFFFFFFFF
310
FFFF00FCFC00FFFFFFFFFFFFFFFFFFFFFFFFFFFFFFFFFFFFFFFFFFFFFFFFFFFFFFFF00000000FFFFFFFFFFFFFFFFFFFFFFFFFFFFFFFFFFFFFFFFFFFFFFFFFFFFFFFF00FC0000FFFFFFFFFFFFFFFFFFFFFFFFFFFFFFFFFFFFFFFFFFFFFFFFFFFFFFFF00FC0000FFFFFFFFFFFFFFFFFFFFFFFFFFFFFFFFFFFFFFFFFFFFFFFFFF
310
FFFFFF00FCFC00FFFFFFFFFFFFFFFFFFFFFFFFFFFFFFFFFFFFFFFFFFFFFFFFFFFFFFFF00FCFC00FFFFFFFFFFFFFFFFFFFFFFFFFFFFFFFFFFFFFFFFFFFFFFFFFFFFFFFF00000000FFFFFFFFFFFFFFFFFFFFFFFFFFFFFFFFFFFFFFFFFFFFFFFFFFFFFFFF00000000FFFFFFFFFFFFFFFFFFFFFFFFFFFFFFFFFFFFFFFFFFFFFFFF
310
FFFFFFFF00FCFC00FFFFFFFFFFFFFFFFFFFFFFFFFFFFFFFFFFFFFFFFFFFFFFFFFFFFFFFF00FC0000FFFFFFFFFFFFFFFFFFFFFFFFFFFFFFFFFFFFFFFFFFFFFFFFFFFFFFFF00FC0000FFFFFFFFFFFFFFFFFFFFFFFFFFFFFFFFFFFFFFFFFFFFFFFFFFFFFFFF00000000FFFFFFFFFFFFFFFFFFFFFFFFFFFFFFFFFFFFFFFFFFFFFF
310
FFFFFFFFFF00FC0000FFFFFFFFFFFFFFFFFFFFFFFFFFFFFFFFFFFFFFFFFFFFFFFFFFFFFFFF00FC0000FFFFFFFFFFFFFFFFFFFFFFFFFFFFFFFFFFFFFFFFFFFFFFFFFFFFFFFF00FC0000FFFFFFFFFFFFFFFFFFFFFFFFFFFFFFFFFFFFFFFFFFFFFFFFFFFFFFFF00FC0000FFFFFFFFFFFFFFFFFFFFFFFFFFFFFFFFFFFFFFFFFFFF
310
FFFFFFFFFFFF00000000FFFFFFFFFFFFFFFFFFFFFFFFFFFFFFFFFFFFFFFFFFFFFFFFFFFFFFFFFFFFFFFFFFFFFFFFFFFFFFFFFFFFFFFFFFFF
102
{BLKREFS
331
12CA2
102
}
  0
BLOCK_RECORD
  5
FDCB
330
1
100
AcDbSymbolTableRecord
100
AcDbBlockTableRecord
  2
NB-310DF-3
340
0
310
2800000020000000200000000100080000000000000400000000000000000000000000000000000000000000000080000080000000808000800000008000800080800000C0C0C000C0DCC000F0CAA6000020400000206000002080000020A0000020C0000020E00000400000004020000040400000406000004080000040A0
310
000040C0000040E00000600000006020000060400000606000006080000060A0000060C0000060E00000800000008020000080400000806000008080000080A0000080C0000080E00000A0000000A0200000A0400000A0600000A0800000A0A00000A0C00000A0E00000C0000000C0200000C0400000C0600000C0800000C0
310
A00000C0C00000C0E00000E0000000E0200000E0400000E0600000E0800000E0A00000E0C00000E0E00040000000400020004000400040006000400080004000A0004000C0004000E00040200000402020004020400040206000402080004020A0004020C0004020E000404000004040200040404000404060004040800040
310
40A0004040C0004040E00040600000406020004060400040606000406080004060A0004060C0004060E00040800000408020004080400040806000408080004080A0004080C0004080E00040A0000040A0200040A0400040A0600040A0800040A0A00040A0C00040A0E00040C0000040C0200040C0400040C0600040C08000
310
40C0A00040C0C00040C0E00040E0000040E0200040E0400040E0600040E0800040E0A00040E0C00040E0E00080000000800020008000400080006000800080008000A0008000C0008000E00080200000802020008020400080206000802080008020A0008020C0008020E00080400000804020008040400080406000804080
310
008040A0008040C0008040E00080600000806020008060400080606000806080008060A0008060C0008060E00080800000808020008080400080806000808080008080A0008080C0008080E00080A0000080A0200080A0400080A0600080A0800080A0A00080A0C00080A0E00080C0000080C0200080C0400080C0600080C0
310
800080C0A00080C0C00080C0E00080E0000080E0200080E0400080E0600080E0800080E0A00080E0C00080E0E000C0000000C0002000C0004000C0006000C0008000C000A000C000C000C000E000C0200000C0202000C0204000C0206000C0208000C020A000C020C000C020E000C0400000C0402000C0404000C0406000C0
310
408000C040A000C040C000C040E000C0600000C0602000C0604000C0606000C0608000C060A000C060C000C060E000C0800000C0802000C0804000C0806000C0808000C080A000C080C000C080E000C0A00000C0A02000C0A04000C0A06000C0A08000C0A0A000C0A0C000C0A0E000C0C00000C0C02000C0C04000C0C06000
310
C0C08000C0C0A000F0FBFF00A4A0A000808080000000FF0000FF000000FFFF00FF000000FF00FF00FFFF0000FFFFFF00FFFFFFFFFFFFFFFFFFFFFFFFFFFFFFFFFFFFFFFFFFFFFFFFFFFFFFFFFFFFFFFFFFFFFFFFFFFFFFFFFFFFFFFFFFFFFF000000FFFFFFFFFFFFFFFFFFFFFFFFFFFFFFFFFFFFFFFFFFFFFFFFFF00000000
310
FFFFFF00000000FFFFFFFFFFFFFFFFFFFFFFFFFFFFFFFFFFFF000000FFFFFFFFFFFFFFFFFFFFFF0000FFFFFFFFFFFFFFFFFFFFFFFFFFFFFF00FFFFFFFFFFFFFFFFFFFFFFFFFFFFFFFF00FFFFFFFFFFFFFFFFFFFFFFFFFF00FFFFFFFFFCFCFCFCFCFCFCFCFCFCFFFFFFFF00FFFFFFFFFFFFFFFFFFFFFF00FFFFFFFFFCFFFFFF
310
FFFFFFFFFFFFFFFCFFFFFFFF00FFFFFFFFFFFFFFFFFF00FFFFFFFFFCFFFFFFFFFFFFFFFFFFFFFFFFFCFFFFFFFF00FFFFFFFFFFFFFF00FFFFFFFFFCFFFFFFFFFFFFFFFFFFFFFFFFFFFFFCFFFFFFFF00FFFFFFFFFFFF00FFFFFFFCFFFFFFFFFFFFFFFFFFFFFFFFFFFFFFFFFCFFFFFF00FFFFFFFFFFFF00FFFFFCFFFFFFFFFFFF
310
FFFFFFFFFFFFFFFFFFFFFFFFFCFFFFFF00FFFFFFFF00FFFFFCFFFFFFFFFFFFFFFFFFFFFFFFFFFFFFFFFFFFFFFFFCFFFF00FFFFFFFF00FCFCFCFCFCFCFCFCFCFCFCFCFCFCFCFCFCFCFCFCFCFCFCFCFCFC00FFFFFFFF00FFFFFFFFFFFFFFFFFFFFFFFFFFFFFFFFFFFFFFFFFFFFFFFFFFFF00FFFFFFFF00FFFFFFFFFFFFFFFFFF
310
FFFFFFFFFFFFFFFFFFFFFFFFFFFFFFFFFFFF00FFFF00FFFFFFFFFFFFFFFFFFFFFFFFFFFFFFFFFFFFFFFFFFFFFFFFFFFFFFFF00FFFF00FFFFFFFFFFFFFFFFFFFFFFFFFFFFFFFFFFFFFFFFFFFFFFFFFFFFFFFF00FFFF00FFFFFFFFFFFFFFFFFFFFFFFFFFFFFFFFFFFFFFFFFFFFFFFFFFFFFFFF00FFFFFF00FFFFFFFFFFFFFFFF
310
FFFFFFFFFFFFFFFFFFFFFFFFFFFFFFFFFFFF00FFFFFFFF00FCFCFCFCFCFCFCFCFCFCFCFCFCFCFCFCFCFCFCFCFCFCFCFCFCFC00FFFFFFFF00FFFFFCFFFFFFFFFFFFFFFFFFFFFFFFFFFFFFFFFFFFFFFFFCFFFF00FFFFFFFF00FFFFFFFCFFFFFFFFFFFFFFFFFFFFFFFFFFFFFFFFFFFFFCFFFFFF00FFFFFFFFFF00FFFFFFFCFFFF
310
FFFFFFFFFFFFFFFFFFFFFFFFFFFFFCFFFFFF00FFFFFFFFFFFF00FFFFFFFFFCFFFFFFFFFFFFFFFFFFFFFFFFFFFFFCFFFFFFFF00FFFFFFFFFFFFFF00FFFFFFFFFCFFFFFFFFFFFFFFFFFFFFFFFFFCFFFFFFFF00FFFFFFFFFFFFFFFFFF00FFFFFFFFFCFFFFFFFFFFFFFFFFFFFFFCFFFFFFFF00FFFFFFFFFFFFFFFFFFFFFF00FFFF
310
FFFFFCFCFCFCFCFCFCFCFCFCFFFFFFFF00FFFFFFFFFFFFFFFFFFFFFFFFFF00FFFFFFFFFFFFFFFFFFFFFFFFFFFFFFFF00FFFFFFFFFFFFFFFFFFFFFFFFFFFFFF0000FFFFFFFFFFFFFFFFFFFFFFFF0000FFFFFFFFFFFFFFFFFFFFFFFFFFFFFFFFFFFF00000000FFFFFFFF00000000FFFFFFFFFFFFFFFFFFFFFFFFFFFFFFFFFFFF
310
FFFFFFFFFFFF00000000FFFFFFFFFFFFFFFFFFFFFFFFFFFFFFFFFFFFFFFFFFFFFFFFFFFFFFFFFFFFFFFFFFFFFFFFFFFFFFFFFFFFFFFFFFFF
  0
BLOCK_RECORD
  5
117D8
330
1
100
AcDbSymbolTableRecord
100
AcDbBlockTableRecord
  2
M3-TOP
340
0
310
2800000020000000200000000100080000000000000400000000000000000000000000000000000000000000000080000080000000808000800000008000800080800000C0C0C000C0DCC000F0CAA6000020400000206000002080000020A0000020C0000020E00000400000004020000040400000406000004080000040A0
310
000040C0000040E00000600000006020000060400000606000006080000060A0000060C0000060E00000800000008020000080400000806000008080000080A0000080C0000080E00000A0000000A0200000A0400000A0600000A0800000A0A00000A0C00000A0E00000C0000000C0200000C0400000C0600000C0800000C0
310
A00000C0C00000C0E00000E0000000E0200000E0400000E0600000E0800000E0A00000E0C00000E0E00040000000400020004000400040006000400080004000A0004000C0004000E00040200000402020004020400040206000402080004020A0004020C0004020E000404000004040200040404000404060004040800040
310
40A0004040C0004040E00040600000406020004060400040606000406080004060A0004060C0004060E00040800000408020004080400040806000408080004080A0004080C0004080E00040A0000040A0200040A0400040A0600040A0800040A0A00040A0C00040A0E00040C0000040C0200040C0400040C0600040C08000
310
40C0A00040C0C00040C0E00040E0000040E0200040E0400040E0600040E0800040E0A00040E0C00040E0E00080000000800020008000400080006000800080008000A0008000C0008000E00080200000802020008020400080206000802080008020A0008020C0008020E00080400000804020008040400080406000804080
310
008040A0008040C0008040E00080600000806020008060400080606000806080008060A0008060C0008060E00080800000808020008080400080806000808080008080A0008080C0008080E00080A0000080A0200080A0400080A0600080A0800080A0A00080A0C00080A0E00080C0000080C0200080C0400080C0600080C0
310
800080C0A00080C0C00080C0E00080E0000080E0200080E0400080E0600080E0800080E0A00080E0C00080E0E000C0000000C0002000C0004000C0006000C0008000C000A000C000C000C000E000C0200000C0202000C0204000C0206000C0208000C020A000C020C000C020E000C0400000C0402000C0404000C0406000C0
310
408000C040A000C040C000C040E000C0600000C0602000C0604000C0606000C0608000C060A000C060C000C060E000C0800000C0802000C0804000C0806000C0808000C080A000C080C000C080E000C0A00000C0A02000C0A04000C0A06000C0A08000C0A0A000C0A0C000C0A0E000C0C00000C0C02000C0C04000C0C06000
310
C0C08000C0C0A000F0FBFF00A4A0A000808080000000FF0000FF000000FFFF00FF000000FF00FF00FFFF0000FFFFFF00FFFFFFFFFFFFFFFFFFFFFFFFFFFFFFFFFFFFFFFFFFFFFFFFFFFFFFFFFFFFFFFFFFFFFFFFFFFFFFFFFFFFFFFFFFFF000000FFFFFFFFFFFFFFFFFFFFFFFFFFFFFFFFFFFFFFFFFFFFFFFFFF00000000FF
310
FFFF00000000FFFFFFFFFFFFFFFFFFFFFFFFFFFFFFFFFFFFFF0000FFFFFFFFFFFFFFFFFFFFFF000000FFFFFFFFFFFFFFFFFFFFFFFFFFFFFF00FFFFFFFFFFFFFFFFFFFFFFFFFFFFFFFF00FFFFFFFFFFFFFFFFFFFFFFFFFF00FFFFFFFFFFFFFFFFFFFFFFFFFFFFFFFFFFFF00FFFFFFFFFFFFFFFFFFFFFF00FFFFFFFFFFFF0000
310
000000000000FFFFFFFFFFFF00FFFFFFFFFFFFFFFFFF00FFFFFFFFFFFFFF00FFFFFFFFFFFF00FFFFFFFFFFFFFF00FFFFFFFFFFFFFF00FFFFFFFFFFFFFFFF00FFFFFFFFFFFF00FFFFFFFFFFFFFFFF00FFFFFFFFFFFF00FFFFFFFFFFFFFFFF00FFFFFFFFFFFF00FFFFFFFFFFFFFFFF00FFFFFFFFFFFF00FFFFFFFFFFFFFFFF00
310
FFFFFFFFFFFF00FFFFFFFFFFFFFFFFFF00FFFFFFFF00FFFFFFFFFFFFFFFFFF00FFFFFFFFFFFF00FFFFFFFFFFFFFFFFFF00FFFFFFFF00FFFFFF00000000000000FFFFFFFFFFFF00000000000000FFFFFF00FFFFFFFF00FFFFFF00FFFFFFFFFFFFFFFFFFFFFFFFFFFFFFFFFFFF00FFFFFF00FFFFFFFF00FFFFFF00FFFFFFFFFF
310
FFFFFFFFFFFFFFFFFFFFFFFFFF00FFFFFFFF00FFFF00FFFFFFFF00FFFFFFFFFFFFFFFFFFFFFFFFFFFFFFFFFFFF00FFFFFFFF00FFFF00FFFFFFFF00FFFFFFFFFFFFFFFFFFFFFFFFFFFFFFFFFFFF00FFFFFFFF00FFFF00FFFFFFFF00FFFFFFFFFFFFFFFFFFFFFFFFFFFFFFFFFFFF00FFFFFFFF00FFFFFF00FFFFFF00FFFFFFFF
310
FFFFFFFFFFFFFFFFFFFFFFFFFFFF00FFFFFF00FFFFFFFF00FFFFFF00000000000000FFFFFFFFFFFF00000000000000FFFFFF00FFFFFFFF00FFFFFFFFFFFFFFFFFF00FFFFFFFFFFFF00FFFFFFFFFFFFFFFFFF00FFFFFFFF00FFFFFFFFFFFFFFFFFF00FFFFFFFFFFFF00FFFFFFFFFFFFFFFFFF00FFFFFFFFFF00FFFFFFFFFFFF
310
FFFF00FFFFFFFFFFFF00FFFFFFFFFFFFFFFF00FFFFFFFFFFFF00FFFFFFFFFFFFFFFF00FFFFFFFFFFFF00FFFFFFFFFFFFFFFF00FFFFFFFFFFFFFF00FFFFFFFFFFFFFF00FFFFFFFFFFFF00FFFFFFFFFFFFFF00FFFFFFFFFFFFFFFFFF00FFFFFFFFFFFF0000000000000000FFFFFFFFFFFF00FFFFFFFFFFFFFFFFFFFFFF00FFFF
310
FFFFFFFFFFFFFFFFFFFFFFFFFFFFFFFF00FFFFFFFFFFFFFFFFFFFFFFFFFF00FFFFFFFFFFFFFFFFFFFFFFFFFFFFFFFF00FFFFFFFFFFFFFFFFFFFFFFFFFFFFFF0000FFFFFFFFFFFFFFFFFFFFFFFF0000FFFFFFFFFFFFFFFFFFFFFFFFFFFFFFFFFFFF00000000FFFFFFFF00000000FFFFFFFFFFFFFFFFFFFFFFFFFFFFFFFFFFFF
310
FFFFFFFFFFFF00000000FFFFFFFFFFFFFFFFFFFFFFFFFFFFFFFFFFFFFFFFFFFFFFFFFFFFFFFFFFFFFFFFFFFFFFFFFFFFFFFFFFFFFFFFFFFF
102
{BLKREFS
331
117E2
102
}
  0
BLOCK_RECORD
  5
12755
330
1
100
AcDbSymbolTableRecord
100
AcDbBlockTableRecord
  2
A$C7A444F53
340
0
  0
BLOCK_RECORD
  5
12763
330
1
100
AcDbSymbolTableRecord
100
AcDbBlockTableRecord
  2
A$C57841900
340
0
102
{BLKREFS
331
12778
331
1277D
102
}
  0
BLOCK_RECORD
  5
1276F
330
1
100
AcDbSymbolTableRecord
100
AcDbBlockTableRecord
  2
A$C30542628
340
0
  0
BLOCK_RECORD
  5
127A5
330
1
100
AcDbSymbolTableRecord
100
AcDbBlockTableRecord
  2
GL3PR-1
340
0
310
2800000020000000200000000100080000000000000400000000000000000000000000000000000000000000000080000080000000808000800000008000800080800000C0C0C000C0DCC000F0CAA6000020400000206000002080000020A0000020C0000020E00000400000004020000040400000406000004080000040A0
310
000040C0000040E00000600000006020000060400000606000006080000060A0000060C0000060E00000800000008020000080400000806000008080000080A0000080C0000080E00000A0000000A0200000A0400000A0600000A0800000A0A00000A0C00000A0E00000C0000000C0200000C0400000C0600000C0800000C0
310
A00000C0C00000C0E00000E0000000E0200000E0400000E0600000E0800000E0A00000E0C00000E0E00040000000400020004000400040006000400080004000A0004000C0004000E00040200000402020004020400040206000402080004020A0004020C0004020E000404000004040200040404000404060004040800040
310
40A0004040C0004040E00040600000406020004060400040606000406080004060A0004060C0004060E00040800000408020004080400040806000408080004080A0004080C0004080E00040A0000040A0200040A0400040A0600040A0800040A0A00040A0C00040A0E00040C0000040C0200040C0400040C0600040C08000
310
40C0A00040C0C00040C0E00040E0000040E0200040E0400040E0600040E0800040E0A00040E0C00040E0E00080000000800020008000400080006000800080008000A0008000C0008000E00080200000802020008020400080206000802080008020A0008020C0008020E00080400000804020008040400080406000804080
310
008040A0008040C0008040E00080600000806020008060400080606000806080008060A0008060C0008060E00080800000808020008080400080806000808080008080A0008080C0008080E00080A0000080A0200080A0400080A0600080A0800080A0A00080A0C00080A0E00080C0000080C0200080C0400080C0600080C0
310
800080C0A00080C0C00080C0E00080E0000080E0200080E0400080E0600080E0800080E0A00080E0C00080E0E000C0000000C0002000C0004000C0006000C0008000C000A000C000C000C000E000C0200000C0202000C0204000C0206000C0208000C020A000C020C000C020E000C0400000C0402000C0404000C0406000C0
310
408000C040A000C040C000C040E000C0600000C0602000C0604000C0606000C0608000C060A000C060C000C060E000C0800000C0802000C0804000C0806000C0808000C080A000C080C000C080E000C0A00000C0A02000C0A04000C0A06000C0A08000C0A0A000C0A0C000C0A0E000C0C00000C0C02000C0C04000C0C06000
310
C0C08000C0C0A000F0FBFF00A4A0A000808080000000FF0000FF000000FFFF00FF000000FF00FF00FFFF0000FFFFFF00FFFFFFFFFFFFFFFFFFFFFFFFFFFFFFFFFFFFFFFFFFFFFFFFFFFFFFFFFFFFFFFFFFFFFFFFFFFFFFFFFFFFFFFFFFFFFFFFFFFFFFFFFFFFFFFFFFFFFFFFFFFFFFFFFFFFFFFFFFFFFFFFFFFFFFFFFFFFFF
310
FFFFFFFFFFFFFFFFFFFFFFFFFFFFFFFFFFFFFFFFFFFFFFFFFFFFFFFFFFFFFFFFFFFFFFFFFFFFFFFFFFFFFFFFFFFFFFFFFFFFFFFFFFFFFFFFFFFFFFFFFFFFFFFFFFFFFFFFFFFFFFFFFFFFFFFFFFFFFFFFFFFFFFFFFFFFFFFFFFFFFFFFFFFFFFFFFFFFFFFFFFFFFFFFFFFFFFFCFCFCFCFCFFFFFFFFFFFFFFFFFFFFFFFFFFFFFF
310
FFFFFFFFFFFFFFFFFFFFFFFFFCFFFFFFFCFFFFFFFFFFFFFFFFFFFFFFFFFFFFFFFFFFFFFFFCFCFCFCFCFCFCFCFCFFFFFFFCFFFFFFFFFFFFFFFFFFFFFCFCFCFCFCFCFCFCFCFFFFFFFFFFFFFFFFFCFFFFFFFCFFFFFFFFFFFFFFFFFCFCFFFFFFFFFFFFFFFFFFFFFFFFFFFFFFFFFFFCFFFFFFFCFFFFFFFFFFFFFCFCFFFFFFFFFFFF
310
FFFFFFFFFFFFFFFFFFFFFFFFFFFCFFFFFFFCFFFFFFFFFCFCFFFFFFFFFFFFFFFFFFFFFFFFFFFFFFFFFFFFFFFFFFFCFFFFFFFCFFFFFFFCFFFFFFFFFFFFFFFFFFFFFFFFFFFFFFFFFFFFFFFFFFFFFFFCFFFFFFFCFFFFFFFCFFFFFFFFFFFFFFFFFFFFFFFFFFFFFFFFFFFFFFFFFFFFFFFCFFFFFFFCFFFFFFFCFFFFFFFFFFFFFFFFFF
310
FFFFFFFFFFFFFFFFFFFFFFFFFFFFFCFFFFFFFCFFFFFFFCFFFFFFFFFFFFFFFFFFFFFFFFFFFFFFFFFFFFFFFFFFFFFFFCFFFFFFFCFFFFFFFCFFFFFFFFFFFFFFFFFFFFFFFFFFFFFFFFFFFFFFFFFFFFFFFCFFFFFFFCFFFFFFFCFFFFFFFFFFFFFFFFFFFFFFFFFFFFFFFFFFFFFFFFFFFFFFFCFFFFFFFCFFFFFFFCFFFFFFFFFFFFFFFF
310
FFFFFFFFFFFFFFFFFFFFFFFFFFFFFFFCFFFFFFFCFFFFFFFCFFFFFFFFFFFFFFFFFFFFFFFFFFFFFFFFFFFFFFFFFFFFFFFCFFFFFFFCFFFFFFFFFCFCFFFFFFFFFFFFFFFFFFFFFFFFFFFFFFFFFFFFFFFFFFFCFFFFFFFCFFFFFFFFFFFFFCFCFFFFFFFFFFFFFFFFFFFFFFFFFFFFFFFFFFFFFFFCFFFFFFFCFFFFFFFFFFFFFFFFFCFCFF
310
FFFFFFFFFFFFFFFFFFFFFFFFFFFFFFFFFCFFFFFFFCFFFFFFFFFFFFFFFFFFFFFCFCFCFCFCFCFCFCFCFFFFFFFFFFFFFFFFFCFFFFFFFCFFFFFFFFFFFFFFFFFFFFFFFFFFFFFFFFFFFFFFFCFCFCFCFCFCFCFCFCFFFFFFFCFFFFFFFFFFFFFFFFFFFFFFFFFFFFFFFFFFFFFFFFFFFFFFFFFFFFFFFCFFFFFFFCFFFFFFFFFFFFFFFFFFFF
310
FFFFFFFFFFFFFFFFFFFFFFFFFFFFFFFFFFFCFCFCFCFCFFFFFFFFFFFFFFFFFFFFFFFFFFFFFFFFFFFFFFFFFFFFFFFFFFFFFFFFFFFFFFFFFFFFFFFFFFFFFFFFFFFFFFFFFFFFFFFFFFFFFFFFFFFFFFFFFFFFFFFFFFFFFFFFFFFFFFFFFFFFFFFFFFFFFFFFFFFFFFFFFFFFFFFFFFFFFFFFFFFFFFFFFFFFFFFFFFFFFFFFFFFFFFFFFF
310
FFFFFFFFFFFFFFFFFFFFFFFFFFFFFFFFFFFFFFFFFFFFFFFFFFFFFFFFFFFFFFFFFFFFFFFFFFFFFFFFFFFFFFFFFFFFFFFFFFFFFFFFFFFFFFFF
  0
BLOCK_RECORD
  5
127AF
330
1
100
AcDbSymbolTableRecord
100
AcDbBlockTableRecord
  2
S-2011A-2
340
0
310
2800000020000000200000000100080000000000000400000000000000000000000000000000000000000000000080000080000000808000800000008000800080800000C0C0C000C0DCC000F0CAA6000020400000206000002080000020A0000020C0000020E00000400000004020000040400000406000004080000040A0
310
000040C0000040E00000600000006020000060400000606000006080000060A0000060C0000060E00000800000008020000080400000806000008080000080A0000080C0000080E00000A0000000A0200000A0400000A0600000A0800000A0A00000A0C00000A0E00000C0000000C0200000C0400000C0600000C0800000C0
310
A00000C0C00000C0E00000E0000000E0200000E0400000E0600000E0800000E0A00000E0C00000E0E00040000000400020004000400040006000400080004000A0004000C0004000E00040200000402020004020400040206000402080004020A0004020C0004020E000404000004040200040404000404060004040800040
310
40A0004040C0004040E00040600000406020004060400040606000406080004060A0004060C0004060E00040800000408020004080400040806000408080004080A0004080C0004080E00040A0000040A0200040A0400040A0600040A0800040A0A00040A0C00040A0E00040C0000040C0200040C0400040C0600040C08000
310
40C0A00040C0C00040C0E00040E0000040E0200040E0400040E0600040E0800040E0A00040E0C00040E0E00080000000800020008000400080006000800080008000A0008000C0008000E00080200000802020008020400080206000802080008020A0008020C0008020E00080400000804020008040400080406000804080
310
008040A0008040C0008040E00080600000806020008060400080606000806080008060A0008060C0008060E00080800000808020008080400080806000808080008080A0008080C0008080E00080A0000080A0200080A0400080A0600080A0800080A0A00080A0C00080A0E00080C0000080C0200080C0400080C0600080C0
310
800080C0A00080C0C00080C0E00080E0000080E0200080E0400080E0600080E0800080E0A00080E0C00080E0E000C0000000C0002000C0004000C0006000C0008000C000A000C000C000C000E000C0200000C0202000C0204000C0206000C0208000C020A000C020C000C020E000C0400000C0402000C0404000C0406000C0
310
408000C040A000C040C000C040E000C0600000C0602000C0604000C0606000C0608000C060A000C060C000C060E000C0800000C0802000C0804000C0806000C0808000C080A000C080C000C080E000C0A00000C0A02000C0A04000C0A06000C0A08000C0A0A000C0A0C000C0A0E000C0C00000C0C02000C0C04000C0C06000
310
C0C08000C0C0A000F0FBFF00A4A0A000808080000000FF0000FF000000FFFF00FF000000FF00FF00FFFF0000FFFFFF00FFFFFFFFFFFFFFFFFFFFFFFFFFFFFFFFFFFFFFFFFFFFFFFFFFFFFFFFFFFFFFFFFFFFFFFFFFFFFFFFFFFFFFFFFFFFFFFFFFFFFFFFFFFFFFFFFFFFFFFFFFFFFFFFFFFFFFFFFFFFFFFFFFFFFFFFFFFFFF
310
FFFFFFFFFFFFFFFFFFFFFFFFFFFFFFFFFFFF0000000000000000000000000000000000FFFFFFFFFFFFFFFFFFFFFFFFFFFFFF00FFFFFFFFFFFFFFFFFFFFFFFFFFFFFF00FFFFFFFFFFFFFFFFFFFFFFFFFFFFFF00FFFFFFFFFFFFFFFFFFFFFFFFFFFFFC00FFFFFFFFFFFFFFFFFFFFFFFFFFFFFF00FFFFFFFFFFFFFFFFFFFFFFFF
310
FFFFFCFCFFFFFFFFFFFFFFFFFFFFFFFFFFFFFF00FFFFFFFFFFFFFFFFFFFFFFFFFFFFFC0000000000000000000000000000FFFF00FFFFFFFFFFFFFFFFFFFFFFFFFFFFFFFFFFFFFFFFFFFFFFFFFFFFFFFF00FFFF00FFFFFFFFFFFFFFFFFFFFFFFFFFFFFFFFFFFFFFFFFFFFFFFFFFFFFFFF00FFFF00FFFFFFFFFFFFFFFFFFFFFF
310
FFFFFFFFFFFFFFFFFFFFFFFFFFFFFFFFFF00FFFF00FFFFFFFFFFFFFFFFFFFFFFFFFFFFFFFFFFFFFFFFFFFFFFFFFFFFFFFF00FFFF00FFFFFFFFFFFFFFFFFFFFFFFFFFFFFCFCFFFFFFFFFFFFFFFFFFFFFCFC00FFFF00FFFFFFFFFFFFFFFFFFFFFFFFFFFFFCFFFFFFFFFFFFFFFFFFFFFFFCFC00FFFF00FFFFFFFFFFFFFFFFFFFF
310
FFFFFFFFFCFFFFFFFFFFFFFFFFFFFFFFFFFF00FFFF00FFFFFFFFFFFFFFFFFFFFFFFFFFFFFCFFFFFFFFFFFFFFFFFFFFFFFFFF00FFFF00FFFFFFFFFFFFFFFFFFFFFFFFFFFCFCFCFFFFFFFFFFFFFFFFFFFFFFFF00FFFF00FFFFFFFFFFFFFFFFFFFFFFFFFFFFFCFFFFFFFFFFFFFFFFFFFFFFFFFF00FFFF00FFFFFFFFFFFFFFFFFF
310
FFFFFFFFFFFCFFFFFFFFFFFFFFFFFFFFFFFFFF00FFFF00FFFFFFFFFFFFFFFFFFFFFFFFFFFFFCFCFFFFFFFFFFFFFFFFFFFFFFFF00FFFF00FFFFFFFFFFFFFFFFFFFFFFFFFFFFFFFFFFFFFFFFFFFFFFFFFFFFFFFF00FFFF00FFFFFFFFFFFFFFFFFFFFFFFFFFFFFFFFFFFFFFFFFFFFFFFFFFFFFFFF00FFFF00FFFFFFFFFFFFFFFF
310
FFFFFFFFFFFFFFFFFFFFFFFFFFFFFFFFFFFFFFFF00FFFF00FFFFFFFFFFFFFFFFFFFFFFFFFFFFFFFFFFFFFFFFFFFFFFFFFFFFFFFF00FFFF00FFFFFFFFFFFFFFFFFFFFFFFFFFFFFC0000000000000000000000000000FFFF00FFFFFFFFFFFFFFFFFFFFFFFFFFFFFCFCFFFFFFFFFFFFFFFFFFFFFFFFFFFFFF00FFFFFFFFFFFFFF
310
FFFFFFFFFFFFFFFC00FFFFFFFFFFFFFFFFFFFFFFFFFFFFFF00FFFFFFFFFFFFFFFFFFFFFFFFFFFFFF00FFFFFFFFFFFFFFFFFFFFFFFFFFFFFF0000000000000000000000000000000000FFFFFFFFFFFFFFFFFFFFFFFFFFFFFFFFFFFFFFFFFFFFFFFFFFFFFFFFFFFFFFFFFFFFFFFFFFFFFFFFFFFFFFFFFFFFFFFFFFFFFFFFFFFF
310
FFFFFFFFFFFFFFFFFFFFFFFFFFFFFFFFFFFFFFFFFFFFFFFFFFFFFFFFFFFFFFFFFFFFFFFFFFFFFFFFFFFFFFFFFFFFFFFFFFFFFFFFFFFFFFFF
  0
BLOCK_RECORD
  5
127C1
330
1
100
AcDbSymbolTableRecord
100
AcDbBlockTableRecord
  2
LL-6-2
340
0
310
2800000020000000200000000100080000000000000400000000000000000000000000000000000000000000000080000080000000808000800000008000800080800000C0C0C000C0DCC000F0CAA6000020400000206000002080000020A0000020C0000020E00000400000004020000040400000406000004080000040A0
310
000040C0000040E00000600000006020000060400000606000006080000060A0000060C0000060E00000800000008020000080400000806000008080000080A0000080C0000080E00000A0000000A0200000A0400000A0600000A0800000A0A00000A0C00000A0E00000C0000000C0200000C0400000C0600000C0800000C0
310
A00000C0C00000C0E00000E0000000E0200000E0400000E0600000E0800000E0A00000E0C00000E0E00040000000400020004000400040006000400080004000A0004000C0004000E00040200000402020004020400040206000402080004020A0004020C0004020E000404000004040200040404000404060004040800040
310
40A0004040C0004040E00040600000406020004060400040606000406080004060A0004060C0004060E00040800000408020004080400040806000408080004080A0004080C0004080E00040A0000040A0200040A0400040A0600040A0800040A0A00040A0C00040A0E00040C0000040C0200040C0400040C0600040C08000
310
40C0A00040C0C00040C0E00040E0000040E0200040E0400040E0600040E0800040E0A00040E0C00040E0E00080000000800020008000400080006000800080008000A0008000C0008000E00080200000802020008020400080206000802080008020A0008020C0008020E00080400000804020008040400080406000804080
310
008040A0008040C0008040E00080600000806020008060400080606000806080008060A0008060C0008060E00080800000808020008080400080806000808080008080A0008080C0008080E00080A0000080A0200080A0400080A0600080A0800080A0A00080A0C00080A0E00080C0000080C0200080C0400080C0600080C0
310
800080C0A00080C0C00080C0E00080E0000080E0200080E0400080E0600080E0800080E0A00080E0C00080E0E000C0000000C0002000C0004000C0006000C0008000C000A000C000C000C000E000C0200000C0202000C0204000C0206000C0208000C020A000C020C000C020E000C0400000C0402000C0404000C0406000C0
310
408000C040A000C040C000C040E000C0600000C0602000C0604000C0606000C0608000C060A000C060C000C060E000C0800000C0802000C0804000C0806000C0808000C080A000C080C000C080E000C0A00000C0A02000C0A04000C0A06000C0A08000C0A0A000C0A0C000C0A0E000C0C00000C0C02000C0C04000C0C06000
310
C0C08000C0C0A000F0FBFF00A4A0A000808080000000FF0000FF000000FFFF00FF000000FF00FF00FFFF0000FFFFFF00FFFFFFFFFFFFFFFFFFFFFFFFFFFFFFFFFFFFFFFFFFFFFFFFFFFFFFFFFFFFFFFFFFFFFFFFFFFFFFFFFFFFFFFFFFFFFFFFFFFFFFFFFFFFFFFFFFFFFFFFFFFFFFFFFFFFFFFFFFFFFFFFFFFFFFFFFFFFFF
310
FFFFFFFFFFFFFFFFFFFFFFFFFFFFFFFFFFFFFFFFFFFFFFFFFFFFFFFFFFFFFFFFFFFFFFFFFFFFFFFFFFFFFFFFFFFFFFFFFFFFFFFFFFFFFFFFFFFFFFFFFFFFFFFFFFFFFFFFFFFFFFFFFFFFFFFFFFFFFFFFFFFF0000000000000000000000000000000000000000000000000000FFFFFFFFFFFF00FFFFFFFFFFFFFFFFFFFFFFFF
310
FFFFFFFFFFFFFFFFFFFFFFFF00FFFFFFFFFFFF00FFFFFFFFFFFFFFFFFFFFFFFFFFFFFFFFFFFFFFFFFFFFFFFF00FFFFFFFFFFFF00FFFFFFFFFFFFFFFFFFFFFFFFFFFFFFFFFFFFFFFFFFFFFFFF00FFFFFFFFFFFF00FFFFFFFFFFFFFFFFFFFFFFFFFFFFFFFFFFFFFFFFFFFFFFFF000000FFFFFFFF00FFFFFFFFFFFFFFFFFFFFFF
310
FFFFFFFFFFFFFFFFFFFFFFFFFF00FF00FFFFFFFF00FFFFFFFFFFFFFFFFFFFFFFFFFFFFFFFFFFFFFFFFFFFFFFFF000000FFFFFFFF00FFFFFFFFFFFFFFFFFFFFFFFFFFFFFFFFFFFFFFFFFFFFFFFF00FFFFFFFFFFFF00FFFFFFFFFFFFFFFFFFFFFFFFFFFFFFFFFFFFFFFFFFFFFFFF0000FFFFFFFFFF00FFFFFFFFFFFFFFFFFFFF
310
FFFFFFFFFFFFFFFFFFFFFFFFFFFF0000FFFFFFFFFF00FFFFFFFFFFFFFFFFFFFFFFFFFFFFFFFFFFFFFFFFFFFFFFFF0000FFFFFFFFFF00FFFFFFFFFFFFFFFFFFFFFFFFFFFFFFFFFFFFFFFFFFFFFFFF0000000000FFFF00FFFFFFFFFFFFFFFFFFFFFFFFFFFFFFFFFFFFFFFFFFFFFFFF0000FFFFFFFFFF00FFFFFFFFFFFFFFFFFF
310
FFFFFFFFFFFFFFFFFFFFFFFFFFFFFF0000FFFFFFFFFF00FFFFFFFFFFFFFFFFFFFFFFFFFFFFFFFFFFFFFFFFFFFFFFFF00FFFFFFFFFFFF00FFFFFFFFFFFFFFFFFFFFFFFFFFFFFFFFFFFFFFFFFFFFFFFF000000FFFFFFFF00FFFFFFFFFFFFFFFFFFFFFFFFFFFFFFFFFFFFFFFFFFFFFFFF00FF00FFFFFFFF00FFFFFFFFFFFFFFFF
310
FFFFFFFFFFFFFFFFFFFFFFFFFFFFFFFF000000FFFFFFFF00FFFFFFFFFFFFFFFFFFFFFFFFFFFFFFFFFFFFFFFFFFFFFFFF00FFFFFFFFFFFF00FFFFFFFFFFFFFFFFFFFFFFFFFFFFFFFFFFFFFFFFFFFFFFFF00FFFFFFFFFFFF00FFFFFFFFFFFFFFFFFFFFFFFFFFFFFFFFFFFFFFFFFFFFFFFF00FFFFFFFFFFFF0000000000000000
310
000000000000000000000000000000000000FFFFFFFFFFFFFFFFFFFFFFFFFFFFFFFFFFFFFFFFFFFFFFFFFFFFFFFFFFFFFFFFFFFFFFFFFFFFFFFFFFFFFFFFFFFFFFFFFFFFFFFFFFFFFFFFFFFFFFFFFFFFFFFFFFFFFFFFFFFFFFFFFFFFFFFFFFFFFFFFFFFFFFFFFFFFFFFFFFFFFFFFFFFFFFFFFFFFFFFFFFFFFFFFFFFFFFFFFF
310
FFFFFFFFFFFFFFFFFFFFFFFFFFFFFFFFFFFFFFFFFFFFFFFFFFFFFFFFFFFFFFFFFFFFFFFFFFFFFFFFFFFFFFFFFFFFFFFFFFFFFFFFFFFFFFFF
  0
BLOCK_RECORD
  5
127D3
330
1
100
AcDbSymbolTableRecord
100
AcDbBlockTableRecord
  2
TM-14P-2
340
0
310
2800000020000000200000000100080000000000000400000000000000000000000000000000000000000000000080000080000000808000800000008000800080800000C0C0C000C0DCC000F0CAA6000020400000206000002080000020A0000020C0000020E00000400000004020000040400000406000004080000040A0
310
000040C0000040E00000600000006020000060400000606000006080000060A0000060C0000060E00000800000008020000080400000806000008080000080A0000080C0000080E00000A0000000A0200000A0400000A0600000A0800000A0A00000A0C00000A0E00000C0000000C0200000C0400000C0600000C0800000C0
310
A00000C0C00000C0E00000E0000000E0200000E0400000E0600000E0800000E0A00000E0C00000E0E00040000000400020004000400040006000400080004000A0004000C0004000E00040200000402020004020400040206000402080004020A0004020C0004020E000404000004040200040404000404060004040800040
310
40A0004040C0004040E00040600000406020004060400040606000406080004060A0004060C0004060E00040800000408020004080400040806000408080004080A0004080C0004080E00040A0000040A0200040A0400040A0600040A0800040A0A00040A0C00040A0E00040C0000040C0200040C0400040C0600040C08000
310
40C0A00040C0C00040C0E00040E0000040E0200040E0400040E0600040E0800040E0A00040E0C00040E0E00080000000800020008000400080006000800080008000A0008000C0008000E00080200000802020008020400080206000802080008020A0008020C0008020E00080400000804020008040400080406000804080
310
008040A0008040C0008040E00080600000806020008060400080606000806080008060A0008060C0008060E00080800000808020008080400080806000808080008080A0008080C0008080E00080A0000080A0200080A0400080A0600080A0800080A0A00080A0C00080A0E00080C0000080C0200080C0400080C0600080C0
310
800080C0A00080C0C00080C0E00080E0000080E0200080E0400080E0600080E0800080E0A00080E0C00080E0E000C0000000C0002000C0004000C0006000C0008000C000A000C000C000C000E000C0200000C0202000C0204000C0206000C0208000C020A000C020C000C020E000C0400000C0402000C0404000C0406000C0
310
408000C040A000C040C000C040E000C0600000C0602000C0604000C0606000C0608000C060A000C060C000C060E000C0800000C0802000C0804000C0806000C0808000C080A000C080C000C080E000C0A00000C0A02000C0A04000C0A06000C0A08000C0A0A000C0A0C000C0A0E000C0C00000C0C02000C0C04000C0C06000
310
C0C08000C0C0A000F0FBFF00A4A0A000808080000000FF0000FF000000FFFF00FF000000FF00FF00FFFF0000FFFFFF00FFFFFFFFFFFFFFFFFFFFFFFFFFFFFFFFFFFFFFFFFFFFFFFFFFFFFFFFFFFFFFFFFFFFFFFFFFFFFFFFFFFFFFFFFCFCFF000000FFFFFFFFFFFFFFFFFFFFFFFFFFFFFFFFFFFFFFFFFFFFFFFFFFFFFC0000
310
0000FCFCFFFFFFFFFFFFFFFFFFFFFFFFFFFFFFFFFFFFFFFFFFFFFFFFFFFCFC000000FCFCFCFFFFFFFFFFFFFFFFFFFFFFFFFFFFFFFFFFFFFFFFFFFFFFFFFC00000000FCFCFFFFFFFFFFFFFFFFFFFFFFFFFFFFFFFFFFFFFFFFFFFFFFFFFFFCFC000000FCFCFCFFFFFFFFFFFFFFFFFFFFFFFFFFFFFFFFFFFFFFFFFFFFFFFFFC00
310
000000FCFCFFFFFFFFFFFFFFFFFFFFFFFFFFFFFFFFFFFFFFFFFFFFFFFFFFFCFC000000FCFCFCFFFFFFFFFFFFFFFFFFFFFFFFFFFFFFFFFFFFFFFFFFFFFFFFFC00000000FCFCFFFFFFFFFFFFFFFFFFFFFFFFFFFFFFFFFFFFFFFFFFFFFFFFFFFC00000000FCFCFCFFFFFFFFFFFFFFFFFFFFFFFFFFFFFFFFFFFFFFFFFFFFFFFFFC
310
00000000FCFCFCFFFFFFFFFFFFFFFFFFFFFFFFFFFFFFFFFFFFFFFFFFFFFFFFFC00000000FCFCFCFFFFFFFFFFFFFFFFFFFFFFFFFFFFFFFFFFFFFFFFFFFFFFFFFC00000000FCFCFCFFFFFFFFFFFFFFFFFFFFFFFFFFFFFFFFFFFFFFFFFFFFFFFFFC00000000FCFCFCFFFFFFFFFFFFFFFFFFFFFFFFFFFFFFFFFFFFFFFFFFFFFFFF
310
FC00000000FCFCFCFFFFFFFFFFFFFFFFFFFFFFFFFFFFFFFFFFFFFFFFFFFFFFFFFC00000000FCFCFCFFFFFFFFFFFFFFFFFFFFFFFFFFFFFFFFFFFFFFFFFFFFFFFFFC000000FCFCFCFCFFFFFFFFFFFFFFFFFFFFFFFFFFFFFFFFFFFFFFFFFFFFFFFFFC00000000FCFCFCFFFFFFFFFFFFFFFFFFFFFFFFFFFFFFFFFFFFFFFFFFFFFF
310
FFFC00000000FCFCFCFFFFFFFFFFFFFFFFFFFFFFFFFFFFFFFFFFFFFFFFFFFFFFFFFC00000000FCFCFCFFFFFFFFFFFFFFFFFFFFFFFFFFFFFFFFFFFFFFFFFFFFFFFFFC00000000FCFCFCFFFFFFFFFFFFFFFFFFFFFFFFFFFFFFFFFFFFFFFFFFFFFFFFFC00000000FCFCFCFFFFFFFFFFFFFFFFFFFFFFFFFFFFFFFFFFFFFFFFFFFF
310
FFFFFC00000000FCFCFCFFFFFFFFFFFFFFFFFFFFFFFFFFFFFFFFFFFFFFFFFFFFFFFFFC00000000FCFCFFFFFFFFFFFFFFFFFFFFFFFFFFFFFFFFFFFFFFFFFFFFFFFFFFFCFC000000FCFCFCFFFFFFFFFFFFFFFFFFFFFFFFFFFFFFFFFFFFFFFFFFFFFFFFFC00000000FCFCFFFFFFFFFFFFFFFFFFFFFFFFFFFFFFFFFFFFFFFFFFFF
310
FFFFFFFCFC000000FCFCFCFFFFFFFFFFFFFFFFFFFFFFFFFFFFFFFFFFFFFFFFFFFFFFFFFC00000000FCFCFFFFFFFFFFFFFFFFFFFFFFFFFFFFFFFFFFFFFFFFFFFFFFFFFFFCFC000000FCFCFCFFFFFFFFFFFFFFFFFFFFFFFFFFFFFFFFFFFFFFFFFFFFFFFFFC00000000FCFCFFFFFFFFFFFFFFFFFFFFFFFFFFFFFFFFFFFFFFFFFF
310
FFFFFFFFFCFCFFFC0000FFFFFFFFFFFFFFFFFFFFFFFFFFFFFFFFFFFFFFFFFFFFFFFFFFFFFFFFFFFFFFFFFFFFFFFFFFFFFFFFFFFFFFFFFFFF
  0
BLOCK_RECORD
  5
128D1
330
1
100
AcDbSymbolTableRecord
100
AcDbBlockTableRecord
  2
Side Paneru-1
340
0
310
2800000020000000200000000100080000000000000400000000000000000000000000000000000000000000000080000080000000808000800000008000800080800000C0C0C000C0DCC000F0CAA6000020400000206000002080000020A0000020C0000020E00000400000004020000040400000406000004080000040A0
310
000040C0000040E00000600000006020000060400000606000006080000060A0000060C0000060E00000800000008020000080400000806000008080000080A0000080C0000080E00000A0000000A0200000A0400000A0600000A0800000A0A00000A0C00000A0E00000C0000000C0200000C0400000C0600000C0800000C0
310
A00000C0C00000C0E00000E0000000E0200000E0400000E0600000E0800000E0A00000E0C00000E0E00040000000400020004000400040006000400080004000A0004000C0004000E00040200000402020004020400040206000402080004020A0004020C0004020E000404000004040200040404000404060004040800040
310
40A0004040C0004040E00040600000406020004060400040606000406080004060A0004060C0004060E00040800000408020004080400040806000408080004080A0004080C0004080E00040A0000040A0200040A0400040A0600040A0800040A0A00040A0C00040A0E00040C0000040C0200040C0400040C0600040C08000
310
40C0A00040C0C00040C0E00040E0000040E0200040E0400040E0600040E0800040E0A00040E0C00040E0E00080000000800020008000400080006000800080008000A0008000C0008000E00080200000802020008020400080206000802080008020A0008020C0008020E00080400000804020008040400080406000804080
310
008040A0008040C0008040E00080600000806020008060400080606000806080008060A0008060C0008060E00080800000808020008080400080806000808080008080A0008080C0008080E00080A0000080A0200080A0400080A0600080A0800080A0A00080A0C00080A0E00080C0000080C0200080C0400080C0600080C0
310
800080C0A00080C0C00080C0E00080E0000080E0200080E0400080E0600080E0800080E0A00080E0C00080E0E000C0000000C0002000C0004000C0006000C0008000C000A000C000C000C000E000C0200000C0202000C0204000C0206000C0208000C020A000C020C000C020E000C0400000C0402000C0404000C0406000C0
310
408000C040A000C040C000C040E000C0600000C0602000C0604000C0606000C0608000C060A000C060C000C060E000C0800000C0802000C0804000C0806000C0808000C080A000C080C000C080E000C0A00000C0A02000C0A04000C0A06000C0A08000C0A0A000C0A0C000C0A0E000C0C00000C0C02000C0C04000C0C06000
310
C0C08000C0C0A000F0FBFF00A4A0A000808080000000FF0000FF000000FFFF00FF000000FF00FF00FFFF0000FFFFFF00FFFFFFFFFFFFFFFFFFFFFFFFFFFFFFFFFFFFFFFFFFFFFFFFFFFFFFFFFFFFFFFFFFFFFFFFFFFFFFFFFFFFFFFFFFFFFFFFFFFFFFFFFFFFFFFFFFFFFFFFFFFFFFFFFFFFFFFFFFFFFFFFFFFFFFFFFFFFFF
310
FFFFFFFFFFFFFFFFFFFFFFFFFFFFFFFFFFFFFFFFFFFFFFFFFFFFFFFFFFFFFFFFFFFFFFFFFFFFFFFFFFFFFFFFFFFFFFFFFFFFFFFFFFFFFFFFFFFFFFFFFFFFFFFFFFFFFFFFFFFFFFFFFFFFFFFFFFFFFFFFFFFFFFFFFFFFFFFFFFFFFFFFFFFFFFFFFFFFFFFFFFFFFFFFFFFFFFFFFFFFFFFFFFFFFFFFFFFFFFFFFFFFFFFFFFFFFF
310
FFFFFFFFFFFFFFFFFFFFFFFFFFFFFFFFFFFFFFFFFFFFFFFFFFFFFFFFFFFFFFFFFFFFFFFFFFFFFFFFFFFFFFFFFFFFFFFFFFFFFFFFFFFFFFFFFFFFFFFFFFFFFFFFFFFFFFFFFFFFFFFFFFFFFFFFFFFFFFFFFFFFFFFFFFFFFFFFFFFFFFFFFFFFFFFFFFFFFFFFFFFFFFFFFFFFFFFFFFFFFFFFFFFFFFFFFFFFFFFFFFFFFFFFFFFFFF
310
FFFFFFFFFFFFFFFFFFFFFFFFFFFFFFFFFFFFFFFFFFFFFFFFFFFFFFFFFFFFFFFFFFFFFFFFFFFFFFFFFFFFFFFFFFFFFFFFFFFFFFFFFFFFFFFFFFFFFFFFFFFFFFFFFFFFFFFFFFFFFFFFFFFFFFFFFFFFFFFFFFFFFFFFFFFFFFFFFFFFFFFFFFFFFFFFFFFFFFFFFFFFFFFFFFFFFFFFFFFFFFFFFFFFFFFFFFFFFFFFFF000000FFFFFF
310
FFFFFFFFFFFFFFFFFFFFFFFFFF000000000000FFFFFFFFFFFFFF00FC00FFFFFFFFFFFFFFFFFFFFFFFFFFFFFFFF00FCFC000000FFFFFFFFFFFF0000FCFC00000000000000000000000000000000FCFCFC000000FFFF0000000000000000000000000000000000000000000000000000000000FFFFFFFFFFFFFFFFFFFFFFFFFF
310
FFFFFFFFFFFFFFFFFFFFFFFFFFFFFFFFFFFFFFFFFFFFFFFFFFFFFFFFFFFFFFFFFFFFFFFFFFFFFFFFFFFFFFFFFFFFFFFFFFFFFFFFFFFFFFFFFFFFFFFFFFFFFFFFFFFFFFFFFFFFFFFFFFFFFFFFFFFFFFFFFFFFFFFFFFFFFFFFFFFFFFFFFFFFFFFFFFFFFFFFFFFFFFFFFFFFFFFFFFFFFFFFFFFFFFFFFFFFFFFFFFFFFFFFFFFFFF
310
FFFFFFFFFFFFFFFFFFFFFFFFFFFFFFFFFFFFFFFFFFFFFFFFFFFFFFFFFFFFFFFFFFFFFFFFFFFFFFFFFFFFFFFFFFFFFFFFFFFFFFFFFFFFFFFFFFFFFFFFFFFFFFFFFFFFFFFFFFFFFFFFFFFFFFFFFFFFFFFFFFFFFFFFFFFFFFFFFFFFFFFFFFFFFFFFFFFFFFFFFFFFFFFFFFFFFFFFFFFFFFFFFFFFFFFFFFFFFFFFFFFFFFFFFFFFFF
310
FFFFFFFFFFFFFFFFFFFFFFFFFFFFFFFFFFFFFFFFFFFFFFFFFFFFFFFFFFFFFFFFFFFFFFFFFFFFFFFFFFFFFFFFFFFFFFFFFFFFFFFFFFFFFFFFFFFFFFFFFFFFFFFFFFFFFFFFFFFFFFFFFFFFFFFFFFFFFFFFFFFFFFFFFFFFFFFFFFFFFFFFFFFFFFFFFFFFFFFFFFFFFFFFFFFFFFFFFFFFFFFFFFFFFFFFFFFFFFFFFFFFFFFFFFFFFF
310
FFFFFFFFFFFFFFFFFFFFFFFFFFFFFFFFFFFFFFFFFFFFFFFFFFFFFFFFFFFFFFFFFFFFFFFFFFFFFFFFFFFFFFFFFFFFFFFFFFFFFFFFFFFFFFFF
  0
BLOCK_RECORD
  5
1294F
330
1
100
AcDbSymbolTableRecord
100
AcDbBlockTableRecord
  2
KSP82-2
340
0
310
2800000020000000200000000100080000000000000400000000000000000000000000000000000000000000000080000080000000808000800000008000800080800000C0C0C000C0DCC000F0CAA6000020400000206000002080000020A0000020C0000020E00000400000004020000040400000406000004080000040A0
310
000040C0000040E00000600000006020000060400000606000006080000060A0000060C0000060E00000800000008020000080400000806000008080000080A0000080C0000080E00000A0000000A0200000A0400000A0600000A0800000A0A00000A0C00000A0E00000C0000000C0200000C0400000C0600000C0800000C0
310
A00000C0C00000C0E00000E0000000E0200000E0400000E0600000E0800000E0A00000E0C00000E0E00040000000400020004000400040006000400080004000A0004000C0004000E00040200000402020004020400040206000402080004020A0004020C0004020E000404000004040200040404000404060004040800040
310
40A0004040C0004040E00040600000406020004060400040606000406080004060A0004060C0004060E00040800000408020004080400040806000408080004080A0004080C0004080E00040A0000040A0200040A0400040A0600040A0800040A0A00040A0C00040A0E00040C0000040C0200040C0400040C0600040C08000
310
40C0A00040C0C00040C0E00040E0000040E0200040E0400040E0600040E0800040E0A00040E0C00040E0E00080000000800020008000400080006000800080008000A0008000C0008000E00080200000802020008020400080206000802080008020A0008020C0008020E00080400000804020008040400080406000804080
310
008040A0008040C0008040E00080600000806020008060400080606000806080008060A0008060C0008060E00080800000808020008080400080806000808080008080A0008080C0008080E00080A0000080A0200080A0400080A0600080A0800080A0A00080A0C00080A0E00080C0000080C0200080C0400080C0600080C0
310
800080C0A00080C0C00080C0E00080E0000080E0200080E0400080E0600080E0800080E0A00080E0C00080E0E000C0000000C0002000C0004000C0006000C0008000C000A000C000C000C000E000C0200000C0202000C0204000C0206000C0208000C020A000C020C000C020E000C0400000C0402000C0404000C0406000C0
310
408000C040A000C040C000C040E000C0600000C0602000C0604000C0606000C0608000C060A000C060C000C060E000C0800000C0802000C0804000C0806000C0808000C080A000C080C000C080E000C0A00000C0A02000C0A04000C0A06000C0A08000C0A0A000C0A0C000C0A0E000C0C00000C0C02000C0C04000C0C06000
310
C0C08000C0C0A000F0FBFF00A4A0A000808080000000FF0000FF000000FFFF00FF000000FF00FF00FFFF0000FFFFFF00FFFFFFFFFFFFFFFFFFFFFFFFFFFFFFFFFFFFFFFFFFFFFFFFFFFFFFFFFFFFFFFFFFFFFFFFFFFFFFFFFFFFFFFFFFFFFFFFFFFFFFFFFFFFFFFFFFFFFFFFFFFFFFFFFFFFFFFFFFFFFFFFFFFFFFFFFFFFFF
310
FFFFFFFFFFFFFFFFFFFFFFFFFFFFFFFFFFFFFFFFFFFFFFFFFFFFFFFFFFFFFFFFFFFFFFFFFFFFFFFFFFFFFFFFFFFFFFFFFFFFFFFFFFFFFFFFFFFFFFFFFFFFFFFFFFFFFFFFFFFFFFFFFFFFFFFFFFFFFFFFFFFFFFFFFFFFFFFFFFFFFFFFFFFFFFFFFFFFFFFFFFFFFFFFFFFFFFFFFFFFFFFFFFFFFFFFFFFFFFFFFFFFFFFFFFFFFF
310
FFFFFFFFFFFFFFFFFFFFFFFFFFFFFFFFFFFFFFFFFFFFFFFFFFFFFFFFFFFFFFFFFFFFFFFFFFFFFFFFFFFFFFFFFFFFFFFFFFFFFFFFFFFFFFFFFFFFFFFFFFFFFFFFFFFFFFFFFFFFFFFFFFFFFFFFFFFFFFFFFFFFFFFFFF000000FF0000FF000000000000000000000000FF0000FF000000FFFFFFFFFFFF00FF00FF0000FF00FF00
310
00FF0000FF0000FF00FF0000FF00FF00FFFFFFFF000000FF000000000000FF0000FF0000FF0000FF000000000000FFFC0000FFFF00FFFC00FCFCFC00FCFC00FCFC0000000000FC00FCFC0000FCFC00FCFF00FFFF00FFFFFFFFFFFFFFFFFFFFFFFFFFFFFFFFFFFFFFFFFFFFFFFFFFFFFFFF00FFFF00FFFFFFFFFFFFFFFFFFFF
310
FFFFFFFFFFFFFFFFFFFFFFFFFFFFFFFFFFFF00FFFF00FFFFFFFFFFFFFFFFFFFFFFFFFFFFFCFFFFFFFFFFFFFFFFFFFFFFFFFF00FFFF00FFFFFFFFFFFFFFFFFFFFFFFFFFFCFCFFFFFFFFFFFFFFFFFFFFFFFFFF00FFFF00FFFFFFFFFFFFFFFFFFFFFFFFFFFFFCFFFFFFFFFFFFFFFFFFFFFFFFFF00FFFF00FFFFFFFFFFFFFFFFFF
310
FFFFFFFFFFFFFFFFFFFFFFFFFFFFFFFFFFFFFF00FFFF00FFFFFFFFFFFFFFFFFFFFFFFFFFFFFFFFFFFFFFFFFFFFFFFFFFFFFFFF00FFFF00FFFFFFFFFFFFFFFFFFFFFFFFFFFFFFFFFFFFFFFFFFFFFFFFFFFFFFFF00FFFF000000FCFC00FCFC00FCFC0000FC0000FC0000FCFC00FCFC00FCFC000000FFFFFFFFFFFCFCFFFCFCFF
310
FCFCFFFFFCFFFFFCFFFFFCFCFFFCFCFFFCFCFFFFFFFFFFFFFFFFFFFFFFFFFFFFFFFFFFFFFFFFFFFFFFFFFFFFFFFFFFFFFFFFFFFFFFFFFFFFFFFFFFFFFFFFFFFFFFFFFFFFFFFFFFFFFFFFFFFFFFFFFFFFFFFFFFFFFFFFFFFFFFFFFFFFFFFFFFFFFFFFFFFFFFFFFFFFFFFFFFFFFFFFFFFFFFFFFFFFFFFFFFFFFFFFFFFFFFFFFF
310
FFFFFFFFFFFFFFFFFFFFFFFFFFFFFFFFFFFFFFFFFFFFFFFFFFFFFFFFFFFFFFFFFFFFFFFFFFFFFFFFFFFFFFFFFFFFFFFFFFFFFFFFFFFFFFFFFFFFFFFFFFFFFFFFFFFFFFFFFFFFFFFFFFFFFFFFFFFFFFFFFFFFFFFFFFFFFFFFFFFFFFFFFFFFFFFFFFFFFFFFFFFFFFFFFFFFFFFFFFFFFFFFFFFFFFFFFFFFFFFFFFFFFFFFFFFFFF
310
FFFFFFFFFFFFFFFFFFFFFFFFFFFFFFFFFFFFFFFFFFFFFFFFFFFFFFFFFFFFFFFFFFFFFFFFFFFFFFFFFFFFFFFFFFFFFFFFFFFFFFFFFFFFFFFF
  0
BLOCK_RECORD
  5
129A3
330
1
100
AcDbSymbolTableRecord
100
AcDbBlockTableRecord
  2
A$C72C704CE
340
0
  0
BLOCK_RECORD
  5
129AE
330
1
100
AcDbSymbolTableRecord
100
AcDbBlockTableRecord
  2
A$C47EB25E8
340
0
  0
BLOCK_RECORD
  5
129DD
330
1
100
AcDbSymbolTableRecord
100
AcDbBlockTableRecord
  2
A$C1B0B3185
340
0
  0
BLOCK_RECORD
  5
12A1B
330
1
100
AcDbSymbolTableRecord
100
AcDbBlockTableRecord
  2
ML-800S1H-2P-2
340
0
310
2800000020000000200000000100080000000000000400000000000000000000000000000000000000000000000080000080000000808000800000008000800080800000C0C0C000C0DCC000F0CAA6000020400000206000002080000020A0000020C0000020E00000400000004020000040400000406000004080000040A0
310
000040C0000040E00000600000006020000060400000606000006080000060A0000060C0000060E00000800000008020000080400000806000008080000080A0000080C0000080E00000A0000000A0200000A0400000A0600000A0800000A0A00000A0C00000A0E00000C0000000C0200000C0400000C0600000C0800000C0
310
A00000C0C00000C0E00000E0000000E0200000E0400000E0600000E0800000E0A00000E0C00000E0E00040000000400020004000400040006000400080004000A0004000C0004000E00040200000402020004020400040206000402080004020A0004020C0004020E000404000004040200040404000404060004040800040
310
40A0004040C0004040E00040600000406020004060400040606000406080004060A0004060C0004060E00040800000408020004080400040806000408080004080A0004080C0004080E00040A0000040A0200040A0400040A0600040A0800040A0A00040A0C00040A0E00040C0000040C0200040C0400040C0600040C08000
310
40C0A00040C0C00040C0E00040E0000040E0200040E0400040E0600040E0800040E0A00040E0C00040E0E00080000000800020008000400080006000800080008000A0008000C0008000E00080200000802020008020400080206000802080008020A0008020C0008020E00080400000804020008040400080406000804080
310
008040A0008040C0008040E00080600000806020008060400080606000806080008060A0008060C0008060E00080800000808020008080400080806000808080008080A0008080C0008080E00080A0000080A0200080A0400080A0600080A0800080A0A00080A0C00080A0E00080C0000080C0200080C0400080C0600080C0
310
800080C0A00080C0C00080C0E00080E0000080E0200080E0400080E0600080E0800080E0A00080E0C00080E0E000C0000000C0002000C0004000C0006000C0008000C000A000C000C000C000E000C0200000C0202000C0204000C0206000C0208000C020A000C020C000C020E000C0400000C0402000C0404000C0406000C0
310
408000C040A000C040C000C040E000C0600000C0602000C0604000C0606000C0608000C060A000C060C000C060E000C0800000C0802000C0804000C0806000C0808000C080A000C080C000C080E000C0A00000C0A02000C0A04000C0A06000C0A08000C0A0A000C0A0C000C0A0E000C0C00000C0C02000C0C04000C0C06000
310
C0C08000C0C0A000F0FBFF00A4A0A000808080000000FF0000FF000000FFFF00FF000000FF00FF00FFFF0000FFFFFF00FFFFFFFFFFFFFFFFFFFFFFFFFFFFFFFFFFFFFFFFFFFFFFFFFFFFFFFFFFFFFFFFFFFFFFFFFFFFFFFFFFFFFFFFFFFFFFFFFFFFFFFFFFFFFFFFFFFFFFFFFFFFFFFFFFFFFFFFFFFFFFFFFFFFFFFFFFFFFF
310
FFFFFFFFFFFFFFFFFFFFFFFFFFFFFFFFFFFFFFFFFFFFFFFFFFFFFFFFFFFFFFFFFFFFFFFFFFFFFFFFFFFFFFFFFFFFFFFFFFFFFFFFFFFFFFFFFFFFFFFFFFFFFFFFFFFFFFFFFFFFFFFFFFFFFFFFFFFFFFFFFFFFFFFFFFFFFFFFFFFFFFFFFFFFFFFFFFFFFFFFFFFFFFFFFFFFFFFFFFFFFFFFFFFFFCFCFCFCFCFCFCFCFCFCFCFCFC
310
FCFCFCFCFCFCFCFCFCFCFCFCFCFCFCFCFCFFFFFCFFFFFFFCFFFFFFFFFFFFFFFFFFFFFFFFFFFFFFFFFFFFFFFFFFFFFFFFFCFFFFFCFCFCFCFCFCFCFCFCFCFCFCFCFCFCFCFCFCFCFCFCFCFCFCFCFCFCFCFCFCFFFFFCFFFCFFFCFFFFFFFFFFFFFFFFFFFFFFFFFFFFFFFFFFFFFFFFFFFFFFFFFCFFFFFCFFFCFCFCFFFFFFFFFFFFFF
310
FFFFFFFFFFFFFFFFFFFFFFFFFFFFFFFFFFFCFFFFFCFFFCFFFCFFFFFFFFFFFFFFFFFFFFFFFFFFFFFFFFFFFFFFFFFFFFFFFFFCFFFFFCFFFCFFFCFFFFFFFFFFFCFFFFFFFFFFFFFFFFFCFFFFFFFFFFFFFFFFFFFCFFFFFCFFFCFCFCFFFFFFFFFFFCFCFCFFFFFFFFFFFFFCFCFFFFFFFFFFFFFFFFFCFFFFFCFFFCFFFCFFFFFFFFFFFF
310
FFFFFFFFFFFFFFFFFFFFFFFFFFFFFFFFFFFFFCFFFFFCFCFCFFFCFFFFFFFFFFFFFFFFFFFFFFFFFFFFFFFFFFFFFFFFFFFFFFFFFCFFFFFCFFFFFFFCFFFFFFFFFFFFFFFFFFFFFFFFFFFFFFFFFFFFFFFFFFFFFFFFFCFFFFFCFCFCFCFCFCFCFCFCFCFCFCFCFCFCFCFCFCFCFCFCFCFCFCFCFCFCFCFCFCFFFFFCFFFCFCFCFFFFFFFFFF
310
FFFFFFFFFFFFFFFFFFFFFFFFFFFFFFFFFFFFFFFCFFFFFCFFFCFFFCFFFFFFFFFFFFFFFFFFFFFFFFFFFFFFFFFFFFFFFFFFFFFFFFFCFFFFFCFFFCFFFCFFFFFFFFFFFCFFFFFFFFFFFFFFFFFCFFFFFFFFFFFFFFFFFFFCFFFFFCFFFCFFFCFFFFFFFFFFFCFCFCFFFFFFFFFFFFFCFCFFFFFFFFFFFFFFFFFCFFFFFCFFFCFCFCFFFFFFFF
310
FFFCFCFFFFFFFFFFFFFFFCFFFFFFFFFFFFFFFFFFFCFFFFFCFCFCFFFCFFFFFFFFFFFFFFFFFFFFFFFFFFFFFFFFFFFFFFFFFFFFFFFFFCFFFFFCFFFFFFFCFFFFFFFFFFFFFFFFFFFFFFFFFFFFFFFFFFFFFFFFFFFFFFFFFCFFFFFCFCFCFCFCFCFCFCFCFCFCFCFCFCFCFCFCFCFCFCFCFCFCFCFCFCFCFCFCFCFFFFFFFFFFFFFFFFFFFF
310
FFFFFFFFFFFFFFFFFFFFFFFFFFFFFFFFFFFFFFFFFFFFFFFFFFFFFFFFFFFFFFFFFFFFFFFFFFFFFFFFFFFFFFFFFFFFFFFFFFFFFFFFFFFFFFFFFFFFFFFFFFFFFFFFFFFFFFFFFFFFFFFFFFFFFFFFFFFFFFFFFFFFFFFFFFFFFFFFFFFFFFFFFFFFFFFFFFFFFFFFFFFFFFFFFFFFFFFFFFFFFFFFFFFFFFFFFFFFFFFFFFFFFFFFFFFFFF
310
FFFFFFFFFFFFFFFFFFFFFFFFFFFFFFFFFFFFFFFFFFFFFFFFFFFFFFFFFFFFFFFFFFFFFFFFFFFFFFFFFFFFFFFFFFFFFFFFFFFFFFFFFFFFFFFF
  0
BLOCK_RECORD
  5
12A31
330
1
100
AcDbSymbolTableRecord
100
AcDbBlockTableRecord
  2
CT-20EP-2
340
0
310
2800000020000000200000000100080000000000000400000000000000000000000000000000000000000000000080000080000000808000800000008000800080800000C0C0C000C0DCC000F0CAA6000020400000206000002080000020A0000020C0000020E00000400000004020000040400000406000004080000040A0
310
000040C0000040E00000600000006020000060400000606000006080000060A0000060C0000060E00000800000008020000080400000806000008080000080A0000080C0000080E00000A0000000A0200000A0400000A0600000A0800000A0A00000A0C00000A0E00000C0000000C0200000C0400000C0600000C0800000C0
310
A00000C0C00000C0E00000E0000000E0200000E0400000E0600000E0800000E0A00000E0C00000E0E00040000000400020004000400040006000400080004000A0004000C0004000E00040200000402020004020400040206000402080004020A0004020C0004020E000404000004040200040404000404060004040800040
310
40A0004040C0004040E00040600000406020004060400040606000406080004060A0004060C0004060E00040800000408020004080400040806000408080004080A0004080C0004080E00040A0000040A0200040A0400040A0600040A0800040A0A00040A0C00040A0E00040C0000040C0200040C0400040C0600040C08000
310
40C0A00040C0C00040C0E00040E0000040E0200040E0400040E0600040E0800040E0A00040E0C00040E0E00080000000800020008000400080006000800080008000A0008000C0008000E00080200000802020008020400080206000802080008020A0008020C0008020E00080400000804020008040400080406000804080
310
008040A0008040C0008040E00080600000806020008060400080606000806080008060A0008060C0008060E00080800000808020008080400080806000808080008080A0008080C0008080E00080A0000080A0200080A0400080A0600080A0800080A0A00080A0C00080A0E00080C0000080C0200080C0400080C0600080C0
310
800080C0A00080C0C00080C0E00080E0000080E0200080E0400080E0600080E0800080E0A00080E0C00080E0E000C0000000C0002000C0004000C0006000C0008000C000A000C000C000C000E000C0200000C0202000C0204000C0206000C0208000C020A000C020C000C020E000C0400000C0402000C0404000C0406000C0
310
408000C040A000C040C000C040E000C0600000C0602000C0604000C0606000C0608000C060A000C060C000C060E000C0800000C0802000C0804000C0806000C0808000C080A000C080C000C080E000C0A00000C0A02000C0A04000C0A06000C0A08000C0A0A000C0A0C000C0A0E000C0C00000C0C02000C0C04000C0C06000
310
C0C08000C0C0A000F0FBFF00A4A0A000808080000000FF0000FF000000FFFF00FF000000FF00FF00FFFF0000FFFFFF00FFFFFFFFFFFFFFFFFFFFFFFFFFFFFFFFFFFFFFFFFFFFFFFFFFFFFFFFFFFFFFFFFFFFFFFFFFFFFFFFFFFFFFFFFFFFFFFFFFFFFFFFFFFFFFFFFFFFFFFFFFFFFFFFFFFFFFFFFFFFFFFFFFFFFFFFFFFFFF
310
FFFFFFFFFFFFFFFFFFFFFFFFFFFFFFFFFFFFFFFFFFFFFFFFFFFFFFFFFFFFFFFFFFFFFFFFFFFFFFFFFFFFFFFFFFFFFFFFFFFFFFFFFFFFFFFFFFFFFFFFFFFFFFFFFFFFFFFFFFFFFFFFFFFFFFFFFFFFFFFFFFFFFFFFFFFFFFFFFFFFFFFFFFFFFFFFFFFFFFFFFFFFFFFFFFFFFFFFFFFFFFFFFFFFFFFFFFFFFFFFFFFFFFFFFFFFFF
310
FFFFFFFFFFFFFFFFFFFFFFFFFFFFFFFFFFFFFFFFFFFFFFFFFFFFFFFFFFFFFFFFFFFFFFFFFFFFFFFFFFFFFFFFFFFFFFFFFFFFFFFFFFFFFFFFFFFFFFFFFFFFFFFFFFFFFFFFFFFFFFFFFFFFFFFFFFFFFFFFFFFFFFFFFFFFFFFFFFFFFFFFFFFFFFFFFFFFFFFFFFFFFFFFFFFFFFFFFFFFFFFFFFFFFFFFFFFFFFFFFFFFFFFFFFFFFF
310
FFFFFFFFFFFFFFFFFFFFFFFFFFFFFFFFFFFFFFFFFFFFFFFFFFFFFFFFFFFFFFFFFFFFFFFFFFFFFFFFFFFFFFFFFFFFFFFFFFFFFFFFFFFFFCFCFCFCFCFCFCFCFCFCFCFCFCFCFCFCFCFCFCFCFCFCFCFCFCFCFCFCFFFFFFFFFCFFFFFFFFFFFFFFFFFFFFFFFFFFFFFFFFFFFFFFFFFFFFFFFFFFFFFCFFFFFCFCFCFFFFFFFFFFFFFFFF
310
FFFFFFFFFFFFFFFFFFFFFFFFFFFFFFFFFFFFFCFFFFFCFFFCFFFFFFFFFFFFFFFFFFFFFFFFFFFFFFFFFFFFFFFFFFFFFFFFFFFFFCFFFFFCFFFCFFFFFFFFFFFFFFFFFFFFFFFFFFFFFFFFFFFFFFFFFFFFFFFFFFFFFCFFFFFCFCFCFFFFFFFFFFFFFFFFFFFFFFFFFFFFFFFFFFFFFFFFFFFFFFFFFFFFFCFFFFFFFFFCFFFFFFFFFFFFFF
310
FFFFFFFFFFFFFFFFFFFFFFFFFFFFFFFFFFFFFFFCFFFFFFFFFCFCFCFCFCFCFCFCFCFCFCFCFCFCFCFCFCFCFCFCFCFCFCFCFCFCFCFCFFFFFFFFFFFFFFFFFFFFFFFFFFFFFFFFFFFFFFFFFFFFFFFFFFFFFFFFFFFFFFFFFFFFFFFFFFFFFFFFFFFFFFFFFFFFFFFFFFFFFFFFFFFFFFFFFFFFFFFFFFFFFFFFFFFFFFFFFFFFFFFFFFFFFF
310
FFFFFFFFFFFFFFFFFFFFFFFFFFFFFFFFFFFFFFFFFFFFFFFFFFFFFFFFFFFFFFFFFFFFFFFFFFFFFFFFFFFFFFFFFFFFFFFFFFFFFFFFFFFFFFFFFFFFFFFFFFFFFFFFFFFFFFFFFFFFFFFFFFFFFFFFFFFFFFFFFFFFFFFFFFFFFFFFFFFFFFFFFFFFFFFFFFFFFFFFFFFFFFFFFFFFFFFFFFFFFFFFFFFFFFFFFFFFFFFFFFFFFFFFFFFFFF
310
FFFFFFFFFFFFFFFFFFFFFFFFFFFFFFFFFFFFFFFFFFFFFFFFFFFFFFFFFFFFFFFFFFFFFFFFFFFFFFFFFFFFFFFFFFFFFFFFFFFFFFFFFFFFFFFFFFFFFFFFFFFFFFFFFFFFFFFFFFFFFFFFFFFFFFFFFFFFFFFFFFFFFFFFFFFFFFFFFFFFFFFFFFFFFFFFFFFFFFFFFFFFFFFFFFFFFFFFFFFFFFFFFFFFFFFFFFFFFFFFFFFFFFFFFFFFFF
310
FFFFFFFFFFFFFFFFFFFFFFFFFFFFFFFFFFFFFFFFFFFFFFFFFFFFFFFFFFFFFFFFFFFFFFFFFFFFFFFFFFFFFFFFFFFFFFFFFFFFFFFFFFFFFFFF
  0
BLOCK_RECORD
  5
12A3B
330
1
100
AcDbSymbolTableRecord
100
AcDbBlockTableRecord
  2
APE1F-6M-10-Z-2
340
0
310
2800000020000000200000000100080000000000000400000000000000000000000000000000000000000000000080000080000000808000800000008000800080800000C0C0C000C0DCC000F0CAA6000020400000206000002080000020A0000020C0000020E00000400000004020000040400000406000004080000040A0
310
000040C0000040E00000600000006020000060400000606000006080000060A0000060C0000060E00000800000008020000080400000806000008080000080A0000080C0000080E00000A0000000A0200000A0400000A0600000A0800000A0A00000A0C00000A0E00000C0000000C0200000C0400000C0600000C0800000C0
310
A00000C0C00000C0E00000E0000000E0200000E0400000E0600000E0800000E0A00000E0C00000E0E00040000000400020004000400040006000400080004000A0004000C0004000E00040200000402020004020400040206000402080004020A0004020C0004020E000404000004040200040404000404060004040800040
310
40A0004040C0004040E00040600000406020004060400040606000406080004060A0004060C0004060E00040800000408020004080400040806000408080004080A0004080C0004080E00040A0000040A0200040A0400040A0600040A0800040A0A00040A0C00040A0E00040C0000040C0200040C0400040C0600040C08000
310
40C0A00040C0C00040C0E00040E0000040E0200040E0400040E0600040E0800040E0A00040E0C00040E0E00080000000800020008000400080006000800080008000A0008000C0008000E00080200000802020008020400080206000802080008020A0008020C0008020E00080400000804020008040400080406000804080
310
008040A0008040C0008040E00080600000806020008060400080606000806080008060A0008060C0008060E00080800000808020008080400080806000808080008080A0008080C0008080E00080A0000080A0200080A0400080A0600080A0800080A0A00080A0C00080A0E00080C0000080C0200080C0400080C0600080C0
310
800080C0A00080C0C00080C0E00080E0000080E0200080E0400080E0600080E0800080E0A00080E0C00080E0E000C0000000C0002000C0004000C0006000C0008000C000A000C000C000C000E000C0200000C0202000C0204000C0206000C0208000C020A000C020C000C020E000C0400000C0402000C0404000C0406000C0
310
408000C040A000C040C000C040E000C0600000C0602000C0604000C0606000C0608000C060A000C060C000C060E000C0800000C0802000C0804000C0806000C0808000C080A000C080C000C080E000C0A00000C0A02000C0A04000C0A06000C0A08000C0A0A000C0A0C000C0A0E000C0C00000C0C02000C0C04000C0C06000
310
C0C08000C0C0A000F0FBFF00A4A0A000808080000000FF0000FF000000FFFF00FF000000FF00FF00FFFF0000FFFFFF00FFFFFFFFFFFFFFFFFFFFFFFFFFFFFFFFFFFFFFFFFFFFFFFFFFFFFFFFFFFFFFFFFFFFFFFFFFFFFFFFFFFFFFFFFFFFFFFFFFFFFFFFFFFFFFFFFFFFFFFFFFFFFFFFFFFFFFFFFFFFFFFFFFFFFFFFFFFFFF
310
FFFFFFFFFFFFFFFFFFFFFFFFFFFFFFFFFFFFFFFFFFFFFFFFFFFFFFFFFFFFFFFFFFFFFFFFFFFFFFFFFFFFFFFFFFFFFFFFFFFFFFFFFFFFFFFFFFFFFFFFFFFFFFFFFFFFFFFFFFFFFFFFFFFFFFFFFFFFFFFFFFFFFFFFFFFFFFFFFFFFFFFFFFFFFFFFFFFFFFFFFFFFFFFFFFFFFFFFFFFFFFFFFFFFFFFFFFFFFFFFFFFFFFFFFFFFFF
310
FFFFFFFFFFFFFFFFFFFFFFFFFFFFFFFFFFFFFFFFFFFFFFFFFFFFFFFFFFFFFFFFFFFCFCFCFCFCFCFCFCFCFCFCFCFCFCFFFFFFFFFFFFFFFFFFFFFFFFFFFFFFFFFFFFFCFFFFFFFFFFFFFFFFFFFFFFFFFCFFFFFFFFFFFFFFFFFFFFFFFFFFFFFFFFFFFFFCFFFFFFFFFFFFFFFFFFFFFFFFFCFFFFFFFFFFFFFFFFFFFFFFFFFFFFFFFF
310
FFFFFCFFFFFFFFFFFFFFFFFFFFFFFFFCFFFFFFFFFFFFFFFFFFFFFFFFFFFFFFFFFFFFFCFFFFFFFFFFFFFFFFFFFFFFFFFCFCFCFFFFFFFFFFFFFFFFFFFCFCFCFCFCFCFCFCFFFFFFFFFFFFFFFFFFFFFFFFFCFCFCFFFFFCFCFCFCFCFCFCFCFFFFFFFFFFFFFCFFFFFFFFFFFFFFFFFFFFFFFFFCFFFFFFFFFCFFFFFFFFFFFFFCFFFFFF
310
FFFFFFFCFFFFFFFFFFFFFFFFFFFFFFFFFCFFFFFFFFFCFFFFFFFFFFFFFCFFFFFFFFFFFFFCFFFFFFFFFFFFFFFFFFFFFFFFFCFCFCFFFFFCFFFFFFFFFFFFFCFFFFFFFFFFFFFCFFFFFFFFFFFFFFFFFFFFFFFFFCFCFCFFFFFCFFFFFFFFFFFFFCFFFFFFFFFFFFFCFFFFFFFFFFFFFFFFFFFFFFFFFCFFFFFFFFFCFCFCFCFCFCFCFCFFFF
310
FFFFFFFFFCFFFFFFFFFFFFFFFFFFFFFFFFFCFFFFFFFFFFFFFFFFFFFFFFFCFCFCFCFCFCFCFCFFFFFFFFFFFFFFFFFFFFFFFFFCFCFCFFFFFFFFFFFFFFFFFFFFFFFFFFFFFFFFFCFFFFFFFFFFFFFFFFFFFFFFFFFCFCFCFFFFFFFFFFFFFFFFFFFFFFFFFFFFFFFFFCFFFFFFFFFFFFFFFFFFFFFFFFFCFFFFFFFFFFFFFFFFFFFFFFFFFF
310
FFFFFFFFFFFCFFFFFFFFFFFFFFFFFFFFFFFFFCFFFFFFFFFFFFFFFFFFFFFFFFFFFFFFFFFFFFFCFFFFFFFFFFFFFFFFFFFFFFFFFCFFFFFFFFFFFFFFFFFFFFFFFFFFFFFFFFFFFFFCFCFCFCFCFCFCFCFCFCFCFCFCFCFFFFFFFFFFFFFFFFFFFFFFFFFFFFFFFFFFFFFFFFFFFFFFFFFFFFFFFFFFFFFFFFFFFFFFFFFFFFFFFFFFFFFFFF
310
FFFFFFFFFFFFFFFFFFFFFFFFFFFFFFFFFFFFFFFFFFFFFFFFFFFFFFFFFFFFFFFFFFFFFFFFFFFFFFFFFFFFFFFFFFFFFFFFFFFFFFFFFFFFFFFFFFFFFFFFFFFFFFFFFFFFFFFFFFFFFFFFFFFFFFFFFFFFFFFFFFFFFFFFFFFFFFFFFFFFFFFFFFFFFFFFFFFFFFFFFFFFFFFFFFFFFFFFFFFFFFFFFFFFFFFFFFFFFFFFFFFFFFFFFFFFFF
310
FFFFFFFFFFFFFFFFFFFFFFFFFFFFFFFFFFFFFFFFFFFFFFFFFFFFFFFFFFFFFFFFFFFFFFFFFFFFFFFFFFFFFFFFFFFFFFFFFFFFFFFFFFFFFFFF
  0
ENDTAB
  0
ENDSEC
  0
SECTION
  2
BLOCKS
  0
BLOCK
  5
1B
330
1A
100
AcDbEntity
  8
0
100
AcDbBlockBegin
  2
*MODEL_SPACE
 70
     0
 10
0.0
 20
0.0
 30
0.0
  3
*MODEL_SPACE
  1

  0
ENDBLK
  5
1C
330
1A
100
AcDbEntity
  8
0
100
AcDbBlockEnd
  0
BLOCK
  5
18
330
17
100
AcDbEntity
 67
     1
  8
0
100
AcDbBlockBegin
  2
*PAPER_SPACE
 70
     0
 10
0.0
 20
0.0
 30
0.0
  3
*PAPER_SPACE
  1

  0
ENDBLK
  5
19
330
17
100
AcDbEntity
 67
     1
  8
0
100
AcDbBlockEnd
  0
BLOCK
  5
BB
330
BA
100
AcDbEntity
  8
0
100
AcDbBlockBegin
  2
_OPEN
 70
     0
 10
0.0
 20
0.0
 30
0.0
  3
_OPEN
  1

  0
LINE
  5
BC
330
BA
100
AcDbEntity
  8
0
  6
ByBlock
 62
     0
100
AcDbLine
 10
-1.0
 20
0.1666666666666666
 30
0.0
 11
0.0
 21
0.0
 31
0.0
  0
LINE
  5
BD
330
BA
100
AcDbEntity
  8
0
  6
ByBlock
 62
     0
100
AcDbLine
 10
0.0
 20
0.0
 30
0.0
 11
-1.0
 21
-0.1666666666666666
 31
0.0
  0
LINE
  5
BE
330
BA
100
AcDbEntity
  8
0
  6
ByBlock
 62
     0
100
AcDbLine
 10
0.0
 20
0.0
 30
0.0
 11
-1.0
 21
0.0
 31
0.0
  0
ENDBLK
  5
BF
330
BA
100
AcDbEntity
  8
0
100
AcDbBlockEnd
  0
BLOCK
  5
98E9
330
98E8
100
AcDbEntity
  8
0
100
AcDbBlockBegin
  2
A$C34EE125E
 70
     0
 10
0.0
 20
0.0
 30
0.0
  3
A$C34EE125E
  1

  0
ELLIPSE
  5
98EA
330
98E8
100
AcDbEntity
  8
0
100
AcDbEllipse
 10
-0.0000004725021654
 20
3.999999853018834
 30
0.0
 11
0.0
 21
-3.0
 31
0.0
210
0.0
220
0.0
230
-1.0
 40
0.8333333333333333
 41
-2.94023473279946
 42
-0.2013579207903324
  0
LINE
  5
98EB
330
98E8
100
AcDbEntity
  8
0
100
AcDbLine
 10
-0.0000004725021654
 20
7.999999853018834
 30
0.0
 11
-0.0000004725021654
 21
-0.000000146981165
 31
0.0
  0
LINE
  5
98EC
330
98E8
100
AcDbEntity
  8
0
100
AcDbLine
 10
0.4999995274978346
 20
-0.000000146981165
 30
0.0
 11
0.4999995274978346
 21
7.999999853018834
 31
0.0
  0
LINE
  5
98ED
330
98E8
100
AcDbEntity
  8
0
100
AcDbLine
 10
-0.0000004725021654
 20
-0.000000146981165
 30
0.0
 11
0.4999995274978346
 21
-0.000000146981165
 31
0.0
  0
LINE
  5
98EE
330
98E8
100
AcDbEntity
  8
0
100
AcDbLine
 10
0.4999995274978346
 20
7.999999853018834
 30
0.0
 11
-0.0000004725021654
 21
7.999999853018834
 31
0.0
  0
ENDBLK
  5
98EF
330
98E8
100
AcDbEntity
  8
0
100
AcDbBlockEnd
  0
BLOCK
  5
D3BA
330
D3B9
100
AcDbEntity
  8
0
100
AcDbBlockBegin
  2
A$C2086655F
 70
     0
 10
0.0
 20
0.0
 30
0.0
  3
A$C2086655F
  1

  0
TEXT
  5
D3BB
330
D3B9
100
AcDbEntity
  8
SUNPOU
100
AcDbText
 10
4.719687007603707
 20
2.680727273328233
 30
0.0
 40
2.0
  1
D
 50
157.5
 41
0.6
 72
     1
 11
4.138962730025184
 21
2.921271145100575
 31
0.0
100
AcDbText
 73
     1
  0
LINE
  5
D3BC
330
D3B9
100
AcDbEntity
  8
0
100
AcDbLine
 10
3.50000045284662
 20
5.000000093250946
 30
0.0
 11
6.50000045284662
 21
5.000000093250946
 31
0.0
  0
LINE
  5
D3BD
330
D3B9
100
AcDbEntity
  8
0
100
AcDbLine
 10
3.50000045284662
 20
5.000000093250946
 30
0.0
 11
4.50000045284662
 21
4.500000093250946
 31
0.0
  0
LINE
  5
D3BE
330
D3B9
100
AcDbEntity
  8
0
100
AcDbLine
 10
3.50000045284662
 20
5.000000093250946
 30
0.0
 11
4.50000045284662
 21
5.500000093250946
 31
0.0
  0
CIRCLE
  5
D3BF
330
D3B9
100
AcDbEntity
  8
0
100
AcDbCircle
 10
5.00000045284662
 20
5.000000093250946
 30
0.0
 40
2.0
  0
LINE
  5
D3C0
330
D3B9
100
AcDbEntity
  8
0
100
AcDbLine
 10
10.00000045284662
 20
9.500000093250946
 30
0.0
 11
2.50000045284662
 21
9.500000093250946
 31
0.0
  0
LINE
  5
D3C1
330
D3B9
100
AcDbEntity
  8
0
100
AcDbLine
 10
10.00000045284662
 20
10.00000009325094
 30
0.0
 11
0.0000004528466206
 21
10.00000009325094
 31
0.0
  0
LINE
  5
D3C2
330
D3B9
100
AcDbEntity
  8
0
100
AcDbLine
 10
0.0000004528466206
 20
0.0000000932509465
 30
0.0
 11
10.00000045284662
 21
0.0000000932509465
 31
0.0
  0
TEXT
  5
D3C3
330
D3B9
100
AcDbEntity
  8
SUNPOU
100
AcDbText
 10
2.75000045284662
 20
4.428571521822375
 30
0.0
 40
2.0
  1
0
 50
90.0
 41
0.6
 72
     1
 11
2.75000045284662
 21
5.000000093250946
 31
0.0
100
AcDbText
 73
     1
  0
LINE
  5
D3C4
330
D3B9
100
AcDbEntity
  8
0
100
AcDbLine
 10
0.0000004528466206
 20
10.00000009325094
 30
0.0
 11
0.0000004528466206
 21
0.0000000932509465
 31
0.0
  0
TEXT
  5
D3C5
330
D3B9
100
AcDbEntity
  8
SUNPOU
100
AcDbText
 10
3.150881564115275
 20
3.584634650922709
 30
0.0
 40
2.0
  1
F
 50
112.5
 41
0.6
 72
     1
 11
2.921271504696221
 21
4.138962370429482
 31
0.0
100
AcDbText
 73
     1
  0
TEXT
  5
D3C6
330
D3B9
100
AcDbEntity
  8
SUNPOU
100
AcDbText
 10
3.833274263888832
 20
2.984745766869301
 30
0.0
 40
2.0
  1
E
 50
135.0
 41
0.6
 72
     1
 11
3.409010195176904
 21
3.40900983558123
 31
0.0
100
AcDbText
 73
     1
  0
LINE
  5
D3C7
330
D3B9
100
AcDbEntity
  8
0
100
AcDbLine
 10
0.0000004528466206
 20
7.000000093250946
 30
0.0
 11
3.00000045284662
 21
10.00000009325094
 31
0.0
  0
TEXT
  5
D3C8
330
D3B9
100
AcDbEntity
  8
SUNPOU
100
AcDbText
 10
2.735396694690349
 20
5.412296328852629
 30
0.0
 40
2.0
  1
1
 50
67.5
 41
0.6
 72
     1
 11
2.92127150469625
 21
5.861037816072396
 31
0.0
100
AcDbText
 73
     1
  0
TEXT
  5
D3C9
330
D3B9
100
AcDbEntity
  8
SUNPOU
100
AcDbText
 10
3.004949177356019
 20
6.186929333099793
 30
0.0
 40
2.0
  1
2
 50
45.0
 41
0.6
 72
     1
 11
3.409010195176904
 21
6.590990350920677
 31
0.0
100
AcDbText
 73
     1
  0
TEXT
  5
D3CA
330
D3B9
100
AcDbEntity
  8
SUNPOU
100
AcDbText
 10
3.611031568590135
 20
6.860052794335565
 30
0.0
 40
2.0
  1
3
 50
22.50000000000001
 41
0.6
 72
     1
 11
4.138962730025156
 21
7.078729041401331
 31
0.0
100
AcDbText
 73
     1
  0
TEXT
  5
D3CB
330
D3B9
100
AcDbEntity
  8
SUNPOU
100
AcDbText
 10
7.25000045284662
 20
5.571428664679489
 30
0.0
 40
2.0
  1
8
 50
270.0
 41
0.6
 72
     1
 11
7.25000045284662
 21
5.000000093250918
 31
0.0
100
AcDbText
 73
     1
  0
LINE
  5
D3CC
330
D3B9
100
AcDbEntity
  8
0
100
AcDbLine
 10
10.00000045284662
 20
0.0000000932509465
 30
0.0
 11
10.00000045284662
 21
10.00000009325094
 31
0.0
  0
TEXT
  5
D3CD
330
D3B9
100
AcDbEntity
  8
SUNPOU
100
AcDbText
 10
7.28647183570944
 20
4.64049697379278
 30
0.0
 40
2.0
  1
9
 50
247.5
 41
0.6
 72
     1
 11
7.078729400996962
 21
4.13896237042951
 31
0.0
100
AcDbText
 73
     1
  0
TEXT
  5
D3CE
330
D3B9
100
AcDbEntity
  8
SUNPOU
100
AcDbText
 10
6.954645626555104
 20
3.772664751620026
 30
0.0
 40
2.0
  1
A
 50
225.0
 41
0.6
 72
     1
 11
6.590990710516308
 21
3.40900983558123
 31
0.0
100
AcDbText
 73
     1
  0
TEXT
  5
D3CF
330
D3B9
100
AcDbEntity
  8
SUNPOU
100
AcDbText
 10
6.441762453246579
 20
3.161815016872917
 30
0.0
 40
2.0
  1
B
 50
202.5
 41
0.6
 72
     1
 11
5.861038175668056
 21
2.921271145100575
 31
0.0
100
AcDbText
 73
     1
  0
TEXT
  5
D3D0
330
D3B9
100
AcDbEntity
  8
SUNPOU
100
AcDbText
 10
5.60000045284662
 20
2.750000093250946
 30
0.0
 40
2.0
  1
C
 50
180.0
 41
0.6
 72
     1
 11
5.00000045284662
 21
2.750000093250946
 31
0.0
100
AcDbText
 73
     1
  0
TEXT
  5
D3D1
330
D3B9
100
AcDbEntity
  8
SUNPOU
100
AcDbText
 10
6.860053153931225
 20
6.388968977507445
 30
0.0
 40
2.0
  1
7
 50
292.5
 41
0.6
 72
     1
 11
7.078729400996991
 21
5.861037816072425
 31
0.0
100
AcDbText
 73
     1
  0
TEXT
  5
D3D2
330
D3B9
100
AcDbEntity
  8
SUNPOU
100
AcDbText
 10
4.400000452846621
 20
7.250000093250946
 30
0.0
 40
2.0
  1
4
 41
0.6
 72
     1
 11
5.00000045284662
 21
7.250000093250946
 31
0.0
100
AcDbText
 73
     1
  0
TEXT
  5
D3D3
330
D3B9
100
AcDbEntity
  8
SUNPOU
100
AcDbText
 10
5.333107014233007
 20
7.297405288467096
 30
0.0
 40
2.0
  1
5
 50
337.5
 41
0.6
 72
     1
 11
5.861038175668028
 21
7.078729041401331
 31
0.0
100
AcDbText
 73
     1
  0
TEXT
  5
D3D4
330
D3B9
100
AcDbEntity
  8
SUNPOU
100
AcDbText
 10
6.16672664180438
 20
7.015254419632605
 30
0.0
 40
2.0
  1
6
 50
315.0
 41
0.6
 72
     1
 11
6.590990710516308
 21
6.590990350920677
 31
0.0
100
AcDbText
 73
     1
  0
ENDBLK
  5
D3D5
330
D3B9
100
AcDbEntity
  8
0
100
AcDbBlockEnd
  0
BLOCK
  5
D3D7
330
D3D6
100
AcDbEntity
  8
0
100
AcDbBlockBegin
  2
A$C1A9113A3
 70
     0
 10
0.0
 20
0.0
 30
0.0
  3
A$C1A9113A3
  1

  0
INSERT
  5
D3D8
330
D3D6
100
AcDbEntity
  8
0
100
AcDbBlockReference
  2
A$C2086655F
 10
-0.000000598731333
 20
0.0000001667667675
 30
0.0
  0
ENDBLK
  5
D3D9
330
D3D6
100
AcDbEntity
  8
0
100
AcDbBlockEnd
  0
BLOCK
  5
D45D
330
D45C
100
AcDbEntity
  8
0
100
AcDbBlockBegin
  2
A$C4F832D76
 70
     0
 10
0.0
 20
0.0
 30
0.0
  3
A$C4F832D76
  1

  0
LINE
  5
D45E
330
D45C
100
AcDbEntity
  8
0
100
AcDbLine
 10
0.0000003096261594
 20
-0.0000002593744739
 30
0.0
 11
0.0000003096261594
 21
69.99999974062553
 31
0.0
  0
LINE
  5
D45F
330
D45C
100
AcDbEntity
  8
0
100
AcDbLine
 10
1.600000309626125
 20
-0.0000002593744739
 30
0.0
 11
1.600000309626182
 21
69.99999974062553
 31
0.0
  0
LINE
  5
D460
330
D45C
100
AcDbEntity
  8
0
100
AcDbLine
 10
0.0000003096261594
 20
1.999999740625526
 30
0.0
 11
1.600000309626125
 21
1.999999740625526
 31
0.0
  0
LINE
  5
D461
330
D45C
100
AcDbEntity
  8
0
100
AcDbLine
 10
0.0000003096261594
 20
-0.0000002593744739
 30
0.0
 11
1.600000309626125
 21
-0.0000002593744739
 31
0.0
  0
LINE
  5
D462
330
D45C
100
AcDbEntity
  8
0
100
AcDbLine
 10
1.600000309626125
 20
139.9999997406255
 30
0.0
 11
1.600000309626182
 21
69.99999974062553
 31
0.0
  0
LINE
  5
D463
330
D45C
100
AcDbEntity
  8
0
100
AcDbLine
 10
0.0000003096261594
 20
139.9999997406255
 30
0.0
 11
0.0000003096261594
 21
69.99999974062553
 31
0.0
  0
LINE
  5
D464
330
D45C
100
AcDbEntity
  8
0
100
AcDbLine
 10
0.0000003096261594
 20
139.9999997406255
 30
0.0
 11
1.600000309626125
 21
139.9999997406255
 31
0.0
  0
LINE
  5
D465
330
D45C
100
AcDbEntity
  8
0
100
AcDbLine
 10
0.0000003096261594
 20
137.9999997406255
 30
0.0
 11
1.600000309626125
 21
137.9999997406255
 31
0.0
  0
ENDBLK
  5
D466
330
D45C
100
AcDbEntity
  8
0
100
AcDbBlockEnd
  0
BLOCK
  5
DB9B
330
DB91
100
AcDbEntity
  8
0
100
AcDbBlockBegin
  2
*D5
 70
     1
 10
0.0
 20
0.0
 30
0.0
  3
*D5
  1

  0
LINE
  5
11938
330
DB91
100
AcDbEntity
  8
SUNPOU
 62
     0
370
    -2
100
AcDbLine
 10
255.2
 20
249.7
 30
0.0
 11
255.2
 21
265.5
 31
0.0
  0
LINE
  5
11939
330
DB91
100
AcDbEntity
  8
SUNPOU
 62
     0
370
    -2
100
AcDbLine
 10
350.1999999999999
 20
260.5
 30
0.0
 11
350.1999999999999
 21
265.5
 31
0.0
  0
LINE
  5
1193A
330
DB91
100
AcDbEntity
  8
SUNPOU
 62
     0
370
    -2
100
AcDbLine
 10
260.1999999999999
 20
265.0
 30
0.0
 11
345.1999999999999
 21
265.0
 31
0.0
  0
INSERT
  5
1193B
330
DB91
100
AcDbEntity
  8
SUNPOU
 62
     0
370
    -2
100
AcDbBlockReference
  2
_OPEN
 10
255.2
 20
265.0
 30
0.0
 41
5.0
 42
5.0
 43
5.0
 50
180.0
  0
INSERT
  5
1193C
330
DB91
100
AcDbEntity
  8
SUNPOU
 62
     0
370
    -2
100
AcDbBlockReference
  2
_OPEN
 10
350.1999999999999
 20
265.0
 30
0.0
 41
5.0
 42
5.0
 43
5.0
  0
MTEXT
  5
1193D
330
DB91
100
AcDbEntity
  8
SUNPOU
 62
     0
100
AcDbMText
 10
302.6999999999999
 20
269.0
 30
0.0
 40
6.0
 41
0.0
 71
     5
 72
     1
  1
\A1;95
 73
     1
 44
1.0
1001
ACAD
1000
MTEXTBEGIN
1070
    73
1070
     1
1070
    44
1040
1.0
1070
    74
1070
     0
1000
MTEXTEND
  0
POINT
  5
1193E
330
DB91
100
AcDbEntity
  8
DEFPOINTS
 62
     0
100
AcDbPoint
 10
255.2
 20
249.2
 30
0.0
  0
POINT
  5
1193F
330
DB91
100
AcDbEntity
  8
DEFPOINTS
 62
     0
100
AcDbPoint
 10
350.1999999999999
 20
260.0
 30
0.0
  0
POINT
  5
11940
330
DB91
100
AcDbEntity
  8
DEFPOINTS
 62
     0
100
AcDbPoint
 10
350.1999999999999
 20
265.0
 30
0.0
  0
ENDBLK
  5
DB9C
330
DB91
100
AcDbEntity
  8
0
100
AcDbBlockEnd
  0
BLOCK
  5
DBB4
330
DBAA
100
AcDbEntity
  8
0
100
AcDbBlockBegin
  2
*D6
 70
     1
 10
0.0
 20
0.0
 30
0.0
  3
*D6
  1

  0
LINE
  5
11941
330
DBAA
100
AcDbEntity
  8
SUNPOU
 62
     0
370
    -2
100
AcDbLine
 10
238.3999999999999
 20
226.38
 30
0.0
 11
238.3999999999999
 21
265.5
 31
0.0
  0
LINE
  5
11942
330
DBAA
100
AcDbEntity
  8
SUNPOU
 62
     0
370
    -2
100
AcDbLine
 10
255.2
 20
249.7
 30
0.0
 11
255.2
 21
265.5
 31
0.0
  0
LINE
  5
11943
330
DBAA
100
AcDbEntity
  8
SUNPOU
 62
     0
370
    -2
100
AcDbLine
 10
243.4
 20
265.0
 30
0.0
 11
250.2
 21
265.0
 31
0.0
  0
INSERT
  5
11944
330
DBAA
100
AcDbEntity
  8
SUNPOU
 62
     0
370
    -2
100
AcDbBlockReference
  2
_OPEN
 10
238.3999999999999
 20
265.0
 30
0.0
 41
5.0
 42
5.0
 43
5.0
 50
180.0
  0
INSERT
  5
11945
330
DBAA
100
AcDbEntity
  8
SUNPOU
 62
     0
370
    -2
100
AcDbBlockReference
  2
_OPEN
 10
255.2
 20
265.0
 30
0.0
 41
5.0
 42
5.0
 43
5.0
  0
MTEXT
  5
11946
330
DBAA
100
AcDbEntity
  8
SUNPOU
 62
     0
100
AcDbMText
 10
246.7999999999999
 20
269.0
 30
0.0
 40
6.0
 41
0.0
 71
     5
 72
     1
  1
\A1;17
 73
     1
 44
1.0
1001
ACAD
1000
MTEXTBEGIN
1070
    73
1070
     1
1070
    44
1040
1.0
1070
    74
1070
     0
1000
MTEXTEND
  0
POINT
  5
11947
330
DBAA
100
AcDbEntity
  8
DEFPOINTS
 62
     0
100
AcDbPoint
 10
238.3999999999999
 20
225.88
 30
0.0
  0
POINT
  5
11948
330
DBAA
100
AcDbEntity
  8
DEFPOINTS
 62
     0
100
AcDbPoint
 10
255.2
 20
249.2
 30
0.0
  0
POINT
  5
11949
330
DBAA
100
AcDbEntity
  8
DEFPOINTS
 62
     0
100
AcDbPoint
 10
255.2
 20
265.0
 30
0.0
  0
ENDBLK
  5
DBB5
330
DBAA
100
AcDbEntity
  8
0
100
AcDbBlockEnd
  0
BLOCK
  5
DBC0
330
DBB6
100
AcDbEntity
  8
0
100
AcDbBlockBegin
  2
*D7
 70
     1
 10
0.0
 20
0.0
 30
0.0
  3
*D7
  1

  0
LINE
  5
11953
330
DBB6
100
AcDbEntity
  8
SUNPOU
 62
     0
370
    -2
100
AcDbLine
 10
95.5
 20
256.0
 30
0.0
 11
150.5
 21
256.0
 31
0.0
  0
LINE
  5
11954
330
DBB6
100
AcDbEntity
  8
SUNPOU
 62
     0
370
    -2
100
AcDbLine
 10
95.5
 20
123.9999999999998
 30
0.0
 11
150.5
 21
123.9999999999998
 31
0.0
  0
LINE
  5
11955
330
DBB6
100
AcDbEntity
  8
SUNPOU
 62
     0
370
    -2
100
AcDbLine
 10
150.0
 20
251.0
 30
0.0
 11
150.0
 21
128.9999999999998
 31
0.0
  0
INSERT
  5
11956
330
DBB6
100
AcDbEntity
  8
SUNPOU
 62
     0
370
    -2
100
AcDbBlockReference
  2
_OPEN
 10
150.0
 20
256.0
 30
0.0
 41
5.0
 42
5.0
 43
5.0
 50
90.0
  0
INSERT
  5
11957
330
DBB6
100
AcDbEntity
  8
SUNPOU
 62
     0
370
    -2
100
AcDbBlockReference
  2
_OPEN
 10
150.0
 20
123.9999999999998
 30
0.0
 41
5.0
 42
5.0
 43
5.0
 50
270.0
  0
MTEXT
  5
11958
330
DBB6
100
AcDbEntity
  8
SUNPOU
 62
     0
100
AcDbMText
 10
145.9999999999999
 20
189.9999999999999
 30
0.0
 40
6.0
 41
0.0
 71
     5
 72
     1
  1
\A1;132
 11
0.0000000000000001
 21
1.0
 31
0.0
 73
     1
 44
1.0
1001
ACAD
1000
MTEXTBEGIN
1070
    73
1070
     1
1070
    44
1040
1.0
1070
    74
1070
     0
1000
MTEXTEND
  0
POINT
  5
11959
330
DBB6
100
AcDbEntity
  8
DEFPOINTS
 62
     0
100
AcDbPoint
 10
95.0
 20
256.0
 30
0.0
  0
POINT
  5
1195A
330
DBB6
100
AcDbEntity
  8
DEFPOINTS
 62
     0
100
AcDbPoint
 10
95.0
 20
123.9999999999998
 30
0.0
  0
POINT
  5
1195B
330
DBB6
100
AcDbEntity
  8
DEFPOINTS
 62
     0
100
AcDbPoint
 10
150.0
 20
123.9999999999998
 30
0.0
  0
ENDBLK
  5
DBC1
330
DBB6
100
AcDbEntity
  8
0
100
AcDbBlockEnd
  0
BLOCK
  5
DBCC
330
DBC2
100
AcDbEntity
  8
0
100
AcDbBlockBegin
  2
*D8
 70
     1
 10
0.0
 20
0.0
 30
0.0
  3
*D8
  1

  0
LINE
  5
1195C
330
DBC2
100
AcDbEntity
  8
SUNPOU
 62
     0
370
    -2
100
AcDbLine
 10
120.9999999999999
 20
260.0000000000001
 30
0.0
 11
160.5
 21
260.0
 31
0.0
  0
LINE
  5
1195D
330
DBC2
100
AcDbEntity
  8
SUNPOU
 62
     0
370
    -2
100
AcDbLine
 10
120.9999999999999
 20
119.9999999999997
 30
0.0
 11
160.5
 21
119.9999999999997
 31
0.0
  0
LINE
  5
1195E
330
DBC2
100
AcDbEntity
  8
SUNPOU
 62
     0
370
    -2
100
AcDbLine
 10
160.0
 20
255.0000000000001
 30
0.0
 11
160.0
 21
124.9999999999997
 31
0.0
  0
INSERT
  5
1195F
330
DBC2
100
AcDbEntity
  8
SUNPOU
 62
     0
370
    -2
100
AcDbBlockReference
  2
_OPEN
 10
160.0
 20
260.0
 30
0.0
 41
5.0
 42
5.0
 43
5.0
 50
90.0
  0
INSERT
  5
11960
330
DBC2
100
AcDbEntity
  8
SUNPOU
 62
     0
370
    -2
100
AcDbBlockReference
  2
_OPEN
 10
160.0
 20
119.9999999999997
 30
0.0
 41
5.0
 42
5.0
 43
5.0
 50
270.0
  0
MTEXT
  5
11961
330
DBC2
100
AcDbEntity
  8
SUNPOU
 62
     0
100
AcDbMText
 10
156.0
 20
189.9999999999999
 30
0.0
 40
6.0
 41
0.0
 71
     5
 72
     1
  1
\A1;140
 11
0.0000000000000001
 21
1.0
 31
0.0
 73
     1
 44
1.0
1001
ACAD
1000
MTEXTBEGIN
1070
    73
1070
     1
1070
    44
1040
1.0
1070
    74
1070
     0
1000
MTEXTEND
  0
POINT
  5
11962
330
DBC2
100
AcDbEntity
  8
DEFPOINTS
 62
     0
100
AcDbPoint
 10
120.4999999999999
 20
260.0000000000001
 30
0.0
  0
POINT
  5
11963
330
DBC2
100
AcDbEntity
  8
DEFPOINTS
 62
     0
100
AcDbPoint
 10
120.4999999999999
 20
119.9999999999997
 30
0.0
  0
POINT
  5
11964
330
DBC2
100
AcDbEntity
  8
DEFPOINTS
 62
     0
100
AcDbPoint
 10
160.0
 20
119.9999999999997
 30
0.0
  0
ENDBLK
  5
DBCD
330
DBC2
100
AcDbEntity
  8
0
100
AcDbBlockEnd
  0
BLOCK
  5
DBD8
330
DBCE
100
AcDbEntity
  8
0
100
AcDbBlockBegin
  2
*D9
 70
     1
 10
0.0
 20
0.0
 30
0.0
  3
*D9
  1

  0
LINE
  5
1194A
330
DBCE
100
AcDbEntity
  8
SUNPOU
 62
     0
370
    -2
100
AcDbLine
 10
122.9999999999999
 20
250.0
 30
0.0
 11
140.5
 21
250.0
 31
0.0
  0
LINE
  5
1194B
330
DBCE
100
AcDbEntity
  8
SUNPOU
 62
     0
370
    -2
100
AcDbLine
 10
122.9999999999999
 20
129.9999999999999
 30
0.0
 11
140.5
 21
129.9999999999999
 31
0.0
  0
LINE
  5
1194C
330
DBCE
100
AcDbEntity
  8
SUNPOU
 62
     0
370
    -2
100
AcDbLine
 10
140.0
 20
245.0
 30
0.0
 11
140.0
 21
134.9999999999999
 31
0.0
  0
INSERT
  5
1194D
330
DBCE
100
AcDbEntity
  8
SUNPOU
 62
     0
370
    -2
100
AcDbBlockReference
  2
_OPEN
 10
140.0
 20
250.0
 30
0.0
 41
5.0
 42
5.0
 43
5.0
 50
90.0
  0
INSERT
  5
1194E
330
DBCE
100
AcDbEntity
  8
SUNPOU
 62
     0
370
    -2
100
AcDbBlockReference
  2
_OPEN
 10
140.0
 20
129.9999999999999
 30
0.0
 41
5.0
 42
5.0
 43
5.0
 50
270.0
  0
MTEXT
  5
1194F
330
DBCE
100
AcDbEntity
  8
SUNPOU
 62
     0
100
AcDbMText
 10
135.9999999999999
 20
189.9999999999999
 30
0.0
 40
6.0
 41
0.0
 71
     5
 72
     1
  1
\A1;120
 11
0.0000000000000001
 21
1.0
 31
0.0
 73
     1
 44
1.0
1001
ACAD
1000
MTEXTBEGIN
1070
    73
1070
     1
1070
    44
1040
1.0
1070
    74
1070
     0
1000
MTEXTEND
  0
POINT
  5
11950
330
DBCE
100
AcDbEntity
  8
DEFPOINTS
 62
     0
100
AcDbPoint
 10
122.4999999999999
 20
250.0
 30
0.0
  0
POINT
  5
11951
330
DBCE
100
AcDbEntity
  8
DEFPOINTS
 62
     0
100
AcDbPoint
 10
122.4999999999999
 20
129.9999999999999
 30
0.0
  0
POINT
  5
11952
330
DBCE
100
AcDbEntity
  8
DEFPOINTS
 62
     0
100
AcDbPoint
 10
140.0
 20
129.9999999999999
 30
0.0
  0
ENDBLK
  5
DBD9
330
DBCE
100
AcDbEntity
  8
0
100
AcDbBlockEnd
  0
BLOCK
  5
DBE4
330
DBDA
100
AcDbEntity
  8
0
100
AcDbBlockBegin
  2
*D10
 70
     1
 10
0.0
 20
0.0
 30
0.0
  3
*D10
  1

  0
LINE
  5
11965
330
DBDA
100
AcDbEntity
  8
SUNPOU
 62
     0
370
    -2
100
AcDbLine
 10
67.5
 20
121.4999999999999
 30
0.0
 11
67.5
 21
99.50000000000001
 31
0.0
  0
LINE
  5
11966
330
DBDA
100
AcDbEntity
  8
SUNPOU
 62
     0
370
    -2
100
AcDbLine
 10
122.4999999999999
 20
121.4999999999997
 30
0.0
 11
122.4999999999999
 21
99.50000000000001
 31
0.0
  0
LINE
  5
11967
330
DBDA
100
AcDbEntity
  8
SUNPOU
 62
     0
370
    -2
100
AcDbLine
 10
72.5
 20
100.0
 30
0.0
 11
117.4999999999999
 21
100.0
 31
0.0
  0
INSERT
  5
11968
330
DBDA
100
AcDbEntity
  8
SUNPOU
 62
     0
370
    -2
100
AcDbBlockReference
  2
_OPEN
 10
67.5
 20
100.0
 30
0.0
 41
5.0
 42
5.0
 43
5.0
 50
180.0
  0
INSERT
  5
11969
330
DBDA
100
AcDbEntity
  8
SUNPOU
 62
     0
370
    -2
100
AcDbBlockReference
  2
_OPEN
 10
122.4999999999999
 20
100.0
 30
0.0
 41
5.0
 42
5.0
 43
5.0
  0
MTEXT
  5
1196A
330
DBDA
100
AcDbEntity
  8
SUNPOU
 62
     0
100
AcDbMText
 10
94.99999999999998
 20
104.0
 30
0.0
 40
6.0
 41
0.0
 71
     5
 72
     1
  1
\A1;55
 73
     1
 44
1.0
1001
ACAD
1000
MTEXTBEGIN
1070
    73
1070
     1
1070
    44
1040
1.0
1070
    74
1070
     0
1000
MTEXTEND
  0
POINT
  5
1196B
330
DBDA
100
AcDbEntity
  8
DEFPOINTS
 62
     0
100
AcDbPoint
 10
67.5
 20
121.9999999999999
 30
0.0
  0
POINT
  5
1196C
330
DBDA
100
AcDbEntity
  8
DEFPOINTS
 62
     0
100
AcDbPoint
 10
122.4999999999999
 20
121.9999999999997
 30
0.0
  0
POINT
  5
1196D
330
DBDA
100
AcDbEntity
  8
DEFPOINTS
 62
     0
100
AcDbPoint
 10
122.4999999999999
 20
100.0
 30
0.0
  0
ENDBLK
  5
DBE5
330
DBDA
100
AcDbEntity
  8
0
100
AcDbBlockEnd
  0
BLOCK
  5
F1C8
330
F1C7
100
AcDbEntity
  8
0
100
AcDbBlockBegin
  2
TM-14P-1
 70
     0
 10
0.0
 20
0.0
 30
0.0
  3
TM-14P-1
  1

  0
LINE
  5
F1CA
330
F1C7
100
AcDbEntity
  8
0
100
AcDbLine
 10
12.00000000000001
 20
54.92999999999994
 30
0.0
 11
11.99999999999995
 21
-54.93000000000001
 31
0.0
  0
LINE
  5
F1CB
330
F1C7
100
AcDbEntity
  8
0
100
AcDbLine
 10
0.0000000000000426
 20
54.93000000000001
 30
0.0
 11
-0.0000000000000426
 21
-54.93000000000001
 31
0.0
  0
LINE
  5
F1CC
330
F1C7
100
AcDbEntity
  8
0
100
AcDbLine
 10
11.09999999999998
 20
-15.85000000000002
 30
0.0
 11
11.09999999999998
 21
-22.25000000000012
 31
0.0
  0
CIRCLE
  5
F1CD
330
F1C7
100
AcDbEntity
  8
0
100
AcDbCircle
 10
6.500000000000042
 20
-19.05000000000007
 30
0.0
 40
2.75
  0
LINE
  5
F1CE
330
F1C7
100
AcDbEntity
  8
0
100
AcDbLine
 10
3.500000000000014
 20
-15.85000000000008
 30
0.0
 11
3.500000000000014
 21
-22.25000000000006
 31
0.0
  0
LINE
  5
F1CF
330
F1C7
100
AcDbEntity
  8
0
100
AcDbLine
 10
9.500000000000014
 20
-15.85000000000008
 30
0.0
 11
9.500000000000014
 21
-22.25000000000012
 31
0.0
  0
LINE
  5
F1D0
330
F1C7
100
AcDbEntity
  8
0
100
AcDbLine
 10
1.899999999999991
 20
-15.85000000000008
 30
0.0
 11
1.899999999999991
 21
-22.25
 31
0.0
  0
LINE
  5
F1D1
330
F1C7
100
AcDbEntity
  8
0
100
AcDbLine
 10
11.09999999999998
 20
-38.71000000000004
 30
0.0
 11
11.09999999999998
 21
-45.11000000000012
 31
0.0
  0
CIRCLE
  5
F1D2
330
F1C7
100
AcDbEntity
  8
0
100
AcDbCircle
 10
6.500000000000014
 20
-41.91000000000008
 30
0.0
 40
2.75
  0
LINE
  5
F1D3
330
F1C7
100
AcDbEntity
  8
0
100
AcDbLine
 10
3.500000000000014
 20
-38.71000000000009
 30
0.0
 11
3.500000000000014
 21
-45.11000000000007
 31
0.0
  0
LINE
  5
F1D4
330
F1C7
100
AcDbEntity
  8
0
100
AcDbLine
 10
9.500000000000014
 20
-38.71000000000009
 30
0.0
 11
9.500000000000014
 21
-45.11000000000012
 31
0.0
  0
LINE
  5
F1D5
330
F1C7
100
AcDbEntity
  8
0
100
AcDbLine
 10
1.899999999999991
 20
-38.71000000000009
 30
0.0
 11
1.899999999999991
 21
-45.11000000000001
 31
0.0
  0
LINE
  5
F1D6
330
F1C7
100
AcDbEntity
  8
0
100
AcDbLine
 10
0.0000000000000142
 20
-46.33000000000015
 30
0.0
 11
12.00000000000001
 21
-46.33000000000009
 31
0.0
  0
LINE
  5
F1D7
330
F1C7
100
AcDbEntity
  8
0
100
AcDbLine
 10
0.0000000000000142
 20
-45.11000000000001
 30
0.0
 11
12.00000000000001
 21
-45.11000000000007
 31
0.0
  0
LINE
  5
F1D8
330
F1C7
100
AcDbEntity
  8
0
100
AcDbLine
 10
0.0000000000000142
 20
-52.73000000000002
 30
0.0
 11
12.00000000000001
 21
-52.73000000000007
 31
0.0
  0
LINE
  5
F1D9
330
F1C7
100
AcDbEntity
  8
0
100
AcDbLine
 10
-0.0000000000000426
 20
-54.93000000000001
 30
0.0
 11
11.99999999999995
 21
-54.93000000000001
 31
0.0
  0
LINE
  5
F1DA
330
F1C7
100
AcDbEntity
  8
0
100
AcDbLine
 10
-0.0000000000000426
 20
-53.93
 30
0.0
 11
11.99999999999995
 21
-53.93
 31
0.0
  0
CIRCLE
  5
F1DB
330
F1C7
100
AcDbEntity
  8
0
100
AcDbCircle
 10
6.500000000000014
 20
-49.53000000000009
 30
0.0
 40
2.75
  0
LINE
  5
F1DC
330
F1C7
100
AcDbEntity
  8
0
100
AcDbLine
 10
3.300000000000025
 20
-48.78000000000008
 30
0.0
 11
3.300000000000025
 21
-50.28000000000009
 31
0.0
  0
LINE
  5
F1DD
330
F1C7
100
AcDbEntity
  8
0
100
AcDbLine
 10
2.500000000000014
 20
-48.78000000000008
 30
0.0
 11
2.500000000000014
 21
-50.28000000000009
 31
0.0
  0
LINE
  5
F1DE
330
F1C7
100
AcDbEntity
  8
0
100
AcDbLine
 10
2.700000000000002
 20
-48.03000000000008
 30
0.0
 11
2.700000000000002
 21
-51.03000000000008
 31
0.0
  0
LINE
  5
F1DF
330
F1C7
100
AcDbEntity
  8
0
100
AcDbLine
 10
1.899999999999991
 20
-46.33000000000009
 30
0.0
 11
1.899999999999991
 21
-52.73000000000002
 31
0.0
  0
LINE
  5
F1E0
330
F1C7
100
AcDbEntity
  8
0
100
AcDbLine
 10
3.500000000000014
 20
-46.33000000000009
 30
0.0
 11
3.500000000000014
 21
-52.73000000000002
 31
0.0
  0
LINE
  5
F1E1
330
F1C7
100
AcDbEntity
  8
0
100
AcDbLine
 10
2.500000000000014
 20
-50.28000000000014
 30
0.0
 11
3.300000000000025
 21
-50.28000000000009
 31
0.0
  0
LINE
  5
F1E2
330
F1C7
100
AcDbEntity
  8
0
100
AcDbLine
 10
2.700000000000002
 20
-51.03000000000008
 30
0.0
 11
3.500000000000014
 21
-51.03000000000008
 31
0.0
  0
LINE
  5
F1E3
330
F1C7
100
AcDbEntity
  8
0
100
AcDbLine
 10
2.700000000000002
 20
-40.41000000000008
 30
0.0
 11
3.500000000000014
 21
-40.41000000000008
 31
0.0
  0
LINE
  5
F1E4
330
F1C7
100
AcDbEntity
  8
0
100
AcDbLine
 10
2.700000000000002
 20
-43.41000000000008
 30
0.0
 11
3.500000000000014
 21
-43.41000000000008
 31
0.0
  0
LINE
  5
F1E5
330
F1C7
100
AcDbEntity
  8
0
100
AcDbLine
 10
3.300000000000025
 20
-41.16000000000008
 30
0.0
 11
3.300000000000025
 21
-42.66000000000008
 31
0.0
  0
LINE
  5
F1E6
330
F1C7
100
AcDbEntity
  8
0
100
AcDbLine
 10
2.700000000000002
 20
-40.41000000000008
 30
0.0
 11
2.700000000000002
 21
-43.41000000000008
 31
0.0
  0
LINE
  5
F1E7
330
F1C7
100
AcDbEntity
  8
0
100
AcDbLine
 10
2.700000000000002
 20
-48.03000000000008
 30
0.0
 11
3.500000000000014
 21
-48.03000000000008
 31
0.0
  0
LINE
  5
F1E8
330
F1C7
100
AcDbEntity
  8
0
100
AcDbLine
 10
2.500000000000014
 20
-41.16000000000008
 30
0.0
 11
2.500000000000014
 21
-42.66000000000008
 31
0.0
  0
LINE
  5
F1E9
330
F1C7
100
AcDbEntity
  8
0
100
AcDbLine
 10
2.500000000000014
 20
-41.16000000000008
 30
0.0
 11
3.300000000000025
 21
-41.16000000000008
 31
0.0
  0
LINE
  5
F1EA
330
F1C7
100
AcDbEntity
  8
0
100
AcDbLine
 10
2.500000000000014
 20
-42.66000000000014
 30
0.0
 11
3.300000000000025
 21
-42.66000000000008
 31
0.0
  0
LINE
  5
F1EB
330
F1C7
100
AcDbEntity
  8
0
100
AcDbLine
 10
2.500000000000014
 20
-48.78000000000008
 30
0.0
 11
3.300000000000025
 21
-48.78000000000008
 31
0.0
  0
LINE
  5
F1EC
330
F1C7
100
AcDbEntity
  8
0
100
AcDbLine
 10
10.29999999999997
 20
-48.03000000000008
 30
0.0
 11
10.29999999999997
 21
-51.03000000000008
 31
0.0
  0
LINE
  5
F1ED
330
F1C7
100
AcDbEntity
  8
0
100
AcDbLine
 10
11.09999999999998
 20
-46.33000000000004
 30
0.0
 11
11.09999999999998
 21
-52.73000000000013
 31
0.0
  0
LINE
  5
F1EE
330
F1C7
100
AcDbEntity
  8
0
100
AcDbLine
 10
9.500000000000014
 20
-46.33000000000004
 30
0.0
 11
9.500000000000014
 21
-52.73000000000013
 31
0.0
  0
LINE
  5
F1EF
330
F1C7
100
AcDbEntity
  8
SUNPOU
100
AcDbLine
 10
8.000000000000014
 20
-48.03000000000008
 30
0.0
 11
5.000000000000014
 21
-51.03000000000008
 31
0.0
  0
LINE
  5
F1F0
330
F1C7
100
AcDbEntity
  8
SUNPOU
100
AcDbLine
 10
8.000000000000014
 20
-51.03000000000008
 30
0.0
 11
5.000000000000014
 21
-48.03000000000008
 31
0.0
  0
LINE
  5
F1F1
330
F1C7
100
AcDbEntity
  8
0
100
AcDbLine
 10
9.500000000000014
 20
-51.03000000000008
 30
0.0
 11
10.29999999999997
 21
-51.03000000000008
 31
0.0
  0
LINE
  5
F1F2
330
F1C7
100
AcDbEntity
  8
0
100
AcDbLine
 10
9.500000000000014
 20
-40.41000000000008
 30
0.0
 11
10.29999999999997
 21
-40.41000000000008
 31
0.0
  0
LINE
  5
F1F3
330
F1C7
100
AcDbEntity
  8
0
100
AcDbLine
 10
9.500000000000014
 20
-43.41000000000008
 30
0.0
 11
10.29999999999997
 21
-43.41000000000008
 31
0.0
  0
LINE
  5
F1F4
330
F1C7
100
AcDbEntity
  8
0
100
AcDbLine
 10
10.29999999999997
 20
-40.41000000000008
 30
0.0
 11
10.29999999999997
 21
-43.41000000000008
 31
0.0
  0
LINE
  5
F1F5
330
F1C7
100
AcDbEntity
  8
SUNPOU
100
AcDbLine
 10
8.000000000000014
 20
-43.41000000000008
 30
0.0
 11
5.000000000000014
 21
-40.41000000000008
 31
0.0
  0
LINE
  5
F1F6
330
F1C7
100
AcDbEntity
  8
SUNPOU
100
AcDbLine
 10
8.000000000000014
 20
-40.41000000000008
 30
0.0
 11
5.000000000000014
 21
-43.41000000000008
 31
0.0
  0
LINE
  5
F1F7
330
F1C7
100
AcDbEntity
  8
0
100
AcDbLine
 10
9.500000000000014
 20
-48.03000000000008
 30
0.0
 11
10.29999999999997
 21
-48.03000000000008
 31
0.0
  0
LINE
  5
F1F8
330
F1C7
100
AcDbEntity
  8
0
100
AcDbLine
 10
0.0000000000000142
 20
-23.47000000000014
 30
0.0
 11
12.00000000000001
 21
-23.47000000000008
 31
0.0
  0
LINE
  5
F1F9
330
F1C7
100
AcDbEntity
  8
0
100
AcDbLine
 10
0.0000000000000142
 20
-22.25
 30
0.0
 11
12.00000000000001
 21
-22.25000000000006
 31
0.0
  0
CIRCLE
  5
F1FA
330
F1C7
100
AcDbEntity
  8
0
100
AcDbCircle
 10
6.500000000000042
 20
-34.29000000000008
 30
0.0
 40
2.75
  0
LINE
  5
F1FB
330
F1C7
100
AcDbEntity
  8
0
100
AcDbLine
 10
0.0000000000000142
 20
-31.09000000000015
 30
0.0
 11
12.00000000000001
 21
-31.09000000000009
 31
0.0
  0
LINE
  5
F1FC
330
F1C7
100
AcDbEntity
  8
0
100
AcDbLine
 10
0.0000000000000142
 20
-29.87
 30
0.0
 11
12.00000000000001
 21
-29.87000000000006
 31
0.0
  0
LINE
  5
F1FD
330
F1C7
100
AcDbEntity
  8
0
100
AcDbLine
 10
0.0000000000000142
 20
-37.5100000000001
 30
0.0
 11
12.00000000000001
 21
-37.5100000000001
 31
0.0
  0
LINE
  5
F1FE
330
F1C7
100
AcDbEntity
  8
0
100
AcDbLine
 10
0.0000000000000142
 20
-38.71000000000015
 30
0.0
 11
12.00000000000001
 21
-38.71000000000009
 31
0.0
  0
CIRCLE
  5
F1FF
330
F1C7
100
AcDbEntity
  8
0
100
AcDbCircle
 10
6.500000000000042
 20
-26.67000000000007
 30
0.0
 40
2.75
  0
LINE
  5
F200
330
F1C7
100
AcDbEntity
  8
0
100
AcDbLine
 10
2.700000000000002
 20
-32.79000000000008
 30
0.0
 11
3.500000000000014
 21
-32.79000000000008
 31
0.0
  0
LINE
  5
F201
330
F1C7
100
AcDbEntity
  8
0
100
AcDbLine
 10
2.700000000000002
 20
-35.79000000000008
 30
0.0
 11
3.500000000000014
 21
-35.79000000000008
 31
0.0
  0
LINE
  5
F202
330
F1C7
100
AcDbEntity
  8
0
100
AcDbLine
 10
3.300000000000025
 20
-33.54000000000008
 30
0.0
 11
3.300000000000025
 21
-35.04000000000008
 31
0.0
  0
LINE
  5
F203
330
F1C7
100
AcDbEntity
  8
0
100
AcDbLine
 10
3.500000000000014
 20
-31.09000000000009
 30
0.0
 11
3.500000000000014
 21
-37.49000000000012
 31
0.0
  0
LINE
  5
F204
330
F1C7
100
AcDbEntity
  8
0
100
AcDbLine
 10
2.700000000000002
 20
-32.79000000000008
 30
0.0
 11
2.700000000000002
 21
-35.79000000000008
 31
0.0
  0
LINE
  5
F205
330
F1C7
100
AcDbEntity
  8
0
100
AcDbLine
 10
2.500000000000014
 20
-33.54000000000008
 30
0.0
 11
2.500000000000014
 21
-35.04000000000008
 31
0.0
  0
LINE
  5
F206
330
F1C7
100
AcDbEntity
  8
0
100
AcDbLine
 10
1.899999999999991
 20
-31.09000000000009
 30
0.0
 11
1.899999999999991
 21
-37.49000000000001
 31
0.0
  0
LINE
  5
F207
330
F1C7
100
AcDbEntity
  8
0
100
AcDbLine
 10
2.500000000000014
 20
-33.54000000000008
 30
0.0
 11
3.300000000000025
 21
-33.54000000000008
 31
0.0
  0
LINE
  5
F208
330
F1C7
100
AcDbEntity
  8
0
100
AcDbLine
 10
2.500000000000014
 20
-35.04000000000014
 30
0.0
 11
3.300000000000025
 21
-35.04000000000008
 31
0.0
  0
LINE
  5
F209
330
F1C7
100
AcDbEntity
  8
0
100
AcDbLine
 10
2.700000000000002
 20
-25.17000000000007
 30
0.0
 11
3.500000000000014
 21
-25.17000000000007
 31
0.0
  0
LINE
  5
F20A
330
F1C7
100
AcDbEntity
  8
0
100
AcDbLine
 10
2.500000000000014
 20
-25.92000000000008
 30
0.0
 11
3.300000000000025
 21
-25.92000000000008
 31
0.0
  0
LINE
  5
F20B
330
F1C7
100
AcDbEntity
  8
0
100
AcDbLine
 10
2.700000000000002
 20
-28.17000000000007
 30
0.0
 11
3.500000000000014
 21
-28.17000000000007
 31
0.0
  0
LINE
  5
F20C
330
F1C7
100
AcDbEntity
  8
0
100
AcDbLine
 10
2.500000000000014
 20
-27.42000000000013
 30
0.0
 11
3.300000000000025
 21
-27.42000000000007
 31
0.0
  0
LINE
  5
F20D
330
F1C7
100
AcDbEntity
  8
0
100
AcDbLine
 10
2.700000000000002
 20
-25.17000000000007
 30
0.0
 11
2.700000000000002
 21
-28.17000000000007
 31
0.0
  0
LINE
  5
F20E
330
F1C7
100
AcDbEntity
  8
0
100
AcDbLine
 10
3.300000000000025
 20
-25.92000000000008
 30
0.0
 11
3.300000000000025
 21
-27.42000000000007
 31
0.0
  0
LINE
  5
F20F
330
F1C7
100
AcDbEntity
  8
0
100
AcDbLine
 10
2.500000000000014
 20
-25.92000000000008
 30
0.0
 11
2.500000000000014
 21
-27.42000000000007
 31
0.0
  0
LINE
  5
F210
330
F1C7
100
AcDbEntity
  8
0
100
AcDbLine
 10
1.899999999999991
 20
-23.47000000000008
 30
0.0
 11
1.899999999999991
 21
-29.87
 31
0.0
  0
LINE
  5
F211
330
F1C7
100
AcDbEntity
  8
0
100
AcDbLine
 10
3.500000000000014
 20
-23.47000000000008
 30
0.0
 11
3.500000000000014
 21
-29.87
 31
0.0
  0
LINE
  5
F212
330
F1C7
100
AcDbEntity
  8
0
100
AcDbLine
 10
11.09999999999998
 20
-31.09000000000003
 30
0.0
 11
11.09999999999998
 21
-37.49000000000012
 31
0.0
  0
LINE
  5
F213
330
F1C7
100
AcDbEntity
  8
0
100
AcDbLine
 10
9.500000000000014
 20
-32.79000000000008
 30
0.0
 11
10.29999999999997
 21
-32.79000000000008
 31
0.0
  0
LINE
  5
F214
330
F1C7
100
AcDbEntity
  8
0
100
AcDbLine
 10
9.500000000000014
 20
-35.79000000000008
 30
0.0
 11
10.29999999999997
 21
-35.79000000000008
 31
0.0
  0
LINE
  5
F215
330
F1C7
100
AcDbEntity
  8
0
100
AcDbLine
 10
9.500000000000014
 20
-31.09000000000003
 30
0.0
 11
9.500000000000014
 21
-37.49000000000012
 31
0.0
  0
LINE
  5
F216
330
F1C7
100
AcDbEntity
  8
0
100
AcDbLine
 10
9.500000000000014
 20
-31.09000000000003
 30
0.0
 11
9.500000000000014
 21
-37.49000000000012
 31
0.0
  0
LINE
  5
F217
330
F1C7
100
AcDbEntity
  8
SUNPOU
100
AcDbLine
 10
8.000000000000014
 20
-32.79000000000008
 30
0.0
 11
5.000000000000014
 21
-35.79000000000008
 31
0.0
  0
LINE
  5
F218
330
F1C7
100
AcDbEntity
  8
SUNPOU
100
AcDbLine
 10
8.000000000000014
 20
-35.79000000000008
 30
0.0
 11
5.000000000000014
 21
-32.79000000000008
 31
0.0
  0
LINE
  5
F219
330
F1C7
100
AcDbEntity
  8
0
100
AcDbLine
 10
10.29999999999997
 20
-32.79000000000008
 30
0.0
 11
10.29999999999997
 21
-35.79000000000008
 31
0.0
  0
LINE
  5
F21A
330
F1C7
100
AcDbEntity
  8
0
100
AcDbLine
 10
9.500000000000014
 20
-25.17000000000007
 30
0.0
 11
10.29999999999997
 21
-25.17000000000007
 31
0.0
  0
LINE
  5
F21B
330
F1C7
100
AcDbEntity
  8
0
100
AcDbLine
 10
9.500000000000014
 20
-28.17000000000007
 30
0.0
 11
10.29999999999997
 21
-28.17000000000007
 31
0.0
  0
LINE
  5
F21C
330
F1C7
100
AcDbEntity
  8
0
100
AcDbLine
 10
10.29999999999997
 20
-25.17000000000007
 30
0.0
 11
10.29999999999997
 21
-28.17000000000007
 31
0.0
  0
LINE
  5
F21D
330
F1C7
100
AcDbEntity
  8
SUNPOU
100
AcDbLine
 10
8.000000000000014
 20
-25.17000000000007
 30
0.0
 11
5.000000000000014
 21
-28.17000000000007
 31
0.0
  0
LINE
  5
F21E
330
F1C7
100
AcDbEntity
  8
SUNPOU
100
AcDbLine
 10
8.000000000000014
 20
-28.17000000000007
 30
0.0
 11
5.000000000000014
 21
-25.17000000000007
 31
0.0
  0
LINE
  5
F21F
330
F1C7
100
AcDbEntity
  8
0
100
AcDbLine
 10
11.09999999999998
 20
-23.47000000000003
 30
0.0
 11
11.09999999999998
 21
-29.87000000000012
 31
0.0
  0
LINE
  5
F220
330
F1C7
100
AcDbEntity
  8
0
100
AcDbLine
 10
9.500000000000014
 20
-23.47000000000003
 30
0.0
 11
9.500000000000014
 21
-29.87000000000012
 31
0.0
  0
CIRCLE
  5
F221
330
F1C7
100
AcDbEntity
  8
0
100
AcDbCircle
 10
6.500000000000042
 20
19.04999999999995
 30
0.0
 40
2.75
  0
LINE
  5
F222
330
F1C7
100
AcDbEntity
  8
0
100
AcDbLine
 10
3.500000000000014
 20
22.24999999999994
 30
0.0
 11
3.500000000000014
 21
15.85000000000002
 31
0.0
  0
LINE
  5
F223
330
F1C7
100
AcDbEntity
  8
0
100
AcDbLine
 10
1.899999999999991
 20
22.24999999999994
 30
0.0
 11
1.899999999999991
 21
15.85000000000002
 31
0.0
  0
LINE
  5
F224
330
F1C7
100
AcDbEntity
  8
0
100
AcDbLine
 10
2.500000000000014
 20
19.79999999999995
 30
0.0
 11
2.500000000000014
 21
18.29999999999995
 31
0.0
  0
LINE
  5
F225
330
F1C7
100
AcDbEntity
  8
0
100
AcDbLine
 10
3.300000000000025
 20
19.79999999999995
 30
0.0
 11
3.300000000000025
 21
18.29999999999995
 31
0.0
  0
LINE
  5
F226
330
F1C7
100
AcDbEntity
  8
0
100
AcDbLine
 10
2.700000000000002
 20
20.54999999999996
 30
0.0
 11
2.700000000000002
 21
17.54999999999995
 31
0.0
  0
LINE
  5
F227
330
F1C7
100
AcDbEntity
  8
0
100
AcDbLine
 10
9.500000000000014
 20
22.25
 30
0.0
 11
9.500000000000014
 21
15.84999999999991
 31
0.0
  0
LINE
  5
F228
330
F1C7
100
AcDbEntity
  8
0
100
AcDbLine
 10
11.09999999999998
 20
22.25
 30
0.0
 11
11.09999999999998
 21
15.84999999999991
 31
0.0
  0
LINE
  5
F229
330
F1C7
100
AcDbEntity
  8
SUNPOU
100
AcDbLine
 10
8.000000000000014
 20
17.54999999999995
 30
0.0
 11
5.000000000000014
 21
20.54999999999996
 31
0.0
  0
LINE
  5
F22A
330
F1C7
100
AcDbEntity
  8
SUNPOU
100
AcDbLine
 10
8.000000000000014
 20
20.54999999999996
 30
0.0
 11
5.000000000000014
 21
17.54999999999995
 31
0.0
  0
LINE
  5
F22B
330
F1C7
100
AcDbEntity
  8
0
100
AcDbLine
 10
10.30000000000002
 20
20.54999999999996
 30
0.0
 11
10.30000000000002
 21
17.54999999999995
 31
0.0
  0
LINE
  5
F22C
330
F1C7
100
AcDbEntity
  8
0
100
AcDbLine
 10
3.500000000000014
 20
-0.6100000000000705
 30
0.0
 11
3.500000000000014
 21
-7.00999999999999
 31
0.0
  0
LINE
  5
F22D
330
F1C7
100
AcDbEntity
  8
0
100
AcDbLine
 10
1.899999999999991
 20
-0.6100000000000705
 30
0.0
 11
1.899999999999991
 21
-7.00999999999999
 31
0.0
  0
LINE
  5
F22E
330
F1C7
100
AcDbEntity
  8
0
100
AcDbLine
 10
9.500000000000014
 20
-0.6100000000000137
 30
0.0
 11
9.500000000000014
 21
-7.010000000000104
 31
0.0
  0
LINE
  5
F22F
330
F1C7
100
AcDbEntity
  8
0
100
AcDbLine
 10
11.09999999999998
 20
-0.6100000000000137
 30
0.0
 11
11.09999999999998
 21
-7.010000000000104
 31
0.0
  0
CIRCLE
  5
F230
330
F1C7
100
AcDbEntity
  8
0
100
AcDbCircle
 10
6.500000000000042
 20
-11.43000000000006
 30
0.0
 40
2.75
  0
LINE
  5
F231
330
F1C7
100
AcDbEntity
  8
0
100
AcDbLine
 10
0.0000000000000142
 20
-15.85000000000013
 30
0.0
 11
12.00000000000001
 21
-15.85000000000008
 31
0.0
  0
LINE
  5
F232
330
F1C7
100
AcDbEntity
  8
0
100
AcDbLine
 10
0.0000000000000142
 20
-14.65000000000009
 30
0.0
 11
12.00000000000001
 21
-14.65000000000009
 31
0.0
  0
LINE
  5
F233
330
F1C7
100
AcDbEntity
  8
0
100
AcDbLine
 10
0.0000000000000142
 20
-8.230000000000131
 30
0.0
 11
12.00000000000001
 21
-8.230000000000075
 31
0.0
  0
LINE
  5
F234
330
F1C7
100
AcDbEntity
  8
0
100
AcDbLine
 10
0.0000000000000142
 20
-7.00999999999999
 30
0.0
 11
12.00000000000001
 21
-7.010000000000047
 31
0.0
  0
CIRCLE
  5
F235
330
F1C7
100
AcDbEntity
  8
0
100
AcDbCircle
 10
6.500000000000042
 20
-3.810000000000059
 30
0.0
 40
2.75
  0
LINE
  5
F236
330
F1C7
100
AcDbEntity
  8
0
100
AcDbLine
 10
3.300000000000025
 20
-10.68000000000006
 30
0.0
 11
3.300000000000025
 21
-12.18000000000006
 31
0.0
  0
LINE
  5
F237
330
F1C7
100
AcDbEntity
  8
0
100
AcDbLine
 10
2.700000000000002
 20
-9.930000000000063
 30
0.0
 11
2.700000000000002
 21
-12.93000000000006
 31
0.0
  0
LINE
  5
F238
330
F1C7
100
AcDbEntity
  8
0
100
AcDbLine
 10
3.500000000000014
 20
-8.230000000000075
 30
0.0
 11
3.500000000000014
 21
-14.63000000000011
 31
0.0
  0
LINE
  5
F239
330
F1C7
100
AcDbEntity
  8
0
100
AcDbLine
 10
2.500000000000014
 20
-10.68000000000006
 30
0.0
 11
2.500000000000014
 21
-12.18000000000006
 31
0.0
  0
LINE
  5
F23A
330
F1C7
100
AcDbEntity
  8
0
100
AcDbLine
 10
1.899999999999991
 20
-8.230000000000075
 30
0.0
 11
1.899999999999991
 21
-14.62999999999999
 31
0.0
  0
LINE
  5
F23B
330
F1C7
100
AcDbEntity
  8
0
100
AcDbLine
 10
2.700000000000002
 20
-12.93000000000006
 30
0.0
 11
3.500000000000014
 21
-12.93000000000006
 31
0.0
  0
LINE
  5
F23C
330
F1C7
100
AcDbEntity
  8
0
100
AcDbLine
 10
2.700000000000002
 20
-17.55000000000007
 30
0.0
 11
2.700000000000002
 21
-20.55000000000007
 31
0.0
  0
LINE
  5
F23D
330
F1C7
100
AcDbEntity
  8
0
100
AcDbLine
 10
2.700000000000002
 20
-17.55000000000007
 30
0.0
 11
3.500000000000014
 21
-17.55000000000007
 31
0.0
  0
LINE
  5
F23E
330
F1C7
100
AcDbEntity
  8
0
100
AcDbLine
 10
3.300000000000025
 20
-18.30000000000007
 30
0.0
 11
3.300000000000025
 21
-19.80000000000007
 31
0.0
  0
LINE
  5
F23F
330
F1C7
100
AcDbEntity
  8
0
100
AcDbLine
 10
2.700000000000002
 20
-20.55000000000007
 30
0.0
 11
3.500000000000014
 21
-20.55000000000007
 31
0.0
  0
LINE
  5
F240
330
F1C7
100
AcDbEntity
  8
0
100
AcDbLine
 10
2.500000000000014
 20
-18.30000000000007
 30
0.0
 11
2.500000000000014
 21
-19.80000000000007
 31
0.0
  0
LINE
  5
F241
330
F1C7
100
AcDbEntity
  8
0
100
AcDbLine
 10
2.500000000000014
 20
-19.80000000000012
 30
0.0
 11
3.300000000000025
 21
-19.80000000000007
 31
0.0
  0
LINE
  5
F242
330
F1C7
100
AcDbEntity
  8
0
100
AcDbLine
 10
2.500000000000014
 20
-18.30000000000007
 30
0.0
 11
3.300000000000025
 21
-18.30000000000007
 31
0.0
  0
LINE
  5
F243
330
F1C7
100
AcDbEntity
  8
0
100
AcDbLine
 10
2.500000000000014
 20
-12.18000000000012
 30
0.0
 11
3.300000000000025
 21
-12.18000000000006
 31
0.0
  0
LINE
  5
F244
330
F1C7
100
AcDbEntity
  8
0
100
AcDbLine
 10
2.700000000000002
 20
-2.310000000000059
 30
0.0
 11
3.500000000000014
 21
-2.310000000000059
 31
0.0
  0
LINE
  5
F245
330
F1C7
100
AcDbEntity
  8
0
100
AcDbLine
 10
2.500000000000014
 20
-3.060000000000059
 30
0.0
 11
3.300000000000025
 21
-3.060000000000059
 31
0.0
  0
LINE
  5
F246
330
F1C7
100
AcDbEntity
  8
0
100
AcDbLine
 10
2.700000000000002
 20
-5.310000000000059
 30
0.0
 11
3.500000000000014
 21
-5.310000000000059
 31
0.0
  0
LINE
  5
F247
330
F1C7
100
AcDbEntity
  8
0
100
AcDbLine
 10
2.700000000000002
 20
-9.930000000000063
 30
0.0
 11
3.500000000000014
 21
-9.930000000000063
 31
0.0
  0
LINE
  5
F248
330
F1C7
100
AcDbEntity
  8
0
100
AcDbLine
 10
2.500000000000014
 20
-4.560000000000115
 30
0.0
 11
3.300000000000025
 21
-4.560000000000059
 31
0.0
  0
LINE
  5
F249
330
F1C7
100
AcDbEntity
  8
0
100
AcDbLine
 10
2.500000000000014
 20
-10.68000000000006
 30
0.0
 11
3.300000000000025
 21
-10.68000000000006
 31
0.0
  0
LINE
  5
F24A
330
F1C7
100
AcDbEntity
  8
0
100
AcDbLine
 10
2.500000000000014
 20
-3.060000000000059
 30
0.0
 11
2.500000000000014
 21
-4.560000000000059
 31
0.0
  0
LINE
  5
F24B
330
F1C7
100
AcDbEntity
  8
0
100
AcDbLine
 10
3.300000000000025
 20
-3.060000000000059
 30
0.0
 11
3.300000000000025
 21
-4.560000000000059
 31
0.0
  0
LINE
  5
F24C
330
F1C7
100
AcDbEntity
  8
0
100
AcDbLine
 10
2.700000000000002
 20
-2.310000000000059
 30
0.0
 11
2.700000000000002
 21
-5.310000000000059
 31
0.0
  0
LINE
  5
F24D
330
F1C7
100
AcDbEntity
  8
0
100
AcDbLine
 10
11.09999999999998
 20
-8.230000000000018
 30
0.0
 11
11.09999999999998
 21
-14.63000000000011
 31
0.0
  0
LINE
  5
F24E
330
F1C7
100
AcDbEntity
  8
0
100
AcDbLine
 10
10.29999999999997
 20
-9.930000000000063
 30
0.0
 11
10.29999999999997
 21
-12.93000000000006
 31
0.0
  0
LINE
  5
F24F
330
F1C7
100
AcDbEntity
  8
SUNPOU
100
AcDbLine
 10
8.000000000000014
 20
-12.93000000000006
 30
0.0
 11
5.000000000000014
 21
-9.930000000000063
 31
0.0
  0
LINE
  5
F250
330
F1C7
100
AcDbEntity
  8
SUNPOU
100
AcDbLine
 10
8.000000000000014
 20
-9.930000000000063
 30
0.0
 11
5.000000000000014
 21
-12.93000000000006
 31
0.0
  0
LINE
  5
F251
330
F1C7
100
AcDbEntity
  8
0
100
AcDbLine
 10
9.500000000000014
 20
-8.230000000000018
 30
0.0
 11
9.500000000000014
 21
-14.63000000000011
 31
0.0
  0
LINE
  5
F252
330
F1C7
100
AcDbEntity
  8
0
100
AcDbLine
 10
9.500000000000014
 20
-8.230000000000018
 30
0.0
 11
9.500000000000014
 21
-14.63000000000011
 31
0.0
  0
LINE
  5
F253
330
F1C7
100
AcDbEntity
  8
0
100
AcDbLine
 10
9.500000000000014
 20
-12.93000000000006
 30
0.0
 11
10.29999999999997
 21
-12.93000000000006
 31
0.0
  0
LINE
  5
F254
330
F1C7
100
AcDbEntity
  8
0
100
AcDbLine
 10
9.500000000000014
 20
-17.55000000000007
 30
0.0
 11
10.29999999999997
 21
-17.55000000000007
 31
0.0
  0
LINE
  5
F255
330
F1C7
100
AcDbEntity
  8
0
100
AcDbLine
 10
9.500000000000014
 20
-20.55000000000007
 30
0.0
 11
10.29999999999997
 21
-20.55000000000007
 31
0.0
  0
LINE
  5
F256
330
F1C7
100
AcDbEntity
  8
0
100
AcDbLine
 10
10.29999999999997
 20
-17.55000000000007
 30
0.0
 11
10.29999999999997
 21
-20.55000000000007
 31
0.0
  0
LINE
  5
F257
330
F1C7
100
AcDbEntity
  8
SUNPOU
100
AcDbLine
 10
8.000000000000014
 20
-20.55000000000007
 30
0.0
 11
5.000000000000014
 21
-17.55000000000007
 31
0.0
  0
LINE
  5
F258
330
F1C7
100
AcDbEntity
  8
SUNPOU
100
AcDbLine
 10
8.000000000000014
 20
-17.55000000000007
 30
0.0
 11
5.000000000000014
 21
-20.55000000000007
 31
0.0
  0
LINE
  5
F259
330
F1C7
100
AcDbEntity
  8
0
100
AcDbLine
 10
9.500000000000014
 20
-2.310000000000059
 30
0.0
 11
10.30000000000002
 21
-2.310000000000059
 31
0.0
  0
LINE
  5
F25A
330
F1C7
100
AcDbEntity
  8
0
100
AcDbLine
 10
9.500000000000014
 20
-5.310000000000059
 30
0.0
 11
10.30000000000002
 21
-5.310000000000059
 31
0.0
  0
LINE
  5
F25B
330
F1C7
100
AcDbEntity
  8
0
100
AcDbLine
 10
9.500000000000014
 20
-9.930000000000063
 30
0.0
 11
10.29999999999997
 21
-9.930000000000063
 31
0.0
  0
LINE
  5
F25C
330
F1C7
100
AcDbEntity
  8
SUNPOU
100
AcDbLine
 10
8.000000000000014
 20
-5.310000000000059
 30
0.0
 11
5.000000000000014
 21
-2.310000000000059
 31
0.0
  0
LINE
  5
F25D
330
F1C7
100
AcDbEntity
  8
SUNPOU
100
AcDbLine
 10
8.000000000000014
 20
-2.310000000000059
 30
0.0
 11
5.000000000000014
 21
-5.310000000000059
 31
0.0
  0
LINE
  5
F25E
330
F1C7
100
AcDbEntity
  8
0
100
AcDbLine
 10
10.30000000000002
 20
-2.310000000000059
 30
0.0
 11
10.30000000000002
 21
-5.310000000000059
 31
0.0
  0
CIRCLE
  5
F25F
330
F1C7
100
AcDbEntity
  8
0
100
AcDbCircle
 10
6.500000000000042
 20
11.42999999999995
 30
0.0
 40
2.75
  0
CIRCLE
  5
F260
330
F1C7
100
AcDbEntity
  8
0
100
AcDbCircle
 10
6.500000000000042
 20
3.809999999999945
 30
0.0
 40
2.75
  0
LINE
  5
F261
330
F1C7
100
AcDbEntity
  8
0
100
AcDbLine
 10
0.0000000000000142
 20
7.009999999999877
 30
0.0
 11
12.00000000000001
 21
7.009999999999934
 31
0.0
  0
LINE
  5
F262
330
F1C7
100
AcDbEntity
  8
0
100
AcDbLine
 10
0.0000000000000142
 20
8.209999999999922
 30
0.0
 11
12.00000000000001
 21
8.209999999999922
 31
0.0
  0
LINE
  5
F263
330
F1C7
100
AcDbEntity
  8
0
100
AcDbLine
 10
0.0000000000000142
 20
0.6100000000000137
 30
0.0
 11
12.00000000000001
 21
0.6099999999999568
 31
0.0
  0
LINE
  5
F264
330
F1C7
100
AcDbEntity
  8
0
100
AcDbLine
 10
0.0000000000000142
 20
-0.6100000000001274
 30
0.0
 11
12.00000000000001
 21
-0.6100000000000705
 31
0.0
  0
LINE
  5
F265
330
F1C7
100
AcDbEntity
  8
0
100
AcDbLine
 10
0.0000000000000142
 20
15.85000000000002
 30
0.0
 11
12.00000000000001
 21
15.84999999999996
 31
0.0
  0
LINE
  5
F266
330
F1C7
100
AcDbEntity
  8
0
100
AcDbLine
 10
0.0000000000000142
 20
14.62999999999988
 30
0.0
 11
12.00000000000001
 21
14.62999999999994
 31
0.0
  0
LINE
  5
F267
330
F1C7
100
AcDbEntity
  8
0
100
AcDbLine
 10
3.500000000000014
 20
14.62999999999994
 30
0.0
 11
3.500000000000014
 21
8.229999999999904
 31
0.0
  0
LINE
  5
F268
330
F1C7
100
AcDbEntity
  8
0
100
AcDbLine
 10
1.899999999999991
 20
14.62999999999994
 30
0.0
 11
1.899999999999991
 21
8.230000000000018
 31
0.0
  0
LINE
  5
F269
330
F1C7
100
AcDbEntity
  8
0
100
AcDbLine
 10
2.700000000000002
 20
5.309999999999945
 30
0.0
 11
2.700000000000002
 21
2.309999999999945
 31
0.0
  0
LINE
  5
F26A
330
F1C7
100
AcDbEntity
  8
0
100
AcDbLine
 10
2.700000000000002
 20
5.309999999999945
 30
0.0
 11
3.500000000000014
 21
5.309999999999945
 31
0.0
  0
LINE
  5
F26B
330
F1C7
100
AcDbEntity
  8
0
100
AcDbLine
 10
2.700000000000002
 20
2.309999999999945
 30
0.0
 11
3.500000000000014
 21
2.309999999999945
 31
0.0
  0
LINE
  5
F26C
330
F1C7
100
AcDbEntity
  8
0
100
AcDbLine
 10
3.300000000000025
 20
4.559999999999945
 30
0.0
 11
3.300000000000025
 21
3.059999999999945
 31
0.0
  0
LINE
  5
F26D
330
F1C7
100
AcDbEntity
  8
0
100
AcDbLine
 10
3.500000000000014
 20
7.009999999999934
 30
0.0
 11
3.500000000000014
 21
0.6099999999999568
 31
0.0
  0
LINE
  5
F26E
330
F1C7
100
AcDbEntity
  8
0
100
AcDbLine
 10
2.500000000000014
 20
4.559999999999945
 30
0.0
 11
2.500000000000014
 21
3.059999999999945
 31
0.0
  0
LINE
  5
F26F
330
F1C7
100
AcDbEntity
  8
0
100
AcDbLine
 10
1.899999999999991
 20
7.009999999999934
 30
0.0
 11
1.899999999999991
 21
0.6100000000000137
 31
0.0
  0
LINE
  5
F270
330
F1C7
100
AcDbEntity
  8
0
100
AcDbLine
 10
2.500000000000014
 20
4.559999999999945
 30
0.0
 11
3.300000000000025
 21
4.559999999999945
 31
0.0
  0
LINE
  5
F271
330
F1C7
100
AcDbEntity
  8
0
100
AcDbLine
 10
2.500000000000014
 20
3.059999999999888
 30
0.0
 11
3.300000000000025
 21
3.059999999999945
 31
0.0
  0
LINE
  5
F272
330
F1C7
100
AcDbEntity
  8
0
100
AcDbLine
 10
2.700000000000002
 20
17.54999999999995
 30
0.0
 11
3.500000000000014
 21
17.54999999999995
 31
0.0
  0
LINE
  5
F273
330
F1C7
100
AcDbEntity
  8
0
100
AcDbLine
 10
2.700000000000002
 20
9.929999999999949
 30
0.0
 11
3.500000000000014
 21
9.929999999999949
 31
0.0
  0
LINE
  5
F274
330
F1C7
100
AcDbEntity
  8
0
100
AcDbLine
 10
2.700000000000002
 20
12.92999999999995
 30
0.0
 11
3.500000000000014
 21
12.92999999999995
 31
0.0
  0
LINE
  5
F275
330
F1C7
100
AcDbEntity
  8
0
100
AcDbLine
 10
3.300000000000025
 20
12.17999999999995
 30
0.0
 11
3.300000000000025
 21
10.67999999999995
 31
0.0
  0
LINE
  5
F276
330
F1C7
100
AcDbEntity
  8
0
100
AcDbLine
 10
2.700000000000002
 20
12.92999999999995
 30
0.0
 11
2.700000000000002
 21
9.929999999999949
 31
0.0
  0
LINE
  5
F277
330
F1C7
100
AcDbEntity
  8
0
100
AcDbLine
 10
2.500000000000014
 20
12.17999999999995
 30
0.0
 11
2.500000000000014
 21
10.67999999999995
 31
0.0
  0
LINE
  5
F278
330
F1C7
100
AcDbEntity
  8
0
100
AcDbLine
 10
2.500000000000014
 20
18.2999999999999
 30
0.0
 11
3.300000000000025
 21
18.29999999999995
 31
0.0
  0
LINE
  5
F279
330
F1C7
100
AcDbEntity
  8
0
100
AcDbLine
 10
2.500000000000014
 20
10.67999999999989
 30
0.0
 11
3.300000000000025
 21
10.67999999999995
 31
0.0
  0
LINE
  5
F27A
330
F1C7
100
AcDbEntity
  8
0
100
AcDbLine
 10
2.500000000000014
 20
12.17999999999995
 30
0.0
 11
3.300000000000025
 21
12.17999999999995
 31
0.0
  0
LINE
  5
F27B
330
F1C7
100
AcDbEntity
  8
0
100
AcDbLine
 10
11.09999999999998
 20
14.62999999999999
 30
0.0
 11
11.09999999999998
 21
8.229999999999904
 31
0.0
  0
LINE
  5
F27C
330
F1C7
100
AcDbEntity
  8
0
100
AcDbLine
 10
9.500000000000014
 20
14.62999999999999
 30
0.0
 11
9.500000000000014
 21
8.229999999999904
 31
0.0
  0
LINE
  5
F27D
330
F1C7
100
AcDbEntity
  8
0
100
AcDbLine
 10
9.500000000000014
 20
14.62999999999999
 30
0.0
 11
9.500000000000014
 21
8.229999999999904
 31
0.0
  0
LINE
  5
F27E
330
F1C7
100
AcDbEntity
  8
0
100
AcDbLine
 10
11.09999999999998
 20
7.00999999999999
 30
0.0
 11
11.09999999999998
 21
0.6099999999999
 31
0.0
  0
LINE
  5
F27F
330
F1C7
100
AcDbEntity
  8
0
100
AcDbLine
 10
9.500000000000014
 20
5.309999999999945
 30
0.0
 11
10.30000000000002
 21
5.309999999999945
 31
0.0
  0
LINE
  5
F280
330
F1C7
100
AcDbEntity
  8
0
100
AcDbLine
 10
9.500000000000014
 20
2.309999999999945
 30
0.0
 11
10.30000000000002
 21
2.309999999999945
 31
0.0
  0
LINE
  5
F281
330
F1C7
100
AcDbEntity
  8
0
100
AcDbLine
 10
10.30000000000002
 20
5.309999999999945
 30
0.0
 11
10.30000000000002
 21
2.309999999999945
 31
0.0
  0
LINE
  5
F282
330
F1C7
100
AcDbEntity
  8
SUNPOU
100
AcDbLine
 10
8.000000000000014
 20
5.309999999999945
 30
0.0
 11
5.000000000000014
 21
2.309999999999945
 31
0.0
  0
LINE
  5
F283
330
F1C7
100
AcDbEntity
  8
SUNPOU
100
AcDbLine
 10
8.000000000000014
 20
2.309999999999945
 30
0.0
 11
5.000000000000014
 21
5.309999999999945
 31
0.0
  0
LINE
  5
F284
330
F1C7
100
AcDbEntity
  8
0
100
AcDbLine
 10
9.500000000000014
 20
7.009999999999934
 30
0.0
 11
9.500000000000014
 21
0.6099999999999
 31
0.0
  0
LINE
  5
F285
330
F1C7
100
AcDbEntity
  8
0
100
AcDbLine
 10
9.500000000000014
 20
17.54999999999995
 30
0.0
 11
10.30000000000002
 21
17.54999999999995
 31
0.0
  0
LINE
  5
F286
330
F1C7
100
AcDbEntity
  8
0
100
AcDbLine
 10
9.500000000000014
 20
9.929999999999949
 30
0.0
 11
10.30000000000002
 21
9.929999999999949
 31
0.0
  0
LINE
  5
F287
330
F1C7
100
AcDbEntity
  8
0
100
AcDbLine
 10
9.500000000000014
 20
12.92999999999995
 30
0.0
 11
10.30000000000002
 21
12.92999999999995
 31
0.0
  0
LINE
  5
F288
330
F1C7
100
AcDbEntity
  8
0
100
AcDbLine
 10
10.30000000000002
 20
12.92999999999995
 30
0.0
 11
10.30000000000002
 21
9.929999999999949
 31
0.0
  0
LINE
  5
F289
330
F1C7
100
AcDbEntity
  8
SUNPOU
100
AcDbLine
 10
8.000000000000014
 20
9.929999999999949
 30
0.0
 11
5.000000000000014
 21
12.92999999999995
 31
0.0
  0
LINE
  5
F28A
330
F1C7
100
AcDbEntity
  8
SUNPOU
100
AcDbLine
 10
8.000000000000014
 20
12.92999999999995
 30
0.0
 11
5.000000000000014
 21
9.929999999999949
 31
0.0
  0
CIRCLE
  5
F28B
330
F1C7
100
AcDbEntity
  8
0
100
AcDbCircle
 10
6.500000000000042
 20
34.28999999999997
 30
0.0
 40
2.75
  0
CIRCLE
  5
F28C
330
F1C7
100
AcDbEntity
  8
0
100
AcDbCircle
 10
6.500000000000042
 20
26.66999999999996
 30
0.0
 40
2.75
  0
LINE
  5
F28D
330
F1C7
100
AcDbEntity
  8
0
100
AcDbLine
 10
0.0000000000000142
 20
29.86999999999989
 30
0.0
 11
12.00000000000001
 21
29.86999999999995
 31
0.0
  0
LINE
  5
F28E
330
F1C7
100
AcDbEntity
  8
0
100
AcDbLine
 10
0.0000000000000142
 20
23.44999999999993
 30
0.0
 11
12.00000000000001
 21
23.44999999999993
 31
0.0
  0
LINE
  5
F28F
330
F1C7
100
AcDbEntity
  8
0
100
AcDbLine
 10
0.0000000000000142
 20
22.24999999999988
 30
0.0
 11
12.00000000000001
 21
22.24999999999994
 31
0.0
  0
LINE
  5
F290
330
F1C7
100
AcDbEntity
  8
0
100
AcDbLine
 10
0.0000000000000142
 20
31.09000000000003
 30
0.0
 11
12.00000000000001
 21
31.08999999999998
 31
0.0
  0
LINE
  5
F291
330
F1C7
100
AcDbEntity
  8
0
100
AcDbLine
 10
0.0000000000000142
 20
37.4899999999999
 30
0.0
 11
12.00000000000001
 21
37.48999999999995
 31
0.0
  0
LINE
  5
F292
330
F1C7
100
AcDbEntity
  8
0
100
AcDbLine
 10
3.500000000000014
 20
29.86999999999995
 30
0.0
 11
3.500000000000014
 21
23.46999999999991
 31
0.0
  0
LINE
  5
F293
330
F1C7
100
AcDbEntity
  8
0
100
AcDbLine
 10
1.899999999999991
 20
29.86999999999995
 30
0.0
 11
1.899999999999991
 21
23.47000000000003
 31
0.0
  0
LINE
  5
F294
330
F1C7
100
AcDbEntity
  8
0
100
AcDbLine
 10
3.300000000000025
 20
27.41999999999996
 30
0.0
 11
3.300000000000025
 21
25.91999999999996
 31
0.0
  0
LINE
  5
F295
330
F1C7
100
AcDbEntity
  8
0
100
AcDbLine
 10
2.700000000000002
 20
28.16999999999996
 30
0.0
 11
3.500000000000014
 21
28.16999999999996
 31
0.0
  0
LINE
  5
F296
330
F1C7
100
AcDbEntity
  8
0
100
AcDbLine
 10
2.700000000000002
 20
25.16999999999996
 30
0.0
 11
3.500000000000014
 21
25.16999999999996
 31
0.0
  0
LINE
  5
F297
330
F1C7
100
AcDbEntity
  8
0
100
AcDbLine
 10
2.700000000000002
 20
28.16999999999996
 30
0.0
 11
2.700000000000002
 21
25.16999999999996
 31
0.0
  0
LINE
  5
F298
330
F1C7
100
AcDbEntity
  8
0
100
AcDbLine
 10
2.700000000000002
 20
20.54999999999996
 30
0.0
 11
3.500000000000014
 21
20.54999999999996
 31
0.0
  0
LINE
  5
F299
330
F1C7
100
AcDbEntity
  8
0
100
AcDbLine
 10
2.500000000000014
 20
27.41999999999996
 30
0.0
 11
2.500000000000014
 21
25.91999999999996
 31
0.0
  0
LINE
  5
F29A
330
F1C7
100
AcDbEntity
  8
0
100
AcDbLine
 10
2.500000000000014
 20
19.79999999999995
 30
0.0
 11
3.300000000000025
 21
19.79999999999995
 31
0.0
  0
LINE
  5
F29B
330
F1C7
100
AcDbEntity
  8
0
100
AcDbLine
 10
2.500000000000014
 20
27.41999999999996
 30
0.0
 11
3.300000000000025
 21
27.41999999999996
 31
0.0
  0
LINE
  5
F29C
330
F1C7
100
AcDbEntity
  8
0
100
AcDbLine
 10
2.500000000000014
 20
25.9199999999999
 30
0.0
 11
3.300000000000025
 21
25.91999999999996
 31
0.0
  0
LINE
  5
F29D
330
F1C7
100
AcDbEntity
  8
0
100
AcDbLine
 10
2.700000000000002
 20
35.78999999999997
 30
0.0
 11
2.700000000000002
 21
32.78999999999996
 31
0.0
  0
LINE
  5
F29E
330
F1C7
100
AcDbEntity
  8
0
100
AcDbLine
 10
3.300000000000025
 20
35.03999999999996
 30
0.0
 11
3.300000000000025
 21
33.53999999999996
 31
0.0
  0
LINE
  5
F29F
330
F1C7
100
AcDbEntity
  8
0
100
AcDbLine
 10
2.700000000000002
 20
32.78999999999996
 30
0.0
 11
3.500000000000014
 21
32.78999999999996
 31
0.0
  0
LINE
  5
F2A0
330
F1C7
100
AcDbEntity
  8
0
100
AcDbLine
 10
2.700000000000002
 20
35.78999999999997
 30
0.0
 11
3.500000000000014
 21
35.78999999999997
 31
0.0
  0
LINE
  5
F2A1
330
F1C7
100
AcDbEntity
  8
0
100
AcDbLine
 10
3.500000000000014
 20
37.48999999999995
 30
0.0
 11
3.500000000000014
 21
31.09000000000003
 31
0.0
  0
LINE
  5
F2A2
330
F1C7
100
AcDbEntity
  8
0
100
AcDbLine
 10
2.500000000000014
 20
35.03999999999996
 30
0.0
 11
2.500000000000014
 21
33.53999999999996
 31
0.0
  0
LINE
  5
F2A3
330
F1C7
100
AcDbEntity
  8
0
100
AcDbLine
 10
1.899999999999991
 20
37.48999999999995
 30
0.0
 11
1.899999999999991
 21
31.09000000000003
 31
0.0
  0
LINE
  5
F2A4
330
F1C7
100
AcDbEntity
  8
0
100
AcDbLine
 10
2.500000000000014
 20
33.53999999999991
 30
0.0
 11
3.300000000000025
 21
33.53999999999996
 31
0.0
  0
LINE
  5
F2A5
330
F1C7
100
AcDbEntity
  8
0
100
AcDbLine
 10
2.500000000000014
 20
35.03999999999996
 30
0.0
 11
3.300000000000025
 21
35.03999999999996
 31
0.0
  0
LINE
  5
F2A6
330
F1C7
100
AcDbEntity
  8
0
100
AcDbLine
 10
11.09999999999998
 20
29.87
 30
0.0
 11
11.09999999999998
 21
23.46999999999991
 31
0.0
  0
LINE
  5
F2A7
330
F1C7
100
AcDbEntity
  8
0
100
AcDbLine
 10
9.500000000000014
 20
29.87
 30
0.0
 11
9.500000000000014
 21
23.46999999999991
 31
0.0
  0
LINE
  5
F2A8
330
F1C7
100
AcDbEntity
  8
0
100
AcDbLine
 10
9.500000000000014
 20
29.87
 30
0.0
 11
9.500000000000014
 21
23.46999999999991
 31
0.0
  0
LINE
  5
F2A9
330
F1C7
100
AcDbEntity
  8
0
100
AcDbLine
 10
9.500000000000014
 20
28.16999999999996
 30
0.0
 11
10.30000000000002
 21
28.16999999999996
 31
0.0
  0
LINE
  5
F2AA
330
F1C7
100
AcDbEntity
  8
0
100
AcDbLine
 10
9.500000000000014
 20
25.16999999999996
 30
0.0
 11
10.30000000000002
 21
25.16999999999996
 31
0.0
  0
LINE
  5
F2AB
330
F1C7
100
AcDbEntity
  8
0
100
AcDbLine
 10
10.30000000000002
 20
28.16999999999996
 30
0.0
 11
10.30000000000002
 21
25.16999999999996
 31
0.0
  0
LINE
  5
F2AC
330
F1C7
100
AcDbEntity
  8
SUNPOU
100
AcDbLine
 10
8.000000000000014
 20
28.16999999999996
 30
0.0
 11
5.000000000000014
 21
25.16999999999996
 31
0.0
  0
LINE
  5
F2AD
330
F1C7
100
AcDbEntity
  8
SUNPOU
100
AcDbLine
 10
8.000000000000014
 20
25.16999999999996
 30
0.0
 11
5.000000000000014
 21
28.16999999999996
 31
0.0
  0
LINE
  5
F2AE
330
F1C7
100
AcDbEntity
  8
0
100
AcDbLine
 10
9.500000000000014
 20
20.54999999999996
 30
0.0
 11
10.30000000000002
 21
20.54999999999996
 31
0.0
  0
LINE
  5
F2AF
330
F1C7
100
AcDbEntity
  8
0
100
AcDbLine
 10
11.09999999999998
 20
37.49000000000001
 30
0.0
 11
11.09999999999998
 21
31.08999999999992
 31
0.0
  0
LINE
  5
F2B0
330
F1C7
100
AcDbEntity
  8
0
100
AcDbLine
 10
10.30000000000002
 20
35.78999999999997
 30
0.0
 11
10.30000000000002
 21
32.78999999999996
 31
0.0
  0
LINE
  5
F2B1
330
F1C7
100
AcDbEntity
  8
0
100
AcDbLine
 10
9.500000000000014
 20
32.78999999999996
 30
0.0
 11
10.30000000000002
 21
32.78999999999996
 31
0.0
  0
LINE
  5
F2B2
330
F1C7
100
AcDbEntity
  8
0
100
AcDbLine
 10
9.500000000000014
 20
35.78999999999997
 30
0.0
 11
10.30000000000002
 21
35.78999999999997
 31
0.0
  0
LINE
  5
F2B3
330
F1C7
100
AcDbEntity
  8
SUNPOU
100
AcDbLine
 10
8.000000000000014
 20
35.78999999999997
 30
0.0
 11
5.000000000000014
 21
32.78999999999996
 31
0.0
  0
LINE
  5
F2B4
330
F1C7
100
AcDbEntity
  8
SUNPOU
100
AcDbLine
 10
8.000000000000014
 20
32.78999999999996
 30
0.0
 11
5.000000000000014
 21
35.78999999999997
 31
0.0
  0
LINE
  5
F2B5
330
F1C7
100
AcDbEntity
  8
0
100
AcDbLine
 10
9.500000000000014
 20
37.49000000000001
 30
0.0
 11
9.500000000000014
 21
31.08999999999992
 31
0.0
  0
LINE
  5
F2B6
330
F1C7
100
AcDbEntity
  8
0
100
AcDbLine
 10
0.0000000000000142
 20
46.30999999999994
 30
0.0
 11
12.00000000000001
 21
46.30999999999994
 31
0.0
  0
LINE
  5
F2B7
330
F1C7
100
AcDbEntity
  8
0
100
AcDbLine
 10
0.0000000000000142
 20
45.1099999999999
 30
0.0
 11
12.00000000000001
 21
45.10999999999995
 31
0.0
  0
CIRCLE
  5
F2B8
330
F1C7
100
AcDbEntity
  8
0
100
AcDbCircle
 10
6.500000000000042
 20
41.90999999999997
 30
0.0
 40
2.75
  0
CIRCLE
  5
F2B9
330
F1C7
100
AcDbEntity
  8
0
100
AcDbCircle
 10
6.500000000000042
 20
49.52999999999997
 30
0.0
 40
2.75
  0
LINE
  5
F2BA
330
F1C7
100
AcDbEntity
  8
0
100
AcDbLine
 10
0.0000000000000142
 20
52.7299999999999
 30
0.0
 11
12.00000000000001
 21
52.72999999999996
 31
0.0
  0
LINE
  5
F2BB
330
F1C7
100
AcDbEntity
  8
0
100
AcDbLine
 10
0.0000000000000426
 20
54.93000000000001
 30
0.0
 11
12.00000000000001
 21
54.92999999999994
 31
0.0
  0
LINE
  5
F2BC
330
F1C7
100
AcDbEntity
  8
0
100
AcDbLine
 10
0.0000000000000426
 20
53.93
 30
0.0
 11
12.00000000000001
 21
53.93
 31
0.0
  0
LINE
  5
F2BD
330
F1C7
100
AcDbEntity
  8
0
100
AcDbLine
 10
0.0000000000000142
 20
38.68999999999994
 30
0.0
 11
12.00000000000001
 21
38.68999999999994
 31
0.0
  0
LINE
  5
F2BE
330
F1C7
100
AcDbEntity
  8
0
100
AcDbLine
 10
2.700000000000002
 20
51.02999999999997
 30
0.0
 11
2.700000000000002
 21
48.02999999999997
 31
0.0
  0
LINE
  5
F2BF
330
F1C7
100
AcDbEntity
  8
0
100
AcDbLine
 10
3.500000000000014
 20
52.72999999999996
 30
0.0
 11
3.500000000000014
 21
46.32999999999992
 31
0.0
  0
LINE
  5
F2C0
330
F1C7
100
AcDbEntity
  8
0
100
AcDbLine
 10
1.899999999999991
 20
52.72999999999996
 30
0.0
 11
1.899999999999991
 21
46.33000000000004
 31
0.0
  0
LINE
  5
F2C1
330
F1C7
100
AcDbEntity
  8
0
100
AcDbLine
 10
2.500000000000014
 20
42.65999999999997
 30
0.0
 11
3.300000000000025
 21
42.65999999999997
 31
0.0
  0
LINE
  5
F2C2
330
F1C7
100
AcDbEntity
  8
0
100
AcDbLine
 10
2.500000000000014
 20
41.15999999999991
 30
0.0
 11
3.300000000000025
 21
41.15999999999996
 31
0.0
  0
LINE
  5
F2C3
330
F1C7
100
AcDbEntity
  8
0
100
AcDbLine
 10
1.899999999999991
 20
45.10999999999995
 30
0.0
 11
1.899999999999991
 21
38.71000000000004
 31
0.0
  0
LINE
  5
F2C4
330
F1C7
100
AcDbEntity
  8
0
100
AcDbLine
 10
2.500000000000014
 20
42.65999999999997
 30
0.0
 11
2.500000000000014
 21
41.15999999999996
 31
0.0
  0
LINE
  5
F2C5
330
F1C7
100
AcDbEntity
  8
0
100
AcDbLine
 10
3.500000000000014
 20
45.10999999999995
 30
0.0
 11
3.500000000000014
 21
38.71000000000004
 31
0.0
  0
LINE
  5
F2C6
330
F1C7
100
AcDbEntity
  8
0
100
AcDbLine
 10
2.700000000000002
 20
43.40999999999996
 30
0.0
 11
3.500000000000014
 21
43.40999999999996
 31
0.0
  0
LINE
  5
F2C7
330
F1C7
100
AcDbEntity
  8
0
100
AcDbLine
 10
2.700000000000002
 20
40.40999999999996
 30
0.0
 11
3.500000000000014
 21
40.40999999999996
 31
0.0
  0
LINE
  5
F2C8
330
F1C7
100
AcDbEntity
  8
0
100
AcDbLine
 10
3.300000000000025
 20
42.65999999999997
 30
0.0
 11
3.300000000000025
 21
41.15999999999996
 31
0.0
  0
LINE
  5
F2C9
330
F1C7
100
AcDbEntity
  8
0
100
AcDbLine
 10
2.700000000000002
 20
43.40999999999996
 30
0.0
 11
2.700000000000002
 21
40.40999999999996
 31
0.0
  0
LINE
  5
F2CA
330
F1C7
100
AcDbEntity
  8
0
100
AcDbLine
 10
2.700000000000002
 20
48.02999999999997
 30
0.0
 11
3.500000000000014
 21
48.02999999999997
 31
0.0
  0
LINE
  5
F2CB
330
F1C7
100
AcDbEntity
  8
0
100
AcDbLine
 10
3.300000000000025
 20
50.27999999999997
 30
0.0
 11
3.300000000000025
 21
48.77999999999997
 31
0.0
  0
LINE
  5
F2CC
330
F1C7
100
AcDbEntity
  8
0
100
AcDbLine
 10
2.500000000000014
 20
50.27999999999997
 30
0.0
 11
2.500000000000014
 21
48.77999999999997
 31
0.0
  0
LINE
  5
F2CD
330
F1C7
100
AcDbEntity
  8
0
100
AcDbLine
 10
2.500000000000014
 20
48.77999999999992
 30
0.0
 11
3.300000000000025
 21
48.77999999999997
 31
0.0
  0
LINE
  5
F2CE
330
F1C7
100
AcDbEntity
  8
0
100
AcDbLine
 10
2.500000000000014
 20
50.27999999999997
 30
0.0
 11
3.300000000000025
 21
50.27999999999997
 31
0.0
  0
LINE
  5
F2CF
330
F1C7
100
AcDbEntity
  8
0
100
AcDbLine
 10
2.700000000000002
 20
51.02999999999997
 30
0.0
 11
3.500000000000014
 21
51.02999999999997
 31
0.0
  0
LINE
  5
F2D0
330
F1C7
100
AcDbEntity
  8
0
100
AcDbLine
 10
11.09999999999998
 20
52.73000000000002
 30
0.0
 11
11.09999999999998
 21
46.32999999999992
 31
0.0
  0
LINE
  5
F2D1
330
F1C7
100
AcDbEntity
  8
0
100
AcDbLine
 10
10.30000000000002
 20
51.02999999999997
 30
0.0
 11
10.30000000000002
 21
48.02999999999997
 31
0.0
  0
LINE
  5
F2D2
330
F1C7
100
AcDbEntity
  8
SUNPOU
100
AcDbLine
 10
8.000000000000014
 20
51.02999999999997
 30
0.0
 11
5.000000000000014
 21
48.02999999999997
 31
0.0
  0
LINE
  5
F2D3
330
F1C7
100
AcDbEntity
  8
SUNPOU
100
AcDbLine
 10
8.000000000000014
 20
48.02999999999997
 30
0.0
 11
5.000000000000014
 21
51.02999999999997
 31
0.0
  0
LINE
  5
F2D4
330
F1C7
100
AcDbEntity
  8
0
100
AcDbLine
 10
9.500000000000014
 20
52.73000000000002
 30
0.0
 11
9.500000000000014
 21
46.32999999999992
 31
0.0
  0
LINE
  5
F2D5
330
F1C7
100
AcDbEntity
  8
0
100
AcDbLine
 10
9.500000000000014
 20
52.73000000000002
 30
0.0
 11
9.500000000000014
 21
46.32999999999992
 31
0.0
  0
LINE
  5
F2D6
330
F1C7
100
AcDbEntity
  8
0
100
AcDbLine
 10
9.500000000000014
 20
45.11000000000001
 30
0.0
 11
9.500000000000014
 21
38.70999999999992
 31
0.0
  0
LINE
  5
F2D7
330
F1C7
100
AcDbEntity
  8
SUNPOU
100
AcDbLine
 10
8.000000000000014
 20
40.40999999999996
 30
0.0
 11
5.000000000000014
 21
43.40999999999996
 31
0.0
  0
LINE
  5
F2D8
330
F1C7
100
AcDbEntity
  8
SUNPOU
100
AcDbLine
 10
8.000000000000014
 20
43.40999999999996
 30
0.0
 11
5.000000000000014
 21
40.40999999999996
 31
0.0
  0
LINE
  5
F2D9
330
F1C7
100
AcDbEntity
  8
0
100
AcDbLine
 10
9.500000000000014
 20
43.40999999999996
 30
0.0
 11
10.30000000000002
 21
43.40999999999996
 31
0.0
  0
LINE
  5
F2DA
330
F1C7
100
AcDbEntity
  8
0
100
AcDbLine
 10
9.500000000000014
 20
40.40999999999996
 30
0.0
 11
10.30000000000002
 21
40.40999999999996
 31
0.0
  0
LINE
  5
F2DB
330
F1C7
100
AcDbEntity
  8
0
100
AcDbLine
 10
10.30000000000002
 20
43.40999999999996
 30
0.0
 11
10.30000000000002
 21
40.40999999999996
 31
0.0
  0
LINE
  5
F2DC
330
F1C7
100
AcDbEntity
  8
0
100
AcDbLine
 10
11.09999999999998
 20
45.11000000000001
 30
0.0
 11
11.09999999999998
 21
38.70999999999992
 31
0.0
  0
LINE
  5
F2DD
330
F1C7
100
AcDbEntity
  8
0
100
AcDbLine
 10
9.500000000000014
 20
48.02999999999997
 30
0.0
 11
10.30000000000002
 21
48.02999999999997
 31
0.0
  0
LINE
  5
F2DE
330
F1C7
100
AcDbEntity
  8
0
100
AcDbLine
 10
9.500000000000014
 20
51.02999999999997
 30
0.0
 11
10.30000000000002
 21
51.02999999999997
 31
0.0
  0
ENDBLK
  5
F1C9
330
F1C7
100
AcDbEntity
  8
0
100
AcDbBlockEnd
  0
BLOCK
  5
FDCC
330
FDCB
100
AcDbEntity
  8
0
100
AcDbBlockBegin
  2
NB-310DF-3
 70
     0
 10
0.0
 20
0.0
 30
0.0
  3
NB-310DF-3
  1

  0
ARC
  5
FDCE
330
FDCB
100
AcDbEntity
  8
SUNPOU
100
AcDbCircle
 10
0.0
 20
0.0
 30
0.0
 40
2.5
100
AcDbArc
 50
17.45760312372197
 51
162.542396876278
  0
LINE
  5
FDCF
330
FDCB
100
AcDbEntity
  8
SUNPOU
100
AcDbLine
 10
-2.904737509655575
 20
-0.7499999999999574
 30
0.0
 11
2.904737509655547
 21
-0.7500000000000142
 31
0.0
  0
LINE
  5
FDD0
330
FDCB
100
AcDbEntity
  8
SUNPOU
100
AcDbLine
 10
2.904737509655575
 20
0.75
 30
0.0
 11
-2.904737509655575
 21
0.75
 31
0.0
  0
ARC
  5
FDD1
330
FDCB
100
AcDbEntity
  8
SUNPOU
100
AcDbCircle
 10
0.0
 20
0.0
 30
0.0
 40
2.5
100
AcDbArc
 50
197.4576031237219
 51
342.542396876278
  0
CIRCLE
  5
FDD2
330
FDCB
100
AcDbEntity
  8
0
100
AcDbCircle
 10
0.0
 20
0.0
 30
0.0
 40
3.0
  0
ENDBLK
  5
FDCD
330
FDCB
100
AcDbEntity
  8
0
100
AcDbBlockEnd
  0
BLOCK
  5
117D9
330
117D8
100
AcDbEntity
  8
0
100
AcDbBlockBegin
  2
M3-TOP
 70
     0
 10
0.0
 20
0.0
 30
0.0
  3
M3-TOP
  1

  0
CIRCLE
  5
117DA
330
117D8
100
AcDbEntity
  8
0
100
AcDbCircle
 10
0.0
 20
0.0
 30
0.0
 40
2.745
  0
LWPOLYLINE
  5
117DB
330
117D8
100
AcDbEntity
  8
0
100
AcDbPolyline
 90
       13
 70
     0
 43
0.0
 10
0.6100000000000137
 20
-0.6099999999999853
 10
0.6100000000000137
 20
-1.829999999999984
 10
-0.6099999999999853
 20
-1.829999999999984
 10
-0.6099999999999853
 20
-0.6099999999999853
 10
-1.830000000000012
 20
-0.6099999999999853
 10
-1.830000000000012
 20
0.6100000000000137
 10
-0.6099999999999853
 20
0.6100000000000137
 10
-0.6099999999999853
 20
1.830000000000012
 10
0.6100000000000137
 20
1.830000000000012
 10
0.6100000000000137
 20
0.6100000000000137
 10
1.830000000000012
 20
0.6100000000000137
 10
1.830000000000012
 20
-0.6099999999999853
 10
0.6100000000000137
 20
-0.6099999999999853
  0
ENDBLK
  5
117DC
330
117D8
100
AcDbEntity
  8
0
100
AcDbBlockEnd
  0
BLOCK
  5
12756
330
12755
100
AcDbEntity
  8
0
100
AcDbBlockBegin
  2
A$C7A444F53
 70
     0
 10
0.0
 20
0.0
 30
0.0
  3
A$C7A444F53
  1

  0
LINE
  5
12757
330
12755
100
AcDbEntity
  8
SUNPOU
100
AcDbLine
 10
4.250000346026354
 20
5.250000453627194
 30
0.0
 11
6.000000346026354
 21
7.000000453627194
 31
0.0
  0
LINE
  5
12758
330
12755
100
AcDbEntity
  8
SUNPOU
100
AcDbLine
 10
0.0000003460263542
 20
7.000000453627194
 30
0.0
 11
6.000000346026354
 21
7.000000453627194
 31
0.0
  0
LINE
  5
12759
330
12755
100
AcDbEntity
  8
SUNPOU
100
AcDbLine
 10
1.750000346026354
 20
0.0000004536271945
 30
0.0
 11
1.500000346026354
 21
0.2500004536271945
 31
0.0
  0
LINE
  5
1275A
330
12755
100
AcDbEntity
  8
SUNPOU
100
AcDbLine
 10
4.250000346026354
 20
0.0000004536271945
 30
0.0
 11
4.500000346026354
 21
0.2500004536271945
 31
0.0
  0
LINE
  5
1275B
330
12755
100
AcDbEntity
  8
SUNPOU
100
AcDbLine
 10
0.0000003460263542
 20
7.000000453627194
 30
0.0
 11
1.750000346026354
 21
5.250000453627194
 31
0.0
  0
LINE
  5
1275C
330
12755
100
AcDbEntity
  8
SUNPOU
100
AcDbLine
 10
1.500000346026354
 20
0.2500004536271945
 30
0.0
 11
4.500000346026354
 21
0.2500004536271945
 31
0.0
  0
LINE
  5
1275D
330
12755
100
AcDbEntity
  8
SUNPOU
100
AcDbLine
 10
1.750000346026354
 20
0.0000004536271945
 30
0.0
 11
4.250000346026354
 21
0.0000004536271945
 31
0.0
  0
LINE
  5
1275E
330
12755
100
AcDbEntity
  8
SUNPOU
100
AcDbLine
 10
4.500000346026354
 20
0.2500004536271945
 30
0.0
 11
4.500000346026354
 21
5.500000453627194
 31
0.0
  0
LINE
  5
1275F
330
12755
100
AcDbEntity
  8
SUNPOU
100
AcDbLine
 10
4.250000346026354
 20
0.0000004536271945
 30
0.0
 11
4.250000346026354
 21
5.250000453627194
 31
0.0
  0
LINE
  5
12760
330
12755
100
AcDbEntity
  8
SUNPOU
100
AcDbLine
 10
1.750000346026354
 20
0.0000004536271945
 30
0.0
 11
1.750000346026354
 21
5.250000453627194
 31
0.0
  0
LINE
  5
12761
330
12755
100
AcDbEntity
  8
SUNPOU
100
AcDbLine
 10
1.500000346026354
 20
0.2500004536271945
 30
0.0
 11
1.500000346026354
 21
5.500000453627194
 31
0.0
  0
ENDBLK
  5
12762
330
12755
100
AcDbEntity
  8
0
100
AcDbBlockEnd
  0
BLOCK
  5
12764
330
12763
100
AcDbEntity
  8
0
100
AcDbBlockBegin
  2
A$C57841900
 70
     0
 10
0.0
 20
0.0
 30
0.0
  3
A$C57841900
  1

  0
LINE
  5
12765
330
12763
100
AcDbEntity
  8
SUNPOU
100
AcDbLine
 10
5.499999949882806
 20
0.2500006404636679
 30
0.0
 11
5.499999949882806
 21
4.750000640463667
 31
0.0
  0
LINE
  5
12766
330
12763
100
AcDbEntity
  8
SUNPOU
100
AcDbLine
 10
5.249999949882806
 20
0.0000006404636679
 30
0.0
 11
5.249999949882806
 21
4.750000640463667
 31
0.0
  0
LINE
  5
12767
330
12763
100
AcDbEntity
  8
SUNPOU
100
AcDbLine
 10
2.749999949882806
 20
0.0000006404636679
 30
0.0
 11
2.749999949882777
 21
4.750000640463667
 31
0.0
  0
LINE
  5
12768
330
12763
100
AcDbEntity
  8
SUNPOU
100
AcDbLine
 10
2.499999949882806
 20
0.2500006404636679
 30
0.0
 11
2.499999949882806
 21
4.750000640463667
 31
0.0
  0
LINE
  5
12769
330
12763
100
AcDbEntity
  8
SUNPOU
100
AcDbLine
 10
5.499999949882806
 20
0.2500006404636679
 30
0.0
 11
2.499999949882806
 21
0.2500006404636679
 31
0.0
  0
LINE
  5
1276A
330
12763
100
AcDbEntity
  8
SUNPOU
100
AcDbLine
 10
5.249999949882806
 20
0.0000006404636679
 30
0.0
 11
2.749999949882806
 21
0.0000006404636679
 31
0.0
  0
LINE
  5
1276B
330
12763
100
AcDbEntity
  8
SUNPOU
100
AcDbLine
 10
2.749999949882806
 20
0.0000006404636679
 30
0.0
 11
2.499999949882806
 21
0.2500006404636679
 31
0.0
  0
LINE
  5
1276C
330
12763
100
AcDbEntity
  8
SUNPOU
100
AcDbLine
 10
5.249999949882806
 20
0.0000006404636679
 30
0.0
 11
5.499999949882806
 21
0.2500006404636679
 31
0.0
  0
INSERT
  5
1276D
330
12763
100
AcDbEntity
  8
0
100
AcDbBlockReference
  2
A$C34EE125E
 10
0.0000000968639711
 20
4.750001112965833
 30
0.0
 41
-1.0
 50
270.0
  0
ENDBLK
  5
1276E
330
12763
100
AcDbEntity
  8
0
100
AcDbBlockEnd
  0
BLOCK
  5
12770
330
1276F
100
AcDbEntity
  8
0
100
AcDbBlockBegin
  2
A$C30542628
 70
     0
 10
0.0
 20
0.0
 30
0.0
  3
A$C30542628
  1

  0
LINE
  5
12771
330
1276F
100
AcDbEntity
  8
0
100
AcDbLine
 10
0.7999993450198133
 20
121.7000003644702
 30
0.0
 11
0.7999993450198133
 21
62.50000036447023
 31
0.0
  0
LINE
  5
12772
330
1276F
100
AcDbEntity
  8
0
100
AcDbLine
 10
-0.0000006549801981
 20
121.7000003644702
 30
0.0
 11
-0.0000006549802265
 21
62.50000036447023
 31
0.0
  0
LINE
  5
12773
330
1276F
100
AcDbEntity
  8
0
100
AcDbLine
 10
0.7999993450198133
 20
3.300000364470236
 30
0.0
 11
0.7999993450198133
 21
62.50000036447023
 31
0.0
  0
LINE
  5
12774
330
1276F
100
AcDbEntity
  8
0
100
AcDbLine
 10
-0.0000006549801981
 20
3.300000364470207
 30
0.0
 11
-0.0000006549802265
 21
62.50000036447023
 31
0.0
  0
LINE
  5
12775
330
1276F
100
AcDbEntity
  8
0
100
AcDbLine
 10
0.7999993450198135
 20
3.300000364470264
 30
0.0
 11
15.59999934501982
 21
3.300000364470264
 31
0.0
  0
LINE
  5
12776
330
1276F
100
AcDbEntity
  8
0
100
AcDbLine
 10
0.7999993450198133
 20
2.500000364470167
 30
0.0
 11
15.59999934501982
 21
2.500000364470196
 31
0.0
  0
ARC
  5
12777
330
1276F
100
AcDbEntity
  8
0
100
AcDbCircle
 10
0.7999993450198133
 20
3.300000364470207
 30
0.0
 40
0.8
100
AcDbArc
 50
180.0
 51
269.9999999999999
  0
INSERT
  5
12778
330
1276F
100
AcDbEntity
  8
0
100
AcDbBlockReference
  2
A$C57841900
 10
7.199999395136984
 20
7.250001004933864
 30
0.0
 41
-1.0
 50
180.0
  0
LINE
  5
12779
330
1276F
100
AcDbEntity
  8
0
100
AcDbLine
 10
15.59999934501985
 20
3.300000364470264
 30
0.0
 11
15.59999934501982
 21
2.500000364470139
 31
0.0
  0
LINE
  5
1277A
330
1276F
100
AcDbEntity
  8
0
100
AcDbLine
 10
0.7999993450198133
 20
122.5000003644703
 30
0.0
 11
15.59999934501982
 21
122.5000003644702
 31
0.0
  0
LINE
  5
1277B
330
1276F
100
AcDbEntity
  8
0
100
AcDbLine
 10
0.7999993450198135
 20
121.7000003644702
 30
0.0
 11
15.59999934501982
 21
121.7000003644702
 31
0.0
  0
ARC
  5
1277C
330
1276F
100
AcDbEntity
  8
0
100
AcDbCircle
 10
0.7999993450198133
 20
121.7000003644702
 30
0.0
 40
0.8
100
AcDbArc
 50
90.00000000000007
 51
180.0
  0
INSERT
  5
1277D
330
1276F
100
AcDbEntity
  8
0
100
AcDbBlockReference
  2
A$C57841900
 10
7.199999395136984
 20
117.7499997240066
 30
0.0
  0
LINE
  5
1277E
330
1276F
100
AcDbEntity
  8
0
100
AcDbLine
 10
15.59999934501985
 20
121.7000003644702
 30
0.0
 11
15.59999934501982
 21
122.5000003644703
 31
0.0
  0
ENDBLK
  5
1277F
330
1276F
100
AcDbEntity
  8
0
100
AcDbBlockEnd
  0
BLOCK
  5
127A6
330
127A5
100
AcDbEntity
  8
0
100
AcDbBlockBegin
  2
GL3PR-1
 70
     0
 10
0.0
 20
0.0
 30
0.0
  3
GL3PR-1
  1

  0
LINE
  5
127A7
330
127A5
100
AcDbEntity
  8
SUNPOU
100
AcDbLine
 10
0.0
 20
-1.900000000000034
 30
0.0
 11
0.0
 21
1.900000000000005
 31
0.0
  0
ARC
  5
127A8
330
127A5
100
AcDbEntity
  8
SUNPOU
100
AcDbCircle
 10
-3.699999999999988
 20
0.0
 30
0.0
 40
1.399999999999999
100
AcDbArc
 50
91.83435713273379
 51
268.1656428672662
  0
LINE
  5
127A9
330
127A5
100
AcDbEntity
  8
SUNPOU
100
AcDbLine
 10
0.0
 20
1.900000000000005
 30
0.0
 11
-0.5999999999999944
 21
1.900000000000034
 31
0.0
  0
LINE
  5
127AA
330
127A5
100
AcDbEntity
  8
SUNPOU
100
AcDbLine
 10
0.0
 20
-1.900000000000005
 30
0.0
 11
-0.6000000000000228
 21
-1.900000000000005
 31
0.0
  0
LINE
  5
127AB
330
127A5
100
AcDbEntity
  8
SUNPOU
100
AcDbLine
 10
-0.5999999999999944
 20
-1.900000000000034
 30
0.0
 11
-0.5999999999999944
 21
1.900000000000005
 31
0.0
  0
LINE
  5
127AC
330
127A5
100
AcDbEntity
  8
SUNPOU
100
AcDbLine
 10
-0.5999999999999944
 20
1.5
 30
0.0
 11
-3.744814143631685
 21
1.399282563505522
 31
0.0
  0
LINE
  5
127AD
330
127A5
100
AcDbEntity
  8
SUNPOU
100
AcDbLine
 10
-0.5999999999999944
 20
-1.5
 30
0.0
 11
-3.744814143631685
 21
-1.399282563505522
 31
0.0
  0
ENDBLK
  5
127AE
330
127A5
100
AcDbEntity
  8
0
100
AcDbBlockEnd
  0
BLOCK
  5
127B0
330
127AF
100
AcDbEntity
  8
0
100
AcDbBlockBegin
  2
S-2011A-2
 70
     0
 10
0.0
 20
0.0
 30
0.0
  3
S-2011A-2
  1

  0
LINE
  5
127B1
330
127AF
100
AcDbEntity
  8
0
100
AcDbLine
 10
0.5
 20
-3.599999999999994
 30
0.0
 11
0.5
 21
-5.0
 31
0.0
  0
LINE
  5
127B2
330
127AF
100
AcDbEntity
  8
SUNPOU
100
AcDbLine
 10
0.0
 20
1.27000000000001
 30
0.0
 11
0.0
 21
-1.27000000000001
 31
0.0
  0
LINE
  5
127B3
330
127AF
100
AcDbEntity
  8
0
100
AcDbLine
 10
0.5
 20
5.0
 30
0.0
 11
0.5
 21
3.600000000000051
 31
0.0
  0
LINE
  5
127B4
330
127AF
100
AcDbEntity
  8
0
100
AcDbLine
 10
0.5
 20
-3.599999999999994
 30
0.0
 11
5.5
 21
-3.599999999999994
 31
0.0
  0
LINE
  5
127B5
330
127AF
100
AcDbEntity
  8
0
100
AcDbLine
 10
0.5
 20
3.600000000000022
 30
0.0
 11
5.5
 21
3.599999999999994
 31
0.0
  0
CIRCLE
  5
127B6
330
127AF
100
AcDbEntity
  8
SUNPOU
100
AcDbCircle
 10
5.080000000000012
 20
-1.27000000000001
 30
0.0
 40
0.4
  0
CIRCLE
  5
127B7
330
127AF
100
AcDbEntity
  8
SUNPOU
100
AcDbCircle
 10
0.0
 20
-3.810000000000002
 30
0.0
 40
0.4
  0
CIRCLE
  5
127B8
330
127AF
100
AcDbEntity
  8
SUNPOU
100
AcDbCircle
 10
0.0
 20
-1.27000000000001
 30
0.0
 40
0.4
  0
CIRCLE
  5
127B9
330
127AF
100
AcDbEntity
  8
SUNPOU
100
AcDbCircle
 10
0.0
 20
3.810000000000002
 30
0.0
 40
0.4
  0
CIRCLE
  5
127BA
330
127AF
100
AcDbEntity
  8
SUNPOU
100
AcDbCircle
 10
0.0
 20
1.27000000000001
 30
0.0
 40
0.4
  0
LINE
  5
127BB
330
127AF
100
AcDbEntity
  8
SUNPOU
100
AcDbLine
 10
-0.5
 20
0.0
 30
0.0
 11
0.5
 21
0.0
 31
0.0
  0
LINE
  5
127BC
330
127AF
100
AcDbEntity
  8
0
100
AcDbLine
 10
5.5
 20
3.600000000000022
 30
0.0
 11
5.5
 21
-3.600000000000022
 31
0.0
  0
LINE
  5
127BD
330
127AF
100
AcDbEntity
  8
0
100
AcDbLine
 10
-6.0
 20
5.0
 30
0.0
 11
0.5
 21
5.0
 31
0.0
  0
LINE
  5
127BE
330
127AF
100
AcDbEntity
  8
0
100
AcDbLine
 10
-6.0
 20
-5.0
 30
0.0
 11
0.5
 21
-5.0
 31
0.0
  0
LINE
  5
127BF
330
127AF
100
AcDbEntity
  8
0
100
AcDbLine
 10
-6.0
 20
5.0
 30
0.0
 11
-6.0
 21
-5.0
 31
0.0
  0
ENDBLK
  5
127C0
330
127AF
100
AcDbEntity
  8
0
100
AcDbBlockEnd
  0
BLOCK
  5
127C2
330
127C1
100
AcDbEntity
  8
0
100
AcDbBlockBegin
  2
LL-6-2
 70
     0
 10
0.0
 20
0.0
 30
0.0
  3
LL-6-2
  1

  0
LINE
  5
127C3
330
127C1
100
AcDbEntity
  8
0
100
AcDbLine
 10
-6.349999999999994
 20
2.5
 30
0.0
 11
-6.349999999999994
 21
2.5
 31
0.0
  0
LINE
  5
127C4
330
127C1
100
AcDbEntity
  8
0
100
AcDbLine
 10
-6.349999999999994
 20
2.5
 30
0.0
 11
-0.3499999999999943
 21
2.5
 31
0.0
  0
LINE
  5
127C5
330
127C1
100
AcDbEntity
  8
0
100
AcDbLine
 10
-0.3499999999999943
 20
2.5
 30
0.0
 11
-0.3499999999999943
 21
-2.5
 31
0.0
  0
LINE
  5
127C6
330
127C1
100
AcDbEntity
  8
0
100
AcDbLine
 10
-6.349999999999994
 20
-2.5
 30
0.0
 11
-0.3499999999999943
 21
-2.5
 31
0.0
  0
LINE
  5
127C7
330
127C1
100
AcDbEntity
  8
0
100
AcDbLine
 10
-6.349999999999994
 20
2.5
 30
0.0
 11
-6.349999999999994
 21
-2.5
 31
0.0
  0
LINE
  5
127C8
330
127C1
100
AcDbEntity
  8
0
100
AcDbLine
 10
-0.3499999999999943
 20
0.0
 30
0.0
 11
0.6500000000000057
 21
0.0
 31
0.0
  0
LINE
  5
127C9
330
127C1
100
AcDbEntity
  8
0
100
AcDbLine
 10
0.0
 20
0.5
 30
0.0
 11
0.0
 21
-0.5
 31
0.0
  0
LINE
  5
127CA
330
127C1
100
AcDbEntity
  8
0
100
AcDbLine
 10
-0.25
 20
-1.52000000000001
 30
0.0
 11
0.25
 21
-1.52000000000001
 31
0.0
  0
LINE
  5
127CB
330
127C1
100
AcDbEntity
  8
0
100
AcDbLine
 10
-0.25
 20
-1.02000000000001
 30
0.0
 11
-0.25
 21
-1.52000000000001
 31
0.0
  0
LINE
  5
127CC
330
127C1
100
AcDbEntity
  8
0
100
AcDbLine
 10
0.25
 20
-1.02000000000001
 30
0.0
 11
-0.25
 21
-1.02000000000001
 31
0.0
  0
LINE
  5
127CD
330
127C1
100
AcDbEntity
  8
0
100
AcDbLine
 10
0.25
 20
-1.52000000000001
 30
0.0
 11
0.25
 21
-1.02000000000001
 31
0.0
  0
LINE
  5
127CE
330
127C1
100
AcDbEntity
  8
0
100
AcDbLine
 10
0.25
 20
1.52000000000001
 30
0.0
 11
-0.25
 21
1.52000000000001
 31
0.0
  0
LINE
  5
127CF
330
127C1
100
AcDbEntity
  8
0
100
AcDbLine
 10
0.25
 20
1.02000000000001
 30
0.0
 11
0.25
 21
1.52000000000001
 31
0.0
  0
LINE
  5
127D0
330
127C1
100
AcDbEntity
  8
0
100
AcDbLine
 10
-0.25
 20
1.02000000000001
 30
0.0
 11
0.25
 21
1.02000000000001
 31
0.0
  0
LINE
  5
127D1
330
127C1
100
AcDbEntity
  8
0
100
AcDbLine
 10
-0.25
 20
1.52000000000001
 30
0.0
 11
-0.25
 21
1.02000000000001
 31
0.0
  0
ENDBLK
  5
127D2
330
127C1
100
AcDbEntity
  8
0
100
AcDbBlockEnd
  0
BLOCK
  5
127D4
330
127D3
100
AcDbEntity
  8
0
100
AcDbBlockBegin
  2
TM-14P-2
 70
     0
 10
0.0
 20
0.0
 30
0.0
  3
TM-14P-2
  1

  0
LINE
  5
127D5
330
127D3
100
AcDbEntity
  8
0
100
AcDbLine
 10
0.0000000000000391
 20
54.9300000000001
 30
0.0
 11
-0.0000000000000426
 21
-54.94999999999992
 31
0.0
  0
LINE
  5
127D6
330
127D3
100
AcDbEntity
  8
SUNPOU
100
AcDbLine
 10
-14.0
 20
-54.94999999999992
 30
0.0
 11
-13.99999999999996
 21
54.93000000000005
 31
0.0
  0
LINE
  5
127D7
330
127D3
100
AcDbEntity
  8
SUNPOU
100
AcDbLine
 10
-17.80000000000004
 20
-54.94999999999992
 30
0.0
 11
-17.8
 21
54.93000000000005
 31
0.0
  0
LINE
  5
127D8
330
127D3
100
AcDbEntity
  8
0
100
AcDbLine
 10
-16.00000000000004
 20
-7.009999999999976
 30
0.0
 11
-16.00000000000004
 21
-8.230000000000003
 31
0.0
  0
LINE
  5
127D9
330
127D3
100
AcDbEntity
  8
0
100
AcDbLine
 10
-16.00000000000006
 20
-53.94999999999992
 30
0.0
 11
-0.000000000000032
 21
-53.94999999999986
 31
0.0
  0
LINE
  5
127DA
330
127D3
100
AcDbEntity
  8
0
100
AcDbLine
 10
-0.0000000000000639
 20
-54.94999999999992
 30
0.0
 11
-7.000000000000007
 21
-54.94999999999992
 31
0.0
  0
LINE
  5
127DB
330
127D3
100
AcDbEntity
  8
0
100
AcDbLine
 10
-3.500000000000003
 20
-46.33000000000002
 30
0.0
 11
-3.500000000000003
 21
-52.73
 31
0.0
  0
LINE
  5
127DC
330
127D3
100
AcDbEntity
  8
0
100
AcDbLine
 10
-7.000000000000003
 20
-46.33000000000002
 30
0.0
 11
-7.000000000000003
 21
-52.73
 31
0.0
  0
LINE
  5
127DD
330
127D3
100
AcDbEntity
  8
0
100
AcDbLine
 10
-8.00000000000006
 20
-46.83000000000002
 30
0.0
 11
-8.000000000000003
 21
-52.13000000000004
 31
0.0
  0
LINE
  5
127DE
330
127D3
100
AcDbEntity
  8
0
100
AcDbLine
 10
-9.50000000000006
 20
-46.83000000000002
 30
0.0
 11
-9.50000000000006
 21
-52.13000000000004
 31
0.0
  0
ELLIPSE
  5
127DF
330
127D3
100
AcDbEntity
  8
0
100
AcDbEllipse
 10
-10.30000000000001
 20
-49.53000000000007
 30
0.0
 11
-0.000000000000001
 21
-2.399999999999977
 31
0.0
210
0.0
220
0.0
230
1.0
 40
0.5416666666666529
 41
2.478718829939674
 42
6.946059130829823
  0
LINE
  5
127E0
330
127D3
100
AcDbEntity
  8
0
100
AcDbLine
 10
-16.00000000000003
 20
-52.72999999999995
 30
0.0
 11
-3.500000000000088
 21
-52.73
 31
0.0
  0
LINE
  5
127E1
330
127D3
100
AcDbEntity
  8
0
100
AcDbLine
 10
-16.00000000000006
 20
-52.72999999999995
 30
0.0
 11
-16.00000000000006
 21
-53.94999999999992
 31
0.0
  0
LINE
  5
127E2
330
127D3
100
AcDbEntity
  8
SUNPOU
100
AcDbLine
 10
-13.99999999999998
 20
-54.94999999999992
 30
0.0
 11
-17.80000000000004
 21
-54.94999999999992
 31
0.0
  0
LINE
  5
127E3
330
127D3
100
AcDbEntity
  8
0
100
AcDbLine
 10
-7.00000000000006
 20
-52.13000000000004
 30
0.0
 11
-9.50000000000006
 21
-52.13000000000004
 31
0.0
  0
LINE
  5
127E4
330
127D3
100
AcDbEntity
  8
0
100
AcDbLine
 10
-7.000000000000003
 20
-53.94999999999992
 30
0.0
 11
-7.000000000000007
 21
-54.94999999999992
 31
0.0
  0
LINE
  5
127E5
330
127D3
100
AcDbEntity
  8
0
100
AcDbLine
 10
-7.0
 20
-23.47000000000001
 30
0.0
 11
-7.0
 21
-29.86999999999999
 31
0.0
  0
LINE
  5
127E6
330
127D3
100
AcDbEntity
  8
0
100
AcDbLine
 10
-3.5
 20
-23.47000000000001
 30
0.0
 11
-3.5
 21
-29.86999999999999
 31
0.0
  0
ELLIPSE
  5
127E7
330
127D3
100
AcDbEntity
  8
0
100
AcDbEllipse
 10
-10.30000000000001
 20
-26.67000000000006
 30
0.0
 11
-0.000000000000001
 21
-2.399999999999977
 31
0.0
210
0.0
220
0.0
230
1.0
 40
0.5416666666666529
 41
2.478718829939674
 42
6.946059130829823
  0
LINE
  5
127E8
330
127D3
100
AcDbEntity
  8
0
100
AcDbLine
 10
-8.000000000000056
 20
-23.97000000000002
 30
0.0
 11
-8.000000000000003
 21
-29.27000000000003
 31
0.0
  0
LINE
  5
127E9
330
127D3
100
AcDbEntity
  8
0
100
AcDbLine
 10
-9.500000000000056
 20
-23.97000000000002
 30
0.0
 11
-9.50000000000006
 21
-29.27000000000003
 31
0.0
  0
LINE
  5
127EA
330
127D3
100
AcDbEntity
  8
0
100
AcDbLine
 10
-16.00000000000006
 20
-37.49
 30
0.0
 11
-16.00000000000006
 21
-38.71000000000002
 31
0.0
  0
LINE
  5
127EB
330
127D3
100
AcDbEntity
  8
0
100
AcDbLine
 10
-16.00000000000003
 20
-38.70999999999997
 30
0.0
 11
-3.500000000000003
 21
-38.70999999999997
 31
0.0
  0
LINE
  5
127EC
330
127D3
100
AcDbEntity
  8
0
100
AcDbLine
 10
-16.00000000000003
 20
-45.10999999999988
 30
0.0
 11
-3.500000000000088
 21
-45.10999999999994
 31
0.0
  0
ELLIPSE
  5
127ED
330
127D3
100
AcDbEntity
  8
0
100
AcDbEllipse
 10
-10.30000000000001
 20
-41.91000000000001
 30
0.0
 11
-0.000000000000001
 21
-2.399999999999977
 31
0.0
210
0.0
220
0.0
230
1.0
 40
0.5416666666666529
 41
2.478718829939674
 42
6.946059130829823
  0
LINE
  5
127EE
330
127D3
100
AcDbEntity
  8
0
100
AcDbLine
 10
-16.00000000000003
 20
-46.33000000000002
 30
0.0
 11
-3.500000000000003
 21
-46.33000000000002
 31
0.0
  0
LINE
  5
127EF
330
127D3
100
AcDbEntity
  8
0
100
AcDbLine
 10
-16.00000000000006
 20
-45.11000000000005
 30
0.0
 11
-16.00000000000006
 21
-46.33000000000008
 31
0.0
  0
LINE
  5
127F0
330
127D3
100
AcDbEntity
  8
0
100
AcDbLine
 10
-9.500000000000117
 20
-39.20999999999997
 30
0.0
 11
-7.00000000000006
 21
-39.20999999999997
 31
0.0
  0
LINE
  5
127F1
330
127D3
100
AcDbEntity
  8
0
100
AcDbLine
 10
-7.00000000000006
 20
-44.50999999999997
 30
0.0
 11
-9.50000000000006
 21
-44.50999999999997
 31
0.0
  0
LINE
  5
127F2
330
127D3
100
AcDbEntity
  8
0
100
AcDbLine
 10
-9.50000000000006
 20
-39.20999999999997
 30
0.0
 11
-9.50000000000006
 21
-44.50999999999997
 31
0.0
  0
LINE
  5
127F3
330
127D3
100
AcDbEntity
  8
0
100
AcDbLine
 10
-8.00000000000006
 20
-39.20999999999997
 30
0.0
 11
-8.000000000000003
 21
-44.50999999999997
 31
0.0
  0
LINE
  5
127F4
330
127D3
100
AcDbEntity
  8
0
100
AcDbLine
 10
-7.000000000000003
 20
-38.70999999999997
 30
0.0
 11
-7.000000000000003
 21
-45.10999999999994
 31
0.0
  0
LINE
  5
127F5
330
127D3
100
AcDbEntity
  8
0
100
AcDbLine
 10
-3.500000000000003
 20
-38.70999999999997
 30
0.0
 11
-3.500000000000003
 21
-45.10999999999994
 31
0.0
  0
LINE
  5
127F6
330
127D3
100
AcDbEntity
  8
0
100
AcDbLine
 10
-9.500000000000117
 20
-46.83000000000002
 30
0.0
 11
-7.00000000000006
 21
-46.83000000000002
 31
0.0
  0
ELLIPSE
  5
127F7
330
127D3
100
AcDbEntity
  8
0
100
AcDbEllipse
 10
-10.30000000000001
 20
-34.31000000000004
 30
0.0
 11
-0.000000000000001
 21
-2.399999999999977
 31
0.0
210
0.0
220
0.0
230
1.0
 40
0.5416666666666529
 41
2.478718829939674
 42
6.946059130829823
  0
LINE
  5
127F8
330
127D3
100
AcDbEntity
  8
0
100
AcDbLine
 10
-16.00000000000003
 20
-31.09000000000002
 30
0.0
 11
-3.500000000000028
 21
-31.09000000000002
 31
0.0
  0
LINE
  5
127F9
330
127D3
100
AcDbEntity
  8
0
100
AcDbLine
 10
-16.00000000000003
 20
-37.49
 30
0.0
 11
-3.499999999999975
 21
-37.49000000000005
 31
0.0
  0
LINE
  5
127FA
330
127D3
100
AcDbEntity
  8
0
100
AcDbLine
 10
-16.00000000000003
 20
-29.86999999999999
 30
0.0
 11
-3.500000000000085
 21
-29.86999999999999
 31
0.0
  0
LINE
  5
127FB
330
127D3
100
AcDbEntity
  8
0
100
AcDbLine
 10
-16.00000000000006
 20
-29.86999999999999
 30
0.0
 11
-16.00000000000006
 21
-31.08999999999996
 31
0.0
  0
LINE
  5
127FC
330
127D3
100
AcDbEntity
  8
0
100
AcDbLine
 10
-7.000000000000056
 20
-31.09000000000002
 30
0.0
 11
-7.000000000000003
 21
-37.49000000000005
 31
0.0
  0
LINE
  5
127FD
330
127D3
100
AcDbEntity
  8
0
100
AcDbLine
 10
-3.500000000000056
 20
-31.09000000000002
 30
0.0
 11
-3.500000000000003
 21
-37.49
 31
0.0
  0
LINE
  5
127FE
330
127D3
100
AcDbEntity
  8
0
100
AcDbLine
 10
-9.50000000000006
 20
-31.61
 30
0.0
 11
-9.50000000000006
 21
-36.91000000000001
 31
0.0
  0
LINE
  5
127FF
330
127D3
100
AcDbEntity
  8
0
100
AcDbLine
 10
-8.00000000000006
 20
-31.61
 30
0.0
 11
-8.000000000000003
 21
-36.91000000000001
 31
0.0
  0
LINE
  5
12800
330
127D3
100
AcDbEntity
  8
0
100
AcDbLine
 10
-9.500000000000117
 20
-31.61
 30
0.0
 11
-7.000000000000056
 21
-31.61
 31
0.0
  0
LINE
  5
12801
330
127D3
100
AcDbEntity
  8
0
100
AcDbLine
 10
-7.00000000000006
 20
-36.91000000000001
 30
0.0
 11
-9.50000000000006
 21
-36.91000000000001
 31
0.0
  0
LINE
  5
12802
330
127D3
100
AcDbEntity
  8
0
100
AcDbLine
 10
-7.000000000000056
 20
-29.27000000000003
 30
0.0
 11
-9.50000000000006
 21
-29.27000000000003
 31
0.0
  0
LINE
  5
12803
330
127D3
100
AcDbEntity
  8
0
100
AcDbLine
 10
-7.000000000000056
 20
-15.85000000000001
 30
0.0
 11
-7.0
 21
-22.25000000000004
 31
0.0
  0
LINE
  5
12804
330
127D3
100
AcDbEntity
  8
0
100
AcDbLine
 10
-3.500000000000056
 20
-15.85000000000001
 30
0.0
 11
-3.5
 21
-22.24999999999999
 31
0.0
  0
ELLIPSE
  5
12805
330
127D3
100
AcDbEntity
  8
0
100
AcDbEllipse
 10
-10.30000000000001
 20
-19.07000000000003
 30
0.0
 11
-0.000000000000001
 21
-2.399999999999977
 31
0.0
210
0.0
220
0.0
230
1.0
 40
0.5416666666666529
 41
2.478718829939674
 42
6.946059130829823
  0
LINE
  5
12806
330
127D3
100
AcDbEntity
  8
0
100
AcDbLine
 10
-8.000000000000056
 20
-16.36999999999999
 30
0.0
 11
-8.0
 21
-21.67
 31
0.0
  0
LINE
  5
12807
330
127D3
100
AcDbEntity
  8
0
100
AcDbLine
 10
-9.500000000000056
 20
-16.36999999999999
 30
0.0
 11
-9.500000000000056
 21
-21.67
 31
0.0
  0
LINE
  5
12808
330
127D3
100
AcDbEntity
  8
0
100
AcDbLine
 10
-16.00000000000001
 20
-22.24999999999999
 30
0.0
 11
-3.499999999999971
 21
-22.25000000000004
 31
0.0
  0
LINE
  5
12809
330
127D3
100
AcDbEntity
  8
0
100
AcDbLine
 10
-16.00000000000001
 20
-23.47000000000001
 30
0.0
 11
-3.5
 21
-23.47000000000001
 31
0.0
  0
LINE
  5
1280A
330
127D3
100
AcDbEntity
  8
0
100
AcDbLine
 10
-16.00000000000004
 20
-22.24999999999999
 30
0.0
 11
-16.00000000000004
 21
-23.47000000000001
 31
0.0
  0
LINE
  5
1280B
330
127D3
100
AcDbEntity
  8
0
100
AcDbLine
 10
-7.000000000000056
 20
-21.67
 30
0.0
 11
-9.500000000000056
 21
-21.67
 31
0.0
  0
LINE
  5
1280C
330
127D3
100
AcDbEntity
  8
0
100
AcDbLine
 10
-9.500000000000113
 20
-23.97000000000002
 30
0.0
 11
-7.000000000000056
 21
-23.97000000000002
 31
0.0
  0
ELLIPSE
  5
1280D
330
127D3
100
AcDbEntity
  8
0
100
AcDbEllipse
 10
-10.30000000000001
 20
-11.43000000000005
 30
0.0
 11
-0.000000000000001
 21
-2.399999999999977
 31
0.0
210
0.0
220
0.0
230
1.0
 40
0.5416666666666529
 41
2.478718829939674
 42
6.946059130829823
  0
LINE
  5
1280E
330
127D3
100
AcDbEntity
  8
0
100
AcDbLine
 10
-16.00000000000001
 20
-8.230000000000003
 30
0.0
 11
-3.499999999999971
 21
-8.230000000000003
 31
0.0
  0
LINE
  5
1280F
330
127D3
100
AcDbEntity
  8
0
100
AcDbLine
 10
-16.00000000000001
 20
-14.62999999999998
 30
0.0
 11
-3.500000000000085
 21
-14.62999999999998
 31
0.0
  0
LINE
  5
12810
330
127D3
100
AcDbEntity
  8
0
100
AcDbLine
 10
-16.00000000000001
 20
-15.85000000000001
 30
0.0
 11
-3.500000000000028
 21
-15.85000000000001
 31
0.0
  0
LINE
  5
12811
330
127D3
100
AcDbEntity
  8
0
100
AcDbLine
 10
-16.00000000000004
 20
-14.62999999999998
 30
0.0
 11
-16.00000000000004
 21
-15.84999999999995
 31
0.0
  0
LINE
  5
12812
330
127D3
100
AcDbEntity
  8
0
100
AcDbLine
 10
-7.0
 20
-8.230000000000003
 30
0.0
 11
-7.0
 21
-14.62999999999998
 31
0.0
  0
LINE
  5
12813
330
127D3
100
AcDbEntity
  8
0
100
AcDbLine
 10
-3.499999999999971
 20
-8.230000000000003
 30
0.0
 11
-3.499999999999971
 21
-14.62999999999998
 31
0.0
  0
LINE
  5
12814
330
127D3
100
AcDbEntity
  8
0
100
AcDbLine
 10
-8.000000000000028
 20
-8.730000000000003
 30
0.0
 11
-8.0
 21
-14.03000000000001
 31
0.0
  0
LINE
  5
12815
330
127D3
100
AcDbEntity
  8
0
100
AcDbLine
 10
-9.500000000000028
 20
-8.730000000000003
 30
0.0
 11
-9.500000000000056
 21
-14.03000000000001
 31
0.0
  0
LINE
  5
12816
330
127D3
100
AcDbEntity
  8
0
100
AcDbLine
 10
-9.500000000000085
 20
-8.730000000000003
 30
0.0
 11
-7.000000000000056
 21
-8.730000000000003
 31
0.0
  0
LINE
  5
12817
330
127D3
100
AcDbEntity
  8
0
100
AcDbLine
 10
-9.500000000000113
 20
-16.36999999999999
 30
0.0
 11
-7.000000000000056
 21
-16.36999999999999
 31
0.0
  0
LINE
  5
12818
330
127D3
100
AcDbEntity
  8
0
100
AcDbLine
 10
-7.000000000000056
 20
-14.03000000000001
 30
0.0
 11
-9.500000000000056
 21
-14.03000000000001
 31
0.0
  0
LINE
  5
12819
330
127D3
100
AcDbEntity
  8
KAGESEN
100
AcDbLine
 10
3.699999999999928
 20
-49.03000000000002
 30
0.0
 11
8.199999999999899
 21
-49.03000000000002
 31
0.0
  0
LINE
  5
1281A
330
127D3
100
AcDbEntity
  8
KAGESEN
100
AcDbLine
 10
3.699999999999928
 20
-50.03000000000007
 30
0.0
 11
8.199999999999899
 21
-50.03000000000007
 31
0.0
  0
LINE
  5
1281B
330
127D3
100
AcDbEntity
  8
KAGESEN
100
AcDbLine
 10
3.699999999999928
 20
-50.03000000000013
 30
0.0
 11
3.699999999999928
 21
-50.78000000000002
 31
0.0
  0
LINE
  5
1281C
330
127D3
100
AcDbEntity
  8
KAGESEN
100
AcDbLine
 10
-0.0000000000000604
 20
-50.78000000000002
 30
0.0
 11
3.699999999999928
 21
-50.78000000000002
 31
0.0
  0
LINE
  5
1281D
330
127D3
100
AcDbEntity
  8
KAGESEN
100
AcDbLine
 10
-0.0000000000000604
 20
-48.28000000000002
 30
0.0
 11
3.699999999999928
 21
-48.28000000000007
 31
0.0
  0
LINE
  5
1281E
330
127D3
100
AcDbEntity
  8
KAGESEN
100
AcDbLine
 10
3.699999999999956
 20
-48.28000000000007
 30
0.0
 11
3.699999999999928
 21
-49.03000000000007
 31
0.0
  0
LINE
  5
1281F
330
127D3
100
AcDbEntity
  8
KAGESEN
100
AcDbLine
 10
8.199999999999928
 20
-49.03000000000002
 30
0.0
 11
8.199999999999928
 21
-50.03000000000013
 31
0.0
  0
LINE
  5
12820
330
127D3
100
AcDbEntity
  8
KAGESEN
100
AcDbLine
 10
3.699999999999931
 20
-27.17000000000006
 30
0.0
 11
3.699999999999931
 21
-27.91999999999994
 31
0.0
  0
LINE
  5
12821
330
127D3
100
AcDbEntity
  8
KAGESEN
100
AcDbLine
 10
3.699999999999928
 20
-42.41000000000001
 30
0.0
 11
8.199999999999899
 21
-42.41000000000001
 31
0.0
  0
LINE
  5
12822
330
127D3
100
AcDbEntity
  8
KAGESEN
100
AcDbLine
 10
3.699999999999928
 20
-41.40999999999995
 30
0.0
 11
8.199999999999899
 21
-41.40999999999995
 31
0.0
  0
LINE
  5
12823
330
127D3
100
AcDbEntity
  8
KAGESEN
100
AcDbLine
 10
3.699999999999956
 20
-40.66000000000001
 30
0.0
 11
3.699999999999928
 21
-41.41
 31
0.0
  0
LINE
  5
12824
330
127D3
100
AcDbEntity
  8
KAGESEN
100
AcDbLine
 10
-0.0000000000000604
 20
-40.65999999999995
 30
0.0
 11
3.699999999999928
 21
-40.66000000000001
 31
0.0
  0
LINE
  5
12825
330
127D3
100
AcDbEntity
  8
KAGESEN
100
AcDbLine
 10
-0.0000000000000604
 20
-43.15999999999995
 30
0.0
 11
3.699999999999928
 21
-43.15999999999995
 31
0.0
  0
LINE
  5
12826
330
127D3
100
AcDbEntity
  8
KAGESEN
100
AcDbLine
 10
3.699999999999928
 20
-42.41000000000006
 30
0.0
 11
3.699999999999928
 21
-43.15999999999995
 31
0.0
  0
LINE
  5
12827
330
127D3
100
AcDbEntity
  8
KAGESEN
100
AcDbLine
 10
8.199999999999928
 20
-41.40999999999995
 30
0.0
 11
8.199999999999928
 21
-42.41000000000006
 31
0.0
  0
LINE
  5
12828
330
127D3
100
AcDbEntity
  8
KAGESEN
100
AcDbLine
 10
3.699999999999928
 20
-33.78999999999995
 30
0.0
 11
8.199999999999899
 21
-33.78999999999995
 31
0.0
  0
LINE
  5
12829
330
127D3
100
AcDbEntity
  8
KAGESEN
100
AcDbLine
 10
3.699999999999928
 20
-34.79000000000001
 30
0.0
 11
8.199999999999899
 21
-34.79000000000001
 31
0.0
  0
LINE
  5
1282A
330
127D3
100
AcDbEntity
  8
KAGESEN
100
AcDbLine
 10
-0.0000000000000568
 20
-27.91999999999994
 30
0.0
 11
3.699999999999931
 21
-27.91999999999994
 31
0.0
  0
LINE
  5
1282B
330
127D3
100
AcDbEntity
  8
KAGESEN
100
AcDbLine
 10
3.699999999999956
 20
-33.04000000000001
 30
0.0
 11
3.699999999999928
 21
-33.79000000000001
 31
0.0
  0
LINE
  5
1282C
330
127D3
100
AcDbEntity
  8
KAGESEN
100
AcDbLine
 10
3.699999999999928
 20
-34.79000000000006
 30
0.0
 11
3.699999999999928
 21
-35.53999999999995
 31
0.0
  0
LINE
  5
1282D
330
127D3
100
AcDbEntity
  8
KAGESEN
100
AcDbLine
 10
-0.0000000000000604
 20
-33.03999999999995
 30
0.0
 11
3.699999999999928
 21
-33.04000000000001
 31
0.0
  0
LINE
  5
1282E
330
127D3
100
AcDbEntity
  8
KAGESEN
100
AcDbLine
 10
-0.0000000000000604
 20
-35.53999999999995
 30
0.0
 11
3.699999999999928
 21
-35.53999999999995
 31
0.0
  0
LINE
  5
1282F
330
127D3
100
AcDbEntity
  8
KAGESEN
100
AcDbLine
 10
8.199999999999928
 20
-33.78999999999995
 30
0.0
 11
8.199999999999928
 21
-34.79000000000006
 31
0.0
  0
LINE
  5
12830
330
127D3
100
AcDbEntity
  8
KAGESEN
100
AcDbLine
 10
3.69999999999996
 20
-17.8
 30
0.0
 11
3.699999999999931
 21
-18.55
 31
0.0
  0
LINE
  5
12831
330
127D3
100
AcDbEntity
  8
KAGESEN
100
AcDbLine
 10
3.699999999999931
 20
-18.54999999999994
 30
0.0
 11
8.199999999999903
 21
-18.54999999999994
 31
0.0
  0
LINE
  5
12832
330
127D3
100
AcDbEntity
  8
KAGESEN
100
AcDbLine
 10
3.699999999999931
 20
-19.55
 30
0.0
 11
8.199999999999903
 21
-19.55
 31
0.0
  0
LINE
  5
12833
330
127D3
100
AcDbEntity
  8
KAGESEN
100
AcDbLine
 10
3.699999999999931
 20
-26.16999999999995
 30
0.0
 11
8.199999999999899
 21
-26.16999999999995
 31
0.0
  0
LINE
  5
12834
330
127D3
100
AcDbEntity
  8
KAGESEN
100
AcDbLine
 10
3.699999999999931
 20
-27.17
 30
0.0
 11
8.199999999999899
 21
-27.17
 31
0.0
  0
LINE
  5
12835
330
127D3
100
AcDbEntity
  8
KAGESEN
100
AcDbLine
 10
3.699999999999931
 20
-19.55000000000005
 30
0.0
 11
3.699999999999931
 21
-20.29999999999994
 31
0.0
  0
LINE
  5
12836
330
127D3
100
AcDbEntity
  8
KAGESEN
100
AcDbLine
 10
3.69999999999996
 20
-25.42
 30
0.0
 11
3.699999999999931
 21
-26.17
 31
0.0
  0
LINE
  5
12837
330
127D3
100
AcDbEntity
  8
KAGESEN
100
AcDbLine
 10
-0.0000000000000568
 20
-20.29999999999994
 30
0.0
 11
3.699999999999931
 21
-20.29999999999994
 31
0.0
  0
LINE
  5
12838
330
127D3
100
AcDbEntity
  8
KAGESEN
100
AcDbLine
 10
-0.0000000000000568
 20
-25.41999999999994
 30
0.0
 11
3.699999999999931
 21
-25.42
 31
0.0
  0
LINE
  5
12839
330
127D3
100
AcDbEntity
  8
KAGESEN
100
AcDbLine
 10
8.199999999999928
 20
-26.16999999999995
 30
0.0
 11
8.199999999999928
 21
-27.17000000000006
 31
0.0
  0
LINE
  5
1283A
330
127D3
100
AcDbEntity
  8
KAGESEN
100
AcDbLine
 10
8.199999999999931
 20
-18.54999999999994
 30
0.0
 11
8.199999999999931
 21
-19.55000000000005
 31
0.0
  0
LINE
  5
1283B
330
127D3
100
AcDbEntity
  8
KAGESEN
100
AcDbLine
 10
3.69999999999996
 20
-10.92999999999993
 30
0.0
 11
8.199999999999903
 21
-10.92999999999993
 31
0.0
  0
LINE
  5
1283C
330
127D3
100
AcDbEntity
  8
KAGESEN
100
AcDbLine
 10
3.69999999999996
 20
-11.92999999999999
 30
0.0
 11
8.199999999999903
 21
-11.92999999999999
 31
0.0
  0
LINE
  5
1283D
330
127D3
100
AcDbEntity
  8
KAGESEN
100
AcDbLine
 10
3.69999999999996
 20
-10.17999999999999
 30
0.0
 11
3.69999999999996
 21
-10.92999999999999
 31
0.0
  0
LINE
  5
1283E
330
127D3
100
AcDbEntity
  8
KAGESEN
100
AcDbLine
 10
3.69999999999996
 20
-11.93000000000005
 30
0.0
 11
3.699999999999931
 21
-12.67999999999993
 31
0.0
  0
LINE
  5
1283F
330
127D3
100
AcDbEntity
  8
KAGESEN
100
AcDbLine
 10
-0.0000000000000568
 20
-17.79999999999994
 30
0.0
 11
3.699999999999931
 21
-17.8
 31
0.0
  0
LINE
  5
12840
330
127D3
100
AcDbEntity
  8
KAGESEN
100
AcDbLine
 10
-0.0000000000000284
 20
-10.17999999999993
 30
0.0
 11
3.69999999999996
 21
-10.17999999999999
 31
0.0
  0
LINE
  5
12841
330
127D3
100
AcDbEntity
  8
KAGESEN
100
AcDbLine
 10
-0.0000000000000284
 20
-12.67999999999993
 30
0.0
 11
3.699999999999931
 21
-12.67999999999993
 31
0.0
  0
LINE
  5
12842
330
127D3
100
AcDbEntity
  8
KAGESEN
100
AcDbLine
 10
8.199999999999931
 20
-10.92999999999993
 30
0.0
 11
8.199999999999931
 21
-11.93000000000005
 31
0.0
  0
LINE
  5
12843
330
127D3
100
AcDbEntity
  8
0
100
AcDbLine
 10
0.0000000000000071
 20
54.93000000000008
 30
0.0
 11
-6.999999999999992
 21
54.93000000000002
 31
0.0
  0
LINE
  5
12844
330
127D3
100
AcDbEntity
  8
0
100
AcDbLine
 10
-15.99999999999999
 20
53.95
 30
0.0
 11
0.0000000000000355
 21
53.95000000000006
 31
0.0
  0
LINE
  5
12845
330
127D3
100
AcDbEntity
  8
0
100
AcDbLine
 10
-6.999999999999992
 20
37.49
 30
0.0
 11
-6.999999999999936
 21
31.08999999999996
 31
0.0
  0
LINE
  5
12846
330
127D3
100
AcDbEntity
  8
0
100
AcDbLine
 10
-3.499999999999992
 20
37.49
 30
0.0
 11
-3.499999999999936
 21
31.09000000000002
 31
0.0
  0
LINE
  5
12847
330
127D3
100
AcDbEntity
  8
0
100
AcDbLine
 10
-6.999999999999939
 20
14.62999999999998
 30
0.0
 11
-6.999999999999943
 21
8.230000000000003
 31
0.0
  0
LINE
  5
12848
330
127D3
100
AcDbEntity
  8
0
100
AcDbLine
 10
-3.499999999999939
 20
14.62999999999998
 30
0.0
 11
-3.499999999999971
 21
8.230000000000003
 31
0.0
  0
ELLIPSE
  5
12849
330
127D3
100
AcDbEntity
  8
0
100
AcDbEllipse
 10
-10.29999999999995
 20
11.42999999999993
 30
0.0
 11
-0.000000000000001
 21
-2.399999999999977
 31
0.0
210
0.0
220
0.0
230
1.0
 40
0.5416666666666529
 41
2.478718829939674
 42
6.946059130829823
  0
LINE
  5
1284A
330
127D3
100
AcDbEntity
  8
0
100
AcDbLine
 10
-9.499999999999996
 20
14.12999999999998
 30
0.0
 11
-9.500000000000024
 21
8.829999999999969
 31
0.0
  0
LINE
  5
1284B
330
127D3
100
AcDbEntity
  8
0
100
AcDbLine
 10
-7.999999999999996
 20
14.12999999999998
 30
0.0
 11
-7.999999999999968
 21
8.829999999999969
 31
0.0
  0
ELLIPSE
  5
1284C
330
127D3
100
AcDbEntity
  8
0
100
AcDbEllipse
 10
-10.29999999999998
 20
3.789999999999977
 30
0.0
 11
-0.000000000000001
 21
-2.399999999999977
 31
0.0
210
0.0
220
0.0
230
1.0
 40
0.5416666666666529
 41
2.478718829939674
 42
6.946059130829823
  0
LINE
  5
1284D
330
127D3
100
AcDbEntity
  8
0
100
AcDbLine
 10
-8.000000000000024
 20
6.490000000000023
 30
0.0
 11
-7.999999999999971
 21
1.190000000000011
 31
0.0
  0
LINE
  5
1284E
330
127D3
100
AcDbEntity
  8
0
100
AcDbLine
 10
-9.500000000000024
 20
6.490000000000023
 30
0.0
 11
-9.500000000000028
 21
1.190000000000011
 31
0.0
  0
LINE
  5
1284F
330
127D3
100
AcDbEntity
  8
0
100
AcDbLine
 10
-7.0
 20
7.010000000000005
 30
0.0
 11
-6.999999999999971
 21
0.609999999999971
 31
0.0
  0
LINE
  5
12850
330
127D3
100
AcDbEntity
  8
0
100
AcDbLine
 10
-3.500000000000028
 20
7.010000000000005
 30
0.0
 11
-3.499999999999971
 21
0.6100000000000279
 31
0.0
  0
ELLIPSE
  5
12851
330
127D3
100
AcDbEntity
  8
0
100
AcDbEllipse
 10
-10.29999999999998
 20
-3.810000000000044
 30
0.0
 11
-0.000000000000001
 21
-2.399999999999977
 31
0.0
210
0.0
220
0.0
230
1.0
 40
0.5416666666666529
 41
2.478718829939674
 42
6.946059130829823
  0
LINE
  5
12852
330
127D3
100
AcDbEntity
  8
0
100
AcDbLine
 10
-16.00000000000001
 20
-7.009999999999976
 30
0.0
 11
-3.499999999999971
 21
-7.010000000000033
 31
0.0
  0
LINE
  5
12853
330
127D3
100
AcDbEntity
  8
0
100
AcDbLine
 10
-16.00000000000001
 20
-0.6099999999999995
 30
0.0
 11
-3.499999999999971
 21
-0.6099999999999995
 31
0.0
  0
LINE
  5
12854
330
127D3
100
AcDbEntity
  8
0
100
AcDbLine
 10
-16.00000000000001
 20
0.6100000000000279
 30
0.0
 11
-3.499999999999971
 21
0.609999999999971
 31
0.0
  0
LINE
  5
12855
330
127D3
100
AcDbEntity
  8
0
100
AcDbLine
 10
-16.00000000000004
 20
0.6100000000000279
 30
0.0
 11
-16.00000000000004
 21
-0.6099999999999995
 31
0.0
  0
LINE
  5
12856
330
127D3
100
AcDbEntity
  8
0
100
AcDbLine
 10
-3.499999999999971
 20
-0.6099999999999995
 30
0.0
 11
-3.499999999999971
 21
-7.009999999999976
 31
0.0
  0
LINE
  5
12857
330
127D3
100
AcDbEntity
  8
0
100
AcDbLine
 10
-6.999999999999971
 20
-0.6099999999999995
 30
0.0
 11
-7.0
 21
-7.009999999999976
 31
0.0
  0
LINE
  5
12858
330
127D3
100
AcDbEntity
  8
0
100
AcDbLine
 10
-8.000000000000028
 20
-1.109999999999999
 30
0.0
 11
-7.999999999999971
 21
-6.41000000000001
 31
0.0
  0
LINE
  5
12859
330
127D3
100
AcDbEntity
  8
0
100
AcDbLine
 10
-9.500000000000028
 20
-1.109999999999999
 30
0.0
 11
-9.500000000000028
 21
-6.41000000000001
 31
0.0
  0
LINE
  5
1285A
330
127D3
100
AcDbEntity
  8
0
100
AcDbLine
 10
-7.000000000000056
 20
-6.41000000000001
 30
0.0
 11
-9.500000000000028
 21
-6.41000000000001
 31
0.0
  0
LINE
  5
1285B
330
127D3
100
AcDbEntity
  8
0
100
AcDbLine
 10
-9.500000000000085
 20
-1.109999999999999
 30
0.0
 11
-7.000000000000028
 21
-1.109999999999999
 31
0.0
  0
LINE
  5
1285C
330
127D3
100
AcDbEntity
  8
0
100
AcDbLine
 10
-7.000000000000028
 20
1.190000000000011
 30
0.0
 11
-9.500000000000028
 21
1.190000000000011
 31
0.0
  0
LINE
  5
1285D
330
127D3
100
AcDbEntity
  8
0
100
AcDbLine
 10
-15.99999999999998
 20
8.230000000000032
 30
0.0
 11
-3.500000000000028
 21
8.230000000000032
 31
0.0
  0
LINE
  5
1285E
330
127D3
100
AcDbEntity
  8
0
100
AcDbLine
 10
-15.99999999999998
 20
7.010000000000005
 30
0.0
 11
-3.499999999999971
 21
7.010000000000005
 31
0.0
  0
LINE
  5
1285F
330
127D3
100
AcDbEntity
  8
0
100
AcDbLine
 10
-16.0
 20
8.230000000000032
 30
0.0
 11
-16.0
 21
7.010000000000061
 31
0.0
  0
LINE
  5
12860
330
127D3
100
AcDbEntity
  8
0
100
AcDbLine
 10
-9.500000000000081
 20
6.490000000000023
 30
0.0
 11
-7.0
 21
6.490000000000023
 31
0.0
  0
LINE
  5
12861
330
127D3
100
AcDbEntity
  8
0
100
AcDbLine
 10
-7.0
 20
8.829999999999969
 30
0.0
 11
-9.500000000000024
 21
8.829999999999969
 31
0.0
  0
LINE
  5
12862
330
127D3
100
AcDbEntity
  8
0
100
AcDbLine
 10
-3.499999999999996
 20
22.24999999999999
 30
0.0
 11
-3.499999999999939
 21
15.85000000000001
 31
0.0
  0
LINE
  5
12863
330
127D3
100
AcDbEntity
  8
0
100
AcDbLine
 10
-6.999999999999996
 20
22.24999999999999
 30
0.0
 11
-6.999999999999939
 21
15.84999999999995
 31
0.0
  0
LINE
  5
12864
330
127D3
100
AcDbEntity
  8
0
100
AcDbLine
 10
-9.499999999999996
 20
21.73
 30
0.0
 11
-9.499999999999996
 21
16.42999999999999
 31
0.0
  0
LINE
  5
12865
330
127D3
100
AcDbEntity
  8
0
100
AcDbLine
 10
-7.999999999999996
 20
21.73
 30
0.0
 11
-7.999999999999939
 21
16.42999999999999
 31
0.0
  0
ELLIPSE
  5
12866
330
127D3
100
AcDbEntity
  8
0
100
AcDbEllipse
 10
-10.29999999999995
 20
19.02999999999996
 30
0.0
 11
-0.000000000000001
 21
-2.399999999999977
 31
0.0
210
0.0
220
0.0
230
1.0
 40
0.5416666666666529
 41
2.478718829939674
 42
6.946059130829823
  0
LINE
  5
12867
330
127D3
100
AcDbEntity
  8
0
100
AcDbLine
 10
-15.99999999999998
 20
15.85000000000001
 30
0.0
 11
-3.499999999999911
 21
15.84999999999995
 31
0.0
  0
LINE
  5
12868
330
127D3
100
AcDbEntity
  8
0
100
AcDbLine
 10
-15.99999999999998
 20
14.62999999999998
 30
0.0
 11
-3.499999999999939
 21
14.62999999999998
 31
0.0
  0
LINE
  5
12869
330
127D3
100
AcDbEntity
  8
0
100
AcDbLine
 10
-16.0
 20
15.85000000000001
 30
0.0
 11
-16.0
 21
14.62999999999998
 31
0.0
  0
LINE
  5
1286A
330
127D3
100
AcDbEntity
  8
0
100
AcDbLine
 10
-6.999999999999996
 20
16.42999999999999
 30
0.0
 11
-9.499999999999996
 21
16.42999999999999
 31
0.0
  0
LINE
  5
1286B
330
127D3
100
AcDbEntity
  8
0
100
AcDbLine
 10
-9.500000000000053
 20
14.12999999999998
 30
0.0
 11
-6.999999999999996
 21
14.12999999999998
 31
0.0
  0
ELLIPSE
  5
1286C
330
127D3
100
AcDbEntity
  8
0
100
AcDbEllipse
 10
-10.29999999999995
 20
26.66999999999994
 30
0.0
 11
-0.000000000000001
 21
-2.399999999999977
 31
0.0
210
0.0
220
0.0
230
1.0
 40
0.5416666666666529
 41
2.478718829939674
 42
6.946059130829823
  0
LINE
  5
1286D
330
127D3
100
AcDbEntity
  8
0
100
AcDbLine
 10
-15.99999999999996
 20
31.09000000000002
 30
0.0
 11
-3.499999999999907
 21
31.08999999999996
 31
0.0
  0
LINE
  5
1286E
330
127D3
100
AcDbEntity
  8
0
100
AcDbLine
 10
-15.99999999999996
 20
29.86999999999999
 30
0.0
 11
-3.499999999999936
 21
29.86999999999999
 31
0.0
  0
LINE
  5
1286F
330
127D3
100
AcDbEntity
  8
0
100
AcDbLine
 10
-15.99999999999998
 20
22.24999999999999
 30
0.0
 11
-3.499999999999968
 21
22.24999999999999
 31
0.0
  0
LINE
  5
12870
330
127D3
100
AcDbEntity
  8
0
100
AcDbLine
 10
-15.99999999999998
 20
23.47000000000001
 30
0.0
 11
-3.500000000000024
 21
23.47000000000001
 31
0.0
  0
LINE
  5
12871
330
127D3
100
AcDbEntity
  8
0
100
AcDbLine
 10
-15.99999999999999
 20
31.09000000000002
 30
0.0
 11
-15.99999999999999
 21
29.86999999999999
 31
0.0
  0
LINE
  5
12872
330
127D3
100
AcDbEntity
  8
0
100
AcDbLine
 10
-16.0
 20
23.47000000000001
 30
0.0
 11
-16.0
 21
22.25000000000004
 31
0.0
  0
LINE
  5
12873
330
127D3
100
AcDbEntity
  8
0
100
AcDbLine
 10
-6.999999999999936
 20
29.86999999999999
 30
0.0
 11
-6.999999999999939
 21
23.47000000000001
 31
0.0
  0
LINE
  5
12874
330
127D3
100
AcDbEntity
  8
0
100
AcDbLine
 10
-3.499999999999936
 20
29.86999999999999
 30
0.0
 11
-3.499999999999939
 21
23.47000000000001
 31
0.0
  0
LINE
  5
12875
330
127D3
100
AcDbEntity
  8
0
100
AcDbLine
 10
-9.499999999999996
 20
29.36999999999999
 30
0.0
 11
-9.499999999999996
 21
24.06999999999998
 31
0.0
  0
LINE
  5
12876
330
127D3
100
AcDbEntity
  8
0
100
AcDbLine
 10
-7.999999999999996
 20
29.36999999999999
 30
0.0
 11
-7.999999999999939
 21
24.06999999999998
 31
0.0
  0
LINE
  5
12877
330
127D3
100
AcDbEntity
  8
0
100
AcDbLine
 10
-9.500000000000053
 20
29.36999999999999
 30
0.0
 11
-6.999999999999992
 21
29.36999999999999
 31
0.0
  0
LINE
  5
12878
330
127D3
100
AcDbEntity
  8
0
100
AcDbLine
 10
-6.999999999999996
 20
24.06999999999998
 30
0.0
 11
-9.499999999999996
 21
24.06999999999998
 31
0.0
  0
LINE
  5
12879
330
127D3
100
AcDbEntity
  8
0
100
AcDbLine
 10
-9.500000000000053
 20
21.73
 30
0.0
 11
-6.999999999999996
 21
21.73
 31
0.0
  0
LINE
  5
1287A
330
127D3
100
AcDbEntity
  8
0
100
AcDbLine
 10
-7.999999999999946
 20
52.21000000000002
 30
0.0
 11
-7.999999999999893
 21
46.91000000000001
 31
0.0
  0
LINE
  5
1287B
330
127D3
100
AcDbEntity
  8
0
100
AcDbLine
 10
-9.499999999999946
 20
52.21000000000002
 30
0.0
 11
-9.49999999999995
 21
46.91000000000001
 31
0.0
  0
ELLIPSE
  5
1287C
330
127D3
100
AcDbEntity
  8
0
100
AcDbEllipse
 10
-10.2999999999999
 20
49.50999999999997
 30
0.0
 11
-0.000000000000001
 21
-2.399999999999977
 31
0.0
210
0.0
220
0.0
230
1.0
 40
0.5416666666666529
 41
2.478718829939674
 42
6.946059130829823
  0
LINE
  5
1287D
330
127D3
100
AcDbEntity
  8
0
100
AcDbLine
 10
-3.49999999999995
 20
52.73
 30
0.0
 11
-3.499999999999893
 21
46.33000000000002
 31
0.0
  0
LINE
  5
1287E
330
127D3
100
AcDbEntity
  8
0
100
AcDbLine
 10
-6.999999999999946
 20
52.73
 30
0.0
 11
-6.999999999999889
 21
46.32999999999997
 31
0.0
  0
LINE
  5
1287F
330
127D3
100
AcDbEntity
  8
0
100
AcDbLine
 10
-3.499999999999893
 20
45.11
 30
0.0
 11
-3.499999999999893
 21
38.71000000000002
 31
0.0
  0
LINE
  5
12880
330
127D3
100
AcDbEntity
  8
0
100
AcDbLine
 10
-6.999999999999889
 20
45.11
 30
0.0
 11
-6.999999999999893
 21
38.71000000000002
 31
0.0
  0
ELLIPSE
  5
12881
330
127D3
100
AcDbEntity
  8
0
100
AcDbEllipse
 10
-10.2999999999999
 20
41.90999999999995
 30
0.0
 11
-0.000000000000001
 21
-2.399999999999977
 31
0.0
210
0.0
220
0.0
230
1.0
 40
0.5416666666666529
 41
2.478718829939674
 42
6.946059130829823
  0
LINE
  5
12882
330
127D3
100
AcDbEntity
  8
0
100
AcDbLine
 10
-7.99999999999995
 20
44.61
 30
0.0
 11
-7.999999999999893
 21
39.30999999999999
 31
0.0
  0
LINE
  5
12883
330
127D3
100
AcDbEntity
  8
0
100
AcDbLine
 10
-9.49999999999995
 20
44.61
 30
0.0
 11
-9.49999999999995
 21
39.30999999999999
 31
0.0
  0
ELLIPSE
  5
12884
330
127D3
100
AcDbEntity
  8
0
100
AcDbEllipse
 10
-10.29999999999994
 20
34.26999999999997
 30
0.0
 11
-0.000000000000001
 21
-2.399999999999977
 31
0.0
210
0.0
220
0.0
230
1.0
 40
0.5416666666666529
 41
2.478718829939674
 42
6.946059130829823
  0
LINE
  5
12885
330
127D3
100
AcDbEntity
  8
0
100
AcDbLine
 10
-15.99999999999996
 20
37.49
 30
0.0
 11
-3.499999999999964
 21
37.49
 31
0.0
  0
LINE
  5
12886
330
127D3
100
AcDbEntity
  8
0
100
AcDbLine
 10
-15.99999999999993
 20
38.71000000000002
 30
0.0
 11
-3.499999999999978
 21
38.71000000000002
 31
0.0
  0
LINE
  5
12887
330
127D3
100
AcDbEntity
  8
0
100
AcDbLine
 10
-15.99999999999993
 20
38.71000000000002
 30
0.0
 11
-15.99999999999993
 21
37.49
 31
0.0
  0
LINE
  5
12888
330
127D3
100
AcDbEntity
  8
0
100
AcDbLine
 10
-9.499999999999992
 20
36.97000000000001
 30
0.0
 11
-9.499999999999996
 21
31.67
 31
0.0
  0
LINE
  5
12889
330
127D3
100
AcDbEntity
  8
0
100
AcDbLine
 10
-7.999999999999992
 20
36.97000000000001
 30
0.0
 11
-7.999999999999939
 21
31.67
 31
0.0
  0
LINE
  5
1288A
330
127D3
100
AcDbEntity
  8
0
100
AcDbLine
 10
-6.999999999999992
 20
31.67
 30
0.0
 11
-9.499999999999996
 21
31.67
 31
0.0
  0
LINE
  5
1288B
330
127D3
100
AcDbEntity
  8
0
100
AcDbLine
 10
-9.500000000000049
 20
36.97000000000001
 30
0.0
 11
-6.999999999999992
 21
36.97000000000001
 31
0.0
  0
LINE
  5
1288C
330
127D3
100
AcDbEntity
  8
0
100
AcDbLine
 10
-6.99999999999995
 20
39.30999999999999
 30
0.0
 11
-9.49999999999995
 21
39.30999999999999
 31
0.0
  0
LINE
  5
1288D
330
127D3
100
AcDbEntity
  8
0
100
AcDbLine
 10
-15.99999999999992
 20
45.11
 30
0.0
 11
-3.499999999999893
 21
45.11
 31
0.0
  0
LINE
  5
1288E
330
127D3
100
AcDbEntity
  8
0
100
AcDbLine
 10
-15.99999999999992
 20
46.33000000000002
 30
0.0
 11
-3.499999999999864
 21
46.32999999999997
 31
0.0
  0
LINE
  5
1288F
330
127D3
100
AcDbEntity
  8
0
100
AcDbLine
 10
-15.99999999999995
 20
46.33000000000002
 30
0.0
 11
-15.99999999999995
 21
45.11
 31
0.0
  0
LINE
  5
12890
330
127D3
100
AcDbEntity
  8
0
100
AcDbLine
 10
-6.999999999999946
 20
46.91000000000001
 30
0.0
 11
-9.49999999999995
 21
46.91000000000001
 31
0.0
  0
LINE
  5
12891
330
127D3
100
AcDbEntity
  8
0
100
AcDbLine
 10
-9.500000000000007
 20
44.61
 30
0.0
 11
-6.999999999999946
 21
44.61
 31
0.0
  0
LINE
  5
12892
330
127D3
100
AcDbEntity
  8
0
100
AcDbLine
 10
-15.99999999999992
 20
52.73
 30
0.0
 11
-3.499999999999921
 21
52.73
 31
0.0
  0
LINE
  5
12893
330
127D3
100
AcDbEntity
  8
0
100
AcDbLine
 10
-15.99999999999999
 20
53.95000000000003
 30
0.0
 11
-15.99999999999999
 21
52.73000000000006
 31
0.0
  0
LINE
  5
12894
330
127D3
100
AcDbEntity
  8
SUNPOU
100
AcDbLine
 10
-13.99999999999996
 20
54.93000000000002
 30
0.0
 11
-17.8
 21
54.93000000000002
 31
0.0
  0
LINE
  5
12895
330
127D3
100
AcDbEntity
  8
SUNPOU
100
AcDbLine
 10
-6.999999999999992
 20
54.93000000000002
 30
0.0
 11
-6.999999999999989
 21
53.95000000000003
 31
0.0
  0
LINE
  5
12896
330
127D3
100
AcDbEntity
  8
0
100
AcDbLine
 10
-9.500000000000003
 20
52.21000000000002
 30
0.0
 11
-6.999999999999946
 21
52.21000000000002
 31
0.0
  0
LINE
  5
12897
330
127D3
100
AcDbEntity
  8
KAGESEN
100
AcDbLine
 10
8.199999999999992
 20
11.93000000000002
 30
0.0
 11
8.199999999999992
 21
10.92999999999991
 31
0.0
  0
LINE
  5
12898
330
127D3
100
AcDbEntity
  8
KAGESEN
100
AcDbLine
 10
3.69999999999996
 20
-3.309999999999959
 30
0.0
 11
8.199999999999903
 21
-3.309999999999959
 31
0.0
  0
LINE
  5
12899
330
127D3
100
AcDbEntity
  8
KAGESEN
100
AcDbLine
 10
3.69999999999996
 20
-4.310000000000016
 30
0.0
 11
8.199999999999903
 21
-4.310000000000016
 31
0.0
  0
LINE
  5
1289A
330
127D3
100
AcDbEntity
  8
SUNPOU
100
AcDbLine
 10
-2.259405835423873
 20
0.0000000000000178
 30
0.0
 11
2.259405835423876
 21
-0.0000000000000107
 31
0.0
  0
LINE
  5
1289B
330
127D3
100
AcDbEntity
  8
KAGESEN
100
AcDbLine
 10
3.69999999999996
 20
-2.560000000000016
 30
0.0
 11
3.69999999999996
 21
-3.310000000000016
 31
0.0
  0
LINE
  5
1289C
330
127D3
100
AcDbEntity
  8
KAGESEN
100
AcDbLine
 10
3.69999999999996
 20
-4.310000000000073
 30
0.0
 11
3.69999999999996
 21
-5.059999999999959
 31
0.0
  0
LINE
  5
1289D
330
127D3
100
AcDbEntity
  8
KAGESEN
100
AcDbLine
 10
-0.0000000000000284
 20
-5.059999999999959
 30
0.0
 11
3.69999999999996
 21
-5.059999999999959
 31
0.0
  0
LINE
  5
1289E
330
127D3
100
AcDbEntity
  8
KAGESEN
100
AcDbLine
 10
-0.0000000000000284
 20
-2.559999999999959
 30
0.0
 11
3.69999999999996
 21
-2.560000000000016
 31
0.0
  0
LINE
  5
1289F
330
127D3
100
AcDbEntity
  8
KAGESEN
100
AcDbLine
 10
8.19999999999996
 20
-3.309999999999959
 30
0.0
 11
8.19999999999996
 21
-4.310000000000073
 31
0.0
  0
LINE
  5
128A0
330
127D3
100
AcDbEntity
  8
KAGESEN
100
AcDbLine
 10
3.699999999999963
 20
10.92999999999996
 30
0.0
 11
8.199999999999963
 21
10.92999999999996
 31
0.0
  0
LINE
  5
128A1
330
127D3
100
AcDbEntity
  8
KAGESEN
100
AcDbLine
 10
3.69999999999996
 20
4.310000000000044
 30
0.0
 11
8.199999999999963
 21
4.310000000000044
 31
0.0
  0
LINE
  5
128A2
330
127D3
100
AcDbEntity
  8
KAGESEN
100
AcDbLine
 10
3.69999999999996
 20
3.309999999999988
 30
0.0
 11
8.19999999999996
 21
3.309999999999988
 31
0.0
  0
LINE
  5
128A3
330
127D3
100
AcDbEntity
  8
KAGESEN
100
AcDbLine
 10
3.699999999999963
 20
10.92999999999991
 30
0.0
 11
3.699999999999963
 21
10.18000000000002
 31
0.0
  0
LINE
  5
128A4
330
127D3
100
AcDbEntity
  8
KAGESEN
100
AcDbLine
 10
3.700000000000017
 20
5.059999999999988
 30
0.0
 11
3.69999999999996
 21
4.309999999999988
 31
0.0
  0
LINE
  5
128A5
330
127D3
100
AcDbEntity
  8
KAGESEN
100
AcDbLine
 10
-0.0000000000000284
 20
5.060000000000044
 30
0.0
 11
3.69999999999996
 21
5.059999999999988
 31
0.0
  0
LINE
  5
128A6
330
127D3
100
AcDbEntity
  8
KAGESEN
100
AcDbLine
 10
-0.0000000000000284
 20
10.18000000000002
 30
0.0
 11
3.699999999999963
 21
10.18000000000002
 31
0.0
  0
LINE
  5
128A7
330
127D3
100
AcDbEntity
  8
KAGESEN
100
AcDbLine
 10
3.69999999999996
 20
3.309999999999931
 30
0.0
 11
3.69999999999996
 21
2.560000000000044
 31
0.0
  0
LINE
  5
128A8
330
127D3
100
AcDbEntity
  8
KAGESEN
100
AcDbLine
 10
-0.0000000000000284
 20
2.560000000000044
 30
0.0
 11
3.69999999999996
 21
2.560000000000044
 31
0.0
  0
LINE
  5
128A9
330
127D3
100
AcDbEntity
  8
KAGESEN
100
AcDbLine
 10
8.199999999999963
 20
4.310000000000044
 30
0.0
 11
8.19999999999996
 21
3.309999999999931
 31
0.0
  0
LINE
  5
128AA
330
127D3
100
AcDbEntity
  8
KAGESEN
100
AcDbLine
 10
3.699999999999992
 20
19.55000000000002
 30
0.0
 11
8.199999999999963
 21
19.55000000000002
 31
0.0
  0
LINE
  5
128AB
330
127D3
100
AcDbEntity
  8
KAGESEN
100
AcDbLine
 10
3.699999999999992
 20
18.54999999999997
 30
0.0
 11
8.199999999999963
 21
18.54999999999997
 31
0.0
  0
LINE
  5
128AC
330
127D3
100
AcDbEntity
  8
KAGESEN
100
AcDbLine
 10
3.699999999999992
 20
11.93000000000002
 30
0.0
 11
8.199999999999963
 21
11.93000000000002
 31
0.0
  0
LINE
  5
128AD
330
127D3
100
AcDbEntity
  8
KAGESEN
100
AcDbLine
 10
3.70000000000002
 20
20.29999999999997
 30
0.0
 11
3.699999999999992
 21
19.54999999999997
 31
0.0
  0
LINE
  5
128AE
330
127D3
100
AcDbEntity
  8
KAGESEN
100
AcDbLine
 10
3.699999999999992
 20
18.54999999999991
 30
0.0
 11
3.699999999999992
 21
17.80000000000002
 31
0.0
  0
LINE
  5
128AF
330
127D3
100
AcDbEntity
  8
KAGESEN
100
AcDbLine
 10
0.0000000000000036
 20
20.30000000000002
 30
0.0
 11
3.699999999999992
 21
20.29999999999997
 31
0.0
  0
LINE
  5
128B0
330
127D3
100
AcDbEntity
  8
KAGESEN
100
AcDbLine
 10
0.0000000000000036
 20
17.80000000000002
 30
0.0
 11
3.699999999999992
 21
17.80000000000002
 31
0.0
  0
LINE
  5
128B1
330
127D3
100
AcDbEntity
  8
KAGESEN
100
AcDbLine
 10
3.70000000000002
 20
12.67999999999996
 30
0.0
 11
3.699999999999992
 21
11.92999999999996
 31
0.0
  0
LINE
  5
128B2
330
127D3
100
AcDbEntity
  8
KAGESEN
100
AcDbLine
 10
-0.0000000000000249
 20
12.68000000000002
 30
0.0
 11
3.699999999999992
 21
12.67999999999996
 31
0.0
  0
LINE
  5
128B3
330
127D3
100
AcDbEntity
  8
KAGESEN
100
AcDbLine
 10
8.199999999999992
 20
19.55000000000002
 30
0.0
 11
8.199999999999992
 21
18.54999999999991
 31
0.0
  0
LINE
  5
128B4
330
127D3
100
AcDbEntity
  8
KAGESEN
100
AcDbLine
 10
3.699999999999992
 20
27.17000000000003
 30
0.0
 11
8.199999999999963
 21
27.17000000000003
 31
0.0
  0
LINE
  5
128B5
330
127D3
100
AcDbEntity
  8
KAGESEN
100
AcDbLine
 10
3.699999999999992
 20
26.16999999999997
 30
0.0
 11
8.199999999999963
 21
26.16999999999997
 31
0.0
  0
LINE
  5
128B6
330
127D3
100
AcDbEntity
  8
KAGESEN
100
AcDbLine
 10
3.70000000000002
 20
27.91999999999998
 30
0.0
 11
3.699999999999992
 21
27.16999999999997
 31
0.0
  0
LINE
  5
128B7
330
127D3
100
AcDbEntity
  8
KAGESEN
100
AcDbLine
 10
0.0000000000000071
 20
27.92000000000003
 30
0.0
 11
3.699999999999992
 21
27.91999999999998
 31
0.0
  0
LINE
  5
128B8
330
127D3
100
AcDbEntity
  8
KAGESEN
100
AcDbLine
 10
3.699999999999992
 20
26.16999999999992
 30
0.0
 11
3.699999999999992
 21
25.42000000000003
 31
0.0
  0
LINE
  5
128B9
330
127D3
100
AcDbEntity
  8
KAGESEN
100
AcDbLine
 10
0.0000000000000036
 20
25.42000000000003
 30
0.0
 11
3.699999999999992
 21
25.42000000000003
 31
0.0
  0
LINE
  5
128BA
330
127D3
100
AcDbEntity
  8
KAGESEN
100
AcDbLine
 10
8.199999999999992
 20
27.17000000000003
 30
0.0
 11
8.199999999999992
 21
26.16999999999992
 31
0.0
  0
LINE
  5
128BB
330
127D3
100
AcDbEntity
  8
KAGESEN
100
AcDbLine
 10
3.70000000000007
 20
50.77999999999999
 30
0.0
 11
3.700000000000041
 21
50.02999999999999
 31
0.0
  0
LINE
  5
128BC
330
127D3
100
AcDbEntity
  8
KAGESEN
100
AcDbLine
 10
3.700000000000038
 20
41.40999999999992
 30
0.0
 11
3.700000000000038
 21
40.66000000000004
 31
0.0
  0
LINE
  5
128BD
330
127D3
100
AcDbEntity
  8
KAGESEN
100
AcDbLine
 10
3.699999999999995
 20
34.79000000000004
 30
0.0
 11
8.199999999999967
 21
34.79000000000004
 31
0.0
  0
LINE
  5
128BE
330
127D3
100
AcDbEntity
  8
KAGESEN
100
AcDbLine
 10
3.699999999999995
 20
33.78999999999998
 30
0.0
 11
8.199999999999967
 21
33.78999999999998
 31
0.0
  0
LINE
  5
128BF
330
127D3
100
AcDbEntity
  8
KAGESEN
100
AcDbLine
 10
0.0000000000000497
 20
40.66000000000004
 30
0.0
 11
3.700000000000038
 21
40.66000000000004
 31
0.0
  0
LINE
  5
128C0
330
127D3
100
AcDbEntity
  8
KAGESEN
100
AcDbLine
 10
3.700000000000024
 20
35.53999999999998
 30
0.0
 11
3.699999999999995
 21
34.78999999999998
 31
0.0
  0
LINE
  5
128C1
330
127D3
100
AcDbEntity
  8
KAGESEN
100
AcDbLine
 10
3.699999999999995
 20
33.78999999999992
 30
0.0
 11
3.699999999999995
 21
33.04000000000004
 31
0.0
  0
LINE
  5
128C2
330
127D3
100
AcDbEntity
  8
KAGESEN
100
AcDbLine
 10
0.0000000000000071
 20
35.54000000000004
 30
0.0
 11
3.699999999999995
 21
35.53999999999998
 31
0.0
  0
LINE
  5
128C3
330
127D3
100
AcDbEntity
  8
KAGESEN
100
AcDbLine
 10
0.0000000000000071
 20
33.04000000000004
 30
0.0
 11
3.699999999999995
 21
33.04000000000004
 31
0.0
  0
LINE
  5
128C4
330
127D3
100
AcDbEntity
  8
KAGESEN
100
AcDbLine
 10
8.199999999999995
 20
34.79000000000004
 30
0.0
 11
8.199999999999995
 21
33.78999999999992
 31
0.0
  0
LINE
  5
128C5
330
127D3
100
AcDbEntity
  8
KAGESEN
100
AcDbLine
 10
3.700000000000041
 20
49.02999999999998
 30
0.0
 11
8.200000000000013
 21
49.02999999999998
 31
0.0
  0
LINE
  5
128C6
330
127D3
100
AcDbEntity
  8
KAGESEN
100
AcDbLine
 10
3.700000000000041
 20
50.03000000000004
 30
0.0
 11
8.200000000000013
 21
50.03000000000004
 31
0.0
  0
LINE
  5
128C7
330
127D3
100
AcDbEntity
  8
KAGESEN
100
AcDbLine
 10
3.700000000000038
 20
41.40999999999998
 30
0.0
 11
8.200000000000009
 21
41.40999999999998
 31
0.0
  0
LINE
  5
128C8
330
127D3
100
AcDbEntity
  8
KAGESEN
100
AcDbLine
 10
3.700000000000038
 20
42.41000000000004
 30
0.0
 11
8.200000000000009
 21
42.41000000000004
 31
0.0
  0
LINE
  5
128C9
330
127D3
100
AcDbEntity
  8
KAGESEN
100
AcDbLine
 10
3.700000000000041
 20
49.02999999999993
 30
0.0
 11
3.700000000000041
 21
48.28000000000004
 31
0.0
  0
LINE
  5
128CA
330
127D3
100
AcDbEntity
  8
KAGESEN
100
AcDbLine
 10
3.700000000000066
 20
43.15999999999998
 30
0.0
 11
3.700000000000038
 21
42.40999999999998
 31
0.0
  0
LINE
  5
128CB
330
127D3
100
AcDbEntity
  8
KAGESEN
100
AcDbLine
 10
0.0000000000000533
 20
48.28000000000004
 30
0.0
 11
3.700000000000041
 21
48.28000000000004
 31
0.0
  0
LINE
  5
128CC
330
127D3
100
AcDbEntity
  8
KAGESEN
100
AcDbLine
 10
0.0000000000000533
 20
43.16000000000004
 30
0.0
 11
3.700000000000038
 21
43.15999999999998
 31
0.0
  0
LINE
  5
128CD
330
127D3
100
AcDbEntity
  8
KAGESEN
100
AcDbLine
 10
8.200000000000041
 20
50.03000000000004
 30
0.0
 11
8.200000000000041
 21
49.02999999999993
 31
0.0
  0
LINE
  5
128CE
330
127D3
100
AcDbEntity
  8
KAGESEN
100
AcDbLine
 10
8.200000000000038
 20
42.41000000000004
 30
0.0
 11
8.200000000000038
 21
41.40999999999992
 31
0.0
  0
LINE
  5
128CF
330
127D3
100
AcDbEntity
  8
KAGESEN
100
AcDbLine
 10
0.0000000000000533
 20
50.78000000000004
 30
0.0
 11
3.700000000000041
 21
50.77999999999999
 31
0.0
  0
ENDBLK
  5
128D0
330
127D3
100
AcDbEntity
  8
0
100
AcDbBlockEnd
  0
BLOCK
  5
128D2
330
128D1
100
AcDbEntity
  8
0
100
AcDbBlockBegin
  2
Side Paneru-1
 70
     0
 10
0.0
 20
0.0
 30
0.0
  3
Side Paneru-1
  1

  0
LINE
  5
128D3
330
128D1
100
AcDbEntity
  8
0
100
AcDbLine
 10
3.999999999999658
 20
4.00000000000017
 30
0.0
 11
55.2000000000001
 21
3.999999999999829
 31
0.0
  0
LINE
  5
128D4
330
128D1
100
AcDbEntity
  8
0
100
AcDbLine
 10
-5.999999999999943
 20
5.000000000000056
 30
0.0
 11
68.20000000000004
 21
5.0
 31
0.0
  0
LINE
  5
128D5
330
128D1
100
AcDbEntity
  8
0
100
AcDbLine
 10
-17.00000000000008
 20
5.000000000000056
 30
0.0
 11
-7.000000000000142
 21
5.000000000000056
 31
0.0
  0
LINE
  5
128D6
330
128D1
100
AcDbEntity
  8
0
100
AcDbLine
 10
-17.00000000000011
 20
5.999999999999943
 30
0.0
 11
-6.999999999999943
 21
5.999999999999943
 31
0.0
  0
LINE
  5
128D7
330
128D1
100
AcDbEntity
  8
0
100
AcDbLine
 10
-17.00000000000011
 20
5.999999999999943
 30
0.0
 11
-17.00000000000008
 21
5.000000000000056
 31
0.0
  0
LINE
  5
128D8
330
128D1
100
AcDbEntity
  8
0
100
AcDbLine
 10
3.999999999999772
 20
-3.0
 30
0.0
 11
3.99999999999963
 21
5.000000000000056
 31
0.0
1001
ACAD
1000
ASC_BOUNDS
1002
{
1070
    19
1002
}
  0
LINE
  5
128D9
330
128D1
100
AcDbEntity
  8
0
100
AcDbLine
 10
-3.999999999999971
 20
-3.0
 30
0.0
 11
-4.000000000000113
 21
5.00000000000017
 31
0.0
1001
ACAD
1000
ASC_BOUNDS
1002
{
1070
    19
1002
}
  0
LINE
  5
128DA
330
128D1
100
AcDbEntity
  8
0
100
AcDbLine
 10
4.000000000000056
 20
-3.0
 30
0.0
 11
-4.000000000000056
 21
-3.0
 31
0.0
  0
LINE
  5
128DB
330
128D1
100
AcDbEntity
  8
KAGESEN
100
AcDbLine
 10
-4.000000000000113
 20
4.000000000000056
 30
0.0
 11
3.999999999999658
 21
4.00000000000017
 31
0.0
  0
ARC
  5
128DC
330
128D1
100
AcDbEntity
  8
0
100
AcDbCircle
 10
-6.999999999999943
 20
4.999999999999943
 30
0.0
 40
1.0
100
AcDbArc
 50
0.0
 51
90.0
1001
ACAD
1000
ASC_BOUNDS
1002
{
1070
    19
1002
}
  0
LINE
  5
128DD
330
128D1
100
AcDbEntity
  8
0
100
AcDbLine
 10
-7.000000000000085
 20
5.000000000000056
 30
0.0
 11
-7.000000000000085
 21
4.999999999999943
 31
0.0
1001
ACAD
1000
ASC_BOUNDS
1002
{
1070
    19
1002
}
  0
LINE
  5
128DE
330
128D1
100
AcDbEntity
  8
0
100
AcDbLine
 10
-7.000000000000085
 20
5.000000000000056
 30
0.0
 11
-7.000000000000085
 21
5.999999999999943
 31
0.0
  0
ARC
  5
128DF
330
128D1
100
AcDbEntity
  8
0
100
AcDbCircle
 10
-6.000000000000085
 20
5.000000000000056
 30
0.0
 40
1.0
100
AcDbArc
 50
180.0
 51
270.0
  0
LINE
  5
128E0
330
128D1
100
AcDbEntity
  8
0
100
AcDbLine
 10
-6.000000000000085
 20
4.000000000000056
 30
0.0
 11
-4.000000000000085
 21
4.000000000000056
 31
0.0
  0
CIRCLE
  5
128E1
330
128D1
100
AcDbEntity
  8
SUNPOU
100
AcDbCircle
 10
0.0
 20
0.0
 30
0.0
 40
1.3
  0
CIRCLE
  5
128E2
330
128D1
100
AcDbEntity
  8
SUNPOU
100
AcDbCircle
 10
0.0
 20
0.0
 30
0.0
 40
1.0
  0
LINE
  5
128E3
330
128D1
100
AcDbEntity
  8
0
100
AcDbLine
 10
55.20000000000016
 20
-3.0
 30
0.0
 11
55.20000000000004
 21
5.000000000000056
 31
0.0
1001
ACAD
1000
ASC_BOUNDS
1002
{
1070
    19
1002
}
  0
LINE
  5
128E4
330
128D1
100
AcDbEntity
  8
0
100
AcDbLine
 10
63.19999999999993
 20
-3.0
 30
0.0
 11
63.19999999999982
 21
5.000000000000056
 31
0.0
1001
ACAD
1000
ASC_BOUNDS
1002
{
1070
    19
1002
}
  0
LINE
  5
128E5
330
128D1
100
AcDbEntity
  8
0
100
AcDbLine
 10
69.19999999999993
 20
-3.999999999999943
 30
0.0
 11
69.20000000000005
 21
4.000000000000056
 31
0.0
  0
LINE
  5
128E6
330
128D1
100
AcDbEntity
  8
0
100
AcDbLine
 10
68.19999999999993
 20
-3.999999999999943
 30
0.0
 11
68.20000000000004
 21
4.000000000000056
 31
0.0
  0
LINE
  5
128E7
330
128D1
100
AcDbEntity
  8
0
100
AcDbLine
 10
63.20000000000016
 20
-3.0
 30
0.0
 11
55.20000000000004
 21
-3.0
 31
0.0
  0
LINE
  5
128E8
330
128D1
100
AcDbEntity
  8
0
100
AcDbLine
 10
68.20000000000004
 20
-3.999999999999943
 30
0.0
 11
69.19999999999993
 21
-3.999999999999943
 31
0.0
  0
LINE
  5
128E9
330
128D1
100
AcDbEntity
  8
KAGESEN
100
AcDbLine
 10
55.20000000000004
 20
4.000000000000397
 30
0.0
 11
63.19999999999982
 21
4.000000000000511
 31
0.0
  0
CIRCLE
  5
128EA
330
128D1
100
AcDbEntity
  8
SUNPOU
100
AcDbCircle
 10
59.20000000000015
 20
0.0
 30
0.0
 40
1.3
  0
CIRCLE
  5
128EB
330
128D1
100
AcDbEntity
  8
SUNPOU
100
AcDbCircle
 10
59.20000000000015
 20
0.0
 30
0.0
 40
1.0
  0
LINE
  5
128EC
330
128D1
100
AcDbEntity
  8
0
100
AcDbLine
 10
68.20000000000004
 20
4.000000000000511
 30
0.0
 11
63.19999999999982
 21
4.000000000000511
 31
0.0
  0
ARC
  5
128ED
330
128D1
100
AcDbEntity
  8
0
100
AcDbCircle
 10
68.20000000000004
 20
4.000000000000056
 30
0.0
 40
1.0
100
AcDbArc
 50
0.0
 51
90.0
  0
ENDBLK
  5
128EE
330
128D1
100
AcDbEntity
  8
0
100
AcDbBlockEnd
  0
BLOCK
  5
12950
330
1294F
100
AcDbEntity
  8
0
100
AcDbBlockBegin
  2
KSP82-2
 70
     0
 10
0.0
 20
0.0
 30
0.0
  3
KSP82-2
  1

  0
LINE
  5
12951
330
1294F
100
AcDbEntity
  8
SUNPOU
100
AcDbLine
 10
-0.5
 20
0.0
 30
0.0
 11
0.5
 21
0.0
 31
0.0
  0
LINE
  5
12952
330
1294F
100
AcDbEntity
  8
0
100
AcDbLine
 10
-11.14999999999997
 20
4.300000000000068
 30
0.0
 11
11.15000000000003
 21
4.299999999999954
 31
0.0
  0
LINE
  5
12953
330
1294F
100
AcDbEntity
  8
0
100
AcDbLine
 10
-0.519999999999925
 20
-4.299999999999954
 30
0.0
 11
0.5200000000000955
 21
-4.299999999999897
 31
0.0
  0
LINE
  5
12954
330
1294F
100
AcDbEntity
  8
SUNPOU
100
AcDbLine
 10
-0.5199999999998682
 20
-3.099999999999965
 30
0.0
 11
0.5200000000001524
 21
-3.099999999999965
 31
0.0
  0
LINE
  5
12955
330
1294F
100
AcDbEntity
  8
0
100
AcDbLine
 10
-11.14999999999997
 20
-4.299999999999954
 30
0.0
 11
-11.15000000000003
 21
4.299999999999954
 31
0.0
  0
LINE
  5
12956
330
1294F
100
AcDbEntity
  8
0
100
AcDbLine
 10
-9.640000000000043
 20
-5.799999999999954
 30
0.0
 11
-8.140000000000043
 21
-5.799999999999954
 31
0.0
  0
LINE
  5
12957
330
1294F
100
AcDbEntity
  8
0
100
AcDbLine
 10
-9.640000000000043
 20
-2.799999999999954
 30
0.0
 11
-8.140000000000043
 21
-2.799999999999954
 31
0.0
  0
LINE
  5
12958
330
1294F
100
AcDbEntity
  8
0
100
AcDbLine
 10
-9.640000000000043
 20
-5.799999999999954
 30
0.0
 11
-9.640000000000043
 21
-2.799999999999954
 31
0.0
  0
LINE
  5
12959
330
1294F
100
AcDbEntity
  8
SUNPOU
100
AcDbLine
 10
-10.14000000000004
 20
-4.299999999999954
 30
0.0
 11
-10.14000000000004
 21
-3.099999999999965
 31
0.0
  0
LINE
  5
1295A
330
1294F
100
AcDbEntity
  8
SUNPOU
100
AcDbLine
 10
-10.14000000000004
 20
-3.099999999999965
 30
0.0
 11
-9.640000000000043
 21
-3.099999999999965
 31
0.0
  0
LINE
  5
1295B
330
1294F
100
AcDbEntity
  8
0
100
AcDbLine
 10
-11.14999999999997
 20
-4.299999999999954
 30
0.0
 11
-9.639999999999986
 21
-4.299999999999954
 31
0.0
  0
LINE
  5
1295C
330
1294F
100
AcDbEntity
  8
0
100
AcDbLine
 10
-2.019999999999924
 20
-5.800000000000011
 30
0.0
 11
-2.019999999999924
 21
-2.800000000000011
 31
0.0
  0
LINE
  5
1295D
330
1294F
100
AcDbEntity
  8
0
100
AcDbLine
 10
-0.519999999999925
 20
-5.800000000000011
 30
0.0
 11
-0.519999999999925
 21
-2.800000000000011
 31
0.0
  0
LINE
  5
1295E
330
1294F
100
AcDbEntity
  8
0
100
AcDbLine
 10
-3.059999999999945
 20
-5.800000000000011
 30
0.0
 11
-3.059999999999945
 21
-2.800000000000011
 31
0.0
  0
LINE
  5
1295F
330
1294F
100
AcDbEntity
  8
0
100
AcDbLine
 10
-4.559999999999945
 20
-5.800000000000011
 30
0.0
 11
-4.559999999999945
 21
-2.800000000000011
 31
0.0
  0
LINE
  5
12960
330
1294F
100
AcDbEntity
  8
0
100
AcDbLine
 10
-5.600000000000022
 20
-5.799999999999954
 30
0.0
 11
-5.600000000000022
 21
-2.799999999999954
 31
0.0
  0
LINE
  5
12961
330
1294F
100
AcDbEntity
  8
0
100
AcDbLine
 10
-7.100000000000022
 20
-5.799999999999954
 30
0.0
 11
-7.100000000000022
 21
-2.799999999999954
 31
0.0
  0
LINE
  5
12962
330
1294F
100
AcDbEntity
  8
0
100
AcDbLine
 10
-8.140000000000043
 20
-5.799999999999954
 30
0.0
 11
-8.140000000000043
 21
-2.799999999999954
 31
0.0
  0
LINE
  5
12963
330
1294F
100
AcDbEntity
  8
0
100
AcDbLine
 10
-4.559999999999945
 20
-5.800000000000011
 30
0.0
 11
-3.059999999999945
 21
-5.800000000000011
 31
0.0
  0
LINE
  5
12964
330
1294F
100
AcDbEntity
  8
0
100
AcDbLine
 10
-7.100000000000022
 20
-5.799999999999954
 30
0.0
 11
-5.600000000000022
 21
-5.799999999999954
 31
0.0
  0
LINE
  5
12965
330
1294F
100
AcDbEntity
  8
0
100
AcDbLine
 10
-2.019999999999924
 20
-5.800000000000011
 30
0.0
 11
-0.519999999999925
 21
-5.800000000000011
 31
0.0
  0
LINE
  5
12966
330
1294F
100
AcDbEntity
  8
0
100
AcDbLine
 10
-4.559999999999945
 20
-2.800000000000011
 30
0.0
 11
-3.059999999999945
 21
-2.800000000000011
 31
0.0
  0
LINE
  5
12967
330
1294F
100
AcDbEntity
  8
SUNPOU
100
AcDbLine
 10
-5.599999999999965
 20
-3.099999999999965
 30
0.0
 11
-4.559999999999945
 21
-3.099999999999965
 31
0.0
  0
LINE
  5
12968
330
1294F
100
AcDbEntity
  8
0
100
AcDbLine
 10
-5.599999999999965
 20
-4.299999999999954
 30
0.0
 11
-4.559999999999945
 21
-4.299999999999954
 31
0.0
  0
LINE
  5
12969
330
1294F
100
AcDbEntity
  8
0
100
AcDbLine
 10
-7.100000000000022
 20
-2.799999999999954
 30
0.0
 11
-5.600000000000022
 21
-2.799999999999954
 31
0.0
  0
LINE
  5
1296A
330
1294F
100
AcDbEntity
  8
SUNPOU
100
AcDbLine
 10
-8.140000000000043
 20
-3.099999999999965
 30
0.0
 11
-7.099999999999965
 21
-3.099999999999965
 31
0.0
  0
LINE
  5
1296B
330
1294F
100
AcDbEntity
  8
0
100
AcDbLine
 10
-8.139999999999986
 20
-4.299999999999954
 30
0.0
 11
-7.099999999999965
 21
-4.299999999999954
 31
0.0
  0
LINE
  5
1296C
330
1294F
100
AcDbEntity
  8
SUNPOU
100
AcDbLine
 10
0.0
 20
0.5
 30
0.0
 11
0.0
 21
-0.5
 31
0.0
  0
LINE
  5
1296D
330
1294F
100
AcDbEntity
  8
0
100
AcDbLine
 10
-2.019999999999924
 20
-2.800000000000011
 30
0.0
 11
-0.519999999999925
 21
-2.800000000000011
 31
0.0
  0
LINE
  5
1296E
330
1294F
100
AcDbEntity
  8
SUNPOU
100
AcDbLine
 10
-3.059999999999888
 20
-3.099999999999965
 30
0.0
 11
-2.019999999999868
 21
-3.099999999999965
 31
0.0
  0
LINE
  5
1296F
330
1294F
100
AcDbEntity
  8
0
100
AcDbLine
 10
-3.059999999999945
 20
-4.299999999999954
 30
0.0
 11
-2.019999999999924
 21
-4.299999999999897
 31
0.0
  0
LINE
  5
12970
330
1294F
100
AcDbEntity
  8
SUNPOU
100
AcDbLine
 10
-9.189999999999997
 20
5.0
 30
0.0
 11
-8.589999999999974
 21
5.0
 31
0.0
  0
LINE
  5
12971
330
1294F
100
AcDbEntity
  8
SUNPOU
100
AcDbLine
 10
-9.190000000000054
 20
4.300000000000011
 30
0.0
 11
-9.189999999999997
 21
5.0
 31
0.0
  0
LINE
  5
12972
330
1294F
100
AcDbEntity
  8
SUNPOU
100
AcDbLine
 10
-6.049999999999954
 20
4.300000000000011
 30
0.0
 11
-6.049999999999954
 21
5.0
 31
0.0
  0
LINE
  5
12973
330
1294F
100
AcDbEntity
  8
SUNPOU
100
AcDbLine
 10
-6.650000000000034
 20
4.300000000000011
 30
0.0
 11
-6.649999999999977
 21
5.0
 31
0.0
  0
LINE
  5
12974
330
1294F
100
AcDbEntity
  8
SUNPOU
100
AcDbLine
 10
-6.649999999999977
 20
5.0
 30
0.0
 11
-6.049999999999954
 21
5.0
 31
0.0
  0
LINE
  5
12975
330
1294F
100
AcDbEntity
  8
SUNPOU
100
AcDbLine
 10
-8.589999999999974
 20
4.300000000000011
 30
0.0
 11
-8.589999999999974
 21
5.0
 31
0.0
  0
LINE
  5
12976
330
1294F
100
AcDbEntity
  8
SUNPOU
100
AcDbLine
 10
-1.569999999999936
 20
5.0
 30
0.0
 11
-0.9699999999999135
 21
5.0
 31
0.0
  0
LINE
  5
12977
330
1294F
100
AcDbEntity
  8
SUNPOU
100
AcDbLine
 10
-1.569999999999993
 20
4.300000000000068
 30
0.0
 11
-1.569999999999936
 21
5.0
 31
0.0
  0
LINE
  5
12978
330
1294F
100
AcDbEntity
  8
SUNPOU
100
AcDbLine
 10
-0.9699999999999135
 20
4.300000000000068
 30
0.0
 11
-0.9699999999999135
 21
5.0
 31
0.0
  0
LINE
  5
12979
330
1294F
100
AcDbEntity
  8
SUNPOU
100
AcDbLine
 10
-3.509999999999934
 20
4.300000000000068
 30
0.0
 11
-3.509999999999934
 21
5.0
 31
0.0
  0
LINE
  5
1297A
330
1294F
100
AcDbEntity
  8
SUNPOU
100
AcDbLine
 10
-4.110000000000013
 20
4.300000000000068
 30
0.0
 11
-4.109999999999956
 21
5.0
 31
0.0
  0
LINE
  5
1297B
330
1294F
100
AcDbEntity
  8
SUNPOU
100
AcDbLine
 10
-4.109999999999956
 20
5.0
 30
0.0
 11
-3.509999999999934
 21
5.0
 31
0.0
  0
LINE
  5
1297C
330
1294F
100
AcDbEntity
  8
0
100
AcDbLine
 10
11.15000000000003
 20
-4.300000000000011
 30
0.0
 11
11.15000000000003
 21
4.299999999999954
 31
0.0
  0
LINE
  5
1297D
330
1294F
100
AcDbEntity
  8
0
100
AcDbLine
 10
8.1400000000001
 20
-2.800000000000011
 30
0.0
 11
9.6400000000001
 21
-2.800000000000011
 31
0.0
  0
LINE
  5
1297E
330
1294F
100
AcDbEntity
  8
0
100
AcDbLine
 10
8.1400000000001
 20
-5.800000000000011
 30
0.0
 11
9.6400000000001
 21
-5.800000000000011
 31
0.0
  0
LINE
  5
1297F
330
1294F
100
AcDbEntity
  8
0
100
AcDbLine
 10
2.019999999999981
 20
-5.799999999999954
 30
0.0
 11
2.019999999999981
 21
-2.799999999999954
 31
0.0
  0
LINE
  5
12980
330
1294F
100
AcDbEntity
  8
0
100
AcDbLine
 10
3.060000000000002
 20
-5.799999999999954
 30
0.0
 11
3.060000000000002
 21
-2.799999999999954
 31
0.0
  0
LINE
  5
12981
330
1294F
100
AcDbEntity
  8
0
100
AcDbLine
 10
4.560000000000002
 20
-5.799999999999954
 30
0.0
 11
4.560000000000002
 21
-2.799999999999954
 31
0.0
  0
LINE
  5
12982
330
1294F
100
AcDbEntity
  8
0
100
AcDbLine
 10
5.600000000000079
 20
-5.800000000000011
 30
0.0
 11
5.600000000000079
 21
-2.800000000000011
 31
0.0
  0
LINE
  5
12983
330
1294F
100
AcDbEntity
  8
0
100
AcDbLine
 10
7.100000000000079
 20
-5.800000000000011
 30
0.0
 11
7.100000000000079
 21
-2.800000000000011
 31
0.0
  0
LINE
  5
12984
330
1294F
100
AcDbEntity
  8
0
100
AcDbLine
 10
8.1400000000001
 20
-5.800000000000011
 30
0.0
 11
8.1400000000001
 21
-2.800000000000011
 31
0.0
  0
LINE
  5
12985
330
1294F
100
AcDbEntity
  8
0
100
AcDbLine
 10
0.5199999999999818
 20
-5.799999999999954
 30
0.0
 11
0.5199999999999818
 21
-2.799999999999954
 31
0.0
  0
LINE
  5
12986
330
1294F
100
AcDbEntity
  8
0
100
AcDbLine
 10
3.060000000000002
 20
-5.799999999999954
 30
0.0
 11
4.560000000000002
 21
-5.799999999999954
 31
0.0
  0
LINE
  5
12987
330
1294F
100
AcDbEntity
  8
0
100
AcDbLine
 10
0.5199999999999818
 20
-5.799999999999954
 30
0.0
 11
2.019999999999981
 21
-5.799999999999954
 31
0.0
  0
LINE
  5
12988
330
1294F
100
AcDbEntity
  8
0
100
AcDbLine
 10
5.600000000000079
 20
-5.800000000000011
 30
0.0
 11
7.100000000000079
 21
-5.800000000000011
 31
0.0
  0
LINE
  5
12989
330
1294F
100
AcDbEntity
  8
0
100
AcDbLine
 10
3.060000000000002
 20
-2.799999999999954
 30
0.0
 11
4.560000000000002
 21
-2.799999999999954
 31
0.0
  0
LINE
  5
1298A
330
1294F
100
AcDbEntity
  8
0
100
AcDbLine
 10
2.020000000000038
 20
-4.299999999999954
 30
0.0
 11
3.060000000000059
 21
-4.299999999999954
 31
0.0
  0
LINE
  5
1298B
330
1294F
100
AcDbEntity
  8
SUNPOU
100
AcDbLine
 10
2.019999999999981
 20
-3.099999999999965
 30
0.0
 11
3.060000000000059
 21
-3.099999999999965
 31
0.0
  0
LINE
  5
1298C
330
1294F
100
AcDbEntity
  8
0
100
AcDbLine
 10
0.5199999999999818
 20
-2.799999999999954
 30
0.0
 11
2.019999999999981
 21
-2.799999999999954
 31
0.0
  0
LINE
  5
1298D
330
1294F
100
AcDbEntity
  8
0
100
AcDbLine
 10
7.100000000000079
 20
-4.299999999999954
 30
0.0
 11
8.1400000000001
 21
-4.299999999999897
 31
0.0
  0
LINE
  5
1298E
330
1294F
100
AcDbEntity
  8
SUNPOU
100
AcDbLine
 10
7.100000000000136
 20
-3.099999999999965
 30
0.0
 11
8.140000000000156
 21
-3.099999999999965
 31
0.0
  0
LINE
  5
1298F
330
1294F
100
AcDbEntity
  8
0
100
AcDbLine
 10
4.560000000000059
 20
-4.299999999999954
 30
0.0
 11
5.600000000000079
 21
-4.299999999999954
 31
0.0
  0
LINE
  5
12990
330
1294F
100
AcDbEntity
  8
SUNPOU
100
AcDbLine
 10
4.560000000000059
 20
-3.099999999999965
 30
0.0
 11
5.600000000000079
 21
-3.099999999999965
 31
0.0
  0
LINE
  5
12991
330
1294F
100
AcDbEntity
  8
0
100
AcDbLine
 10
5.600000000000079
 20
-2.800000000000011
 30
0.0
 11
7.100000000000079
 21
-2.800000000000011
 31
0.0
  0
LINE
  5
12992
330
1294F
100
AcDbEntity
  8
0
100
AcDbLine
 10
9.6400000000001
 20
-5.800000000000011
 30
0.0
 11
9.6400000000001
 21
-2.800000000000011
 31
0.0
  0
LINE
  5
12993
330
1294F
100
AcDbEntity
  8
SUNPOU
100
AcDbLine
 10
9.6400000000001
 20
-3.099999999999965
 30
0.0
 11
10.14000000000004
 21
-3.099999999999965
 31
0.0
  0
LINE
  5
12994
330
1294F
100
AcDbEntity
  8
0
100
AcDbLine
 10
9.640000000000156
 20
-4.299999999999897
 30
0.0
 11
11.15000000000003
 21
-4.299999999999954
 31
0.0
  0
LINE
  5
12995
330
1294F
100
AcDbEntity
  8
SUNPOU
100
AcDbLine
 10
10.1400000000001
 20
-4.299999999999897
 30
0.0
 11
10.14000000000004
 21
-3.099999999999965
 31
0.0
  0
LINE
  5
12996
330
1294F
100
AcDbEntity
  8
SUNPOU
100
AcDbLine
 10
8.590000000000088
 20
5.0
 30
0.0
 11
9.190000000000111
 21
5.0
 31
0.0
  0
LINE
  5
12997
330
1294F
100
AcDbEntity
  8
SUNPOU
100
AcDbLine
 10
1.57000000000005
 20
4.300000000000011
 30
0.0
 11
1.57000000000005
 21
5.0
 31
0.0
  0
LINE
  5
12998
330
1294F
100
AcDbEntity
  8
SUNPOU
100
AcDbLine
 10
3.510000000000047
 20
5.0
 30
0.0
 11
4.11000000000007
 21
5.0
 31
0.0
  0
LINE
  5
12999
330
1294F
100
AcDbEntity
  8
SUNPOU
100
AcDbLine
 10
3.50999999999999
 20
4.300000000000011
 30
0.0
 11
3.510000000000047
 21
5.0
 31
0.0
  0
LINE
  5
1299A
330
1294F
100
AcDbEntity
  8
SUNPOU
100
AcDbLine
 10
4.11000000000007
 20
4.300000000000011
 30
0.0
 11
4.11000000000007
 21
5.0
 31
0.0
  0
LINE
  5
1299B
330
1294F
100
AcDbEntity
  8
SUNPOU
100
AcDbLine
 10
0.9699999999999704
 20
4.300000000000011
 30
0.0
 11
0.9700000000000272
 21
5.0
 31
0.0
  0
LINE
  5
1299C
330
1294F
100
AcDbEntity
  8
SUNPOU
100
AcDbLine
 10
0.9700000000000272
 20
5.0
 30
0.0
 11
1.57000000000005
 21
5.0
 31
0.0
  0
LINE
  5
1299D
330
1294F
100
AcDbEntity
  8
SUNPOU
100
AcDbLine
 10
6.050000000000068
 20
5.0
 30
0.0
 11
6.65000000000009
 21
5.0
 31
0.0
  0
LINE
  5
1299E
330
1294F
100
AcDbEntity
  8
SUNPOU
100
AcDbLine
 10
6.050000000000011
 20
4.300000000000068
 30
0.0
 11
6.050000000000068
 21
5.0
 31
0.0
  0
LINE
  5
1299F
330
1294F
100
AcDbEntity
  8
SUNPOU
100
AcDbLine
 10
6.65000000000009
 20
4.300000000000068
 30
0.0
 11
6.65000000000009
 21
5.0
 31
0.0
  0
LINE
  5
129A0
330
1294F
100
AcDbEntity
  8
SUNPOU
100
AcDbLine
 10
8.590000000000031
 20
4.300000000000068
 30
0.0
 11
8.590000000000088
 21
5.0
 31
0.0
  0
LINE
  5
129A1
330
1294F
100
AcDbEntity
  8
SUNPOU
100
AcDbLine
 10
9.190000000000111
 20
4.300000000000068
 30
0.0
 11
9.190000000000111
 21
5.0
 31
0.0
  0
ENDBLK
  5
129A2
330
1294F
100
AcDbEntity
  8
0
100
AcDbBlockEnd
  0
BLOCK
  5
129A4
330
129A3
100
AcDbEntity
  8
0
100
AcDbBlockBegin
  2
A$C72C704CE
 70
     0
 10
0.0
 20
0.0
 30
0.0
  3
A$C72C704CE
  1

  0
LINE
  5
129A5
330
129A3
100
AcDbEntity
  8
0
100
AcDbLine
 10
4.499999498031911
 20
-0.0000004476620461
 30
0.0
 11
4.499999498031911
 21
9.999999552337953
 31
0.0
  0
CIRCLE
  5
129A6
330
129A3
100
AcDbEntity
  8
SUNPOU
100
AcDbCircle
 10
1.499999498031911
 20
2.459999552337876
 30
0.0
 40
0.5
  0
LINE
  5
129A7
330
129A3
100
AcDbEntity
  8
0
100
AcDbLine
 10
-0.0000005019680884
 20
9.999999552337953
 30
0.0
 11
-0.0000005019680884
 21
-0.0000004476620461
 31
0.0
  0
LINE
  5
129A8
330
129A3
100
AcDbEntity
  8
0
100
AcDbLine
 10
2.6999994980319
 20
9.999999552337953
 30
0.0
 11
2.6999994980319
 21
-0.0000004476620461
 31
0.0
  0
LINE
  5
129A9
330
129A3
100
AcDbEntity
  8
0
100
AcDbLine
 10
4.499999498031911
 20
-0.0000004476620461
 30
0.0
 11
-0.0000005019680884
 21
-0.0000004476620461
 31
0.0
  0
CIRCLE
  5
129AA
330
129A3
100
AcDbEntity
  8
SUNPOU
100
AcDbCircle
 10
1.499999498031911
 20
4.999999552337897
 30
0.0
 40
0.5
  0
CIRCLE
  5
129AB
330
129A3
100
AcDbEntity
  8
SUNPOU
100
AcDbCircle
 10
1.499999498031911
 20
7.539999552337917
 30
0.0
 40
0.5
  0
LINE
  5
129AC
330
129A3
100
AcDbEntity
  8
0
100
AcDbLine
 10
4.499999498031911
 20
9.999999552337953
 30
0.0
 11
-0.0000005019680884
 21
9.999999552337953
 31
0.0
  0
ENDBLK
  5
129AD
330
129A3
100
AcDbEntity
  8
0
100
AcDbBlockEnd
  0
BLOCK
  5
129AF
330
129AE
100
AcDbEntity
  8
0
100
AcDbBlockBegin
  2
A$C47EB25E8
 70
     0
 10
0.0
 20
0.0
 30
0.0
  3
A$C47EB25E8
  1

  0
LINE
  5
129B0
330
129AE
100
AcDbEntity
  8
0
100
AcDbLine
 10
0.0000002726469575
 20
40.49999992176167
 30
0.0
 11
0.0000002726469575
 21
-0.0000000782383296
 31
0.0
  0
LINE
  5
129B1
330
129AE
100
AcDbEntity
  8
0
100
AcDbLine
 10
8.250000272646957
 20
32.49999992176167
 30
0.0
 11
8.250000272646957
 21
7.99999992176167
 31
0.0
  0
LINE
  5
129B2
330
129AE
100
AcDbEntity
  8
0
100
AcDbLine
 10
48.50000027264695
 20
-0.0000000782383296
 30
0.0
 11
48.50000027264695
 21
40.49999992176167
 31
0.0
  0
LINE
  5
129B3
330
129AE
100
AcDbEntity
  8
0
100
AcDbLine
 10
40.25000027264695
 20
32.49999992176167
 30
0.0
 11
40.25000027264695
 21
7.99999992176167
 31
0.0
  0
LINE
  5
129B4
330
129AE
100
AcDbEntity
  8
KAGESEN
100
AcDbLine
 10
8.800000272646968
 20
29.79999992176168
 30
0.0
 11
8.800000272646968
 21
8.99999992176167
 31
0.0
  0
LINE
  5
129B5
330
129AE
100
AcDbEntity
  8
KAGESEN
100
AcDbLine
 10
8.000000272646957
 20
28.99999992176168
 30
0.0
 11
8.000000272646957
 21
8.99999992176167
 31
0.0
  0
LINE
  5
129B6
330
129AE
100
AcDbEntity
  8
KAGESEN
100
AcDbLine
 10
39.70000027264695
 20
8.99999992176167
 30
0.0
 11
39.70000027264695
 21
29.79999992176168
 31
0.0
  0
LINE
  5
129B7
330
129AE
100
AcDbEntity
  8
KAGESEN
100
AcDbLine
 10
40.50000027264696
 20
8.99999992176167
 30
0.0
 11
40.50000027264696
 21
28.99999992176168
 31
0.0
  0
LINE
  5
129B8
330
129AE
100
AcDbEntity
  8
0
100
AcDbLine
 10
0.0000002726469575
 20
-0.0000000782383296
 30
0.0
 11
48.50000027264695
 21
-0.0000000782383296
 31
0.0
  0
LINE
  5
129B9
330
129AE
100
AcDbEntity
  8
0
100
AcDbLine
 10
8.250000272646957
 20
9.49999992176167
 30
0.0
 11
40.25000027264695
 21
9.49999992176167
 31
0.0
  0
LINE
  5
129BA
330
129AE
100
AcDbEntity
  8
0
100
AcDbLine
 10
8.250000272646957
 20
7.99999992176167
 30
0.0
 11
40.25000027264695
 21
7.99999992176167
 31
0.0
  0
TEXT
  5
129BB
330
129AE
100
AcDbEntity
  8
SUNPOU
100
AcDbText
 10
6.500000272646957
 20
3.499999821969993
 30
0.0
 40
2.0
  1
17V
100
AcDbText
  0
LINE
  5
129BC
330
129AE
100
AcDbEntity
  8
KAGESEN
100
AcDbLine
 10
8.800000272646968
 20
8.99999992176167
 30
0.0
 11
8.000000272646957
 21
8.99999992176167
 31
0.0
  0
CIRCLE
  5
129BD
330
129AE
100
AcDbEntity
  8
KAGESEN
100
AcDbCircle
 10
9.250000272646957
 20
6.899999921761668
 30
0.0
 40
0.5
  0
CIRCLE
  5
129BE
330
129AE
100
AcDbEntity
  8
KAGESEN
100
AcDbCircle
 10
31.75000027264696
 20
6.899999921761668
 30
0.0
 40
0.5
  0
TEXT
  5
129BF
330
129AE
100
AcDbEntity
  8
SUNPOU
100
AcDbText
 10
22.50000027264696
 20
3.499999821969993
 30
0.0
 40
2.0
  1
0V
100
AcDbText
  0
CIRCLE
  5
129C0
330
129AE
100
AcDbEntity
  8
KAGESEN
100
AcDbCircle
 10
16.75000027264696
 20
6.899999921761668
 30
0.0
 40
0.5
  0
CIRCLE
  5
129C1
330
129AE
100
AcDbEntity
  8
KAGESEN
100
AcDbCircle
 10
24.25000027264696
 20
6.899999921761668
 30
0.0
 40
0.5
  0
CIRCLE
  5
129C2
330
129AE
100
AcDbEntity
  8
KAGESEN
100
AcDbCircle
 10
39.25000027264696
 20
6.899999921761668
 30
0.0
 40
0.5
  0
TEXT
  5
129C3
330
129AE
100
AcDbEntity
  8
SUNPOU
100
AcDbText
 10
36.50000027264696
 20
3.499999821969993
 30
0.0
 40
2.0
  1
17V
100
AcDbText
  0
LINE
  5
129C4
330
129AE
100
AcDbEntity
  8
KAGESEN
100
AcDbLine
 10
40.50000027264696
 20
8.99999992176167
 30
0.0
 11
39.70000027264701
 21
8.99999992176167
 31
0.0
  0
LINE
  5
129C5
330
129AE
100
AcDbEntity
  8
0
100
AcDbLine
 10
48.50000027264695
 20
40.49999992176167
 30
0.0
 11
0.0000002726469575
 21
40.49999992176167
 31
0.0
  0
TEXT
  5
129C6
330
129AE
100
AcDbEntity
  8
SUNPOU
100
AcDbText
 10
14.50000027264696
 20
34.99999982197
 30
0.0
 40
2.0
  1
0V
100
AcDbText
  0
LINE
  5
129C7
330
129AE
100
AcDbEntity
  8
0
100
AcDbLine
 10
40.25000027264695
 20
32.49999992176167
 30
0.0
 11
8.250000272646957
 21
32.49999992176167
 31
0.0
  0
LINE
  5
129C8
330
129AE
100
AcDbEntity
  8
0
100
AcDbLine
 10
40.25000027264695
 20
30.99999992176167
 30
0.0
 11
8.250000272646957
 21
30.99999992176167
 31
0.0
  0
LINE
  5
129C9
330
129AE
100
AcDbEntity
  8
KAGESEN
100
AcDbLine
 10
45.70000027264694
 20
38.19999992176166
 30
0.0
 11
2.800000272646968
 21
38.19999992176168
 31
0.0
  0
LINE
  5
129CA
330
129AE
100
AcDbEntity
  8
KAGESEN
100
AcDbLine
 10
46.50000027264695
 20
38.99999992176167
 30
0.0
 11
2.000000272646957
 21
38.99999992176167
 31
0.0
  0
LINE
  5
129CB
330
129AE
100
AcDbEntity
  8
KAGESEN
100
AcDbLine
 10
2.800000272646968
 20
38.19999992176166
 30
0.0
 11
2.800000272646968
 21
29.79999992176167
 31
0.0
  0
LINE
  5
129CC
330
129AE
100
AcDbEntity
  8
KAGESEN
100
AcDbLine
 10
2.000000272646957
 20
38.99999992176167
 30
0.0
 11
2.000000272646957
 21
28.99999992176168
 31
0.0
  0
LINE
  5
129CD
330
129AE
100
AcDbEntity
  8
KAGESEN
100
AcDbLine
 10
8.000000272646957
 20
28.99999992176168
 30
0.0
 11
2.000000272646957
 21
28.99999992176167
 31
0.0
  0
LINE
  5
129CE
330
129AE
100
AcDbEntity
  8
KAGESEN
100
AcDbLine
 10
8.800000272646968
 20
29.79999992176168
 30
0.0
 11
2.800000272646968
 21
29.79999992176167
 31
0.0
  0
CIRCLE
  5
129CF
330
129AE
100
AcDbEntity
  8
KAGESEN
100
AcDbCircle
 10
9.250000272646957
 20
34.39999992176168
 30
0.0
 40
0.5
  0
LINE
  5
129D0
330
129AE
100
AcDbEntity
  8
KAGESEN
100
AcDbLine
 10
45.70000027264694
 20
29.79999992176167
 30
0.0
 11
45.70000027264694
 21
38.19999992176168
 31
0.0
  0
LINE
  5
129D1
330
129AE
100
AcDbEntity
  8
KAGESEN
100
AcDbLine
 10
46.50000027264695
 20
28.99999992176167
 30
0.0
 11
46.50000027264695
 21
38.99999992176167
 31
0.0
  0
LINE
  5
129D2
330
129AE
100
AcDbEntity
  8
SUNPOU
100
AcDbLine
 10
24.25000027264696
 20
17.24999992176167
 30
0.0
 11
24.25000027264696
 21
23.24999992176167
 31
0.0
  0
LINE
  5
129D3
330
129AE
100
AcDbEntity
  8
SUNPOU
100
AcDbLine
 10
21.25000027264696
 20
20.24999992176167
 30
0.0
 11
27.25000027264696
 21
20.24999992176167
 31
0.0
  0
LINE
  5
129D4
330
129AE
100
AcDbEntity
  8
KAGESEN
100
AcDbLine
 10
46.50000027264695
 20
28.99999992176168
 30
0.0
 11
40.50000027264696
 21
28.99999992176168
 31
0.0
  0
LINE
  5
129D5
330
129AE
100
AcDbEntity
  8
KAGESEN
100
AcDbLine
 10
45.70000027264694
 20
29.79999992176167
 30
0.0
 11
39.70000027264695
 21
29.79999992176168
 31
0.0
  0
CIRCLE
  5
129D6
330
129AE
100
AcDbEntity
  8
KAGESEN
100
AcDbCircle
 10
31.75000027264696
 20
34.39999992176168
 30
0.0
 40
0.5
  0
TEXT
  5
129D7
330
129AE
100
AcDbEntity
  8
SUNPOU
100
AcDbText
 10
27.50000027264696
 20
34.99999982197
 30
0.0
 40
2.0
  1
100V
100
AcDbText
  0
CIRCLE
  5
129D8
330
129AE
100
AcDbEntity
  8
KAGESEN
100
AcDbCircle
 10
16.75000027264696
 20
34.39999992176168
 30
0.0
 40
0.5
  0
CIRCLE
  5
129D9
330
129AE
100
AcDbEntity
  8
KAGESEN
100
AcDbCircle
 10
24.25000027264696
 20
34.39999992176168
 30
0.0
 40
0.5
  0
CIRCLE
  5
129DA
330
129AE
100
AcDbEntity
  8
KAGESEN
100
AcDbCircle
 10
39.25000027264696
 20
34.39999992176168
 30
0.0
 40
0.5
  0
TEXT
  5
129DB
330
129AE
100
AcDbEntity
  8
SUNPOU
100
AcDbText
 10
35.00000027264696
 20
34.99999982197
 30
0.0
 40
2.0
  1
110V
100
AcDbText
  0
ENDBLK
  5
129DC
330
129AE
100
AcDbEntity
  8
0
100
AcDbBlockEnd
  0
BLOCK
  5
129DE
330
129DD
100
AcDbEntity
  8
0
100
AcDbBlockBegin
  2
A$C1B0B3185
 70
     0
 10
0.0
 20
0.0
 30
0.0
  3
A$C1B0B3185
  1

  0
LINE
  5
129DF
330
129DD
100
AcDbEntity
  8
SUNPOU
100
AcDbLine
 10
0.2499996940888707
 20
2.000000149679777
 30
0.0
 11
3.249999694088813
 21
2.000000149679777
 31
0.0
  0
LINE
  5
129E0
330
129DD
100
AcDbEntity
  8
SUNPOU
100
AcDbLine
 10
-0.0000003059111577
 20
1.000000149679777
 30
0.0
 11
3.499999694088842
 21
1.000000149679777
 31
0.0
  0
LINE
  5
129E1
330
129DD
100
AcDbEntity
  8
SUNPOU
100
AcDbLine
 10
2.999999694088842
 20
0.0000001496797779
 30
0.0
 11
0.4999996940888423
 21
0.0000001496797779
 31
0.0
  0
LINE
  5
129E2
330
129DD
100
AcDbEntity
  8
SUNPOU
100
AcDbLine
 10
0.4999996940888707
 20
2.000000149679777
 30
0.0
 11
0.4999996940888423
 21
0.0000001496797779
 31
0.0
  0
LINE
  5
129E3
330
129DD
100
AcDbEntity
  8
SUNPOU
100
AcDbLine
 10
0.2499996940888707
 20
2.000000149679777
 30
0.0
 11
0.2499996940888423
 21
0.0000001496797779
 31
0.0
  0
LINE
  5
129E4
330
129DD
100
AcDbEntity
  8
SUNPOU
100
AcDbLine
 10
0.4999996940888423
 20
0.0000001496797779
 30
0.0
 11
-0.0000003059111577
 21
0.0000001496797779
 31
0.0
  0
LINE
  5
129E5
330
129DD
100
AcDbEntity
  8
SUNPOU
100
AcDbLine
 10
-0.0000003059111577
 20
1.000000149679777
 30
0.0
 11
-0.0000003059111577
 21
0.0000001496798063
 31
0.0
  0
LINE
  5
129E6
330
129DD
100
AcDbEntity
  8
SUNPOU
100
AcDbLine
 10
3.249999694088813
 20
2.000000149679777
 30
0.0
 11
3.249999694088842
 21
0.0000001496798347
 31
0.0
  0
LINE
  5
129E7
330
129DD
100
AcDbEntity
  8
SUNPOU
100
AcDbLine
 10
2.999999694088813
 20
2.000000149679777
 30
0.0
 11
2.999999694088842
 21
0.0000001496797779
 31
0.0
  0
LINE
  5
129E8
330
129DD
100
AcDbEntity
  8
SUNPOU
100
AcDbLine
 10
3.499999694088813
 20
0.0000001496798063
 30
0.0
 11
2.999999694088813
 21
0.0000001496797779
 31
0.0
  0
LINE
  5
129E9
330
129DD
100
AcDbEntity
  8
SUNPOU
100
AcDbLine
 10
3.499999694088842
 20
1.000000149679777
 30
0.0
 11
3.499999694088813
 21
0.0000001496798063
 31
0.0
  0
ENDBLK
  5
129EA
330
129DD
100
AcDbEntity
  8
0
100
AcDbBlockEnd
  0
BLOCK
  5
12A1C
330
12A1B
100
AcDbEntity
  8
0
100
AcDbBlockBegin
  2
ML-800S1H-2P-2
 70
     0
 10
0.0
 20
0.0
 30
0.0
  3
ML-800S1H-2P-2
  1

  0
LINE
  5
12A1D
330
12A1B
100
AcDbEntity
  8
PARTS
100
AcDbLine
 10
-0.0000000000001137
 20
5.300000000000011
 30
0.0
 11
1.0
 21
5.300000000000011
 31
0.0
  0
LINE
  5
12A1E
330
12A1B
100
AcDbEntity
  8
PARTS
100
AcDbLine
 10
-0.0000000000001137
 20
10.30000000000001
 30
0.0
 11
1.0
 21
10.30000000000001
 31
0.0
  0
LINE
  5
12A1F
330
12A1B
100
AcDbEntity
  8
PARTS
100
AcDbLine
 10
0.0
 20
11.5
 30
0.0
 11
16.5
 21
11.5
 31
0.0
  0
LINE
  5
12A20
330
12A1B
100
AcDbEntity
  8
PARTS
100
AcDbLine
 10
0.0
 20
6.5
 30
0.0
 11
16.5
 21
6.5
 31
0.0
  0
LINE
  5
12A21
330
12A1B
100
AcDbEntity
  8
PARTS
100
AcDbLine
 10
0.0
 20
1.5
 30
0.0
 11
16.5
 21
1.5
 31
0.0
  0
LINE
  5
12A22
330
12A1B
100
AcDbEntity
  8
PARTS
100
AcDbLine
 10
0.0
 20
0.0
 30
0.0
 11
16.5
 21
0.0
 31
0.0
  0
LINE
  5
12A23
330
12A1B
100
AcDbEntity
  8
PARTS
100
AcDbLine
 10
0.0
 20
11.5
 30
0.0
 11
0.0
 21
0.0
 31
0.0
  0
LINE
  5
12A24
330
12A1B
100
AcDbEntity
  8
PARTS
100
AcDbLine
 10
16.5
 20
11.5
 30
0.0
 11
16.5
 21
0.0
 31
0.0
  0
LINE
  5
12A25
330
12A1B
100
AcDbEntity
  8
PARTS
100
AcDbLine
 10
1.999999999999971
 20
11.5
 30
0.0
 11
2.0
 21
0.0
 31
0.0
  0
CIRCLE
  5
12A26
330
12A1B
100
AcDbEntity
  8
PARTS
100
AcDbCircle
 10
6.0
 20
9.0
 30
0.0
 40
0.65
  0
CIRCLE
  5
12A27
330
12A1B
100
AcDbEntity
  8
PARTS
100
AcDbCircle
 10
6.0
 20
4.0
 30
0.0
 40
0.65
  0
CIRCLE
  5
12A28
330
12A1B
100
AcDbEntity
  8
PARTS
100
AcDbCircle
 10
11.0
 20
9.0
 30
0.0
 40
0.65
  0
CIRCLE
  5
12A29
330
12A1B
100
AcDbEntity
  8
PARTS
100
AcDbCircle
 10
11.0
 20
4.0
 30
0.0
 40
0.65
  0
LINE
  5
12A2A
330
12A1B
100
AcDbEntity
  8
PARTS
100
AcDbLine
 10
1.0
 20
2.25
 30
0.0
 11
2.0
 21
2.25
 31
0.0
  0
LINE
  5
12A2B
330
12A1B
100
AcDbEntity
  8
PARTS
100
AcDbLine
 10
1.0
 20
9.550000000000011
 30
0.0
 11
2.0
 21
9.550000000000011
 31
0.0
  0
LINE
  5
12A2C
330
12A1B
100
AcDbEntity
  8
PARTS
100
AcDbLine
 10
1.0
 20
7.25
 30
0.0
 11
2.0
 21
7.25
 31
0.0
  0
LINE
  5
12A2D
330
12A1B
100
AcDbEntity
  8
PARTS
100
AcDbLine
 10
1.0
 20
4.550000000000011
 30
0.0
 11
2.0
 21
4.550000000000011
 31
0.0
  0
LINE
  5
12A2E
330
12A1B
100
AcDbEntity
  8
PARTS
100
AcDbLine
 10
1.0
 20
5.300000000000011
 30
0.0
 11
1.0
 21
1.5
 31
0.0
  0
LINE
  5
12A2F
330
12A1B
100
AcDbEntity
  8
PARTS
100
AcDbLine
 10
1.0
 20
10.30000000000001
 30
0.0
 11
1.0
 21
6.5
 31
0.0
  0
ENDBLK
  5
12A30
330
12A1B
100
AcDbEntity
  8
0
100
AcDbBlockEnd
  0
BLOCK
  5
12A32
330
12A31
100
AcDbEntity
  8
0
100
AcDbBlockBegin
  2
CT-20EP-2
 70
     0
 10
0.0
 20
0.0
 30
0.0
  3
CT-20EP-2
  1

  0
LINE
  5
12A33
330
12A31
100
AcDbEntity
  8
PARTS
100
AcDbLine
 10
0.0
 20
2.5
 30
0.0
 11
0.0
 21
-2.500000000000014
 31
0.0
  0
LINE
  5
12A34
330
12A31
100
AcDbEntity
  8
PARTS
100
AcDbLine
 10
19.0
 20
2.5
 30
0.0
 11
19.0
 21
-2.500000000000014
 31
0.0
  0
LINE
  5
12A35
330
12A31
100
AcDbEntity
  8
PARTS
100
AcDbLine
 10
0.0
 20
-2.500000000000014
 30
0.0
 11
19.0
 21
-2.500000000000014
 31
0.0
  0
LINE
  5
12A36
330
12A31
100
AcDbEntity
  8
PARTS
100
AcDbLine
 10
0.0
 20
2.5
 30
0.0
 11
19.0
 21
2.5
 31
0.0
  0
LINE
  5
12A37
330
12A31
100
AcDbEntity
  8
PARTS
100
AcDbLine
 10
-1.5
 20
-1.25
 30
0.0
 11
0.0
 21
-1.25
 31
0.0
  0
LINE
  5
12A38
330
12A31
100
AcDbEntity
  8
PARTS
100
AcDbLine
 10
-1.5
 20
1.25
 30
0.0
 11
-1.5
 21
-1.25
 31
0.0
  0
LINE
  5
12A39
330
12A31
100
AcDbEntity
  8
PARTS
100
AcDbLine
 10
0.0
 20
1.25
 30
0.0
 11
-1.5
 21
1.25
 31
0.0
  0
ENDBLK
  5
12A3A
330
12A31
100
AcDbEntity
  8
0
100
AcDbBlockEnd
  0
BLOCK
  5
12A3C
330
12A3B
100
AcDbEntity
  8
0
100
AcDbBlockBegin
  2
APE1F-6M-10-Z-2
 70
     0
 10
0.0
 20
0.0
 30
0.0
  3
APE1F-6M-10-Z-2
  1

  0
LINE
  5
12A3D
330
12A3B
100
AcDbEntity
  8
PARTS
100
AcDbLine
 10
4.0
 20
2.0
 30
0.0
 11
8.0
 21
2.0
 31
0.0
  0
LINE
  5
12A3E
330
12A3B
100
AcDbEntity
  8
PARTS
100
AcDbLine
 10
8.0
 20
-2.0
 30
0.0
 11
4.0
 21
-2.0
 31
0.0
  0
LINE
  5
12A3F
330
12A3B
100
AcDbEntity
  8
PARTS
100
AcDbLine
 10
4.0
 20
-2.0
 30
0.0
 11
4.0
 21
2.0
 31
0.0
  0
LINE
  5
12A40
330
12A3B
100
AcDbEntity
  8
PARTS
100
AcDbLine
 10
0.0
 20
-1.25
 30
0.0
 11
4.0
 21
-1.25
 31
0.0
  0
LINE
  5
12A41
330
12A3B
100
AcDbEntity
  8
PARTS
100
AcDbLine
 10
0.0
 20
1.25
 30
0.0
 11
0.0
 21
-1.25
 31
0.0
  0
LINE
  5
12A42
330
12A3B
100
AcDbEntity
  8
PARTS
100
AcDbLine
 10
4.0
 20
1.25
 30
0.0
 11
0.0
 21
1.25
 31
0.0
  0
LINE
  5
12A43
330
12A3B
100
AcDbEntity
  8
PARTS
100
AcDbLine
 10
16.0
 20
4.75
 30
0.0
 11
16.0
 21
-4.75
 31
0.0
  0
LINE
  5
12A44
330
12A3B
100
AcDbEntity
  8
PARTS
100
AcDbLine
 10
8.0
 20
-4.75
 30
0.0
 11
8.0
 21
4.75
 31
0.0
  0
LINE
  5
12A45
330
12A3B
100
AcDbEntity
  8
PARTS
100
AcDbLine
 10
16.0
 20
-4.75
 30
0.0
 11
8.0
 21
-4.75
 31
0.0
  0
LINE
  5
12A46
330
12A3B
100
AcDbEntity
  8
PARTS
100
AcDbLine
 10
16.0
 20
-2.23999999999998
 30
0.0
 11
16.69999999999999
 21
-2.23999999999998
 31
0.0
  0
LINE
  5
12A47
330
12A3B
100
AcDbEntity
  8
PARTS
100
AcDbLine
 10
16.69999999999999
 20
-2.23999999999998
 30
0.0
 11
16.69999999999999
 21
-2.840000000000003
 31
0.0
  0
LINE
  5
12A48
330
12A3B
100
AcDbEntity
  8
PARTS
100
AcDbLine
 10
16.69999999999999
 20
-2.840000000000003
 30
0.0
 11
16.0
 21
-2.840000000000003
 31
0.0
  0
LINE
  5
12A49
330
12A3B
100
AcDbEntity
  8
PARTS
100
AcDbLine
 10
8.0
 20
4.75
 30
0.0
 11
16.0
 21
4.75
 31
0.0
  0
LINE
  5
12A4A
330
12A3B
100
AcDbEntity
  8
PARTS
100
AcDbLine
 10
16.0
 20
2.840000000000003
 30
0.0
 11
16.69999999999999
 21
2.840000000000003
 31
0.0
  0
LINE
  5
12A4B
330
12A3B
100
AcDbEntity
  8
PARTS
100
AcDbLine
 10
16.69999999999999
 20
2.840000000000003
 30
0.0
 11
16.69999999999999
 21
2.23999999999998
 31
0.0
  0
LINE
  5
12A4C
330
12A3B
100
AcDbEntity
  8
PARTS
100
AcDbLine
 10
16.69999999999999
 20
2.23999999999998
 30
0.0
 11
16.0
 21
2.23999999999998
 31
0.0
  0
LINE
  5
12A4D
330
12A3B
100
AcDbEntity
  8
PARTS
100
AcDbLine
 10
16.69999999999999
 20
-0.3000000000000114
 30
0.0
 11
16.0
 21
-0.3000000000000114
 31
0.0
  0
LINE
  5
12A4E
330
12A3B
100
AcDbEntity
  8
PARTS
100
AcDbLine
 10
16.69999999999999
 20
0.3000000000000114
 30
0.0
 11
16.69999999999999
 21
-0.3000000000000114
 31
0.0
  0
LINE
  5
12A4F
330
12A3B
100
AcDbEntity
  8
PARTS
100
AcDbLine
 10
16.0
 20
0.3000000000000114
 30
0.0
 11
16.69999999999999
 21
0.3000000000000114
 31
0.0
  0
ENDBLK
  5
12A50
330
12A3B
100
AcDbEntity
  8
0
100
AcDbBlockEnd
  0
ENDSEC
  0
SECTION
  2
ENTITIES
  0
LINE
  5
C9
330
1A
100
AcDbEntity
  8
WAKU
 62
     7
100
AcDbLine
 10
405.0
 20
280.0
 30
0.0
 11
20.0
 21
280.0
 31
0.0
  0
LINE
  5
CB
330
1A
100
AcDbEntity
  8
WAKU
 62
     7
100
AcDbLine
 10
20.0
 20
5.0
 30
0.0
 11
405.0
 21
5.0
 31
0.0
  0
LINE
  5
D4
330
1A
100
AcDbEntity
  8
WAKU
100
AcDbLine
 10
405.0
 20
5.0
 30
0.0
 11
405.0
 21
280.0
 31
0.0
  0
LINE
  5
D5
330
1A
100
AcDbEntity
  8
WAKU
100
AcDbLine
 10
20.0
 20
280.0
 30
0.0
 11
20.0
 21
5.0
 31
0.0
  0
LINE
  5
D6
330
1A
100
AcDbEntity
  8
WAKU
 62
     7
100
AcDbLine
 10
225.0
 20
50.0
 30
0.0
 11
405.0
 21
50.0
 31
0.0
  0
LINE
  5
D7
330
1A
100
AcDbEntity
  8
WAKU
100
AcDbLine
 10
225.0
 20
5.0
 30
0.0
 11
225.0
 21
50.0
 31
0.0
  0
LINE
  5
D8
330
1A
100
AcDbEntity
  8
WAKU
100
AcDbLine
 10
345.0
 20
5.0
 30
0.0
 11
345.0
 21
50.0
 31
0.0
  0
LINE
  5
D9
330
1A
100
AcDbEntity
  8
WAKU
 62
     7
100
AcDbLine
 10
345.0
 20
15.0
 30
0.0
 11
405.0
 21
15.0
 31
0.0
  0
LINE
  5
DA
330
1A
100
AcDbEntity
  8
WAKU
 62
     7
100
AcDbLine
 10
345.0
 20
22.0
 30
0.0
 11
405.0
 21
22.0
 31
0.0
  0
LINE
  5
DB
330
1A
100
AcDbEntity
  8
WAKU
 62
     7
100
AcDbLine
 10
345.0
 20
29.0
 30
0.0
 11
405.0
 21
29.0
 31
0.0
  0
LINE
  5
DC
330
1A
100
AcDbEntity
  8
WAKU
 62
     7
100
AcDbLine
 10
345.0
 20
36.0
 30
0.0
 11
405.0
 21
36.0
 31
0.0
  0
LINE
  5
DD
330
1A
100
AcDbEntity
  8
WAKU
 62
     7
100
AcDbLine
 10
345.0
 20
43.0
 30
0.0
 11
405.0
 21
43.0
 31
0.0
  0
LINE
  5
DE
330
1A
100
AcDbEntity
  8
WAKU
100
AcDbLine
 10
360.0
 20
15.0
 30
0.0
 11
360.0
 21
50.0
 31
0.0
  0
LINE
  5
DF
330
1A
100
AcDbEntity
  8
WAKU
100
AcDbLine
 10
352.0
 20
5.0
 30
0.0
 11
352.0
 21
15.0
 31
0.0
  0
LINE
  5
E0
330
1A
100
AcDbEntity
  8
WAKU
100
AcDbLine
 10
330.0
 20
13.0
 30
0.0
 11
330.0
 21
34.0
 31
0.0
  0
LINE
  5
E1
330
1A
100
AcDbEntity
  8
WAKU
100
AcDbLine
 10
315.0
 20
13.0
 30
0.0
 11
315.0
 21
34.0
 31
0.0
  0
LINE
  5
E2
330
1A
100
AcDbEntity
  8
WAKU
100
AcDbLine
 10
300.0
 20
34.0
 30
0.0
 11
300.0
 21
50.0
 31
0.0
  0
LINE
  5
E3
330
1A
100
AcDbEntity
  8
WAKU
100
AcDbLine
 10
285.0
 20
13.0
 30
0.0
 11
285.0
 21
50.0
 31
0.0
  0
LINE
  5
E4
330
1A
100
AcDbEntity
  8
WAKU
100
AcDbLine
 10
345.0
 20
40.0
 30
0.0
 11
285.0
 21
40.0
 31
0.0
  0
LINE
  5
E5
330
1A
100
AcDbEntity
  8
WAKU
100
AcDbLine
 10
345.0
 20
34.0
 30
0.0
 11
285.0
 21
34.0
 31
0.0
  0
LINE
  5
E6
330
1A
100
AcDbEntity
  8
WAKU
100
AcDbLine
 10
345.0
 20
28.0
 30
0.0
 11
285.0
 21
28.0
 31
0.0
  0
LINE
  5
E7
330
1A
100
AcDbEntity
  8
WAKU
100
AcDbLine
 10
345.0
 20
13.0
 30
0.0
 11
225.0
 21
13.0
 31
0.0
  0
MTEXT
  5
E9
330
1A
100
AcDbEntity
  8
WAKU
100
AcDbMText
 10
345.0
 20
43.0
 30
0.0
 40
4.0
 41
15.0
 71
     1
 72
     5
  1

 73
     1
 44
1.0
1001
ACAD
1000
MTEXTBEGIN
1070
    73
1070
     1
1070
    44
1040
1.0
1070
    74
1070
     0
1000
MTEXTEND
  0
MTEXT
  5
EA
330
1A
100
AcDbEntity
  8
WAKU
100
AcDbMText
 10
345.0
 20
49.0
 30
0.0
 40
4.0
 41
14.0
 71
     1
 72
     5
  1

 73
     1
 44
1.0
1001
ACAD
1000
MTEXTBEGIN
1070
    73
1070
     1
1070
    44
1040
1.0
1070
    74
1070
     0
1000
MTEXTEND
  0
MTEXT
  5
ED
330
1A
100
AcDbEntity
  8
WAKU
100
AcDbMText
 10
347.3192310662242
 20
34.48051906497278
 30
0.0
 40
3.0
 41
11.0
 71
     1
 72
     5
  1
部品表
 73
     1
 44
1.0
1001
ACAD
1000
MTEXTBEGIN
1070
    73
1070
     1
1070
    44
1040
1.0
1070
    74
1070
     0
1000
MTEXTEND
  0
MTEXT
  5
EE
330
1A
100
AcDbEntity
  8
WAKU
100
AcDbMText
 10
327.0
 20
82.0
 30
0.0
 40
3.0
 41
37.0
 71
     1
 72
     5
  1

 73
     1
 44
1.0
1001
ACAD
1000
MTEXTBEGIN
1070
    73
1070
     1
1070
    44
1040
1.0
1070
    74
1070
     0
1000
MTEXTEND
  0
MTEXT
  5
F0
330
1A
100
AcDbEntity
  8
WAKU
100
AcDbMText
 10
347.2
 20
47.7
 30
0.0
 40
3.0
 41
10.0
 71
     1
 72
     5
  1
機種名
 73
     1
 44
1.0
1001
ACAD
1000
MTEXTBEGIN
1070
    73
1070
     1
1070
    44
1040
1.0
1070
    74
1070
     0
1000
MTEXTEND
  0
MTEXT
  5
F1
330
1A
100
AcDbEntity
  8
WAKU
100
AcDbMText
 10
347.2999999999999
 20
40.69999999999999
 30
0.0
 40
3.0
 41
10.0
 71
     1
 72
     5
  1
部　名
 73
     1
 44
1.0
1001
ACAD
1000
MTEXTBEGIN
1070
    73
1070
     1
1070
    44
1040
1.0
1070
    74
1070
     0
1000
MTEXTEND
  0
MTEXT
  5
F2
330
1A
100
AcDbEntity
  8
WAKU
100
AcDbMText
 10
346.0
 20
27.0
 30
0.0
 40
3.0
 41
10.0
 71
     1
 72
     5
  1
ｽﾄｯｸNo.
 73
     1
 44
1.0
1001
ACAD
1000
MTEXTBEGIN
1070
    73
1070
     1
1070
    44
1040
1.0
1070
    74
1070
     0
1000
MTEXTEND
  0
MTEXT
  5
F3
330
1A
100
AcDbEntity
  8
WAKU
100
AcDbMText
 10
347.0
 20
20.0
 30
0.0
 40
3.0
 41
12.0
 71
     1
 72
     5
  1
適用ﾛｯﾄ
 73
     1
 44
1.0
1001
ACAD
1000
MTEXTBEGIN
1070
    73
1070
     1
1070
    44
1040
1.0
1070
    74
1070
     0
1000
MTEXTEND
  0
MTEXT
  5
F5
330
1A
100
AcDbEntity
  8
WAKU
100
AcDbMText
 10
330.0
 20
85.0
 30
0.0
 40
3.0
 41
12.0
 71
     1
 72
     5
  1

 73
     1
 44
1.0
1001
ACAD
1000
MTEXTBEGIN
1070
    73
1070
     1
1070
    44
1040
1.0
1070
    74
1070
     0
1000
MTEXTEND
  0
MTEXT
  5
FF
330
1A
100
AcDbEntity
  8
WAKU
100
AcDbMText
 10
271.0
 20
82.0
 30
0.0
 40
3.0
 41
74.0
 71
     1
 72
     5
  1

 73
     1
 44
1.0
1001
ACAD
1000
MTEXTBEGIN
1070
    73
1070
     1
1070
    44
1040
1.0
1070
    74
1070
     0
1000
MTEXTEND
  0
MTEXT
  5
106
330
1A
100
AcDbEntity
  8
WAKU
100
AcDbMText
 10
314.791664707496
 20
38.86071114661275
 30
0.0
 40
3.0
 41
13.6217958711934
 71
     1
 72
     5
  1
名　　称
 73
     1
 44
1.0
1001
ACAD
1000
MTEXTBEGIN
1070
    73
1070
     1
1070
    44
1040
1.0
1070
    74
1070
     0
1000
MTEXTEND
  0
LINE
  5
78B
330
1A
100
AcDbEntity
  8
WAKU
100
AcDbLine
 10
285.0
 20
17.0
 30
0.0
 11
225.0
 21
17.0
 31
0.0
  0
LINE
  5
78C
330
1A
100
AcDbEntity
  8
WAKU
100
AcDbLine
 10
285.0
 20
21.0
 30
0.0
 11
225.0
 21
21.0
 31
0.0
  0
LINE
  5
78D
330
1A
100
AcDbEntity
  8
WAKU
100
AcDbLine
 10
285.0
 20
25.0
 30
0.0
 11
225.0
 21
25.0
 31
0.0
  0
LINE
  5
78E
330
1A
100
AcDbEntity
  8
WAKU
100
AcDbLine
 10
285.0
 20
29.0
 30
0.0
 11
225.0
 21
29.0
 31
0.0
  0
LINE
  5
78F
330
1A
100
AcDbEntity
  8
WAKU
100
AcDbLine
 10
285.0
 20
33.0
 30
0.0
 11
225.0
 21
33.0
 31
0.0
  0
LINE
  5
790
330
1A
100
AcDbEntity
  8
WAKU
100
AcDbLine
 10
285.0
 20
37.0
 30
0.0
 11
225.0
 21
37.0
 31
0.0
  0
LINE
  5
791
330
1A
100
AcDbEntity
  8
WAKU
100
AcDbLine
 10
285.0
 20
41.0
 30
0.0
 11
225.0
 21
41.0
 31
0.0
  0
LINE
  5
792
330
1A
100
AcDbEntity
  8
WAKU
100
AcDbLine
 10
285.0
 20
45.0
 30
0.0
 11
225.0
 21
45.0
 31
0.0
  0
LINE
  5
794
330
1A
100
AcDbEntity
  8
WAKU
100
AcDbLine
 10
233.0
 20
13.0
 30
0.0
 11
233.0
 21
50.0
 31
0.0
  0
LINE
  5
795
330
1A
100
AcDbEntity
  8
WAKU
100
AcDbLine
 10
246.0
 20
13.0
 30
0.0
 11
246.0
 21
50.0
 31
0.0
  0
LINE
  5
796
330
1A
100
AcDbEntity
  8
WAKU
100
AcDbLine
 10
256.0
 20
13.0
 30
0.0
 11
256.0
 21
50.0
 31
0.0
  0
TEXT
  5
797
330
1A
100
AcDbEntity
  8
WAKU
100
AcDbText
 10
226.0
 20
46.0
 30
0.0
 40
3.0
  1
記号
100
AcDbText
  0
TEXT
  5
798
330
1A
100
AcDbEntity
  8
WAKU
100
AcDbText
 10
234.5
 20
46.0
 30
0.0
 40
3.0
  1
年月日
100
AcDbText
  0
TEXT
  5
799
330
1A
100
AcDbEntity
  8
WAKU
100
AcDbText
 10
248.0
 20
46.0
 30
0.0
 40
3.0
  1
担当
100
AcDbText
  0
TEXT
  5
79A
330
1A
100
AcDbEntity
  8
WAKU
100
AcDbText
 10
263.5
 20
46.0
 30
0.0
 40
3.0
  1
改連No.
100
AcDbText
  0
TEXT
  5
7CC
330
1A
100
AcDbEntity
  8
WAKU
100
AcDbText
 10
226.0
 20
13.5
 30
0.0
 40
3.0
  1
設置
100
AcDbText
  0
TEXT
  5
7CD
330
1A
100
AcDbEntity
  8
WAKU
100
AcDbText
 10
287.5
 20
35.5
 30
0.0
 40
3.0
  1
尺　度
 72
     4
 11
292.5
 21
37.0
 31
0.0
100
AcDbText
  0
LINE
  5
7CE
330
1A
100
AcDbEntity
  8
WAKU
100
AcDbLine
 10
298.0
 20
48.0
 30
0.0
 11
287.0
 21
42.0
 31
0.0
  0
TEXT
  5
7CF
330
1A
100
AcDbEntity
  8
WAKU
100
AcDbText
 10
346.5
 20
10.5
 30
0.0
 40
3.0
  1
図
100
AcDbText
  0
TEXT
  5
7D0
330
1A
100
AcDbEntity
  8
WAKU
100
AcDbText
 10
346.5
 20
6.0
 30
0.0
 40
3.0
  1
番
100
AcDbText
  0
TEXT
  5
7D1
330
1A
100
AcDbEntity
  8
WAKU
100
AcDbText
 10
256.5
 20
6.0
 30
0.0
 40
6.0
  1
東洋測器株式会社
100
AcDbText
  0
TEXT
  5
8C1
330
1A
100
AcDbEntity
  8
0
100
AcDbText
 10
293.0
 20
41.5
 30
0.0
 40
3.0
  1
1
100
AcDbText
  0
TEXT
  5
8C4
330
1A
100
AcDbEntity
  8
0
100
AcDbText
 10
312.5
 20
42.5
 30
0.0
 40
4.0
  1
外 形 図
100
AcDbText
  0
TEXT
  5
8C5
330
1A
100
AcDbEntity
  8
0
100
AcDbText
 10
363.5
 20
44.5
 30
0.0
 40
3.0
  1
LA-1022A
100
AcDbText
  0
TEXT
  5
8C6
330
1A
100
AcDbEntity
  8
0
100
AcDbText
 10
287.5
 20
44.5
 30
0.0
 40
3.0
  1
1
100
AcDbText
  0
TEXT
  5
222A
330
1A
100
AcDbEntity
  8
0
100
AcDbText
 10
358.0
 20
7.5
 30
0.0
 40
3.0
  1
EA3-00143
100
AcDbText
  0
TEXT
  5
222B
330
1A
100
AcDbEntity
  8
WAKU
100
AcDbText
 10
286.0
 20
14.0
 30
0.0
 40
2.0
  1
16.11.09
100
AcDbText
  0
TEXT
  5
2240
330
1A
100
AcDbEntity
  8
WAKU
100
AcDbText
 10
288.2333333333333
 20
18.5
 30
0.0
 40
4.0
  1
金子
 72
     4
 11
292.5
 21
20.5
 31
0.0
100
AcDbText
  0
TEXT
  5
52B1
330
1A
100
AcDbEntity
  8
WAKU
100
AcDbText
 10
234.0
 20
14.0
 30
0.0
 40
1.8
  1
16.11.09
 41
0.9
100
AcDbText
  0
TEXT
  5
52B2
330
1A
100
AcDbEntity
  8
WAKU
100
AcDbText
 10
248.0
 20
13.5
 30
0.0
 40
3.0
  1
大野
100
AcDbText
  0
LWPOLYLINE
  5
8846
330
1A
100
AcDbEntity
  8
0
100
AcDbPolyline
 90
        3
 70
     1
 43
0.0
 10
398.0002991937029
 20
13.75002575180714
 10
393.6701721747807
 20
6.250025751807143
 10
402.330426212625
 20
6.250025751807143
  0
LWPOLYLINE
  5
8847
330
1A
100
AcDbEntity
  8
0
100
AcDbPolyline
 90
        3
 70
     1
 43
0.0
 10
229.0
 20
37.0
 10
226.8349364905389
 20
33.25
 10
231.1650635094611
 20
33.25
  0
TEXT
  5
8848
330
1A
100
AcDbEntity
  8
WAKU
100
AcDbText
 10
228.0
 20
17.5
 30
0.0
 40
2.0
  1
1
100
AcDbText
  0
LWPOLYLINE
  5
8849
330
1A
100
AcDbEntity
  8
0
100
AcDbPolyline
 90
        3
 70
     1
 43
0.0
 10
229.0
 20
21.0
 10
226.8349364905389
 20
17.25
 10
231.1650635094611
 20
17.25
  0
LWPOLYLINE
  5
884A
330
1A
100
AcDbEntity
  8
0
100
AcDbPolyline
 90
        3
 70
     1
 43
0.0
 10
229.0
 20
25.0
 10
226.8349364905389
 20
21.25
 10
231.1650635094611
 20
21.25
  0
TEXT
  5
884B
330
1A
100
AcDbEntity
  8
WAKU
100
AcDbText
 10
228.0
 20
21.5
 30
0.0
 40
2.0
  1
2
100
AcDbText
  0
TEXT
  5
884C
330
1A
100
AcDbEntity
  8
WAKU
100
AcDbText
 10
228.0
 20
29.5
 30
0.0
 40
2.0
  1
4
100
AcDbText
  0
LWPOLYLINE
  5
884D
330
1A
100
AcDbEntity
  8
0
100
AcDbPolyline
 90
        3
 70
     1
 43
0.0
 10
229.0
 20
33.0
 10
226.8349364905389
 20
29.25
 10
231.1650635094611
 20
29.25
  0
LWPOLYLINE
  5
884E
330
1A
100
AcDbEntity
  8
0
100
AcDbPolyline
 90
        3
 70
     1
 43
0.0
 10
229.0
 20
29.0
 10
226.8349364905389
 20
25.25
 10
231.1650635094611
 20
25.25
  0
TEXT
  5
884F
330
1A
100
AcDbEntity
  8
WAKU
100
AcDbText
 10
228.0
 20
25.5
 30
0.0
 40
2.0
  1
3
100
AcDbText
  0
TEXT
  5
8850
330
1A
100
AcDbEntity
  8
WAKU
100
AcDbText
 10
228.0
 20
33.5
 30
0.0
 40
2.0
  1
5
100
AcDbText
  0
TEXT
  5
8851
330
1A
100
AcDbEntity
  8
WAKU
100
AcDbText
 10
228.0
 20
41.5
 30
0.0
 40
2.0
  1
7
100
AcDbText
  0
LWPOLYLINE
  5
8852
330
1A
100
AcDbEntity
  8
0
100
AcDbPolyline
 90
        3
 70
     1
 43
0.0
 10
229.0
 20
45.0
 10
226.8349364905389
 20
41.25
 10
231.1650635094611
 20
41.25
  0
LWPOLYLINE
  5
8853
330
1A
100
AcDbEntity
  8
0
100
AcDbPolyline
 90
        3
 70
     1
 43
0.0
 10
229.0
 20
41.0
 10
226.8349364905389
 20
37.25
 10
231.1650635094611
 20
37.25
  0
TEXT
  5
8854
330
1A
100
AcDbEntity
  8
WAKU
100
AcDbText
 10
228.0
 20
37.5
 30
0.0
 40
2.0
  1
6
100
AcDbText
  0
TEXT
  5
9F60
330
1A
100
AcDbEntity
  8
0
100
AcDbText
 10
396.5
 20
7.5
 30
0.0
 40
3.0
  1
＿
100
AcDbText
  0
TEXT
  5
BF71
330
1A
100
AcDbEntity
  8
WAKU
100
AcDbText
 10
318.2333333333334
 20
18.5
 30
0.0
 40
4.0
  1
奥野
 72
     4
 11
322.5
 21
20.5
 31
0.0
100
AcDbText
  0
TEXT
  5
BF72
330
1A
100
AcDbEntity
  8
WAKU
100
AcDbText
 10
331.0
 20
14.0
 30
0.0
 40
2.0
  1
16.11.09
100
AcDbText
  0
TEXT
  5
BF73
330
1A
100
AcDbEntity
  8
WAKU
100
AcDbText
 10
333.2333333333334
 20
18.5
 30
0.0
 40
4.0
  1
大野
 72
     4
 11
337.5
 21
20.5
 31
0.0
100
AcDbText
  0
TEXT
  5
BF74
330
1A
100
AcDbEntity
  8
0
100
AcDbText
 10
363.5
 20
16.5
 30
0.0
 40
3.0
  1
2016/11～
100
AcDbText
  0
TEXT
  5
D321
330
1A
100
AcDbEntity
  8
WAKU
100
AcDbText
 10
295.0
 20
29.5
 30
0.0
 40
3.0
  1
承　認
 72
     4
 11
300.0
 21
31.0
 31
0.0
100
AcDbText
  0
TEXT
  5
D323
330
1A
100
AcDbEntity
  8
WAKU
100
AcDbText
 10
332.5
 20
29.5
 30
0.0
 40
3.0
  1
設　計
 72
     4
 11
337.5
 21
31.0
 31
0.0
100
AcDbText
  0
TEXT
  5
D326
330
1A
100
AcDbEntity
  8
WAKU
100
AcDbText
 10
316.0
 20
14.0
 30
0.0
 40
2.0
  1
16.11.09
100
AcDbText
  0
DIMENSION
  5
D982
330
1A
100
AcDbEntity
  8
SUNPOU
100
AcDbDimension
  2
*D6
 10
255.2
 20
265.0
 30
0.0
 11
246.7999999999999
 21
269.0
 31
0.0
 70
    32
 71
     5
 42
16.80000000000001
  3
STANDARD
100
AcDbAlignedDimension
 13
238.3999999999999
 23
225.88
 33
0.0
 14
255.2
 24
249.2
 34
0.0
100
AcDbRotatedDimension
1001
ACAD
1000
DSTYLE
1002
{
1070
    41
1040
5.0
1070
    42
1040
0.5
1070
    43
1040
10.0
1070
    44
1040
0.5
1070
    73
1070
     0
1070
    74
1070
     0
1070
    77
1070
     1
1070
   140
1040
6.0
1070
   141
1040
0.0
1070
   147
1040
1.0
1070
   173
1070
     1
1070
   271
1070
     0
1070
   272
1070
     0
1070
   343
1005
BA
1070
   344
1005
BA
1002
}
  0
DIMENSION
  5
D99B
330
1A
100
AcDbEntity
  8
SUNPOU
100
AcDbDimension
  2
*D7
 10
150.0
 20
123.9999999999998
 30
0.0
 11
145.9999999999999
 21
189.9999999999999
 31
0.0
 70
    32
 71
     5
 42
132.0000000000002
  3
STANDARD
100
AcDbAlignedDimension
 13
95.0
 23
256.0
 33
0.0
 14
95.0
 24
123.9999999999998
 34
0.0
 50
90.0
100
AcDbRotatedDimension
1001
ACAD
1000
DSTYLE
1002
{
1070
    41
1040
5.0
1070
    42
1040
0.5
1070
    43
1040
10.0
1070
    44
1040
0.5
1070
    73
1070
     0
1070
    74
1070
     0
1070
    77
1070
     1
1070
   140
1040
6.0
1070
   141
1040
0.0
1070
   147
1040
1.0
1070
   173
1070
     1
1070
   271
1070
     0
1070
   272
1070
     0
1070
   343
1005
BA
1070
   344
1005
BA
1002
}
  0
DIMENSION
  5
D99C
330
1A
100
AcDbEntity
  8
SUNPOU
100
AcDbDimension
  2
*D8
 10
160.0
 20
119.9999999999997
 30
0.0
 11
159.9999999999999
 21
189.9999999999999
 31
0.0
 70
   160
 71
     5
 42
140.0000000000003
  3
STANDARD
100
AcDbAlignedDimension
 13
120.4999999999999
 23
260.0000000000001
 33
0.0
 14
120.4999999999999
 24
119.9999999999997
 34
0.0
 50
90.0
100
AcDbRotatedDimension
1001
ACAD
1000
DSTYLE
1002
{
1070
    41
1040
5.0
1070
    42
1040
0.5
1070
    43
1040
10.0
1070
    44
1040
0.5
1070
    73
1070
     0
1070
    74
1070
     0
1070
    77
1070
     1
1070
   140
1040
6.0
1070
   141
1040
0.0
1070
   147
1040
1.0
1070
   173
1070
     1
1070
   271
1070
     0
1070
   272
1070
     0
1070
   343
1005
BA
1070
   344
1005
BA
1002
}
  0
DIMENSION
  5
D99E
330
1A
100
AcDbEntity
  8
SUNPOU
100
AcDbDimension
  2
*D9
 10
140.0
 20
129.9999999999999
 30
0.0
 11
139.9999999999999
 21
189.9999999999999
 31
0.0
 70
   160
 71
     5
 42
120.0000000000001
  3
STANDARD
100
AcDbAlignedDimension
 13
122.4999999999999
 23
250.0
 33
0.0
 14
122.4999999999999
 24
129.9999999999999
 34
0.0
 50
90.0
100
AcDbRotatedDimension
1001
ACAD
1000
DSTYLE
1002
{
1070
    41
1040
5.0
1070
    42
1040
0.5
1070
    43
1040
10.0
1070
    44
1040
0.5
1070
    73
1070
     0
1070
    74
1070
     0
1070
    77
1070
     1
1070
   140
1040
6.0
1070
   141
1040
0.0
1070
   147
1040
1.0
1070
   173
1070
     1
1070
   271
1070
     0
1070
   272
1070
     0
1070
   343
1005
BA
1070
   344
1005
BA
1002
}
  0
DIMENSION
  5
D9B9
330
1A
100
AcDbEntity
  8
SUNPOU
100
AcDbDimension
  2
*D10
 10
122.4999999999999
 20
100.0
 30
0.0
 11
94.99999999999998
 21
104.0
 31
0.0
 70
    32
 71
     5
 42
54.99999999999994
  3
STANDARD
100
AcDbAlignedDimension
 13
67.5
 23
121.9999999999999
 33
0.0
 14
122.4999999999999
 24
121.9999999999997
 34
0.0
100
AcDbRotatedDimension
1001
ACAD
1000
DSTYLE
1002
{
1070
    41
1040
5.0
1070
    42
1040
0.5
1070
    43
1040
10.0
1070
    44
1040
0.5
1070
    73
1070
     0
1070
    74
1070
     0
1070
    77
1070
     1
1070
   140
1040
6.0
1070
   141
1040
0.0
1070
   147
1040
1.0
1070
   173
1070
     1
1070
   271
1070
     0
1070
   272
1070
     0
1070
   343
1005
BA
1070
   344
1005
BA
1002
}
  0
LINE
  5
DACA
330
1A
100
AcDbEntity
  8
0
100
AcDbLine
 10
348.6
 20
131.0
 30
0.0
 11
348.6
 21
190.0
 31
0.0
  0
INSERT
  5
DACB
330
1A
100
AcDbEntity
  8
0
100
AcDbBlockReference
  2
A$C4F832D76
 10
348.5999996903738
 20
120.0000002593744
 30
0.0
  0
LINE
  5
DAD3
330
1A
100
AcDbEntity
  8
0
100
AcDbLine
 10
260.1999999999999
 20
131.0
 30
0.0
 11
348.6
 21
131.0
 31
0.0
  0
LINE
  5
DAD9
330
1A
100
AcDbEntity
  8
0
100
AcDbLine
 10
348.5999999999999
 20
108.6
 30
0.0
 11
260.1999999999999
 21
108.6
 31
0.0
  0
LINE
  5
DADD
330
1A
100
AcDbEntity
  8
0
100
AcDbLine
 10
348.5999999999999
 20
55.59999999999996
 30
0.0
 11
260.1999999999999
 21
55.59999999999996
 31
0.0
  0
LINE
  5
DAE4
330
1A
100
AcDbEntity
  8
0
100
AcDbLine
 10
270.7999999999999
 20
107.0
 30
0.0
 11
270.8
 21
57.20000000000002
 31
0.0
  0
LINE
  5
DAE6
330
1A
100
AcDbEntity
  8
0
100
AcDbLine
 10
255.1999999999999
 20
108.8
 30
0.0
 11
255.2
 21
55.39999999999998
 31
0.0
  0
LINE
  5
DAE8
330
1A
100
AcDbEntity
  8
0
100
AcDbLine
 10
260.1999999999999
 20
56.19999999999999
 30
0.0
 11
269.7999999999999
 21
56.19999999999999
 31
0.0
  0
LINE
  5
DAEA
330
1A
100
AcDbEntity
  8
0
100
AcDbLine
 10
260.1999999999999
 20
55.39999999999998
 30
0.0
 11
255.9999999999999
 21
55.39999999999998
 31
0.0
  0
LINE
  5
DAEB
330
1A
100
AcDbEntity
  8
0
100
AcDbLine
 10
260.1999999999999
 20
54.60000000000002
 30
0.0
 11
255.9999999999999
 21
54.60000000000002
 31
0.0
  0
ARC
  5
DAEC
330
1A
100
AcDbEntity
  8
0
100
AcDbCircle
 10
255.9999999999999
 20
55.39999999999998
 30
0.0
 40
0.8
100
AcDbArc
 50
180.0
 51
270.0
  0
LINE
  5
DAED
330
1A
100
AcDbEntity
  8
0
100
AcDbLine
 10
260.1999999999999
 20
55.39999999999998
 30
0.0
 11
260.1999999999999
 21
56.19999999999999
 31
0.0
  0
LINE
  5
DAEE
330
1A
100
AcDbEntity
  8
0
100
AcDbLine
 10
260.1999999999999
 20
54.60000000000002
 30
0.0
 11
260.1999999999999
 21
55.39999999999998
 31
0.0
  0
LINE
  5
DAF1
330
1A
100
AcDbEntity
  8
0
100
AcDbLine
 10
270.7999999999999
 20
57.19999999999998
 30
0.0
 11
269.7999999999999
 21
56.19999999999999
 31
0.0
  0
LINE
  5
DAFA
330
1A
100
AcDbEntity
  8
0
100
AcDbLine
 10
260.1999999999999
 20
108.0
 30
0.0
 11
269.7999999999999
 21
108.0000000000001
 31
0.0
  0
LINE
  5
DAFB
330
1A
100
AcDbEntity
  8
0
100
AcDbLine
 10
260.1999999999999
 20
108.8
 30
0.0
 11
260.1999999999999
 21
108.0
 31
0.0
  0
LINE
  5
DAFD
330
1A
100
AcDbEntity
  8
0
100
AcDbLine
 10
260.1999999999999
 20
108.8
 30
0.0
 11
255.9999999999999
 21
108.8
 31
0.0
  0
LINE
  5
DAFE
330
1A
100
AcDbEntity
  8
0
100
AcDbLine
 10
260.1999999999999
 20
109.6
 30
0.0
 11
255.9999999999999
 21
109.6
 31
0.0
  0
ARC
  5
DAFF
330
1A
100
AcDbEntity
  8
0
100
AcDbCircle
 10
255.9999999999999
 20
108.8
 30
0.0
 40
0.8
100
AcDbArc
 50
90.0
 51
180.0
  0
LINE
  5
DB00
330
1A
100
AcDbEntity
  8
0
100
AcDbLine
 10
260.1999999999999
 20
109.6
 30
0.0
 11
260.1999999999999
 21
108.8
 31
0.0
  0
LINE
  5
DB06
330
1A
100
AcDbEntity
  8
0
100
AcDbLine
 10
270.7999999999999
 20
107.0
 30
0.0
 11
269.7999999999999
 21
108.0
 31
0.0
  0
LINE
  5
DB0C
330
1A
100
AcDbEntity
  8
0
100
AcDbLine
 10
348.5999999999999
 20
108.6
 30
0.0
 11
348.5999999999999
 21
55.59999999999996
 31
0.0
  0
LINE
  5
DB0E
330
1A
100
AcDbEntity
  8
0
100
AcDbLine
 10
348.5999999999999
 20
109.6
 30
0.0
 11
348.5999999999999
 21
54.60000000000002
 31
0.0
  0
LINE
  5
DB12
330
1A
100
AcDbEntity
  8
0
100
AcDbLine
 10
350.1999999999999
 20
109.6
 30
0.0
 11
350.1999999999999
 21
54.60000000000002
 31
0.0
  0
LINE
  5
DB14
330
1A
100
AcDbEntity
  8
0
100
AcDbLine
 10
350.1999999999999
 20
56.60000000000002
 30
0.0
 11
348.5999999999999
 21
56.60000000000002
 31
0.0
  0
LINE
  5
DB15
330
1A
100
AcDbEntity
  8
0
100
AcDbLine
 10
350.1999999999999
 20
54.60000000000002
 30
0.0
 11
348.5999999999999
 21
54.60000000000002
 31
0.0
  0
LINE
  5
DB21
330
1A
100
AcDbEntity
  8
0
100
AcDbLine
 10
350.1999999999999
 20
107.6
 30
0.0
 11
348.5999999999999
 21
107.6
 31
0.0
  0
LINE
  5
DB22
330
1A
100
AcDbEntity
  8
0
100
AcDbLine
 10
350.1999999999999
 20
109.6
 30
0.0
 11
348.5999999999999
 21
109.6
 31
0.0
  0
LINE
  5
DB4D
330
1A
100
AcDbEntity
  8
0
100
AcDbLine
 10
348.6
 20
249.0
 30
0.0
 11
348.6
 21
190.0
 31
0.0
  0
LINE
  5
DB53
330
1A
100
AcDbEntity
  8
0
100
AcDbLine
 10
260.1999999999999
 20
249.0
 30
0.0
 11
348.6
 21
249.0
 31
0.0
  0
DIMENSION
  5
DB56
330
1A
100
AcDbEntity
  8
SUNPOU
100
AcDbDimension
  2
*D5
 10
350.1999999999999
 20
265.0
 30
0.0
 11
302.6999999999999
 21
269.0
 31
0.0
 70
    32
 71
     5
 42
94.99999999999998
  3
STANDARD
100
AcDbAlignedDimension
 13
255.2
 23
249.2
 33
0.0
 14
350.1999999999999
 24
260.0
 34
0.0
100
AcDbRotatedDimension
1001
ACAD
1000
DSTYLE
1002
{
1070
    41
1040
5.0
1070
    42
1040
0.5
1070
    43
1040
10.0
1070
    44
1040
0.5
1070
    73
1070
     0
1070
    74
1070
     0
1070
    77
1070
     1
1070
   140
1040
6.0
1070
   141
1040
0.0
1070
   147
1040
1.0
1070
   173
1070
     1
1070
   271
1070
     0
1070
   272
1070
     0
1070
   343
1005
BA
1070
   344
1005
BA
1002
}
  0
LINE
  5
110CD
330
1A
100
AcDbEntity
  8
0
100
AcDbLine
 10
255.2
 20
249.2
 30
0.0
 11
255.1999999999999
 21
190.0
 31
0.0
  0
LINE
  5
110CF
330
1A
100
AcDbEntity
  8
0
100
AcDbLine
 10
255.2
 20
130.8
 30
0.0
 11
255.1999999999999
 21
190.0
 31
0.0
  0
LINE
  5
110D0
330
1A
100
AcDbEntity
  8
0
100
AcDbLine
 10
256.0
 20
130.8
 30
0.0
 11
270.8
 21
130.8
 31
0.0
  0
LINE
  5
110D1
330
1A
100
AcDbEntity
  8
0
100
AcDbLine
 10
256.0
 20
130.0
 30
0.0
 11
270.8
 21
130.0
 31
0.0
  0
ARC
  5
110D2
330
1A
100
AcDbEntity
  8
0
100
AcDbCircle
 10
256.0
 20
130.8
 30
0.0
 40
0.8
100
AcDbArc
 50
180.0
 51
270.0
  0
LINE
  5
110D4
330
1A
100
AcDbEntity
  8
0
100
AcDbLine
 10
270.8
 20
130.8
 30
0.0
 11
270.8
 21
129.9999999999999
 31
0.0
  0
LINE
  5
110D5
330
1A
100
AcDbEntity
  8
0
100
AcDbLine
 10
256.0
 20
250.0000000000001
 30
0.0
 11
270.8
 21
250.0
 31
0.0
  0
LINE
  5
110D6
330
1A
100
AcDbEntity
  8
0
100
AcDbLine
 10
256.0
 20
249.2
 30
0.0
 11
270.8
 21
249.2
 31
0.0
  0
ARC
  5
110D7
330
1A
100
AcDbEntity
  8
0
100
AcDbCircle
 10
256.0
 20
249.2
 30
0.0
 40
0.8
100
AcDbArc
 50
90.0
 51
180.0
  0
LINE
  5
110D9
330
1A
100
AcDbEntity
  8
0
100
AcDbLine
 10
270.8
 20
249.2
 30
0.0
 11
270.8
 21
250.0000000000001
 31
0.0
  0
LINE
  5
110DA
330
1A
100
AcDbEntity
  8
0
100
AcDbLine
 10
260.1999999999999
 20
249.2
 30
0.0
 11
260.1999999999999
 21
130.8
 31
0.0
  0
INSERT
  5
110E3
330
1A
100
AcDbEntity
  8
0
100
AcDbBlockReference
  2
A$C34EE125E
 10
262.4000001469811
 20
250.0000004725022
 30
0.0
 41
-1.0
 50
270.0
  0
INSERT
  5
110EC
330
1A
100
AcDbEntity
  8
0
100
AcDbBlockReference
  2
A$C34EE125E
 10
262.4000001469811
 20
129.9999995274978
 30
0.0
 50
270.0
  0
LINE
  5
1147F
330
1A
100
AcDbEntity
  8
0
100
AcDbLine
 10
238.8000000000001
 20
61.59999999999996
 30
0.0
 11
238.8000000000001
 21
71.59999999999996
 31
0.0
  0
LINE
  5
11480
330
1A
100
AcDbEntity
  8
0
100
AcDbLine
 10
238.4000000000001
 20
61.59999999999996
 30
0.0
 11
238.4000000000001
 21
71.59999999999996
 31
0.0
  0
LINE
  5
11481
330
1A
100
AcDbEntity
  8
0
100
AcDbLine
 10
249.2000000000001
 20
62.09999999999997
 30
0.0
 11
249.2000000000001
 21
71.09999999999996
 31
0.0
  0
LINE
  5
11483
330
1A
100
AcDbEntity
  8
0
100
AcDbLine
 10
240.2000000000001
 20
60.59999999999996
 30
0.0
 11
240.2000000000001
 21
72.59999999999997
 31
0.0
  0
LINE
  5
11486
330
1A
100
AcDbEntity
  8
0
100
AcDbLine
 10
253.2000000000001
 20
60.59999999999996
 30
0.0
 11
251.7000000000001
 21
62.09999999999997
 31
0.0
  0
ARC
  5
11487
330
1A
100
AcDbEntity
  8
0
100
AcDbCircle
 10
240.3000000000001
 20
61.59999999999996
 30
0.0
 40
1.5
100
AcDbArc
 50
180.0
 51
352.0605795160219
  0
ARC
  5
11488
330
1A
100
AcDbEntity
  8
0
100
AcDbCircle
 10
240.3000000000001
 20
61.59999999999996
 30
0.0
 40
1.9
100
AcDbArc
 50
180.0
 51
0.0
  0
LINE
  5
11489
330
1A
100
AcDbEntity
  8
0
100
AcDbLine
 10
242.2000000000001
 20
61.59999999999996
 30
0.0
 11
240.2000000000001
 21
60.59999999999996
 31
0.0
  0
LINE
  5
1148A
330
1A
100
AcDbEntity
  8
0
100
AcDbLine
 10
242.2000000000001
 20
60.59999999999996
 30
0.0
 11
242.2000000000001
 21
61.59999999999996
 31
0.0
  0
LINE
  5
1148B
330
1A
100
AcDbEntity
  8
0
100
AcDbLine
 10
255.2
 20
60.59999999999996
 30
0.0
 11
242.2000000000001
 21
60.59999999999996
 31
0.0
  0
LINE
  5
1148C
330
1A
100
AcDbEntity
  8
0
100
AcDbLine
 10
251.7000000000001
 20
62.09999999999997
 30
0.0
 11
249.2000000000001
 21
62.09999999999997
 31
0.0
  0
LINE
  5
1148E
330
1A
100
AcDbEntity
  8
0
100
AcDbLine
 10
253.2000000000001
 20
72.59999999999997
 30
0.0
 11
251.7000000000001
 21
71.09999999999996
 31
0.0
  0
LINE
  5
1148F
330
1A
100
AcDbEntity
  8
0
100
AcDbLine
 10
251.7000000000001
 20
71.09999999999996
 30
0.0
 11
249.2000000000001
 21
71.09999999999996
 31
0.0
  0
ARC
  5
11490
330
1A
100
AcDbEntity
  8
0
100
AcDbCircle
 10
240.3000000000001
 20
71.59999999999996
 30
0.0
 40
1.5
100
AcDbArc
 50
7.939420483978925
 51
180.0000000000008
  0
ARC
  5
11491
330
1A
100
AcDbEntity
  8
0
100
AcDbCircle
 10
240.3000000000001
 20
71.59999999999996
 30
0.0
 40
1.9
100
AcDbArc
 50
359.9999999999992
 51
180.0000000000016
  0
LINE
  5
11492
330
1A
100
AcDbEntity
  8
0
100
AcDbLine
 10
242.2000000000001
 20
71.59999999999996
 30
0.0
 11
242.2000000000001
 21
72.59999999999997
 31
0.0
  0
LINE
  5
11493
330
1A
100
AcDbEntity
  8
0
100
AcDbLine
 10
242.2000000000001
 20
71.59999999999996
 30
0.0
 11
240.2000000000001
 21
72.59999999999997
 31
0.0
  0
LINE
  5
11494
330
1A
100
AcDbEntity
  8
0
100
AcDbLine
 10
255.2
 20
72.59999999999997
 30
0.0
 11
242.2000000000001
 21
72.59999999999997
 31
0.0
  0
TEXT
  5
115D8
330
1A
100
AcDbEntity
  8
0
100
AcDbText
 10
45.19999983105907
 20
146.0
 30
0.0
 40
4.0
  1
AC仕様
 41
0.8
100
AcDbText
  0
INSERT
  5
117E2
330
1A
100
AcDbEntity
  8
0
100
AcDbBlockReference
  2
M3-TOP
 10
266.4
 20
82.10000000000002
 30
0.0
  0
TEXT
  5
11933
330
1A
100
AcDbEntity
  8
0
100
AcDbText
 10
45.19999983105907
 20
141.0
 30
0.0
 40
4.0
  1
シール
 41
0.8
100
AcDbText
  0
LINE
  5
11EFE
330
1A
100
AcDbEntity
  8
0
100
AcDbLine
 10
67.5
 20
190.0
 30
0.0
 11
67.5
 21
122.0
 31
0.0
  0
LINE
  5
11EFF
330
1A
100
AcDbEntity
  8
0
100
AcDbLine
 10
122.4999999999999
 20
190.0
 30
0.0
 11
122.4999999999999
 21
121.9999999999998
 31
0.0
  0
LINE
  5
11F32
330
1A
100
AcDbEntity
  8
0
100
AcDbLine
 10
69.5
 20
120.0
 30
0.0
 11
120.4999999999999
 21
119.9999999999998
 31
0.0
  0
LINE
  5
11F33
330
1A
100
AcDbEntity
  8
0
100
AcDbLine
 10
122.4999999999999
 20
130.0
 30
0.0
 11
67.5
 21
129.9999999999999
 31
0.0
  0
ARC
  5
1200D
330
1A
100
AcDbEntity
  8
0
100
AcDbCircle
 10
69.5
 20
122.0
 30
0.0
 40
2.0
100
AcDbArc
 50
180.0
 51
270.0
  0
CIRCLE
  5
12026
330
1A
100
AcDbEntity
  8
0
100
AcDbCircle
 10
95.0
 20
123.9999999999999
 30
0.0
 40
2.25
  0
INSERT
  5
12027
330
1A
100
AcDbEntity
  8
0
100
AcDbBlockReference
  2
A$C34EE125E
 10
91.00000014698116
 20
129.9999995274978
 30
0.0
 50
270.0
  0
ARC
  5
1205A
330
1A
100
AcDbEntity
  8
0
100
AcDbCircle
 10
120.4999999999999
 20
121.9999999999998
 30
0.0
 40
2.0
100
AcDbArc
 50
270.0
 51
0.0
  0
LINE
  5
12060
330
1A
100
AcDbEntity
  8
0
100
AcDbLine
 10
122.4999999999999
 20
250.0000000000001
 30
0.0
 11
67.5
 21
250.0
 31
0.0
  0
LINE
  5
12061
330
1A
100
AcDbEntity
  8
0
100
AcDbLine
 10
69.5
 20
260.0
 30
0.0
 11
120.4999999999999
 21
260.0000000000002
 31
0.0
  0
LINE
  5
12079
330
1A
100
AcDbEntity
  8
0
100
AcDbLine
 10
67.5
 20
190.0
 30
0.0
 11
67.5
 21
258.0
 31
0.0
  0
ARC
  5
120C4
330
1A
100
AcDbEntity
  8
0
100
AcDbCircle
 10
69.5
 20
258.0
 30
0.0
 40
2.0
100
AcDbArc
 50
90.0
 51
180.0
  0
CIRCLE
  5
120C5
330
1A
100
AcDbEntity
  8
0
100
AcDbCircle
 10
95.0
 20
256.0000000000001
 30
0.0
 40
2.25
  0
INSERT
  5
120C6
330
1A
100
AcDbEntity
  8
0
100
AcDbBlockReference
  2
A$C34EE125E
 10
91.00000014698116
 20
250.0000004725022
 30
0.0
 41
-1.0
 50
270.0
  0
LINE
  5
120CB
330
1A
100
AcDbEntity
  8
0
100
AcDbLine
 10
122.4999999999999
 20
190.0
 30
0.0
 11
122.4999999999999
 21
258.0000000000002
 31
0.0
  0
ARC
  5
120DA
330
1A
100
AcDbEntity
  8
0
100
AcDbCircle
 10
120.4999999999999
 20
258.0000000000002
 30
0.0
 40
2.0
100
AcDbArc
 50
0.0
 51
90.0
  0
MTEXT
  5
12C9F
330
1A
100
AcDbEntity
  8
0
100
AcDbMText
 10
87.00000000000009
 20
148.0899999999998
 30
0.0
 40
2.2
 41
10.0
 71
     8
 72
     5
  1
{\fTahoma|b0|i0|c0|p34;+24V}
 11
-0.0000000000000002
 21
-1.0
 31
0.0
 73
     1
 44
1.0
1001
ACAD
1000
MTEXTBEGIN
1070
    73
1070
     1
1070
    44
1040
1.0
1070
    74
1070
     0
1000
MTEXTEND
  0
LINE
  5
12CA0
330
1A
100
AcDbEntity
  8
0
100
AcDbLine
 10
85.99999999999999
 20
245.4299999999999
 30
0.0
 11
85.99999999999999
 21
134.5699999999999
 31
0.0
  0
LINE
  5
12CA1
330
1A
100
AcDbEntity
  8
0
100
AcDbLine
 10
72.99999999999987
 20
134.5699999999999
 30
0.0
 11
72.99999999999987
 21
245.4299999999999
 31
0.0
  0
INSERT
  5
12CA2
330
1A
100
AcDbEntity
  8
0
100
AcDbBlockReference
  2
TM-14P-1
 10
73.49999999999998
 20
189.9999999999998
 30
0.0
  0
LINE
  5
12CA5
330
1A
100
AcDbEntity
  8
0
100
AcDbLine
 10
72.99999999999987
 20
134.5699999999999
 30
0.0
 11
85.99999999999999
 21
134.5699999999999
 31
0.0
  0
MTEXT
  5
12CA6
330
1A
100
AcDbEntity
  8
0
100
AcDbMText
 10
72.00000000000009
 20
140.4699999999998
 30
0.0
 40
2.5
 41
5.907407407407408
 71
     6
 72
     5
  1
{\fTahoma|b0|i0|c0|p34;14}
 73
     1
 44
1.0
1001
ACAD
1000
MTEXTBEGIN
1070
    73
1070
     1
1070
    44
1040
1.0
1070
    74
1070
     0
1000
MTEXTEND
  0
MTEXT
  5
12CA7
330
1A
100
AcDbEntity
  8
0
100
AcDbMText
 10
72.00000000000009
 20
148.0899999999998
 30
0.0
 40
2.5
 41
5.907407407407408
 71
     6
 72
     5
  1
{\fTahoma|b0|i0|c0|p34;13}
 73
     1
 44
1.0
1001
ACAD
1000
MTEXTBEGIN
1070
    73
1070
     1
1070
    44
1040
1.0
1070
    74
1070
     0
1000
MTEXTEND
  0
MTEXT
  5
12CA8
330
1A
100
AcDbEntity
  8
0
100
AcDbMText
 10
87.00000000000009
 20
140.4699999999998
 30
0.0
 40
2.2
 41
10.0
 71
     8
 72
     5
  1
{\fTahoma|b0|i0|c0|p34;0V}
 11
-0.0000000000000002
 21
-1.0
 31
0.0
 73
     1
 44
1.0
1001
ACAD
1000
MTEXTBEGIN
1070
    73
1070
     1
1070
    44
1040
1.0
1070
    74
1070
     0
1000
MTEXTEND
  0
MTEXT
  5
12CA9
330
1A
100
AcDbEntity
  8
0
 62
     0
100
AcDbMText
 10
119.8
 20
132.4999999999999
 30
0.0
 40
3.0
 41
25.5
 71
     9
 72
     5
  1
{\fTahoma|b0|i0|c0|p34;TOYO SOKKI}
 73
     1
 44
1.0
1001
ACAD
1000
MTEXTBEGIN
1070
    73
1070
     1
1070
    44
1040
1.0
1070
    74
1070
     0
1000
MTEXTEND
  0
MTEXT
  5
12CAB
330
1A
100
AcDbEntity
  8
0
 62
   252
100
AcDbMText
 10
119.8
 20
247.0000000000001
 30
0.0
 40
3.5
 41
23.00000058598465
 71
     3
 72
     5
  1
{\fTahoma|b0|i0|c0|p34;\C7;LA-1022A}
 73
     1
 44
1.0
1001
ACAD
1000
MTEXTBEGIN
1070
    73
1070
     1
1070
    44
1040
1.0
1070
    74
1070
     0
1000
MTEXTEND
  0
MTEXT
  5
12CAC
330
1A
100
AcDbEntity
  8
0
100
AcDbMText
 10
94.99999999999994
 20
197.5
 30
0.0
 40
2.5
 41
14.4
 71
     4
 72
     5
  1
{\fTahoma|b0|i0|c0|p34;ZERO}
 73
     1
 44
1.0
1001
ACAD
1000
MTEXTBEGIN
1070
    73
1070
     1
1070
    44
1040
1.0
1070
    74
1070
     0
1000
MTEXTEND
  0
MTEXT
  5
12CAE
330
1A
100
AcDbEntity
  8
0
100
AcDbMText
 10
104.1999999999998
 20
162.23
 30
0.0
 40
2.5
 41
14.4
 71
     6
 72
     5
  1
{\fTahoma|b0|i0|c0|p34;RANGE}
 73
     1
 44
1.0
1001
ACAD
1000
MTEXTBEGIN
1070
    73
1070
     1
1070
    44
1040
1.0
1070
    74
1070
     0
1000
MTEXTEND
  0
MTEXT
  5
12CAF
330
1A
100
AcDbEntity
  8
0
100
AcDbMText
 10
94.99999999999994
 20
183.5
 30
0.0
 40
2.5
 41
14.4
 71
     4
 72
     5
  1
{\fTahoma|b0|i0|c0|p34;SPAN}
 73
     1
 44
1.0
1001
ACAD
1000
MTEXTBEGIN
1070
    73
1070
     1
1070
    44
1040
1.0
1070
    74
1070
     0
1000
MTEXTEND
  0
MTEXT
  5
12CB0
330
1A
100
AcDbEntity
  8
0
100
AcDbMText
 10
72.00000000000009
 20
163.3299999999998
 30
0.0
 40
2.5
 41
5.907407407407408
 71
     6
 72
     5
  1
{\fTahoma|b0|i0|c0|p34;11}
 73
     1
 44
1.0
1001
ACAD
1000
MTEXTBEGIN
1070
    73
1070
     1
1070
    44
1040
1.0
1070
    74
1070
     0
1000
MTEXTEND
  0
MTEXT
  5
12CB1
330
1A
100
AcDbEntity
  8
0
100
AcDbMText
 10
72.00000000000009
 20
155.7099999999998
 30
0.0
 40
2.5
 41
5.907407407407408
 71
     6
 72
     5
  1
{\fTahoma|b0|i0|c0|p34;12}
 73
     1
 44
1.0
1001
ACAD
1000
MTEXTBEGIN
1070
    73
1070
     1
1070
    44
1040
1.0
1070
    74
1070
     0
1000
MTEXTEND
  0
MTEXT
  5
12CB2
330
1A
100
AcDbEntity
  8
0
100
AcDbMText
 10
72.00000000000009
 20
170.9499999999998
 30
0.0
 40
2.5
 41
5.907407407407408
 71
     6
 72
     5
  1
{\fTahoma|b0|i0|c0|p34;10}
 73
     1
 44
1.0
1001
ACAD
1000
MTEXTBEGIN
1070
    73
1070
     1
1070
    44
1040
1.0
1070
    74
1070
     0
1000
MTEXTEND
  0
MTEXT
  5
12CB3
330
1A
100
AcDbEntity
  8
0
100
AcDbMText
 10
87.00000000000009
 20
163.3299999999998
 30
0.0
 40
2.2
 41
10.0
 71
     8
 72
     5
  1
{\fTahoma|b0|i0|c0|p34;COM}
 11
-0.0000000000000002
 21
-1.0
 31
0.0
 73
     1
 44
1.0
1001
ACAD
1000
MTEXTBEGIN
1070
    73
1070
     1
1070
    44
1040
1.0
1070
    74
1070
     0
1000
MTEXTEND
  0
MTEXT
  5
12CB4
330
1A
100
AcDbEntity
  8
0
100
AcDbMText
 10
87.00000000000009
 20
155.7099999999998
 30
0.0
 40
2.2
 41
10.0
 71
     8
 72
     5
  1
{\fTahoma|b0|i0|c0|p34;E}
 11
-0.0000000000000002
 21
-1.0
 31
0.0
 73
     1
 44
1.0
1001
ACAD
1000
MTEXTBEGIN
1070
    73
1070
     1
1070
    44
1040
1.0
1070
    74
1070
     0
1000
MTEXTEND
  0
MTEXT
  5
12CB5
330
1A
100
AcDbEntity
  8
0
100
AcDbMText
 10
87.00000000000009
 20
170.9499999999998
 30
0.0
 40
2.2
 41
10.0
 71
     8
 72
     5
  1
{\fTahoma|b0|i0|c0|p34;Iout}
 11
-0.0000000000000002
 21
-1.0
 31
0.0
 73
     1
 44
1.0
1001
ACAD
1000
MTEXTBEGIN
1070
    73
1070
     1
1070
    44
1040
1.0
1070
    74
1070
     0
1000
MTEXTEND
  0
MTEXT
  5
12CB6
330
1A
100
AcDbEntity
  8
0
100
AcDbMText
 10
72.00000000000009
 20
186.1899999999998
 30
0.0
 40
2.5
 41
5.907407407407408
 71
     6
 72
     5
  1
{\fTahoma|b0|i0|c0|p34;8}
 73
     1
 44
1.0
1001
ACAD
1000
MTEXTBEGIN
1070
    73
1070
     1
1070
    44
1040
1.0
1070
    74
1070
     0
1000
MTEXTEND
  0
MTEXT
  5
12CB7
330
1A
100
AcDbEntity
  8
0
100
AcDbMText
 10
72.00000000000009
 20
178.5699999999998
 30
0.0
 40
2.5
 41
5.907407407407408
 71
     6
 72
     5
  1
{\fTahoma|b0|i0|c0|p34;9}
 73
     1
 44
1.0
1001
ACAD
1000
MTEXTBEGIN
1070
    73
1070
     1
1070
    44
1040
1.0
1070
    74
1070
     0
1000
MTEXTEND
  0
MTEXT
  5
12CB8
330
1A
100
AcDbEntity
  8
0
100
AcDbMText
 10
72.00000000000009
 20
193.8099999999998
 30
0.0
 40
2.5
 41
5.907407407407408
 71
     6
 72
     5
  1
{\fTahoma|b0|i0|c0|p34;7}
 73
     1
 44
1.0
1001
ACAD
1000
MTEXTBEGIN
1070
    73
1070
     1
1070
    44
1040
1.0
1070
    74
1070
     0
1000
MTEXTEND
  0
MTEXT
  5
12CB9
330
1A
100
AcDbEntity
  8
0
100
AcDbMText
 10
87.00000000000009
 20
186.1899999999998
 30
0.0
 40
2.2
 41
10.0
 71
     8
 72
     5
  1
{\fTahoma|b0|i0|c0|p34;Vout}
 11
-0.0000000000000002
 21
-1.0
 31
0.0
 73
     1
 44
1.0
1001
ACAD
1000
MTEXTBEGIN
1070
    73
1070
     1
1070
    44
1040
1.0
1070
    74
1070
     0
1000
MTEXTEND
  0
MTEXT
  5
12CBA
330
1A
100
AcDbEntity
  8
0
100
AcDbMText
 10
87.00000000000009
 20
178.5699999999998
 30
0.0
 40
2.2
 41
10.0
 71
     8
 72
     5
  1
{\fTahoma|b0|i0|c0|p34;COM}
 11
-0.0000000000000002
 21
-1.0
 31
0.0
 73
     1
 44
1.0
1001
ACAD
1000
MTEXTBEGIN
1070
    73
1070
     1
1070
    44
1040
1.0
1070
    74
1070
     0
1000
MTEXTEND
  0
MTEXT
  5
12CBB
330
1A
100
AcDbEntity
  8
0
100
AcDbMText
 10
87.00000000000009
 20
193.8099999999998
 30
0.0
 40
2.2
 41
10.0
 71
     8
 72
     5
  1
{\fTahoma|b0|i0|c0|p34;SHL}
 11
-0.0000000000000002
 21
-1.0
 31
0.0
 73
     1
 44
1.0
1001
ACAD
1000
MTEXTBEGIN
1070
    73
1070
     1
1070
    44
1040
1.0
1070
    74
1070
     0
1000
MTEXTEND
  0
LINE
  5
12CBC
330
1A
100
AcDbEntity
  8
0
100
AcDbLine
 10
112.6999999999998
 20
175.15
 30
0.0
 11
112.6999999999998
 21
151.85
 31
0.0
  0
LINE
  5
12CBD
330
1A
100
AcDbEntity
  8
0
100
AcDbLine
 10
105.1999999999998
 20
175.15
 30
0.0
 11
105.1999999999998
 21
151.85
 31
0.0
  0
LINE
  5
12CBF
330
1A
100
AcDbEntity
  8
0
100
AcDbLine
 10
112.6999999999998
 20
168.1099999999999
 30
0.0
 11
111.6999999999999
 21
168.1099999999999
 31
0.0
  0
LINE
  5
12CC0
330
1A
100
AcDbEntity
  8
0
100
AcDbLine
 10
111.6999999999999
 20
169.05
 30
0.0
 11
112.6999999999998
 21
169.05
 31
0.0
  0
LINE
  5
12CC1
330
1A
100
AcDbEntity
  8
0
100
AcDbLine
 10
112.6999999999998
 20
173.19
 30
0.0
 11
111.6999999999999
 21
173.19
 31
0.0
  0
LINE
  5
12CC2
330
1A
100
AcDbEntity
  8
0
100
AcDbLine
 10
111.6999999999999
 20
171.5899999999999
 30
0.0
 11
112.6999999999998
 21
171.5899999999999
 31
0.0
  0
LINE
  5
12CC3
330
1A
100
AcDbEntity
  8
0
100
AcDbLine
 10
112.6999999999998
 20
170.6500000000001
 30
0.0
 11
111.6999999999999
 21
170.65
 31
0.0
  0
LINE
  5
12CC4
330
1A
100
AcDbEntity
  8
0
100
AcDbLine
 10
111.6999999999999
 20
163.9699999999999
 30
0.0
 11
112.6999999999998
 21
163.9699999999999
 31
0.0
  0
LINE
  5
12CC5
330
1A
100
AcDbEntity
  8
0
100
AcDbLine
 10
112.6999999999998
 20
163.03
 30
0.0
 11
111.6999999999999
 21
163.03
 31
0.0
  0
LINE
  5
12CC6
330
1A
100
AcDbEntity
  8
0
100
AcDbLine
 10
112.6999999999998
 20
165.57
 30
0.0
 11
111.6999999999999
 21
165.57
 31
0.0
  0
LINE
  5
12CC7
330
1A
100
AcDbEntity
  8
0
100
AcDbLine
 10
111.6999999999999
 20
166.5099999999999
 30
0.0
 11
112.6999999999998
 21
166.5099999999999
 31
0.0
  0
LINE
  5
12CC8
330
1A
100
AcDbEntity
  8
0
100
AcDbLine
 10
112.6999999999998
 20
160.49
 30
0.0
 11
111.6999999999999
 21
160.49
 31
0.0
  0
LINE
  5
12CC9
330
1A
100
AcDbEntity
  8
0
100
AcDbLine
 10
111.6999999999999
 20
158.89
 30
0.0
 11
112.6999999999998
 21
158.89
 31
0.0
  0
LINE
  5
12CCA
330
1A
100
AcDbEntity
  8
0
100
AcDbLine
 10
111.6999999999999
 20
161.4299999999999
 30
0.0
 11
112.6999999999998
 21
161.4299999999999
 31
0.0
  0
LINE
  5
12CCB
330
1A
100
AcDbEntity
  8
0
100
AcDbLine
 10
112.6999999999998
 20
157.9499999999999
 30
0.0
 11
111.6999999999999
 21
157.9499999999999
 31
0.0
  0
LINE
  5
12CCC
330
1A
100
AcDbEntity
  8
0
100
AcDbLine
 10
111.6999999999999
 20
156.3499999999999
 30
0.0
 11
112.6999999999998
 21
156.3499999999999
 31
0.0
  0
LINE
  5
12CCD
330
1A
100
AcDbEntity
  8
0
100
AcDbLine
 10
111.6999999999999
 20
153.8099999999999
 30
0.0
 11
112.6999999999998
 21
153.8099999999999
 31
0.0
  0
LINE
  5
12CCE
330
1A
100
AcDbEntity
  8
0
100
AcDbLine
 10
112.6999999999998
 20
155.41
 30
0.0
 11
111.6999999999999
 21
155.41
 31
0.0
  0
LINE
  5
12CCF
330
1A
100
AcDbEntity
  8
0
100
AcDbLine
 10
105.1999999999998
 20
151.85
 30
0.0
 11
112.6999999999998
 21
151.85
 31
0.0
  0
LINE
  5
12CD0
330
1A
100
AcDbEntity
  8
0
100
AcDbLine
 10
106.6999999999999
 20
152.35
 30
0.0
 11
112.6999999999998
 21
152.3499999999999
 31
0.0
  0
LINE
  5
12CD1
330
1A
100
AcDbEntity
  8
0
100
AcDbLine
 10
106.6999999999999
 20
174.6499999999999
 30
0.0
 11
112.6999999999998
 21
174.6499999999999
 31
0.0
  0
LINE
  5
12CD2
330
1A
100
AcDbEntity
  8
0
100
AcDbLine
 10
111.6999999999999
 20
152.3499999999999
 30
0.0
 11
111.6999999999999
 21
174.6499999999999
 31
0.0
  0
LINE
  5
12CD3
330
1A
100
AcDbEntity
  8
0
100
AcDbLine
 10
106.6999999999999
 20
152.3499999999999
 30
0.0
 11
106.6999999999999
 21
174.6499999999999
 31
0.0
  0
LINE
  5
12CD4
330
1A
100
AcDbEntity
  8
SUNPOU
100
AcDbLine
 10
110.0999999999998
 20
153.3599999999999
 30
0.0
 11
110.0999999999998
 21
173.64
 31
0.0
  0
LINE
  5
12CD5
330
1A
100
AcDbEntity
  8
0
100
AcDbLine
 10
100.4999999999999
 20
154.4949999999999
 30
0.0
 11
104.1999999999998
 21
154.4949999999999
 31
0.0
  0
LINE
  5
12CD6
330
1A
100
AcDbEntity
  8
0
100
AcDbLine
 10
100.4999999999999
 20
160.23
 30
0.0
 11
100.4999999999999
 21
154.4949999999999
 31
0.0
  0
LINE
  5
12CD7
330
1A
100
AcDbEntity
  8
0
100
AcDbLine
 10
107.7499999999999
 20
156.3999999999999
 30
0.0
 11
107.7499999999999
 21
157.8999999999999
 31
0.0
  0
LINE
  5
12CD8
330
1A
100
AcDbEntity
  8
0
100
AcDbLine
 10
109.7499999999999
 20
156.3999999999999
 30
0.0
 11
109.7499999999999
 21
157.8999999999999
 31
0.0
  0
LINE
  5
12CD9
330
1A
100
AcDbEntity
  8
0
100
AcDbLine
 10
106.7499999999999
 20
156.3999999999999
 30
0.0
 11
106.7499999999999
 21
157.8999999999999
 31
0.0
  0
TEXT
  5
12CDA
330
1A
100
AcDbEntity
  8
SUNPOU
100
AcDbText
 10
111.4189979253312
 20
156.6867035396745
 30
0.0
 40
1.0
  1
2
 50
90.0
100
AcDbText
  0
LINE
  5
12CDB
330
1A
100
AcDbEntity
  8
0
100
AcDbLine
 10
106.7499999999999
 20
156.3999999999999
 30
0.0
 11
109.7499999999999
 21
156.3999999999999
 31
0.0
  0
LINE
  5
12CDC
330
1A
100
AcDbEntity
  8
SUNPOU
100
AcDbLine
 10
110.0999999999998
 20
153.3599999999999
 30
0.0
 11
106.6999999999999
 21
153.3599999999999
 31
0.0
  0
LINE
  5
12CDD
330
1A
100
AcDbEntity
  8
0
100
AcDbLine
 10
106.7499999999999
 20
153.8599999999999
 30
0.0
 11
109.7499999999999
 21
153.8599999999999
 31
0.0
  0
LINE
  5
12CDE
330
1A
100
AcDbEntity
  8
0
100
AcDbLine
 10
106.7499999999999
 20
155.3599999999999
 30
0.0
 11
109.7499999999999
 21
155.3599999999999
 31
0.0
  0
LINE
  5
12CDF
330
1A
100
AcDbEntity
  8
0
100
AcDbLine
 10
107.7499999999999
 20
153.8599999999999
 30
0.0
 11
107.7499999999999
 21
155.3599999999999
 31
0.0
  0
LINE
  5
12CE0
330
1A
100
AcDbEntity
  8
0
100
AcDbLine
 10
106.7499999999999
 20
153.8599999999999
 30
0.0
 11
106.7499999999999
 21
155.3599999999999
 31
0.0
  0
LINE
  5
12CE1
330
1A
100
AcDbEntity
  8
SUNPOU
100
AcDbLine
 10
108.29962750251
 20
152.8072741597968
 30
0.0
 11
110.2996275025101
 21
152.8072741597968
 31
0.0
  0
LINE
  5
12CE2
330
1A
100
AcDbEntity
  8
SUNPOU
100
AcDbLine
 10
110.2996275025101
 20
152.8072741597968
 30
0.0
 11
109.632386508306
 21
152.4206650593983
 31
0.0
  0
LINE
  5
12CE3
330
1A
100
AcDbEntity
  8
SUNPOU
100
AcDbLine
 10
110.2996275025101
 20
152.8072741597968
 30
0.0
 11
109.6263771500409
 21
153.1833208374278
 31
0.0
  0
LINE
  5
12CE4
330
1A
100
AcDbEntity
  8
0
100
AcDbLine
 10
109.7499999999999
 20
153.8599999999999
 30
0.0
 11
109.7499999999999
 21
155.3599999999999
 31
0.0
  0
TEXT
  5
12CE5
330
1A
100
AcDbEntity
  8
SUNPOU
100
AcDbText
 10
111.3918946420854
 20
152.5400506721758
 30
0.0
 40
0.8
  1
ON
 50
90.0
100
AcDbText
  0
TEXT
  5
12CE6
330
1A
100
AcDbEntity
  8
SUNPOU
100
AcDbText
 10
111.4189979253312
 20
154.1467035396745
 30
0.0
 40
1.0
  1
1
 50
90.0
100
AcDbText
  0
LINE
  5
12CE7
330
1A
100
AcDbEntity
  8
0
100
AcDbLine
 10
106.7499999999999
 20
162.98
 30
0.0
 11
109.7499999999999
 21
162.98
 31
0.0
  0
LINE
  5
12CE8
330
1A
100
AcDbEntity
  8
0
100
AcDbLine
 10
106.7499999999999
 20
160.44
 30
0.0
 11
109.7499999999999
 21
160.44
 31
0.0
  0
LINE
  5
12CE9
330
1A
100
AcDbEntity
  8
0
100
AcDbLine
 10
106.7499999999999
 20
157.8999999999999
 30
0.0
 11
109.7499999999999
 21
157.8999999999999
 31
0.0
  0
LINE
  5
12CEA
330
1A
100
AcDbEntity
  8
0
100
AcDbLine
 10
106.7499999999999
 20
158.94
 30
0.0
 11
109.7499999999999
 21
158.94
 31
0.0
  0
LINE
  5
12CEB
330
1A
100
AcDbEntity
  8
0
100
AcDbLine
 10
106.7499999999999
 20
161.48
 30
0.0
 11
109.7499999999999
 21
161.48
 31
0.0
  0
LINE
  5
12CEC
330
1A
100
AcDbEntity
  8
0
100
AcDbLine
 10
107.7499999999999
 20
158.94
 30
0.0
 11
107.7499999999999
 21
160.44
 31
0.0
  0
LINE
  5
12CED
330
1A
100
AcDbEntity
  8
0
100
AcDbLine
 10
106.7499999999999
 20
158.94
 30
0.0
 11
106.7499999999999
 21
160.44
 31
0.0
  0
LINE
  5
12CEE
330
1A
100
AcDbEntity
  8
0
100
AcDbLine
 10
106.7499999999999
 20
161.48
 30
0.0
 11
106.7499999999999
 21
162.98
 31
0.0
  0
LINE
  5
12CEF
330
1A
100
AcDbEntity
  8
0
100
AcDbLine
 10
107.7499999999999
 20
161.48
 30
0.0
 11
107.7499999999999
 21
162.98
 31
0.0
  0
LINE
  5
12CF0
330
1A
100
AcDbEntity
  8
0
100
AcDbLine
 10
109.7499999999999
 20
158.94
 30
0.0
 11
109.7499999999999
 21
160.44
 31
0.0
  0
LINE
  5
12CF1
330
1A
100
AcDbEntity
  8
0
100
AcDbLine
 10
109.7499999999999
 20
161.48
 30
0.0
 11
109.7499999999999
 21
162.98
 31
0.0
  0
TEXT
  5
12CF2
330
1A
100
AcDbEntity
  8
SUNPOU
100
AcDbText
 10
111.4189979253312
 20
161.7667035396745
 30
0.0
 40
1.0
  1
4
 50
90.0
100
AcDbText
  0
TEXT
  5
12CF3
330
1A
100
AcDbEntity
  8
SUNPOU
100
AcDbText
 10
111.4189979253312
 20
159.2267035396744
 30
0.0
 40
1.0
  1
3
 50
90.0
100
AcDbText
  0
LINE
  5
12CF4
330
1A
100
AcDbEntity
  8
0
100
AcDbLine
 10
104.1999999999998
 20
169.965
 30
0.0
 11
100.4999999999999
 21
169.965
 31
0.0
  0
MTEXT
  5
12CF5
330
1A
100
AcDbEntity
  8
0
100
AcDbMText
 10
104.1999999999998
 20
172.39
 30
0.0
 40
2.5
 41
6.300000000000071
 71
     6
 72
     5
  1
{\fTahoma|b0|i0|c0|p34;L}
 73
     1
 44
1.0
1001
ACAD
1000
MTEXTBEGIN
1070
    73
1070
     1
1070
    44
1040
1.0
1070
    74
1070
     0
1000
MTEXTEND
  0
LINE
  5
12CF6
330
1A
100
AcDbEntity
  8
0
100
AcDbLine
 10
100.4999999999999
 20
169.965
 30
0.0
 11
100.4999999999999
 21
164.23
 31
0.0
  0
LINE
  5
12CF7
330
1A
100
AcDbEntity
  8
0
100
AcDbLine
 10
106.7499999999999
 20
168.0599999999999
 30
0.0
 11
109.7499999999999
 21
168.0599999999999
 31
0.0
  0
LINE
  5
12CF8
330
1A
100
AcDbEntity
  8
0
100
AcDbLine
 10
106.7499999999999
 20
165.5199999999999
 30
0.0
 11
109.7499999999999
 21
165.5199999999999
 31
0.0
  0
LINE
  5
12CF9
330
1A
100
AcDbEntity
  8
0
100
AcDbLine
 10
106.7499999999999
 20
166.5599999999999
 30
0.0
 11
109.7499999999999
 21
166.5599999999999
 31
0.0
  0
LINE
  5
12CFA
330
1A
100
AcDbEntity
  8
0
100
AcDbLine
 10
106.7499999999999
 20
164.02
 30
0.0
 11
109.7499999999999
 21
164.02
 31
0.0
  0
LINE
  5
12CFB
330
1A
100
AcDbEntity
  8
0
100
AcDbLine
 10
107.7499999999999
 20
164.02
 30
0.0
 11
107.7499999999999
 21
165.5199999999999
 31
0.0
  0
LINE
  5
12CFC
330
1A
100
AcDbEntity
  8
0
100
AcDbLine
 10
106.7499999999999
 20
164.02
 30
0.0
 11
106.7499999999999
 21
165.5199999999999
 31
0.0
  0
LINE
  5
12CFD
330
1A
100
AcDbEntity
  8
0
100
AcDbLine
 10
106.7499999999999
 20
166.5599999999999
 30
0.0
 11
106.7499999999999
 21
168.0599999999999
 31
0.0
  0
LINE
  5
12CFE
330
1A
100
AcDbEntity
  8
0
100
AcDbLine
 10
107.7499999999999
 20
166.5599999999999
 30
0.0
 11
107.7499999999999
 21
168.0599999999999
 31
0.0
  0
LINE
  5
12CFF
330
1A
100
AcDbEntity
  8
0
100
AcDbLine
 10
109.7499999999999
 20
164.02
 30
0.0
 11
109.7499999999999
 21
165.5199999999999
 31
0.0
  0
LINE
  5
12D00
330
1A
100
AcDbEntity
  8
0
100
AcDbLine
 10
109.7499999999999
 20
166.5599999999999
 30
0.0
 11
109.7499999999999
 21
168.0599999999999
 31
0.0
  0
TEXT
  5
12D01
330
1A
100
AcDbEntity
  8
SUNPOU
100
AcDbText
 10
111.4189979253312
 20
164.3067035396746
 30
0.0
 40
1.0
  1
5
 50
90.0
100
AcDbText
  0
TEXT
  5
12D02
330
1A
100
AcDbEntity
  8
SUNPOU
100
AcDbText
 10
111.4189979253312
 20
166.8467035396745
 30
0.0
 40
1.0
  1
6
 50
90.0
100
AcDbText
  0
LINE
  5
12D03
330
1A
100
AcDbEntity
  8
SUNPOU
100
AcDbLine
 10
110.0999999999998
 20
173.64
 30
0.0
 11
106.6999999999999
 21
173.64
 31
0.0
  0
LINE
  5
12D04
330
1A
100
AcDbEntity
  8
0
100
AcDbLine
 10
106.7499999999999
 20
169.1
 30
0.0
 11
109.7499999999999
 21
169.1
 31
0.0
  0
LINE
  5
12D05
330
1A
100
AcDbEntity
  8
0
100
AcDbLine
 10
106.7499999999999
 20
173.14
 30
0.0
 11
109.7499999999999
 21
173.14
 31
0.0
  0
LINE
  5
12D06
330
1A
100
AcDbEntity
  8
0
100
AcDbLine
 10
106.7499999999999
 20
171.64
 30
0.0
 11
109.7499999999999
 21
171.64
 31
0.0
  0
LINE
  5
12D07
330
1A
100
AcDbEntity
  8
0
100
AcDbLine
 10
106.7499999999999
 20
170.6
 30
0.0
 11
109.7499999999999
 21
170.6
 31
0.0
  0
LINE
  5
12D08
330
1A
100
AcDbEntity
  8
0
100
AcDbLine
 10
107.7499999999999
 20
169.1
 30
0.0
 11
107.7499999999999
 21
170.6
 31
0.0
  0
LINE
  5
12D09
330
1A
100
AcDbEntity
  8
0
100
AcDbLine
 10
107.7499999999999
 20
171.64
 30
0.0
 11
107.7499999999999
 21
173.14
 31
0.0
  0
LINE
  5
12D0A
330
1A
100
AcDbEntity
  8
0
100
AcDbLine
 10
106.7499999999999
 20
169.1
 30
0.0
 11
106.7499999999999
 21
170.6
 31
0.0
  0
LINE
  5
12D0B
330
1A
100
AcDbEntity
  8
0
100
AcDbLine
 10
106.7499999999999
 20
171.64
 30
0.0
 11
106.7499999999999
 21
173.14
 31
0.0
  0
LINE
  5
12D0C
330
1A
100
AcDbEntity
  8
0
100
AcDbLine
 10
109.7499999999999
 20
169.1
 30
0.0
 11
109.7499999999999
 21
170.6
 31
0.0
  0
LINE
  5
12D0D
330
1A
100
AcDbEntity
  8
0
100
AcDbLine
 10
109.7499999999999
 20
171.64
 30
0.0
 11
109.7499999999999
 21
173.14
 31
0.0
  0
TEXT
  5
12D0E
330
1A
100
AcDbEntity
  8
SUNPOU
100
AcDbText
 10
111.4189979253312
 20
171.9267035396746
 30
0.0
 40
1.0
  1
8
 50
90.0
100
AcDbText
  0
TEXT
  5
12D0F
330
1A
100
AcDbEntity
  8
SUNPOU
100
AcDbText
 10
111.4189979253312
 20
169.3867035396745
 30
0.0
 40
1.0
  1
7
 50
90.0
100
AcDbText
  0
LINE
  5
12D10
330
1A
100
AcDbEntity
  8
0
100
AcDbLine
 10
112.6999999999998
 20
163.03
 30
0.0
 11
112.6999999999998
 21
163.9699999999999
 31
0.0
  0
LINE
  5
12D11
330
1A
100
AcDbEntity
  8
0
100
AcDbLine
 10
115.1999999999999
 20
169.965
 30
0.0
 11
113.6999999999998
 21
154.4949999999999
 31
0.0
  0
LINE
  5
12D12
330
1A
100
AcDbEntity
  8
0
100
AcDbLine
 10
113.6999999999998
 20
154.4949999999999
 30
0.0
 11
113.6999999999998
 21
169.965
 31
0.0
  0
LINE
  5
12D13
330
1A
100
AcDbEntity
  8
0
100
AcDbLine
 10
112.6999999999998
 20
152.3499999999999
 30
0.0
 11
112.6999999999998
 21
153.8099999999999
 31
0.0
  0
LINE
  5
12D14
330
1A
100
AcDbEntity
  8
0
100
AcDbLine
 10
112.6999999999998
 20
155.41
 30
0.0
 11
112.6999999999998
 21
156.3499999999999
 31
0.0
  0
LINE
  5
12D15
330
1A
100
AcDbEntity
  8
0
100
AcDbLine
 10
112.6999999999998
 20
160.49
 30
0.0
 11
112.6999999999998
 21
161.4299999999999
 31
0.0
  0
LINE
  5
12D16
330
1A
100
AcDbEntity
  8
0
100
AcDbLine
 10
112.6999999999998
 20
157.9499999999999
 30
0.0
 11
112.6999999999998
 21
158.89
 31
0.0
  0
LINE
  5
12D17
330
1A
100
AcDbEntity
  8
0
100
AcDbLine
 10
112.6999999999998
 20
168.1099999999999
 30
0.0
 11
112.6999999999998
 21
169.05
 31
0.0
  0
LINE
  5
12D18
330
1A
100
AcDbEntity
  8
0
100
AcDbLine
 10
112.6999999999998
 20
165.57
 30
0.0
 11
112.6999999999998
 21
166.5099999999999
 31
0.0
  0
LINE
  5
12D19
330
1A
100
AcDbEntity
  8
0
100
AcDbLine
 10
112.6999999999998
 20
170.65
 30
0.0
 11
112.6999999999998
 21
171.5899999999999
 31
0.0
  0
LINE
  5
12D1A
330
1A
100
AcDbEntity
  8
0
100
AcDbLine
 10
113.6999999999998
 20
169.965
 30
0.0
 11
115.1999999999999
 21
169.965
 31
0.0
  0
LINE
  5
12D1B
330
1A
100
AcDbEntity
  8
0
100
AcDbLine
 10
112.6999999999998
 20
173.19
 30
0.0
 11
112.6999999999998
 21
174.6499999999999
 31
0.0
  0
MTEXT
  5
12D1C
330
1A
100
AcDbEntity
  8
0
100
AcDbMText
 10
113.6999999999998
 20
172.39
 30
0.0
 40
2.5
 41
6.300000000000071
 71
     4
 72
     5
  1
{\fTahoma|b0|i0|c0|p34;H}
 73
     1
 44
1.0
1001
ACAD
1000
MTEXTBEGIN
1070
    73
1070
     1
1070
    44
1040
1.0
1070
    74
1070
     0
1000
MTEXTEND
  0
LINE
  5
12D1D
330
1A
100
AcDbEntity
  8
0
100
AcDbLine
 10
105.1999999999998
 20
175.15
 30
0.0
 11
112.6999999999998
 21
175.15
 31
0.0
  0
LINE
  5
12D1F
330
1A
100
AcDbEntity
  8
PARTS
100
AcDbLine
 10
109.4999999999999
 20
188.1101801655587
 30
0.0
 11
109.4999999999999
 21
185.8898198344413
 31
0.0
  0
LINE
  5
12D20
330
1A
100
AcDbEntity
  8
PARTS
100
AcDbLine
 10
108.8999999999999
 20
188.1101801655587
 30
0.0
 11
108.8999999999999
 21
185.8898198344413
 31
0.0
  0
CIRCLE
  5
12D21
330
1A
100
AcDbEntity
  8
PARTS
100
AcDbCircle
 10
109.1999999999998
 20
187.0
 30
0.0
 40
1.149999999999999
  0
LINE
  5
12D22
330
1A
100
AcDbEntity
  8
PARTS
100
AcDbLine
 10
107.5999999999999
 20
188.9209372712299
 30
0.0
 11
107.5999999999999
 21
185.0790627287701
 31
0.0
  0
LINE
  5
12D23
330
1A
100
AcDbEntity
  8
0
100
AcDbLine
 10
100.4999999999999
 20
187.0
 30
0.0
 11
100.4999999999999
 21
185.5
 31
0.0
  0
CIRCLE
  5
12D24
330
1A
100
AcDbEntity
  8
0
100
AcDbCircle
 10
109.1999999999998
 20
187.0
 30
0.0
 40
2.5
  0
LINE
  5
12D25
330
1A
100
AcDbEntity
  8
0
100
AcDbLine
 10
105.9999999999999
 20
180.0
 30
0.0
 11
100.4999999999999
 21
180.0
 31
0.0
  0
LINE
  5
12D26
330
1A
100
AcDbEntity
  8
0
100
AcDbLine
 10
100.4999999999999
 20
181.5
 30
0.0
 11
100.4999999999999
 21
180.0
 31
0.0
  0
CIRCLE
  5
12D27
330
1A
100
AcDbEntity
  8
PARTS
100
AcDbCircle
 10
109.1999999999998
 20
180.0
 30
0.0
 40
1.149999999999999
  0
LINE
  5
12D28
330
1A
100
AcDbEntity
  8
PARTS
100
AcDbLine
 10
108.8999999999999
 20
181.1101801655587
 30
0.0
 11
108.8999999999999
 21
178.8898198344413
 31
0.0
  0
LINE
  5
12D29
330
1A
100
AcDbEntity
  8
PARTS
100
AcDbLine
 10
107.5999999999999
 20
181.9209372712299
 30
0.0
 11
107.5999999999999
 21
178.0790627287701
 31
0.0
  0
LINE
  5
12D2A
330
1A
100
AcDbEntity
  8
PARTS
100
AcDbLine
 10
109.4999999999999
 20
181.1101801655587
 30
0.0
 11
109.4999999999999
 21
178.8898198344413
 31
0.0
  0
CIRCLE
  5
12D2B
330
1A
100
AcDbEntity
  8
0
100
AcDbCircle
 10
109.1999999999998
 20
180.0
 30
0.0
 40
2.5
  0
LINE
  5
12D2C
330
1A
100
AcDbEntity
  8
PARTS
100
AcDbLine
 10
107.6999999999999
 20
178.0
 30
0.0
 11
109.4999999999999
 21
178.0
 31
0.0
  0
LINE
  5
12D2D
330
1A
100
AcDbEntity
  8
PARTS
100
AcDbLine
 10
109.4999999999999
 20
178.0
 30
0.0
 11
109.4999999999999
 21
177.5180652708018
 31
0.0
  0
LINE
  5
12D2E
330
1A
100
AcDbEntity
  8
PARTS
100
AcDbLine
 10
107.6999999999999
 20
185.0
 30
0.0
 11
109.4999999999999
 21
185.0
 31
0.0
  0
LINE
  5
12D2F
330
1A
100
AcDbEntity
  8
PARTS
100
AcDbLine
 10
109.4999999999999
 20
185.0
 30
0.0
 11
109.4999999999999
 21
184.5180652708018
 31
0.0
  0
LINE
  5
12D30
330
1A
100
AcDbEntity
  8
0
100
AcDbLine
 10
105.9999999999999
 20
194.0
 30
0.0
 11
100.4999999999999
 21
194.0
 31
0.0
  0
LINE
  5
12D31
330
1A
100
AcDbEntity
  8
0
100
AcDbLine
 10
105.9999999999999
 20
187.0
 30
0.0
 11
100.4999999999999
 21
187.0
 31
0.0
  0
LINE
  5
12D32
330
1A
100
AcDbEntity
  8
0
100
AcDbLine
 10
100.4999999999999
 20
195.5
 30
0.0
 11
100.4999999999999
 21
194.0
 31
0.0
  0
LINE
  5
12D33
330
1A
100
AcDbEntity
  8
PARTS
100
AcDbLine
 10
107.5999999999999
 20
195.9209372712299
 30
0.0
 11
107.5999999999999
 21
192.0790627287701
 31
0.0
  0
CIRCLE
  5
12D34
330
1A
100
AcDbEntity
  8
0
100
AcDbCircle
 10
109.1999999999998
 20
194.0
 30
0.0
 40
2.5
  0
LINE
  5
12D35
330
1A
100
AcDbEntity
  8
PARTS
100
AcDbLine
 10
107.6999999999999
 20
192.0
 30
0.0
 11
109.4999999999999
 21
192.0
 31
0.0
  0
LINE
  5
12D36
330
1A
100
AcDbEntity
  8
PARTS
100
AcDbLine
 10
109.4999999999999
 20
192.0
 30
0.0
 11
109.4999999999999
 21
191.5180652708018
 31
0.0
  0
CIRCLE
  5
12D37
330
1A
100
AcDbEntity
  8
PARTS
100
AcDbCircle
 10
109.1999999999998
 20
194.0
 30
0.0
 40
1.149999999999999
  0
LINE
  5
12D38
330
1A
100
AcDbEntity
  8
PARTS
100
AcDbLine
 10
108.8999999999999
 20
195.1101801655587
 30
0.0
 11
108.8999999999999
 21
192.8898198344413
 31
0.0
  0
LINE
  5
12D39
330
1A
100
AcDbEntity
  8
PARTS
100
AcDbLine
 10
109.4999999999999
 20
195.1101801655587
 30
0.0
 11
109.4999999999999
 21
192.8898198344413
 31
0.0
  0
MTEXT
  5
12D3A
330
1A
100
AcDbEntity
  8
0
100
AcDbMText
 10
112.6999999999998
 20
187.0
 30
0.0
 40
2.5
 41
3.800000000000032
 71
     4
 72
     5
  1
{\fTahoma|b0|i0|c0|p34;C}
 73
     1
 44
1.0
1001
ACAD
1000
MTEXTBEGIN
1070
    73
1070
     1
1070
    44
1040
1.0
1070
    74
1070
     0
1000
MTEXTEND
  0
MTEXT
  5
12D3B
330
1A
100
AcDbEntity
  8
0
100
AcDbMText
 10
112.6999999999998
 20
180.0
 30
0.0
 40
2.5
 41
3.800000000000032
 71
     4
 72
     5
  1
{\fTahoma|b0|i0|c0|p34;F}
 73
     1
 44
1.0
1001
ACAD
1000
MTEXTBEGIN
1070
    73
1070
     1
1070
    44
1040
1.0
1070
    74
1070
     0
1000
MTEXTEND
  0
MTEXT
  5
12D3C
330
1A
100
AcDbEntity
  8
0
100
AcDbMText
 10
112.6999999999998
 20
194.0
 30
0.0
 40
2.5
 41
3.800000000000032
 71
     4
 72
     5
  1
{\fTahoma|b0|i0|c0|p34;F}
 73
     1
 44
1.0
1001
ACAD
1000
MTEXTBEGIN
1070
    73
1070
     1
1070
    44
1040
1.0
1070
    74
1070
     0
1000
MTEXTEND
  0
MTEXT
  5
12D3D
330
1A
100
AcDbEntity
  8
0
100
AcDbMText
 10
94.99999999999994
 20
210.5
 30
0.0
 40
2.5
 41
14.4
 71
     4
 72
     5
  1
{\fTahoma|b0|i0|c0|p34;TARE}
 73
     1
 44
1.0
1001
ACAD
1000
MTEXTBEGIN
1070
    73
1070
     1
1070
    44
1040
1.0
1070
    74
1070
     0
1000
MTEXTEND
  0
MTEXT
  5
12D3E
330
1A
100
AcDbEntity
  8
0
100
AcDbMText
 10
102.9999999999999
 20
220.5
 30
0.0
 40
2.5
 41
14.4
 71
     6
 72
     5
  1
{\fTahoma|b0|i0|c0|p34;CHECK}
 73
     1
 44
1.0
1001
ACAD
1000
MTEXTBEGIN
1070
    73
1070
     1
1070
    44
1040
1.0
1070
    74
1070
     0
1000
MTEXTEND
  0
MTEXT
  5
12D3F
330
1A
100
AcDbEntity
  8
0
100
AcDbMText
 10
87.00000000000009
 20
224.2899999999999
 30
0.0
 40
2.2
 41
10.0
 71
     8
 72
     5
  1
{\fTahoma|b0|i0|c0|p34;-SEN}
 11
-0.0000000000000002
 21
-1.0
 31
0.0
 73
     1
 44
1.0
1001
ACAD
1000
MTEXTBEGIN
1070
    73
1070
     1
1070
    44
1040
1.0
1070
    74
1070
     0
1000
MTEXTEND
  0
MTEXT
  5
12D40
330
1A
100
AcDbEntity
  8
0
100
AcDbMText
 10
72.00000000000009
 20
209.0499999999999
 30
0.0
 40
2.5
 41
5.907407407407408
 71
     6
 72
     5
  1
{\fTahoma|b0|i0|c0|p34;5}
 73
     1
 44
1.0
1001
ACAD
1000
MTEXTBEGIN
1070
    73
1070
     1
1070
    44
1040
1.0
1070
    74
1070
     0
1000
MTEXTEND
  0
MTEXT
  5
12D41
330
1A
100
AcDbEntity
  8
0
100
AcDbMText
 10
72.00000000000009
 20
201.4299999999999
 30
0.0
 40
2.5
 41
5.907407407407408
 71
     6
 72
     5
  1
{\fTahoma|b0|i0|c0|p34;6}
 73
     1
 44
1.0
1001
ACAD
1000
MTEXTBEGIN
1070
    73
1070
     1
1070
    44
1040
1.0
1070
    74
1070
     0
1000
MTEXTEND
  0
MTEXT
  5
12D42
330
1A
100
AcDbEntity
  8
0
100
AcDbMText
 10
72.00000000000009
 20
216.6699999999999
 30
0.0
 40
2.5
 41
5.907407407407408
 71
     6
 72
     5
  1
{\fTahoma|b0|i0|c0|p34;4}
 73
     1
 44
1.0
1001
ACAD
1000
MTEXTBEGIN
1070
    73
1070
     1
1070
    44
1040
1.0
1070
    74
1070
     0
1000
MTEXTEND
  0
MTEXT
  5
12D43
330
1A
100
AcDbEntity
  8
0
100
AcDbMText
 10
87.00000000000009
 20
209.0499999999999
 30
0.0
 40
2.2
 41
10.0
 71
     8
 72
     5
  1
{\fTahoma|b0|i0|c0|p34;+SIG}
 11
-0.0000000000000002
 21
-1.0
 31
0.0
 73
     1
 44
1.0
1001
ACAD
1000
MTEXTBEGIN
1070
    73
1070
     1
1070
    44
1040
1.0
1070
    74
1070
     0
1000
MTEXTEND
  0
MTEXT
  5
12D44
330
1A
100
AcDbEntity
  8
0
100
AcDbMText
 10
87.00000000000009
 20
201.4299999999999
 30
0.0
 40
2.2
 41
10.0
 71
     8
 72
     5
  1
{\fTahoma|b0|i0|c0|p34;-SIG}
 11
-0.0000000000000002
 21
-1.0
 31
0.0
 73
     1
 44
1.0
1001
ACAD
1000
MTEXTBEGIN
1070
    73
1070
     1
1070
    44
1040
1.0
1070
    74
1070
     0
1000
MTEXTEND
  0
MTEXT
  5
12D45
330
1A
100
AcDbEntity
  8
0
100
AcDbMText
 10
87.00000000000009
 20
216.6699999999999
 30
0.0
 40
2.2
 41
10.0
 71
     8
 72
     5
  1
{\fTahoma|b0|i0|c0|p34;-EXC}
 11
-0.0000000000000002
 21
-1.0
 31
0.0
 73
     1
 44
1.0
1001
ACAD
1000
MTEXTBEGIN
1070
    73
1070
     1
1070
    44
1040
1.0
1070
    74
1070
     0
1000
MTEXTEND
  0
MTEXT
  5
12D46
330
1A
100
AcDbEntity
  8
0
100
AcDbMText
 10
72.00000000000009
 20
231.9099999999999
 30
0.0
 40
2.5
 41
5.907407407407408
 71
     6
 72
     5
  1
{\fTahoma|b0|i0|c0|p34;2}
 73
     1
 44
1.0
1001
ACAD
1000
MTEXTBEGIN
1070
    73
1070
     1
1070
    44
1040
1.0
1070
    74
1070
     0
1000
MTEXTEND
  0
MTEXT
  5
12D47
330
1A
100
AcDbEntity
  8
0
100
AcDbMText
 10
72.00000000000009
 20
224.2899999999999
 30
0.0
 40
2.5
 41
5.907407407407408
 71
     6
 72
     5
  1
{\fTahoma|b0|i0|c0|p34;3}
 73
     1
 44
1.0
1001
ACAD
1000
MTEXTBEGIN
1070
    73
1070
     1
1070
    44
1040
1.0
1070
    74
1070
     0
1000
MTEXTEND
  0
MTEXT
  5
12D48
330
1A
100
AcDbEntity
  8
0
100
AcDbMText
 10
72.00000000000009
 20
239.5299999999999
 30
0.0
 40
2.5
 41
5.907407407407408
 71
     6
 72
     5
  1
{\fTahoma|b0|i0|c0|p34;1}
 73
     1
 44
1.0
1001
ACAD
1000
MTEXTBEGIN
1070
    73
1070
     1
1070
    44
1040
1.0
1070
    74
1070
     0
1000
MTEXTEND
  0
MTEXT
  5
12D49
330
1A
100
AcDbEntity
  8
0
100
AcDbMText
 10
87.00000000000009
 20
231.9099999999999
 30
0.0
 40
2.2
 41
10.0
 71
     8
 72
     5
  1
{\fTahoma|b0|i0|c0|p34;+SEN}
 11
-0.0000000000000002
 21
-1.0
 31
0.0
 73
     1
 44
1.0
1001
ACAD
1000
MTEXTBEGIN
1070
    73
1070
     1
1070
    44
1040
1.0
1070
    74
1070
     0
1000
MTEXTEND
  0
MTEXT
  5
12D4A
330
1A
100
AcDbEntity
  8
0
100
AcDbMText
 10
87.00000000000009
 20
239.5299999999999
 30
0.0
 40
2.2
 41
10.0
 71
     8
 72
     5
  1
{\fTahoma|b0|i0|c0|p34;+EXC}
 11
-0.0000000000000002
 21
-1.0
 31
0.0
 73
     1
 44
1.0
1001
ACAD
1000
MTEXTBEGIN
1070
    73
1070
     1
1070
    44
1040
1.0
1070
    74
1070
     0
1000
MTEXTEND
  0
LINE
  5
12D4B
330
1A
100
AcDbEntity
  8
0
100
AcDbLine
 10
113.9999999999999
 20
205.5
 30
0.0
 11
113.9999999999999
 21
225.5
 31
0.0
  0
LINE
  5
12D4C
330
1A
100
AcDbEntity
  8
0
100
AcDbLine
 10
103.9999999999999
 20
225.5
 30
0.0
 11
103.9999999999999
 21
205.5
 31
0.0
  0
INSERT
  5
12D4D
330
1A
100
AcDbEntity
  8
PARTS
100
AcDbBlockReference
  2
A$C1A9113A3
 10
113.9999998541151
 20
225.5000002600177
 30
0.0
 50
180.0
  0
INSERT
  5
12D4F
330
1A
100
AcDbEntity
  8
PARTS
100
AcDbBlockReference
  2
A$C1A9113A3
 10
113.9999998541151
 20
215.5000002600178
 30
0.0
 50
180.0
  0
LINE
  5
12D50
330
1A
100
AcDbEntity
  8
0
100
AcDbLine
 10
103.9999999999999
 20
205.5
 30
0.0
 11
113.9999999999999
 21
205.5
 31
0.0
  0
LINE
  5
12D53
330
1A
100
AcDbEntity
  8
0
100
AcDbLine
 10
105.9999999999999
 20
201.0
 30
0.0
 11
100.4999999999999
 21
201.0
 31
0.0
  0
LINE
  5
12D54
330
1A
100
AcDbEntity
  8
0
100
AcDbLine
 10
100.4999999999999
 20
201.0
 30
0.0
 11
100.4999999999999
 21
199.5
 31
0.0
  0
CIRCLE
  5
12D55
330
1A
100
AcDbEntity
  8
PARTS
100
AcDbCircle
 10
109.1999999999998
 20
201.0
 30
0.0
 40
1.149999999999999
  0
LINE
  5
12D56
330
1A
100
AcDbEntity
  8
PARTS
100
AcDbLine
 10
107.6999999999999
 20
199.0
 30
0.0
 11
109.4999999999999
 21
199.0
 31
0.0
  0
CIRCLE
  5
12D57
330
1A
100
AcDbEntity
  8
0
100
AcDbCircle
 10
109.1999999999998
 20
201.0
 30
0.0
 40
2.5
  0
LINE
  5
12D58
330
1A
100
AcDbEntity
  8
PARTS
100
AcDbLine
 10
107.5999999999999
 20
202.9209372712299
 30
0.0
 11
107.5999999999999
 21
199.0790627287701
 31
0.0
  0
LINE
  5
12D59
330
1A
100
AcDbEntity
  8
PARTS
100
AcDbLine
 10
108.8999999999999
 20
202.1101801655587
 30
0.0
 11
108.8999999999999
 21
199.8898198344413
 31
0.0
  0
LINE
  5
12D5A
330
1A
100
AcDbEntity
  8
PARTS
100
AcDbLine
 10
109.4999999999999
 20
202.1101801655587
 30
0.0
 11
109.4999999999999
 21
199.8898198344413
 31
0.0
  0
LINE
  5
12D5B
330
1A
100
AcDbEntity
  8
PARTS
100
AcDbLine
 10
109.4999999999999
 20
199.0
 30
0.0
 11
109.4999999999999
 21
198.5180652708018
 31
0.0
  0
MTEXT
  5
12D5C
330
1A
100
AcDbEntity
  8
0
100
AcDbMText
 10
112.6999999999998
 20
201.0
 30
0.0
 40
2.5
 41
3.800000000000032
 71
     4
 72
     5
  1
{\fTahoma|b0|i0|c0|p34;C}
 73
     1
 44
1.0
1001
ACAD
1000
MTEXTBEGIN
1070
    73
1070
     1
1070
    44
1040
1.0
1070
    74
1070
     0
1000
MTEXTEND
  0
CIRCLE
  5
12D5D
330
1A
100
AcDbEntity
  8
0
100
AcDbCircle
 10
110.8999999999999
 20
231.5
 30
0.0
 40
2.25
  0
LINE
  5
12D5E
330
1A
100
AcDbEntity
  8
0
100
AcDbLine
 10
113.9999999999999
 20
225.5
 30
0.0
 11
103.9999999999999
 21
225.5
 31
0.0
  0
CIRCLE
  5
12D5F
330
1A
100
AcDbEntity
  8
0
100
AcDbCircle
 10
110.9999999999999
 20
240.0
 30
0.0
 40
2.0
  0
CIRCLE
  5
12D60
330
1A
100
AcDbEntity
  8
PARTS
100
AcDbCircle
 10
110.9999999999999
 20
240.0
 30
0.0
 40
1.5
  0
MTEXT
  5
12D62
330
1A
100
AcDbEntity
  8
0
100
AcDbMText
 10
107.6499999999999
 20
231.5
 30
0.0
 40
2.5
 41
10.0
 71
     6
 72
     5
  1
{\fTahoma|b0|i0|c0|p34;ON}
 73
     1
 44
1.0
1001
ACAD
1000
MTEXTBEGIN
1070
    73
1070
     1
1070
    44
1040
1.0
1070
    74
1070
     0
1000
MTEXTEND
  0
CIRCLE
  5
12D63
330
1A
100
AcDbEntity
  8
PARTS
100
AcDbCircle
 10
110.8999999999999
 20
231.5
 30
0.0
 40
1.25
  0
LINE
  5
12D65
330
1A
100
AcDbEntity
  8
0
100
AcDbLine
 10
100.4999999999999
 20
231.5
 30
0.0
 11
100.4999999999999
 21
222.5
 31
0.0
  0
LINE
  5
12D66
330
1A
100
AcDbEntity
  8
0
100
AcDbLine
 10
102.4999999999999
 20
231.5
 30
0.0
 11
100.4999999999999
 21
231.5
 31
0.0
  0
MTEXT
  5
12D67
330
1A
100
AcDbEntity
  8
0
100
AcDbMText
 10
107.9999999999999
 20
240.0
 30
0.0
 40
2.5
 41
14.0
 71
     6
 72
     5
  1
{\fTahoma|b0|i0|c0|p34;POWER}
 73
     1
 44
1.0
1001
ACAD
1000
MTEXTBEGIN
1070
    73
1070
     1
1070
    44
1040
1.0
1070
    74
1070
     0
1000
MTEXTEND
  0
LINE
  5
12D68
330
1A
100
AcDbEntity
  8
0
100
AcDbLine
 10
85.99999999999999
 20
245.4299999999999
 30
0.0
 11
72.99999999999987
 21
245.4299999999999
 31
0.0
  0
LINE
  5
12D6B
330
1A
100
AcDbEntity
  8
SUNPOU
100
AcDbLine
 10
242.2000000000001
 20
135.05
 30
0.0
 11
242.2000000000001
 21
244.93
 31
0.0
  0
LINE
  5
12D6C
330
1A
100
AcDbEntity
  8
SUNPOU
100
AcDbLine
 10
238.4
 20
135.05
 30
0.0
 11
238.4
 21
244.93
 31
0.0
  0
LINE
  5
12D6D
330
1A
100
AcDbEntity
  8
0
100
AcDbLine
 10
240.2
 20
182.99
 30
0.0
 11
240.2
 21
181.77
 31
0.0
  0
LINE
  5
12D70
330
1A
100
AcDbEntity
  8
0
100
AcDbLine
 10
252.7000000000001
 20
143.6699999999999
 30
0.0
 11
252.7000000000001
 21
137.27
 31
0.0
  0
LINE
  5
12D71
330
1A
100
AcDbEntity
  8
0
100
AcDbLine
 10
249.2
 20
143.6699999999999
 30
0.0
 11
249.2
 21
137.27
 31
0.0
  0
LINE
  5
12D72
330
1A
100
AcDbEntity
  8
0
100
AcDbLine
 10
248.2
 20
143.1699999999999
 30
0.0
 11
248.2000000000001
 21
137.8699999999999
 31
0.0
  0
LINE
  5
12D73
330
1A
100
AcDbEntity
  8
0
100
AcDbLine
 10
246.7
 20
143.1699999999999
 30
0.0
 11
246.7
 21
137.8699999999999
 31
0.0
  0
ELLIPSE
  5
12D74
330
1A
100
AcDbEntity
  8
0
100
AcDbEllipse
 10
245.9
 20
140.4699999999999
 30
0.0
 11
-0.000000000000001
 21
-2.399999999999977
 31
0.0
210
0.0
220
0.0
230
1.0
 40
0.5416666666666529
 41
2.478718829939674
 42
6.946059130829823
  0
LINE
  5
12D75
330
1A
100
AcDbEntity
  8
0
100
AcDbLine
 10
240.2
 20
137.27
 30
0.0
 11
252.7
 21
137.27
 31
0.0
  0
LINE
  5
12D76
330
1A
100
AcDbEntity
  8
0
100
AcDbLine
 10
240.2
 20
137.27
 30
0.0
 11
240.2
 21
136.05
 31
0.0
  0
LINE
  5
12D77
330
1A
100
AcDbEntity
  8
SUNPOU
100
AcDbLine
 10
242.2000000000001
 20
135.05
 30
0.0
 11
238.4
 21
135.05
 31
0.0
  0
LINE
  5
12D78
330
1A
100
AcDbEntity
  8
0
100
AcDbLine
 10
249.2
 20
137.8699999999999
 30
0.0
 11
246.7
 21
137.8699999999999
 31
0.0
  0
LINE
  5
12D79
330
1A
100
AcDbEntity
  8
0
100
AcDbLine
 10
249.2
 20
136.05
 30
0.0
 11
249.2
 21
135.05
 31
0.0
  0
LINE
  5
12D7A
330
1A
100
AcDbEntity
  8
0
100
AcDbLine
 10
249.2
 20
166.53
 30
0.0
 11
249.2
 21
160.13
 31
0.0
  0
LINE
  5
12D7B
330
1A
100
AcDbEntity
  8
0
100
AcDbLine
 10
252.7000000000001
 20
166.53
 30
0.0
 11
252.7000000000001
 21
160.13
 31
0.0
  0
ELLIPSE
  5
12D7C
330
1A
100
AcDbEntity
  8
0
100
AcDbEllipse
 10
245.9
 20
163.3299999999999
 30
0.0
 11
-0.000000000000001
 21
-2.399999999999977
 31
0.0
210
0.0
220
0.0
230
1.0
 40
0.5416666666666529
 41
2.478718829939674
 42
6.946059130829823
  0
LINE
  5
12D7D
330
1A
100
AcDbEntity
  8
0
100
AcDbLine
 10
248.2
 20
166.0299999999999
 30
0.0
 11
248.2000000000001
 21
160.7299999999999
 31
0.0
  0
LINE
  5
12D7E
330
1A
100
AcDbEntity
  8
0
100
AcDbLine
 10
246.7
 20
166.0299999999999
 30
0.0
 11
246.7
 21
160.7299999999999
 31
0.0
  0
LINE
  5
12D7F
330
1A
100
AcDbEntity
  8
0
100
AcDbLine
 10
240.2
 20
152.51
 30
0.0
 11
240.2
 21
151.2899999999999
 31
0.0
  0
LINE
  5
12D80
330
1A
100
AcDbEntity
  8
0
100
AcDbLine
 10
240.2
 20
151.29
 30
0.0
 11
252.7000000000001
 21
151.29
 31
0.0
  0
LINE
  5
12D81
330
1A
100
AcDbEntity
  8
0
100
AcDbLine
 10
240.2
 20
144.8900000000001
 30
0.0
 11
252.7
 21
144.89
 31
0.0
  0
ELLIPSE
  5
12D82
330
1A
100
AcDbEntity
  8
0
100
AcDbEllipse
 10
245.9
 20
148.09
 30
0.0
 11
-0.000000000000001
 21
-2.399999999999977
 31
0.0
210
0.0
220
0.0
230
1.0
 40
0.5416666666666529
 41
2.478718829939674
 42
6.946059130829823
  0
LINE
  5
12D83
330
1A
100
AcDbEntity
  8
0
100
AcDbLine
 10
240.2
 20
143.6699999999999
 30
0.0
 11
252.7000000000001
 21
143.6699999999999
 31
0.0
  0
LINE
  5
12D84
330
1A
100
AcDbEntity
  8
0
100
AcDbLine
 10
240.2
 20
144.8899999999999
 30
0.0
 11
240.2
 21
143.6699999999999
 31
0.0
  0
LINE
  5
12D85
330
1A
100
AcDbEntity
  8
0
100
AcDbLine
 10
246.6999999999999
 20
150.79
 30
0.0
 11
249.2
 21
150.79
 31
0.0
  0
LINE
  5
12D86
330
1A
100
AcDbEntity
  8
0
100
AcDbLine
 10
249.2
 20
145.49
 30
0.0
 11
246.7
 21
145.49
 31
0.0
  0
LINE
  5
12D87
330
1A
100
AcDbEntity
  8
0
100
AcDbLine
 10
246.7
 20
150.79
 30
0.0
 11
246.7
 21
145.49
 31
0.0
  0
LINE
  5
12D88
330
1A
100
AcDbEntity
  8
0
100
AcDbLine
 10
248.2
 20
150.79
 30
0.0
 11
248.2000000000001
 21
145.49
 31
0.0
  0
LINE
  5
12D89
330
1A
100
AcDbEntity
  8
0
100
AcDbLine
 10
249.2
 20
151.29
 30
0.0
 11
249.2
 21
144.89
 31
0.0
  0
LINE
  5
12D8A
330
1A
100
AcDbEntity
  8
0
100
AcDbLine
 10
252.7000000000001
 20
151.29
 30
0.0
 11
252.7000000000001
 21
144.89
 31
0.0
  0
LINE
  5
12D8B
330
1A
100
AcDbEntity
  8
0
100
AcDbLine
 10
246.6999999999999
 20
143.1699999999999
 30
0.0
 11
249.2
 21
143.1699999999999
 31
0.0
  0
ELLIPSE
  5
12D8C
330
1A
100
AcDbEntity
  8
0
100
AcDbEllipse
 10
245.9
 20
155.6899999999999
 30
0.0
 11
-0.000000000000001
 21
-2.399999999999977
 31
0.0
210
0.0
220
0.0
230
1.0
 40
0.5416666666666529
 41
2.478718829939674
 42
6.946059130829823
  0
LINE
  5
12D8D
330
1A
100
AcDbEntity
  8
0
100
AcDbLine
 10
240.2
 20
158.91
 30
0.0
 11
252.7
 21
158.91
 31
0.0
  0
LINE
  5
12D8E
330
1A
100
AcDbEntity
  8
0
100
AcDbLine
 10
240.2
 20
152.51
 30
0.0
 11
252.7000000000001
 21
152.5099999999999
 31
0.0
  0
LINE
  5
12D8F
330
1A
100
AcDbEntity
  8
0
100
AcDbLine
 10
240.2
 20
160.13
 30
0.0
 11
252.7
 21
160.13
 31
0.0
  0
LINE
  5
12D90
330
1A
100
AcDbEntity
  8
0
100
AcDbLine
 10
240.2
 20
160.13
 30
0.0
 11
240.2
 21
158.91
 31
0.0
  0
LINE
  5
12D91
330
1A
100
AcDbEntity
  8
0
100
AcDbLine
 10
249.2
 20
158.91
 30
0.0
 11
249.2
 21
152.5099999999999
 31
0.0
  0
LINE
  5
12D92
330
1A
100
AcDbEntity
  8
0
100
AcDbLine
 10
252.7
 20
158.91
 30
0.0
 11
252.7000000000001
 21
152.51
 31
0.0
  0
LINE
  5
12D93
330
1A
100
AcDbEntity
  8
0
100
AcDbLine
 10
246.7
 20
158.39
 30
0.0
 11
246.7
 21
153.0899999999999
 31
0.0
  0
LINE
  5
12D94
330
1A
100
AcDbEntity
  8
0
100
AcDbLine
 10
248.2
 20
158.39
 30
0.0
 11
248.2000000000001
 21
153.0899999999999
 31
0.0
  0
LINE
  5
12D95
330
1A
100
AcDbEntity
  8
0
100
AcDbLine
 10
246.6999999999999
 20
158.39
 30
0.0
 11
249.2
 21
158.39
 31
0.0
  0
LINE
  5
12D96
330
1A
100
AcDbEntity
  8
0
100
AcDbLine
 10
249.2
 20
153.0899999999999
 30
0.0
 11
246.7
 21
153.0899999999999
 31
0.0
  0
LINE
  5
12D97
330
1A
100
AcDbEntity
  8
0
100
AcDbLine
 10
249.2
 20
160.7299999999999
 30
0.0
 11
246.7
 21
160.7299999999999
 31
0.0
  0
LINE
  5
12D98
330
1A
100
AcDbEntity
  8
0
100
AcDbLine
 10
249.2
 20
174.15
 30
0.0
 11
249.2
 21
167.7499999999999
 31
0.0
  0
LINE
  5
12D99
330
1A
100
AcDbEntity
  8
0
100
AcDbLine
 10
252.7
 20
174.15
 30
0.0
 11
252.7000000000001
 21
167.75
 31
0.0
  0
ELLIPSE
  5
12D9A
330
1A
100
AcDbEntity
  8
0
100
AcDbEllipse
 10
245.9
 20
170.9299999999999
 30
0.0
 11
-0.000000000000001
 21
-2.399999999999977
 31
0.0
210
0.0
220
0.0
230
1.0
 40
0.5416666666666529
 41
2.478718829939674
 42
6.946059130829823
  0
LINE
  5
12D9B
330
1A
100
AcDbEntity
  8
0
100
AcDbLine
 10
248.2
 20
173.63
 30
0.0
 11
248.2000000000001
 21
168.33
 31
0.0
  0
LINE
  5
12D9C
330
1A
100
AcDbEntity
  8
0
100
AcDbLine
 10
246.7
 20
173.63
 30
0.0
 11
246.7
 21
168.33
 31
0.0
  0
LINE
  5
12D9D
330
1A
100
AcDbEntity
  8
0
100
AcDbLine
 10
240.2000000000001
 20
167.75
 30
0.0
 11
252.7000000000001
 21
167.7499999999999
 31
0.0
  0
LINE
  5
12D9E
330
1A
100
AcDbEntity
  8
0
100
AcDbLine
 10
240.2000000000001
 20
166.53
 30
0.0
 11
252.7000000000001
 21
166.53
 31
0.0
  0
LINE
  5
12D9F
330
1A
100
AcDbEntity
  8
0
100
AcDbLine
 10
240.2
 20
167.75
 30
0.0
 11
240.2
 21
166.53
 31
0.0
  0
LINE
  5
12DA0
330
1A
100
AcDbEntity
  8
0
100
AcDbLine
 10
249.2
 20
168.33
 30
0.0
 11
246.7
 21
168.33
 31
0.0
  0
LINE
  5
12DA1
330
1A
100
AcDbEntity
  8
0
100
AcDbLine
 10
246.6999999999999
 20
166.0299999999999
 30
0.0
 11
249.2
 21
166.0299999999999
 31
0.0
  0
ELLIPSE
  5
12DA2
330
1A
100
AcDbEntity
  8
0
100
AcDbEllipse
 10
245.9
 20
178.5699999999999
 30
0.0
 11
-0.000000000000001
 21
-2.399999999999977
 31
0.0
210
0.0
220
0.0
230
1.0
 40
0.5416666666666529
 41
2.478718829939674
 42
6.946059130829823
  0
LINE
  5
12DA3
330
1A
100
AcDbEntity
  8
0
100
AcDbLine
 10
240.2000000000001
 20
181.77
 30
0.0
 11
252.7000000000001
 21
181.77
 31
0.0
  0
LINE
  5
12DA4
330
1A
100
AcDbEntity
  8
0
100
AcDbLine
 10
240.2000000000001
 20
175.37
 30
0.0
 11
252.7
 21
175.37
 31
0.0
  0
LINE
  5
12DA5
330
1A
100
AcDbEntity
  8
0
100
AcDbLine
 10
240.2000000000001
 20
174.15
 30
0.0
 11
252.7
 21
174.15
 31
0.0
  0
LINE
  5
12DA6
330
1A
100
AcDbEntity
  8
0
100
AcDbLine
 10
240.2
 20
175.37
 30
0.0
 11
240.2
 21
174.15
 31
0.0
  0
LINE
  5
12DA7
330
1A
100
AcDbEntity
  8
0
100
AcDbLine
 10
249.2
 20
181.77
 30
0.0
 11
249.2
 21
175.37
 31
0.0
  0
LINE
  5
12DA8
330
1A
100
AcDbEntity
  8
0
100
AcDbLine
 10
252.7000000000001
 20
181.77
 30
0.0
 11
252.7000000000001
 21
175.37
 31
0.0
  0
LINE
  5
12DA9
330
1A
100
AcDbEntity
  8
0
100
AcDbLine
 10
248.2
 20
181.2699999999999
 30
0.0
 11
248.2000000000001
 21
175.97
 31
0.0
  0
LINE
  5
12DAA
330
1A
100
AcDbEntity
  8
0
100
AcDbLine
 10
246.7
 20
181.2699999999999
 30
0.0
 11
246.7
 21
175.97
 31
0.0
  0
LINE
  5
12DAB
330
1A
100
AcDbEntity
  8
0
100
AcDbLine
 10
246.7
 20
181.2699999999999
 30
0.0
 11
249.2
 21
181.2699999999999
 31
0.0
  0
LINE
  5
12DAC
330
1A
100
AcDbEntity
  8
0
100
AcDbLine
 10
246.6999999999999
 20
173.63
 30
0.0
 11
249.2
 21
173.63
 31
0.0
  0
LINE
  5
12DAD
330
1A
100
AcDbEntity
  8
0
100
AcDbLine
 10
249.2
 20
175.97
 30
0.0
 11
246.7
 21
175.97
 31
0.0
  0
LINE
  5
12DD8
330
1A
100
AcDbEntity
  8
0
100
AcDbLine
 10
255.2
 20
244.9300000000001
 30
0.0
 11
249.2
 21
244.93
 31
0.0
  0
LINE
  5
12DD9
330
1A
100
AcDbEntity
  8
0
100
AcDbLine
 10
240.2000000000001
 20
243.95
 30
0.0
 11
255.2
 21
243.9500000000001
 31
0.0
  0
LINE
  5
12DDA
330
1A
100
AcDbEntity
  8
0
100
AcDbLine
 10
249.2
 20
227.49
 30
0.0
 11
249.2000000000001
 21
221.09
 31
0.0
  0
LINE
  5
12DDB
330
1A
100
AcDbEntity
  8
0
100
AcDbLine
 10
252.7000000000001
 20
227.49
 30
0.0
 11
252.7000000000001
 21
221.09
 31
0.0
  0
LINE
  5
12DDC
330
1A
100
AcDbEntity
  8
0
100
AcDbLine
 10
249.2000000000001
 20
204.63
 30
0.0
 11
249.2000000000001
 21
198.23
 31
0.0
  0
LINE
  5
12DDD
330
1A
100
AcDbEntity
  8
0
100
AcDbLine
 10
252.7000000000001
 20
204.63
 30
0.0
 11
252.7000000000001
 21
198.23
 31
0.0
  0
ELLIPSE
  5
12DDE
330
1A
100
AcDbEntity
  8
0
100
AcDbEllipse
 10
245.9000000000001
 20
201.4299999999999
 30
0.0
 11
-0.000000000000001
 21
-2.399999999999977
 31
0.0
210
0.0
220
0.0
230
1.0
 40
0.5416666666666529
 41
2.478718829939674
 42
6.946059130829823
  0
LINE
  5
12DDF
330
1A
100
AcDbEntity
  8
0
100
AcDbLine
 10
246.7
 20
204.13
 30
0.0
 11
246.7
 21
198.83
 31
0.0
  0
LINE
  5
12DE0
330
1A
100
AcDbEntity
  8
0
100
AcDbLine
 10
248.2000000000001
 20
204.13
 30
0.0
 11
248.2000000000001
 21
198.83
 31
0.0
  0
ELLIPSE
  5
12DE1
330
1A
100
AcDbEntity
  8
0
100
AcDbEllipse
 10
245.9
 20
193.7899999999999
 30
0.0
 11
-0.000000000000001
 21
-2.399999999999977
 31
0.0
210
0.0
220
0.0
230
1.0
 40
0.5416666666666529
 41
2.478718829939674
 42
6.946059130829823
  0
LINE
  5
12DE2
330
1A
100
AcDbEntity
  8
0
100
AcDbLine
 10
248.2
 20
196.49
 30
0.0
 11
248.2000000000001
 21
191.19
 31
0.0
  0
LINE
  5
12DE3
330
1A
100
AcDbEntity
  8
0
100
AcDbLine
 10
246.7
 20
196.49
 30
0.0
 11
246.7
 21
191.19
 31
0.0
  0
LINE
  5
12DE4
330
1A
100
AcDbEntity
  8
0
100
AcDbLine
 10
249.2
 20
197.01
 30
0.0
 11
249.2000000000001
 21
190.6099999999999
 31
0.0
  0
LINE
  5
12DE5
330
1A
100
AcDbEntity
  8
0
100
AcDbLine
 10
252.7
 20
197.01
 30
0.0
 11
252.7000000000001
 21
190.61
 31
0.0
  0
ELLIPSE
  5
12DE6
330
1A
100
AcDbEntity
  8
0
100
AcDbEllipse
 10
245.9
 20
186.1899999999999
 30
0.0
 11
-0.000000000000001
 21
-2.399999999999977
 31
0.0
210
0.0
220
0.0
230
1.0
 40
0.5416666666666529
 41
2.478718829939674
 42
6.946059130829823
  0
LINE
  5
12DE7
330
1A
100
AcDbEntity
  8
0
100
AcDbLine
 10
240.2000000000001
 20
182.99
 30
0.0
 11
252.7000000000001
 21
182.9899999999999
 31
0.0
  0
LINE
  5
12DE8
330
1A
100
AcDbEntity
  8
0
100
AcDbLine
 10
240.2000000000001
 20
189.39
 30
0.0
 11
252.7000000000001
 21
189.39
 31
0.0
  0
LINE
  5
12DE9
330
1A
100
AcDbEntity
  8
0
100
AcDbLine
 10
240.2000000000001
 20
190.61
 30
0.0
 11
252.7000000000001
 21
190.6099999999999
 31
0.0
  0
LINE
  5
12DEA
330
1A
100
AcDbEntity
  8
0
100
AcDbLine
 10
240.2
 20
190.61
 30
0.0
 11
240.2
 21
189.39
 31
0.0
  0
LINE
  5
12DEB
330
1A
100
AcDbEntity
  8
0
100
AcDbLine
 10
252.7000000000001
 20
189.39
 30
0.0
 11
252.7000000000001
 21
182.99
 31
0.0
  0
LINE
  5
12DEC
330
1A
100
AcDbEntity
  8
0
100
AcDbLine
 10
249.2000000000001
 20
189.39
 30
0.0
 11
249.2
 21
182.99
 31
0.0
  0
LINE
  5
12DED
330
1A
100
AcDbEntity
  8
0
100
AcDbLine
 10
248.2
 20
188.8899999999999
 30
0.0
 11
248.2000000000001
 21
183.59
 31
0.0
  0
LINE
  5
12DEE
330
1A
100
AcDbEntity
  8
0
100
AcDbLine
 10
246.7
 20
188.8899999999999
 30
0.0
 11
246.7
 21
183.59
 31
0.0
  0
LINE
  5
12DEF
330
1A
100
AcDbEntity
  8
0
100
AcDbLine
 10
249.2
 20
183.59
 30
0.0
 11
246.7
 21
183.59
 31
0.0
  0
LINE
  5
12DF0
330
1A
100
AcDbEntity
  8
0
100
AcDbLine
 10
246.7
 20
188.8899999999999
 30
0.0
 11
249.2
 21
188.8899999999999
 31
0.0
  0
LINE
  5
12DF1
330
1A
100
AcDbEntity
  8
0
100
AcDbLine
 10
249.2
 20
191.19
 30
0.0
 11
246.7
 21
191.19
 31
0.0
  0
LINE
  5
12DF2
330
1A
100
AcDbEntity
  8
0
100
AcDbLine
 10
240.2000000000001
 20
198.23
 30
0.0
 11
252.7
 21
198.23
 31
0.0
  0
LINE
  5
12DF3
330
1A
100
AcDbEntity
  8
0
100
AcDbLine
 10
240.2000000000001
 20
197.01
 30
0.0
 11
252.7000000000001
 21
197.01
 31
0.0
  0
LINE
  5
12DF4
330
1A
100
AcDbEntity
  8
0
100
AcDbLine
 10
240.2000000000001
 20
198.23
 30
0.0
 11
240.2000000000001
 21
197.01
 31
0.0
  0
LINE
  5
12DF5
330
1A
100
AcDbEntity
  8
0
100
AcDbLine
 10
246.7
 20
196.49
 30
0.0
 11
249.2
 21
196.49
 31
0.0
  0
LINE
  5
12DF6
330
1A
100
AcDbEntity
  8
0
100
AcDbLine
 10
249.2
 20
198.83
 30
0.0
 11
246.7
 21
198.83
 31
0.0
  0
LINE
  5
12DF7
330
1A
100
AcDbEntity
  8
0
100
AcDbLine
 10
252.7000000000001
 20
212.25
 30
0.0
 11
252.7000000000001
 21
205.85
 31
0.0
  0
LINE
  5
12DF8
330
1A
100
AcDbEntity
  8
0
100
AcDbLine
 10
249.2
 20
212.25
 30
0.0
 11
249.2000000000001
 21
205.8499999999999
 31
0.0
  0
LINE
  5
12DF9
330
1A
100
AcDbEntity
  8
0
100
AcDbLine
 10
246.7
 20
211.73
 30
0.0
 11
246.7
 21
206.43
 31
0.0
  0
LINE
  5
12DFA
330
1A
100
AcDbEntity
  8
0
100
AcDbLine
 10
248.2000000000001
 20
211.73
 30
0.0
 11
248.2000000000001
 21
206.43
 31
0.0
  0
ELLIPSE
  5
12DFB
330
1A
100
AcDbEntity
  8
0
100
AcDbEllipse
 10
245.9000000000001
 20
209.03
 30
0.0
 11
-0.000000000000001
 21
-2.399999999999977
 31
0.0
210
0.0
220
0.0
230
1.0
 40
0.5416666666666529
 41
2.478718829939674
 42
6.946059130829823
  0
LINE
  5
12DFC
330
1A
100
AcDbEntity
  8
0
100
AcDbLine
 10
240.2000000000001
 20
205.85
 30
0.0
 11
252.7000000000001
 21
205.8499999999999
 31
0.0
  0
LINE
  5
12DFD
330
1A
100
AcDbEntity
  8
0
100
AcDbLine
 10
240.2000000000001
 20
204.63
 30
0.0
 11
252.7000000000001
 21
204.63
 31
0.0
  0
LINE
  5
12DFE
330
1A
100
AcDbEntity
  8
0
100
AcDbLine
 10
240.2000000000001
 20
205.85
 30
0.0
 11
240.2000000000001
 21
204.63
 31
0.0
  0
LINE
  5
12DFF
330
1A
100
AcDbEntity
  8
0
100
AcDbLine
 10
249.2
 20
206.43
 30
0.0
 11
246.7
 21
206.43
 31
0.0
  0
LINE
  5
12E00
330
1A
100
AcDbEntity
  8
0
100
AcDbLine
 10
246.7
 20
204.13
 30
0.0
 11
249.2
 21
204.13
 31
0.0
  0
ELLIPSE
  5
12E01
330
1A
100
AcDbEntity
  8
0
100
AcDbEllipse
 10
245.9000000000001
 20
216.67
 30
0.0
 11
-0.000000000000001
 21
-2.399999999999977
 31
0.0
210
0.0
220
0.0
230
1.0
 40
0.5416666666666529
 41
2.478718829939674
 42
6.946059130829823
  0
LINE
  5
12E02
330
1A
100
AcDbEntity
  8
0
100
AcDbLine
 10
240.2000000000001
 20
221.09
 30
0.0
 11
252.7000000000001
 21
221.09
 31
0.0
  0
LINE
  5
12E03
330
1A
100
AcDbEntity
  8
0
100
AcDbLine
 10
240.2000000000001
 20
219.87
 30
0.0
 11
252.7000000000001
 21
219.87
 31
0.0
  0
LINE
  5
12E04
330
1A
100
AcDbEntity
  8
0
100
AcDbLine
 10
240.2000000000001
 20
212.25
 30
0.0
 11
252.7000000000001
 21
212.25
 31
0.0
  0
LINE
  5
12E05
330
1A
100
AcDbEntity
  8
0
100
AcDbLine
 10
240.2000000000001
 20
213.47
 30
0.0
 11
252.7
 21
213.47
 31
0.0
  0
LINE
  5
12E06
330
1A
100
AcDbEntity
  8
0
100
AcDbLine
 10
240.2000000000001
 20
221.09
 30
0.0
 11
240.2000000000001
 21
219.87
 31
0.0
  0
LINE
  5
12E07
330
1A
100
AcDbEntity
  8
0
100
AcDbLine
 10
240.2000000000001
 20
213.47
 30
0.0
 11
240.2000000000001
 21
212.25
 31
0.0
  0
LINE
  5
12E08
330
1A
100
AcDbEntity
  8
0
100
AcDbLine
 10
249.2000000000001
 20
219.87
 30
0.0
 11
249.2000000000001
 21
213.47
 31
0.0
  0
LINE
  5
12E09
330
1A
100
AcDbEntity
  8
0
100
AcDbLine
 10
252.7000000000001
 20
219.87
 30
0.0
 11
252.7000000000001
 21
213.47
 31
0.0
  0
LINE
  5
12E0A
330
1A
100
AcDbEntity
  8
0
100
AcDbLine
 10
246.7
 20
219.37
 30
0.0
 11
246.7
 21
214.07
 31
0.0
  0
LINE
  5
12E0B
330
1A
100
AcDbEntity
  8
0
100
AcDbLine
 10
248.2000000000001
 20
219.37
 30
0.0
 11
248.2000000000001
 21
214.07
 31
0.0
  0
LINE
  5
12E0C
330
1A
100
AcDbEntity
  8
0
100
AcDbLine
 10
246.7
 20
219.37
 30
0.0
 11
249.2
 21
219.37
 31
0.0
  0
LINE
  5
12E0D
330
1A
100
AcDbEntity
  8
0
100
AcDbLine
 10
249.2
 20
214.07
 30
0.0
 11
246.7
 21
214.07
 31
0.0
  0
LINE
  5
12E0E
330
1A
100
AcDbEntity
  8
0
100
AcDbLine
 10
246.7
 20
211.73
 30
0.0
 11
249.2
 21
211.73
 31
0.0
  0
LINE
  5
12E0F
330
1A
100
AcDbEntity
  8
0
100
AcDbLine
 10
248.2000000000001
 20
242.21
 30
0.0
 11
248.2000000000001
 21
236.91
 31
0.0
  0
LINE
  5
12E10
330
1A
100
AcDbEntity
  8
0
100
AcDbLine
 10
246.7000000000001
 20
242.21
 30
0.0
 11
246.7000000000001
 21
236.91
 31
0.0
  0
ELLIPSE
  5
12E11
330
1A
100
AcDbEntity
  8
0
100
AcDbEllipse
 10
245.9000000000001
 20
239.51
 30
0.0
 11
-0.000000000000001
 21
-2.399999999999977
 31
0.0
210
0.0
220
0.0
230
1.0
 40
0.5416666666666529
 41
2.478718829939674
 42
6.946059130829823
  0
LINE
  5
12E12
330
1A
100
AcDbEntity
  8
0
100
AcDbLine
 10
252.7000000000001
 20
242.73
 30
0.0
 11
252.7000000000001
 21
236.3300000000001
 31
0.0
  0
LINE
  5
12E13
330
1A
100
AcDbEntity
  8
0
100
AcDbLine
 10
249.2000000000001
 20
242.73
 30
0.0
 11
249.2000000000002
 21
236.33
 31
0.0
  0
LINE
  5
12E14
330
1A
100
AcDbEntity
  8
0
100
AcDbLine
 10
252.7000000000001
 20
235.11
 30
0.0
 11
252.7000000000001
 21
228.7100000000001
 31
0.0
  0
LINE
  5
12E15
330
1A
100
AcDbEntity
  8
0
100
AcDbLine
 10
249.2000000000002
 20
235.11
 30
0.0
 11
249.2000000000002
 21
228.7100000000001
 31
0.0
  0
ELLIPSE
  5
12E16
330
1A
100
AcDbEntity
  8
0
100
AcDbEllipse
 10
245.9000000000001
 20
231.91
 30
0.0
 11
-0.000000000000001
 21
-2.399999999999977
 31
0.0
210
0.0
220
0.0
230
1.0
 40
0.5416666666666529
 41
2.478718829939674
 42
6.946059130829823
  0
LINE
  5
12E17
330
1A
100
AcDbEntity
  8
0
100
AcDbLine
 10
248.2000000000001
 20
234.61
 30
0.0
 11
248.2000000000001
 21
229.31
 31
0.0
  0
LINE
  5
12E18
330
1A
100
AcDbEntity
  8
0
100
AcDbLine
 10
246.7000000000001
 20
234.61
 30
0.0
 11
246.7000000000001
 21
229.31
 31
0.0
  0
ELLIPSE
  5
12E19
330
1A
100
AcDbEntity
  8
0
100
AcDbEllipse
 10
245.9000000000001
 20
224.27
 30
0.0
 11
-0.000000000000001
 21
-2.399999999999977
 31
0.0
210
0.0
220
0.0
230
1.0
 40
0.5416666666666529
 41
2.478718829939674
 42
6.946059130829823
  0
LINE
  5
12E1A
330
1A
100
AcDbEntity
  8
0
100
AcDbLine
 10
240.2000000000001
 20
227.49
 30
0.0
 11
252.7000000000001
 21
227.49
 31
0.0
  0
LINE
  5
12E1B
330
1A
100
AcDbEntity
  8
0
100
AcDbLine
 10
240.2000000000001
 20
228.7100000000001
 30
0.0
 11
252.7000000000001
 21
228.7100000000001
 31
0.0
  0
LINE
  5
12E1C
330
1A
100
AcDbEntity
  8
0
100
AcDbLine
 10
240.2000000000001
 20
228.7100000000001
 30
0.0
 11
240.2000000000001
 21
227.49
 31
0.0
  0
LINE
  5
12E1D
330
1A
100
AcDbEntity
  8
0
100
AcDbLine
 10
246.7
 20
226.97
 30
0.0
 11
246.7
 21
221.67
 31
0.0
  0
LINE
  5
12E1E
330
1A
100
AcDbEntity
  8
0
100
AcDbLine
 10
248.2000000000001
 20
226.97
 30
0.0
 11
248.2000000000001
 21
221.67
 31
0.0
  0
LINE
  5
12E1F
330
1A
100
AcDbEntity
  8
0
100
AcDbLine
 10
249.2
 20
221.67
 30
0.0
 11
246.7
 21
221.67
 31
0.0
  0
LINE
  5
12E20
330
1A
100
AcDbEntity
  8
0
100
AcDbLine
 10
246.7
 20
226.97
 30
0.0
 11
249.2
 21
226.97
 31
0.0
  0
LINE
  5
12E21
330
1A
100
AcDbEntity
  8
0
100
AcDbLine
 10
249.2000000000001
 20
229.31
 30
0.0
 11
246.7000000000001
 21
229.31
 31
0.0
  0
LINE
  5
12E22
330
1A
100
AcDbEntity
  8
0
100
AcDbLine
 10
240.2000000000001
 20
235.11
 30
0.0
 11
252.7000000000001
 21
235.11
 31
0.0
  0
LINE
  5
12E23
330
1A
100
AcDbEntity
  8
0
100
AcDbLine
 10
240.2000000000001
 20
236.3300000000001
 30
0.0
 11
252.7000000000002
 21
236.33
 31
0.0
  0
LINE
  5
12E24
330
1A
100
AcDbEntity
  8
0
100
AcDbLine
 10
240.2000000000001
 20
236.3300000000001
 30
0.0
 11
240.2000000000001
 21
235.11
 31
0.0
  0
LINE
  5
12E25
330
1A
100
AcDbEntity
  8
0
100
AcDbLine
 10
249.2000000000001
 20
236.91
 30
0.0
 11
246.7000000000001
 21
236.91
 31
0.0
  0
LINE
  5
12E26
330
1A
100
AcDbEntity
  8
0
100
AcDbLine
 10
246.7
 20
234.61
 30
0.0
 11
249.2000000000001
 21
234.61
 31
0.0
  0
LINE
  5
12E27
330
1A
100
AcDbEntity
  8
0
100
AcDbLine
 10
240.2000000000001
 20
242.73
 30
0.0
 11
252.7000000000001
 21
242.73
 31
0.0
  0
LINE
  5
12E28
330
1A
100
AcDbEntity
  8
0
100
AcDbLine
 10
240.2000000000001
 20
243.9500000000001
 30
0.0
 11
240.2000000000001
 21
242.7300000000001
 31
0.0
  0
LINE
  5
12E29
330
1A
100
AcDbEntity
  8
SUNPOU
100
AcDbLine
 10
242.2000000000001
 20
244.93
 30
0.0
 11
238.4
 21
244.93
 31
0.0
  0
LINE
  5
12E2A
330
1A
100
AcDbEntity
  8
SUNPOU
100
AcDbLine
 10
249.2
 20
244.93
 30
0.0
 11
249.2
 21
243.9500000000001
 31
0.0
  0
LINE
  5
12E2B
330
1A
100
AcDbEntity
  8
0
100
AcDbLine
 10
246.7
 20
242.21
 30
0.0
 11
249.2000000000001
 21
242.21
 31
0.0
  0
TEXT
  5
12E65
330
1A
100
AcDbEntity
  8
WAKU
100
AcDbText
 10
317.6
 20
29.5
 30
0.0
 40
3.0
  1
検　図
 72
     4
 11
322.5
 21
31.0
 31
0.0
100
AcDbText
  0
LINE
  5
12E6A
330
1A
100
AcDbEntity
  8
WAKU
100
AcDbLine
 10
300.0
 20
13.0
 30
0.0
 11
300.0
 21
28.0
 31
0.0
  0
LINE
  5
12E78
330
1A
100
AcDbEntity
  8
0
100
AcDbLine
 10
240.2000000000001
 20
136.0500000000001
 30
0.0
 11
255.2
 21
136.05
 31
0.0
  0
LINE
  5
12E79
330
1A
100
AcDbEntity
  8
0
100
AcDbLine
 10
255.2
 20
135.07
 30
0.0
 11
249.2
 21
135.0700000000001
 31
0.0
  0
LINE
  5
12E8F
330
1A
100
AcDbEntity
  8
0
100
AcDbLine
 10
59.0
 20
151.2799999999998
 30
0.0
 11
59.0
 21
137.2799999999998
 31
0.0
  0
LINE
  5
12E90
330
1A
100
AcDbEntity
  8
0
100
AcDbLine
 10
65.0
 20
137.2799999999998
 30
0.0
 11
65.0
 21
151.2799999999998
 31
0.0
  0
TEXT
  5
12E91
330
1A
100
AcDbEntity
  8
0
100
AcDbText
 10
60.0
 20
150.9657142857141
 30
0.0
 40
4.0
  1
AC100V
 50
270.0
 41
0.6
 72
     4
 11
62.0
 21
144.2799999999998
 31
0.0
100
AcDbText
  0
LINE
  5
12E92
330
1A
100
AcDbEntity
  8
0
100
AcDbLine
 10
59.0
 20
137.2799999999998
 30
0.0
 11
65.0
 21
137.2799999999998
 31
0.0
  0
LINE
  5
12E93
330
1A
100
AcDbEntity
  8
0
100
AcDbLine
 10
65.0
 20
151.2799999999998
 30
0.0
 11
59.0
 21
151.2799999999998
 31
0.0
  0
VIEWPORT
  5
22
102
{ACAD_XDICTIONARY
360
12EAF
102
}
330
17
100
AcDbEntity
 67
     1
  8
0
100
AcDbViewport
 10
261.5176991150442
 20
154.7242978687078
 30
0.0
 40
523.0353982300885
 41
309.4485957374157
 68
     1
 69
     1
 12
261.5176991150442
 22
154.7242978687078
 13
0.0
 23
0.0
 14
1.0
 24
1.0
 15
10.0
 25
10.0
 16
0.0
 26
0.0
 36
1.0
 17
0.0
 27
0.0
 37
0.0
 42
50.0
 43
0.0
 44
0.0
 45
309.4485957374157
 50
0.0
 51
0.0
 72
   100
 90
    32768
  1

281
     0
 71
     1
 74
     0
110
0.0
120
0.0
130
0.0
111
1.0
121
0.0
131
0.0
112
0.0
122
1.0
132
0.0
 79
     0
146
0.0
  0
ENDSEC
  0
SECTION
  2
OBJECTS
  0
DICTIONARY
  5
C
330
0
100
AcDbDictionary
281
     1
  3
ACAD_COLOR
350
8AAA
  3
ACAD_GROUP
350
D
  3
ACAD_LAYOUT
350
8A9A
  3
ACAD_MATERIAL
350
8AA9
  3
ACAD_MLINESTYLE
350
E
  3
ACAD_PLOTSETTINGS
350
8A9B
  3
ACAD_PLOTSTYLENAME
350
8A98
  3
ACDBHEADERROUNDTRIPXREC
350
12EAC
  3
ACDBVARIABLEDICTIONARY
350
4B08
  3
CONTENTDICTIONARY
350
4210
  0
DICTIONARY
  5
11D08
330
2
100
AcDbDictionary
280
     1
281
     1
  3
ACAD_LAYERSTATES
360
11D09
  0
DICTIONARY
  5
12EAF
330
22
100
AcDbDictionary
280
     1
281
     1
  3
ACAD_XREC_ROUNDTRIP
360
12EB0
  0
DICTIONARY
  5
8AAA
102
{ACAD_REACTORS
330
C
102
}
330
C
100
AcDbDictionary
281
     1
  0
DICTIONARY
  5
D
102
{ACAD_REACTORS
330
C
102
}
330
C
100
AcDbDictionary
281
     1
  3
*A1
350
52E7
  3
*A10
350
5F6A
  3
*A11
350
FDE0
  3
*A12
350
8012
  3
*A13
350
8002
  3
*A14
350
6811
  3
*A15
350
6062
  3
*A16
350
808C
  3
*A17
350
6801
  3
*A18
350
5FEC
  3
*A19
350
FEAF
  3
*A2
350
808E
  3
*A20
350
10CA1
  3
*A21
350
71FC
  3
*A22
350
6802
  3
*A23
350
535F
  3
*A24
350
6085
  3
*A25
350
5E9C
  3
*A26
350
FEDF
  3
*A27
350
10CA7
  3
*A28
350
680C
  3
*A29
350
604B
  3
*A3
350
8003
  3
*A30
350
FDDA
  3
*A31
350
5E8D
  3
*A32
350
FFB0
  3
*A33
350
10CAF
  3
*A34
350
535E
  3
*A35
350
F06B
  3
*A36
350
FEAA
  3
*A37
350
6809
  3
*A38
350
FFF4
  3
*A39
350
F9F4
  3
*A4
350
8000
  3
*A40
350
605D
  3
*A41
350
FEDE
  3
*A42
350
680F
  3
*A43
350
5FE3
  3
*A44
350
FA12
  3
*A45
350
5FE9
  3
*A46
350
FFAF
  3
*A47
350
CFAD
  3
*A48
350
D051
  3
*A49
350
808D
  3
*A5
350
5FF1
  3
*A50
350
FFF3
  3
*A51
350
7006
  3
*A52
350
5F5B
  3
*A53
350
6805
  3
*A54
350
FFFD
  3
*A55
350
5FCE
  3
*A56
350
8209
  3
*A57
350
820A
  3
*A58
350
FFFE
  3
*A59
350
5EB8
  3
*A6
350
680B
  3
*A60
350
6807
  3
*A61
350
10113
  3
*A62
350
6810
  3
*A63
350
1111F
  3
*A64
350
10114
  3
*A65
350
71CC
  3
*A66
350
11120
  3
*A67
350
10115
  3
*A68
350
8208
  3
*A69
350
680D
  3
*A7
350
10116
  3
*A70
350
6C92
  3
*A71
350
601E
  3
*A72
350
F73C
  3
*A73
350
8001
  3
*A74
350
6806
  3
*A75
350
CFAC
  3
*A76
350
6804
  3
*A77
350
680A
  3
*A78
350
F9F9
  3
*A79
350
5FF2
  3
*A8
350
FA13
  3
*A80
350
6981
  3
*A81
350
8020
  3
*A82
350
EEDB
  3
*A83
350
5CF3
  3
*A84
350
6808
  3
*A85
350
680E
  3
*A86
350
6803
  3
*A87
350
71CD
  3
*A88
350
F9F3
  3
*A89
350
F9FA
  3
*A9
350
5FC9
  3
*A90
350
11121
  3
*A91
350
11122
  3
*A92
350
11468
  3
*A93
350
11469
  3
*A94
350
1146A
  3
*A95
350
1146B
  3
*A96
350
1146C
  3
*A97
350
1146D
  0
DICTIONARY
  5
8A9A
102
{ACAD_REACTORS
330
C
102
}
330
C
100
AcDbDictionary
281
     1
  3
Model
350
8A9C
  3
ﾚｲｱｳﾄ1
350
8A9D
  0
DICTIONARY
  5
8AA9
102
{ACAD_REACTORS
330
C
102
}
330
C
100
AcDbDictionary
281
     1
  0
DICTIONARY
  5
E
102
{ACAD_REACTORS
330
C
102
}
330
C
100
AcDbDictionary
281
     1
  3
STANDARD
350
13
  0
DICTIONARY
  5
8A9B
102
{ACAD_REACTORS
330
C
102
}
330
C
100
AcDbDictionary
281
     1
  0
ACDBDICTIONARYWDFLT
  5
8A98
102
{ACAD_REACTORS
330
C
102
}
330
C
100
AcDbDictionary
281
     1
  3
Normal
350
8A99
100
AcDbDictionaryWithDefault
340
8A99
  0
DICTIONARY
  5
12EAC
102
{ACAD_REACTORS
330
C
102
}
330
C
100
AcDbDictionary
281
     1
  3
COLORDICT
350
12EAE
  3
MATERIALDICT
350
12EAD
  0
DICTIONARY
  5
4B08
102
{ACAD_REACTORS
330
C
102
}
330
C
100
AcDbDictionary
281
     1
  3
DIMASSOC
350
8AA2
  3
PROJECTNAME
350
12EAA
  3
SORTENTS
350
4B09
  0
DICTIONARY
  5
4210
102
{ACAD_REACTORS
330
C
102
}
330
C
100
AcDbDictionary
281
     1
  0
DICTIONARY
  5
11D09
102
{ACAD_REACTORS
330
11D08
102
}
330
11D08
100
AcDbDictionary
281
     1
  0
XRECORD
  5
12EB0
102
{ACAD_REACTORS
330
12EAF
102
}
330
12EAF
100
AcDbXrecord
280
     1
102
SHADEPLOT
 70
     0
  0
GROUP
  5
52E7
102
{ACAD_REACTORS
330
D
102
}
330
D
100
AcDbGroup
300

 70
     1
 71
     1
  0
GROUP
  5
5F6A
102
{ACAD_REACTORS
330
D
102
}
330
D
100
AcDbGroup
300

 70
     1
 71
     1
  0
GROUP
  5
FDE0
102
{ACAD_REACTORS
330
D
102
}
330
D
100
AcDbGroup
300

 70
     1
 71
     1
  0
GROUP
  5
8012
102
{ACAD_REACTORS
330
D
102
}
330
D
100
AcDbGroup
300

 70
     1
 71
     1
  0
GROUP
  5
8002
102
{ACAD_REACTORS
330
D
102
}
330
D
100
AcDbGroup
300

 70
     1
 71
     1
  0
GROUP
  5
6811
102
{ACAD_REACTORS
330
D
102
}
330
D
100
AcDbGroup
300

 70
     1
 71
     1
  0
GROUP
  5
6062
102
{ACAD_REACTORS
330
D
102
}
330
D
100
AcDbGroup
300

 70
     1
 71
     1
  0
GROUP
  5
808C
102
{ACAD_REACTORS
330
D
102
}
330
D
100
AcDbGroup
300

 70
     1
 71
     1
  0
GROUP
  5
6801
102
{ACAD_REACTORS
330
D
102
}
330
D
100
AcDbGroup
300

 70
     1
 71
     1
  0
GROUP
  5
5FEC
102
{ACAD_REACTORS
330
D
102
}
330
D
100
AcDbGroup
300

 70
     1
 71
     1
  0
GROUP
  5
FEAF
102
{ACAD_REACTORS
330
D
102
}
330
D
100
AcDbGroup
300

 70
     1
 71
     1
  0
GROUP
  5
808E
102
{ACAD_REACTORS
330
D
102
}
330
D
100
AcDbGroup
300

 70
     1
 71
     1
  0
GROUP
  5
10CA1
102
{ACAD_REACTORS
330
D
102
}
330
D
100
AcDbGroup
300

 70
     1
 71
     1
  0
GROUP
  5
71FC
102
{ACAD_REACTORS
330
D
102
}
330
D
100
AcDbGroup
300

 70
     1
 71
     1
  0
GROUP
  5
6802
102
{ACAD_REACTORS
330
D
102
}
330
D
100
AcDbGroup
300

 70
     1
 71
     1
  0
GROUP
  5
535F
102
{ACAD_REACTORS
330
D
102
}
330
D
100
AcDbGroup
300

 70
     1
 71
     1
  0
GROUP
  5
6085
102
{ACAD_REACTORS
330
D
102
}
330
D
100
AcDbGroup
300

 70
     1
 71
     1
  0
GROUP
  5
5E9C
102
{ACAD_REACTORS
330
D
102
}
330
D
100
AcDbGroup
300

 70
     1
 71
     1
  0
GROUP
  5
FEDF
102
{ACAD_REACTORS
330
D
102
}
330
D
100
AcDbGroup
300

 70
     1
 71
     1
  0
GROUP
  5
10CA7
102
{ACAD_REACTORS
330
D
102
}
330
D
100
AcDbGroup
300

 70
     1
 71
     1
  0
GROUP
  5
680C
102
{ACAD_REACTORS
330
D
102
}
330
D
100
AcDbGroup
300

 70
     1
 71
     1
  0
GROUP
  5
604B
102
{ACAD_REACTORS
330
D
102
}
330
D
100
AcDbGroup
300

 70
     1
 71
     1
  0
GROUP
  5
8003
102
{ACAD_REACTORS
330
D
102
}
330
D
100
AcDbGroup
300

 70
     1
 71
     1
  0
GROUP
  5
FDDA
102
{ACAD_REACTORS
330
D
102
}
330
D
100
AcDbGroup
300

 70
     1
 71
     1
  0
GROUP
  5
5E8D
102
{ACAD_REACTORS
330
D
102
}
330
D
100
AcDbGroup
300

 70
     1
 71
     1
  0
GROUP
  5
FFB0
102
{ACAD_REACTORS
330
D
102
}
330
D
100
AcDbGroup
300

 70
     1
 71
     1
  0
GROUP
  5
10CAF
102
{ACAD_REACTORS
330
D
102
}
330
D
100
AcDbGroup
300

 70
     1
 71
     1
  0
GROUP
  5
535E
102
{ACAD_REACTORS
330
D
102
}
330
D
100
AcDbGroup
300

 70
     1
 71
     1
  0
GROUP
  5
F06B
102
{ACAD_REACTORS
330
D
102
}
330
D
100
AcDbGroup
300

 70
     1
 71
     1
  0
GROUP
  5
FEAA
102
{ACAD_REACTORS
330
D
102
}
330
D
100
AcDbGroup
300

 70
     1
 71
     1
  0
GROUP
  5
6809
102
{ACAD_REACTORS
330
D
102
}
330
D
100
AcDbGroup
300

 70
     1
 71
     1
  0
GROUP
  5
FFF4
102
{ACAD_REACTORS
330
D
102
}
330
D
100
AcDbGroup
300

 70
     1
 71
     1
  0
GROUP
  5
F9F4
102
{ACAD_REACTORS
330
D
102
}
330
D
100
AcDbGroup
300

 70
     1
 71
     1
  0
GROUP
  5
8000
102
{ACAD_REACTORS
330
D
102
}
330
D
100
AcDbGroup
300

 70
     1
 71
     1
  0
GROUP
  5
605D
102
{ACAD_REACTORS
330
D
102
}
330
D
100
AcDbGroup
300

 70
     1
 71
     1
  0
GROUP
  5
FEDE
102
{ACAD_REACTORS
330
D
102
}
330
D
100
AcDbGroup
300

 70
     1
 71
     1
  0
GROUP
  5
680F
102
{ACAD_REACTORS
330
D
102
}
330
D
100
AcDbGroup
300

 70
     1
 71
     1
  0
GROUP
  5
5FE3
102
{ACAD_REACTORS
330
D
102
}
330
D
100
AcDbGroup
300

 70
     1
 71
     1
  0
GROUP
  5
FA12
102
{ACAD_REACTORS
330
D
102
}
330
D
100
AcDbGroup
300

 70
     1
 71
     1
  0
GROUP
  5
5FE9
102
{ACAD_REACTORS
330
D
102
}
330
D
100
AcDbGroup
300

 70
     1
 71
     1
  0
GROUP
  5
FFAF
102
{ACAD_REACTORS
330
D
102
}
330
D
100
AcDbGroup
300

 70
     1
 71
     1
  0
GROUP
  5
CFAD
102
{ACAD_REACTORS
330
D
102
}
330
D
100
AcDbGroup
300

 70
     1
 71
     1
  0
GROUP
  5
D051
102
{ACAD_REACTORS
330
D
102
}
330
D
100
AcDbGroup
300

 70
     1
 71
     1
  0
GROUP
  5
808D
102
{ACAD_REACTORS
330
D
102
}
330
D
100
AcDbGroup
300

 70
     1
 71
     1
  0
GROUP
  5
5FF1
102
{ACAD_REACTORS
330
D
102
}
330
D
100
AcDbGroup
300

 70
     1
 71
     1
  0
GROUP
  5
FFF3
102
{ACAD_REACTORS
330
D
102
}
330
D
100
AcDbGroup
300

 70
     1
 71
     1
  0
GROUP
  5
7006
102
{ACAD_REACTORS
330
D
102
}
330
D
100
AcDbGroup
300

 70
     1
 71
     1
  0
GROUP
  5
5F5B
102
{ACAD_REACTORS
330
D
102
}
330
D
100
AcDbGroup
300

 70
     1
 71
     1
  0
GROUP
  5
6805
102
{ACAD_REACTORS
330
D
102
}
330
D
100
AcDbGroup
300

 70
     1
 71
     1
  0
GROUP
  5
FFFD
102
{ACAD_REACTORS
330
D
102
}
330
D
100
AcDbGroup
300

 70
     1
 71
     1
  0
GROUP
  5
5FCE
102
{ACAD_REACTORS
330
D
102
}
330
D
100
AcDbGroup
300

 70
     1
 71
     1
  0
GROUP
  5
8209
102
{ACAD_REACTORS
330
D
102
}
330
D
100
AcDbGroup
300

 70
     1
 71
     1
  0
GROUP
  5
820A
102
{ACAD_REACTORS
330
D
102
}
330
D
100
AcDbGroup
300

 70
     1
 71
     1
  0
GROUP
  5
FFFE
102
{ACAD_REACTORS
330
D
102
}
330
D
100
AcDbGroup
300

 70
     1
 71
     1
  0
GROUP
  5
5EB8
102
{ACAD_REACTORS
330
D
102
}
330
D
100
AcDbGroup
300

 70
     1
 71
     1
  0
GROUP
  5
680B
102
{ACAD_REACTORS
330
D
102
}
330
D
100
AcDbGroup
300

 70
     1
 71
     1
  0
GROUP
  5
6807
102
{ACAD_REACTORS
330
D
102
}
330
D
100
AcDbGroup
300

 70
     1
 71
     1
  0
GROUP
  5
10113
102
{ACAD_REACTORS
330
D
102
}
330
D
100
AcDbGroup
300

 70
     1
 71
     1
  0
GROUP
  5
6810
102
{ACAD_REACTORS
330
D
102
}
330
D
100
AcDbGroup
300

 70
     1
 71
     1
  0
GROUP
  5
1111F
102
{ACAD_REACTORS
330
D
102
}
330
D
100
AcDbGroup
300

 70
     1
 71
     1
  0
GROUP
  5
10114
102
{ACAD_REACTORS
330
D
102
}
330
D
100
AcDbGroup
300

 70
     1
 71
     1
  0
GROUP
  5
71CC
102
{ACAD_REACTORS
330
D
102
}
330
D
100
AcDbGroup
300

 70
     1
 71
     1
  0
GROUP
  5
11120
102
{ACAD_REACTORS
330
D
102
}
330
D
100
AcDbGroup
300

 70
     1
 71
     1
  0
GROUP
  5
10115
102
{ACAD_REACTORS
330
D
102
}
330
D
100
AcDbGroup
300

 70
     1
 71
     1
  0
GROUP
  5
8208
102
{ACAD_REACTORS
330
D
102
}
330
D
100
AcDbGroup
300

 70
     1
 71
     1
  0
GROUP
  5
680D
102
{ACAD_REACTORS
330
D
102
}
330
D
100
AcDbGroup
300

 70
     1
 71
     1
  0
GROUP
  5
10116
102
{ACAD_REACTORS
330
D
102
}
330
D
100
AcDbGroup
300

 70
     1
 71
     1
  0
GROUP
  5
6C92
102
{ACAD_REACTORS
330
D
102
}
330
D
100
AcDbGroup
300

 70
     1
 71
     1
  0
GROUP
  5
601E
102
{ACAD_REACTORS
330
D
102
}
330
D
100
AcDbGroup
300

 70
     1
 71
     1
  0
GROUP
  5
F73C
102
{ACAD_REACTORS
330
D
102
}
330
D
100
AcDbGroup
300

 70
     1
 71
     1
  0
GROUP
  5
8001
102
{ACAD_REACTORS
330
D
102
}
330
D
100
AcDbGroup
300

 70
     1
 71
     1
  0
GROUP
  5
6806
102
{ACAD_REACTORS
330
D
102
}
330
D
100
AcDbGroup
300

 70
     1
 71
     1
  0
GROUP
  5
CFAC
102
{ACAD_REACTORS
330
D
102
}
330
D
100
AcDbGroup
300

 70
     1
 71
     1
  0
GROUP
  5
6804
102
{ACAD_REACTORS
330
D
102
}
330
D
100
AcDbGroup
300

 70
     1
 71
     1
  0
GROUP
  5
680A
102
{ACAD_REACTORS
330
D
102
}
330
D
100
AcDbGroup
300

 70
     1
 71
     1
  0
GROUP
  5
F9F9
102
{ACAD_REACTORS
330
D
102
}
330
D
100
AcDbGroup
300

 70
     1
 71
     1
  0
GROUP
  5
5FF2
102
{ACAD_REACTORS
330
D
102
}
330
D
100
AcDbGroup
300

 70
     1
 71
     1
  0
GROUP
  5
FA13
102
{ACAD_REACTORS
330
D
102
}
330
D
100
AcDbGroup
300

 70
     1
 71
     1
  0
GROUP
  5
6981
102
{ACAD_REACTORS
330
D
102
}
330
D
100
AcDbGroup
300

 70
     1
 71
     1
  0
GROUP
  5
8020
102
{ACAD_REACTORS
330
D
102
}
330
D
100
AcDbGroup
300

 70
     1
 71
     1
  0
GROUP
  5
EEDB
102
{ACAD_REACTORS
330
D
102
}
330
D
100
AcDbGroup
300

 70
     1
 71
     1
  0
GROUP
  5
5CF3
102
{ACAD_REACTORS
330
D
102
}
330
D
100
AcDbGroup
300

 70
     1
 71
     1
  0
GROUP
  5
6808
102
{ACAD_REACTORS
330
D
102
}
330
D
100
AcDbGroup
300

 70
     1
 71
     1
  0
GROUP
  5
680E
102
{ACAD_REACTORS
330
D
102
}
330
D
100
AcDbGroup
300

 70
     1
 71
     1
  0
GROUP
  5
6803
102
{ACAD_REACTORS
330
D
102
}
330
D
100
AcDbGroup
300

 70
     1
 71
     1
  0
GROUP
  5
71CD
102
{ACAD_REACTORS
330
D
102
}
330
D
100
AcDbGroup
300

 70
     1
 71
     1
  0
GROUP
  5
F9F3
102
{ACAD_REACTORS
330
D
102
}
330
D
100
AcDbGroup
300

 70
     1
 71
     1
  0
GROUP
  5
F9FA
102
{ACAD_REACTORS
330
D
102
}
330
D
100
AcDbGroup
300

 70
     1
 71
     1
  0
GROUP
  5
5FC9
102
{ACAD_REACTORS
330
D
102
}
330
D
100
AcDbGroup
300

 70
     1
 71
     1
  0
GROUP
  5
11121
102
{ACAD_REACTORS
330
D
102
}
330
D
100
AcDbGroup
300

 70
     1
 71
     1
  0
GROUP
  5
11122
102
{ACAD_REACTORS
330
D
102
}
330
D
100
AcDbGroup
300

 70
     1
 71
     1
  0
GROUP
  5
11468
102
{ACAD_REACTORS
330
D
102
}
330
D
100
AcDbGroup
300

 70
     1
 71
     1
  0
GROUP
  5
11469
102
{ACAD_REACTORS
330
D
102
}
330
D
100
AcDbGroup
300

 70
     1
 71
     1
  0
GROUP
  5
1146A
102
{ACAD_REACTORS
330
D
102
}
330
D
100
AcDbGroup
300

 70
     1
 71
     1
  0
GROUP
  5
1146B
102
{ACAD_REACTORS
330
D
102
}
330
D
100
AcDbGroup
300

 70
     1
 71
     1
  0
GROUP
  5
1146C
102
{ACAD_REACTORS
330
D
102
}
330
D
100
AcDbGroup
300

 70
     1
 71
     1
  0
GROUP
  5
1146D
102
{ACAD_REACTORS
330
D
102
}
330
D
100
AcDbGroup
300

 70
     1
 71
     1
  0
LAYOUT
  5
8A9C
102
{ACAD_XDICTIONARY
360
12EB1
102
}
102
{ACAD_REACTORS
330
8A9A
102
}
330
8A9A
100
AcDbPlotSettings
  1

  2
pdf_A3横.pc3
  4
A3
  6

 40
3.174999952316284
 41
3.174999952316284
 42
3.17498779296875
 43
3.17498779296875
 44
420.1583251953125
 45
297.0530090332031
 46
0.0
 47
0.0
 48
0.0
 49
0.0
140
0.0
141
0.0
142
1.0
143
1.0
 70
 11952
 72
     1
 73
     0
 74
     2
  7
TMI_pen_style.ctb
 75
    16
147
1.0
148
0.0
149
0.0
100
AcDbLayout
  1
Model
 70
     1
 71
     0
 10
0.0
 20
0.0
 11
12.0
 21
9.0
 12
0.0
 22
0.0
 32
0.0
 14
0.0
 24
0.0
 34
0.0
 15
0.0
 25
0.0
 35
0.0
146
0.0
 13
0.0
 23
0.0
 33
0.0
 16
1.0
 26
0.0
 36
0.0
 17
0.0
 27
1.0
 37
0.0
 76
     0
330
1A
  0
LAYOUT
  5
8A9D
102
{ACAD_XDICTIONARY
360
12EB3
102
}
102
{ACAD_REACTORS
330
8A9A
102
}
330
8A9A
100
AcDbPlotSettings
  1

  2
EPSON LP-8300 (TMINETWORK)
  4

  6

 40
0.0
 41
0.0
 42
0.0
 43
0.0
 44
0.0
 45
0.0
 46
0.0
 47
0.0
 48
0.0
 49
0.0
140
0.0
141
0.0
142
1.0
143
1.0
 70
   688
 72
     0
 73
     0
 74
     5
  7
C:\PROGRAM FILES\AUTOCAD LT 2002\Plot Styles\TMI_pen_style.ctb
 75
    16
147
1.0
148
0.0
149
0.0
100
AcDbLayout
  1
ﾚｲｱｳﾄ1
 70
     1
 71
     1
 10
0.0
 20
0.0
 11
420.0
 21
297.0
 12
0.0
 22
0.0
 32
0.0
 14
1.000000000000000E+20
 24
1.000000000000000E+20
 34
1.000000000000000E+20
 15
-1.000000000000000E+20
 25
-1.000000000000000E+20
 35
-1.000000000000000E+20
146
0.0
 13
0.0
 23
0.0
 33
0.0
 16
1.0
 26
0.0
 36
0.0
 17
0.0
 27
1.0
 37
0.0
 76
     0
330
17
331
22
  0
MLINESTYLE
  5
13
102
{ACAD_REACTORS
330
E
102
}
330
E
100
AcDbMlineStyle
  2
STANDARD
 70
     0
  3

 62
     0
 51
90.0
 52
90.0
 71
     2
 49
0.5
 62
   256
  6
BYLAYER
 49
-0.5
 62
   256
  6
BYLAYER
  0
ACDBPLACEHOLDER
  5
8A99
102
{ACAD_REACTORS
330
8A98
102
}
330
8A98
  0
XRECORD
  5
12EAE
102
{ACAD_REACTORS
330
12EAC
102
}
330
12EAC
100
AcDbXrecord
280
     1
340
8AAA
  0
XRECORD
  5
12EAD
102
{ACAD_REACTORS
330
12EAC
102
}
330
12EAC
100
AcDbXrecord
280
     1
340
8AA9
  0
DICTIONARYVAR
  5
8AA2
102
{ACAD_REACTORS
330
4B08
102
}
330
4B08
100
DictionaryVariables
280
     0
  1
1
  0
DICTIONARYVAR
  5
12EAA
102
{ACAD_REACTORS
330
4B08
102
}
330
4B08
100
DictionaryVariables
280
     0
  1

  0
DICTIONARYVAR
  5
4B09
102
{ACAD_REACTORS
330
4B08
102
}
330
4B08
100
DictionaryVariables
280
     0
  1
96
  0
DICTIONARY
  5
12EB1
330
8A9C
100
AcDbDictionary
280
     1
281
     1
  3
ACAD_XREC_ROUNDTRIP
360
12EB2
  0
DICTIONARY
  5
12EB3
330
8A9D
100
AcDbDictionary
280
     1
281
     1
  3
ACAD_XREC_ROUNDTRIP
360
12EB4
  0
XRECORD
  5
12EB2
102
{ACAD_REACTORS
330
12EB1
102
}
330
12EB1
100
AcDbXrecord
280
     1
102
SHADEPLOT
 70
     0
102
SHADEPLOTRESLEVEL
 70
     2
102
SHADEPLOTCUSTOMDPI
 70
   300
  0
XRECORD
  5
12EB4
102
{ACAD_REACTORS
330
12EB3
102
}
330
12EB3
100
AcDbXrecord
280
     1
102
SHADEPLOT
 70
     0
102
SHADEPLOTRESLEVEL
 70
     2
102
SHADEPLOTCUSTOMDPI
 70
   300
  0
ENDSEC
  0
EOF
