  0
SECTION
  2
HEADER
  9
$ACADVER
  1
AC1015
  9
$ACADMAINTVER
 70
    20
  9
$DWGCODEPAGE
  3
ANSI_932
  9
$INSBASE
 10
425.0
 20
209.4
 30
0.0
  9
$EXTMIN
 10
39.96460161167738
 20
9.997285330199247
 30
-0.0000000000000129
  9
$EXTMAX
 10
810.0329609052664
 20
560.0291761481542
 30
0.0000000000000023
  9
$LIMMIN
 10
0.0
 20
0.0
  9
$LIMMAX
 10
840.0
 20
594.0
  9
$ORTHOMODE
 70
     0
  9
$REGENMODE
 70
     1
  9
$FILLMODE
 70
     1
  9
$QTEXTMODE
 70
     0
  9
$MIRRTEXT
 70
     1
  9
$LTSCALE
 40
15.0
  9
$ATTMODE
 70
     1
  9
$TEXTSIZE
 40
5.0
  9
$TRACEWID
 40
1.0
  9
$TEXTSTYLE
  7
STANDARD
  9
$CLAYER
  8
SUNPOU
  9
$CELTYPE
  6
BYLAYER
  9
$CECOLOR
 62
   256
  9
$CELTSCALE
 40
1.0
  9
$DISPSILH
 70
     0
  9
$DIMSCALE
 40
0.0
  9
$DIMASZ
 40
5.0
  9
$DIMEXO
 40
0.5
  9
$DIMDLI
 40
10.0
  9
$DIMRND
 40
0.0
  9
$DIMDLE
 40
0.0
  9
$DIMEXE
 40
0.5
  9
$DIMTP
 40
0.0
  9
$DIMTM
 40
0.0
  9
$DIMTXT
 40
6.0
  9
$DIMCEN
 40
0.0
  9
$DIMTSZ
 40
0.0
  9
$DIMTOL
 70
     0
  9
$DIMLIM
 70
     0
  9
$DIMTIH
 70
     0
  9
$DIMTOH
 70
     0
  9
$DIMSE1
 70
     0
  9
$DIMSE2
 70
     0
  9
$DIMTAD
 70
     1
  9
$DIMZIN
 70
     0
  9
$DIMBLK
  1

  9
$DIMASO
 70
     1
  9
$DIMSHO
 70
     1
  9
$DIMPOST
  1

  9
$DIMAPOST
  1

  9
$DIMALT
 70
     0
  9
$DIMALTD
 70
     2
  9
$DIMALTF
 40
25.4
  9
$DIMLFAC
 40
1.0
  9
$DIMTOFL
 70
     0
  9
$DIMTVP
 40
0.0
  9
$DIMTIX
 70
     0
  9
$DIMSOXD
 70
     0
  9
$DIMSAH
 70
     1
  9
$DIMBLK1
  1
OPEN
  9
$DIMBLK2
  1
OPEN
  9
$DIMSTYLE
  2
STANDARD
  9
$DIMCLRD
 70
     0
  9
$DIMCLRE
 70
     0
  9
$DIMCLRT
 70
     0
  9
$DIMTFAC
 40
1.0
  9
$DIMGAP
 40
1.0
  9
$DIMJUST
 70
     0
  9
$DIMSD1
 70
     0
  9
$DIMSD2
 70
     0
  9
$DIMTOLJ
 70
     1
  9
$DIMTZIN
 70
     0
  9
$DIMALTZ
 70
     0
  9
$DIMALTTZ
 70
     0
  9
$DIMUPT
 70
     0
  9
$DIMDEC
 70
     2
  9
$DIMTDEC
 70
     2
  9
$DIMALTU
 70
     2
  9
$DIMALTTD
 70
     2
  9
$DIMTXSTY
  7
STANDARD
  9
$DIMAUNIT
 70
     0
  9
$DIMADEC
 70
     0
  9
$DIMALTRND
 40
0.0
  9
$DIMAZIN
 70
     0
  9
$DIMDSEP
 70
    46
  9
$DIMATFIT
 70
     3
  9
$DIMFRAC
 70
     0
  9
$DIMLDRBLK
  1

  9
$DIMLUNIT
 70
     2
  9
$DIMLWD
 70
    -2
  9
$DIMLWE
 70
    -2
  9
$DIMTMOVE
 70
     0
  9
$LUNITS
 70
     2
  9
$LUPREC
 70
     4
  9
$SKETCHINC
 40
1.0
  9
$FILLETRAD
 40
2.0
  9
$AUNITS
 70
     0
  9
$AUPREC
 70
     0
  9
$MENU
  1
.
  9
$ELEVATION
 40
0.0
  9
$PELEVATION
 40
0.0
  9
$THICKNESS
 40
0.0
  9
$LIMCHECK
 70
     0
  9
$CHAMFERA
 40
2.0
  9
$CHAMFERB
 40
2.0
  9
$CHAMFERC
 40
20.0
  9
$CHAMFERD
 40
0.0
  9
$SKPOLY
 70
     0
  9
$TDCREATE
 40
2450857.620429745
  9
$TDUCREATE
 40
2450857.245429745
  9
$TDUPDATE
 40
2455394.457462384
  9
$TDUUPDATE
 40
2455394.082462384
  9
$TDINDWG
 40
7.9247970486
  9
$TDUSRTIMER
 40
7.9247970486
  9
$USRTIMER
 70
     1
  9
$ANGBASE
 50
0.0
  9
$ANGDIR
 70
     0
  9
$PDMODE
 70
     0
  9
$PDSIZE
 40
0.0
  9
$PLINEWID
 40
0.0
  9
$SPLFRAME
 70
     0
  9
$SPLINETYPE
 70
     6
  9
$SPLINESEGS
 70
     8
  9
$HANDSEED
  5
F6A0
  9
$SURFTAB1
 70
     6
  9
$SURFTAB2
 70
     6
  9
$SURFTYPE
 70
     6
  9
$SURFU
 70
     6
  9
$SURFV
 70
     6
  9
$UCSBASE
  2

  9
$UCSNAME
  2

  9
$UCSORG
 10
0.0
 20
0.0
 30
0.0
  9
$UCSXDIR
 10
1.0
 20
0.0
 30
0.0
  9
$UCSYDIR
 10
0.0
 20
1.0
 30
0.0
  9
$UCSORTHOREF
  2

  9
$UCSORTHOVIEW
 70
     0
  9
$UCSORGTOP
 10
0.0
 20
0.0
 30
0.0
  9
$UCSORGBOTTOM
 10
0.0
 20
0.0
 30
0.0
  9
$UCSORGLEFT
 10
0.0
 20
0.0
 30
0.0
  9
$UCSORGRIGHT
 10
0.0
 20
0.0
 30
0.0
  9
$UCSORGFRONT
 10
0.0
 20
0.0
 30
0.0
  9
$UCSORGBACK
 10
0.0
 20
0.0
 30
0.0
  9
$PUCSBASE
  2

  9
$PUCSNAME
  2

  9
$PUCSORG
 10
0.0
 20
0.0
 30
0.0
  9
$PUCSXDIR
 10
1.0
 20
0.0
 30
0.0
  9
$PUCSYDIR
 10
0.0
 20
1.0
 30
0.0
  9
$PUCSORTHOREF
  2

  9
$PUCSORTHOVIEW
 70
     0
  9
$PUCSORGTOP
 10
0.0
 20
0.0
 30
0.0
  9
$PUCSORGBOTTOM
 10
0.0
 20
0.0
 30
0.0
  9
$PUCSORGLEFT
 10
0.0
 20
0.0
 30
0.0
  9
$PUCSORGRIGHT
 10
0.0
 20
0.0
 30
0.0
  9
$PUCSORGFRONT
 10
0.0
 20
0.0
 30
0.0
  9
$PUCSORGBACK
 10
0.0
 20
0.0
 30
0.0
  9
$USERI1
 70
     0
  9
$USERI2
 70
     0
  9
$USERI3
 70
     0
  9
$USERI4
 70
     0
  9
$USERI5
 70
     0
  9
$USERR1
 40
0.0
  9
$USERR2
 40
0.0
  9
$USERR3
 40
0.0
  9
$USERR4
 40
0.0
  9
$USERR5
 40
0.0
  9
$WORLDVIEW
 70
     1
  9
$SHADEDGE
 70
     3
  9
$SHADEDIF
 70
    70
  9
$TILEMODE
 70
     1
  9
$MAXACTVP
 70
    16
  9
$PINSBASE
 10
0.0
 20
0.0
 30
0.0
  9
$PLIMCHECK
 70
     0
  9
$PEXTMIN
 10
1.000000000000000E+20
 20
1.000000000000000E+20
 30
1.000000000000000E+20
  9
$PEXTMAX
 10
-1.000000000000000E+20
 20
-1.000000000000000E+20
 30
-1.000000000000000E+20
  9
$PLIMMIN
 10
0.0
 20
0.0
  9
$PLIMMAX
 10
420.0
 20
297.0
  9
$UNITMODE
 70
     0
  9
$VISRETAIN
 70
     0
  9
$PLINEGEN
 70
     0
  9
$PSLTSCALE
 70
     1
  9
$TREEDEPTH
 70
  3020
  9
$CMLSTYLE
  2
STANDARD
  9
$CMLJUST
 70
     0
  9
$CMLSCALE
 40
1.0
  9
$PROXYGRAPHICS
 70
     1
  9
$MEASUREMENT
 70
     1
  9
$CELWEIGHT
370
    -1
  9
$ENDCAPS
280
     0
  9
$JOINSTYLE
280
     0
  9
$LWDISPLAY
290
     0
  9
$INSUNITS
 70
     0
  9
$HYPERLINKBASE
  1

  9
$STYLESHEET
  1
TMI_pen_style.ctb
  9
$XEDIT
290
     1
  9
$CEPSNTYPE
380
     0
  9
$PSTYLEMODE
290
     1
  9
$FINGERPRINTGUID
  2
{E5272755-EC24-4B94-9EE6-F0544381B4F1}
  9
$VERSIONGUID
  2
{243E5587-A057-4F7C-BE60-9102088A1E90}
  9
$EXTNAMES
290
     1
  9
$PSVPSCALE
 40
0.0
  9
$OLESTARTUP
290
     0
  0
ENDSEC
  0
SECTION
  2
CLASSES
  0
CLASS
  1
DICTIONARYVAR
  2
AcDbDictionaryVar
  3
ObjectDBX Classes
 90
        0
280
     0
281
     0
  0
CLASS
  1
ACDBDICTIONARYWDFLT
  2
AcDbDictionaryWithDefault
  3
ObjectDBX Classes
 90
        0
280
     0
281
     0
  0
CLASS
  1
ACDBPLACEHOLDER
  2
AcDbPlaceHolder
  3
ObjectDBX Classes
 90
        0
280
     0
281
     0
  0
CLASS
  1
LAYOUT
  2
AcDbLayout
  3
ObjectDBX Classes
 90
        0
280
     0
281
     0
  0
ENDSEC
  0
SECTION
  2
TABLES
  0
TABLE
  2
VPORT
  5
8
330
0
100
AcDbSymbolTable
 70
     2
  0
VPORT
  5
F696
330
8
100
AcDbSymbolTableRecord
100
AcDbViewportTableRecord
  2
*Active
 70
     0
 10
0.0
 20
0.0
 11
1.0
 21
1.0
 12
420.0000000000001
 22
297.0
 13
0.0
 23
0.0
 14
0.5
 24
0.5
 15
5.0
 25
5.0
 16
0.0
 26
0.0
 36
1.0
 17
0.0
 27
0.0
 37
0.0
 40
600.6616822429907
 41
1.632958801498127
 42
50.0
 43
0.0
 44
0.0
 50
0.0
 51
0.0
 71
     0
 72
   100
 73
     1
 74
     0
 75
     1
 76
     0
 77
     0
 78
     0
281
     0
 65
     1
110
0.0
120
0.0
130
0.0
111
1.0
121
0.0
131
0.0
112
0.0
122
1.0
132
0.0
 79
     0
146
0.0
  0
ENDTAB
  0
TABLE
  2
LTYPE
  5
5
330
0
100
AcDbSymbolTable
 70
     3
  0
LTYPE
  5
14
330
5
100
AcDbSymbolTableRecord
100
AcDbLinetypeTableRecord
  2
BYBLOCK
 70
     0
  3

 72
    65
 73
     0
 40
0.0
  0
LTYPE
  5
15
330
5
100
AcDbSymbolTableRecord
100
AcDbLinetypeTableRecord
  2
BYLAYER
 70
     0
  3

 72
    65
 73
     0
 40
0.0
  0
LTYPE
  5
16
330
5
100
AcDbSymbolTableRecord
100
AcDbLinetypeTableRecord
  2
CONTINUOUS
 70
     0
  3
Solid line
 72
    65
 73
     0
 40
0.0
  0
LTYPE
  5
61
330
5
100
AcDbSymbolTableRecord
100
AcDbLinetypeTableRecord
  2
CENTER2
 70
     0
  3
___ _ ___ _ ___ _ ___ _ ___ _ ___ _ ___ _ ___ _
 72
    65
 73
     4
 40
1.125
 49
0.75
 74
     0
 49
-0.125
 74
     0
 49
0.125
 74
     0
 49
-0.125
 74
     0
  0
LTYPE
  5
62
330
5
100
AcDbSymbolTableRecord
100
AcDbLinetypeTableRecord
  2
DASHED2
 70
     0
  3
_ _ _ _ _ _ _ _ _ _ _ _ _ _ _ _ _ _ _ _ _ _ _ _
 72
    65
 73
     2
 40
0.375
 49
0.25
 74
     0
 49
-0.125
 74
     0
  0
ENDTAB
  0
TABLE
  2
LAYER
  5
2
330
0
100
AcDbSymbolTable
 70
     6
  0
LAYER
  5
F
330
2
100
AcDbSymbolTableRecord
100
AcDbLayerTableRecord
  2
0
 70
     0
 62
     7
  6
CONTINUOUS
370
    -3
390
B9E8
  0
LAYER
  5
63
330
2
100
AcDbSymbolTableRecord
100
AcDbLayerTableRecord
  2
WAKU
 70
     0
 62
     7
  6
CONTINUOUS
370
    -3
390
B9E8
  0
LAYER
  5
64
330
2
100
AcDbSymbolTableRecord
100
AcDbLayerTableRecord
  2
SUNPOU
 70
     0
 62
     5
  6
CONTINUOUS
370
    -3
390
B9E8
  0
LAYER
  5
65
330
2
100
AcDbSymbolTableRecord
100
AcDbLayerTableRecord
  2
CENTER
 70
     0
 62
    14
  6
CENTER2
370
    -3
390
B9E8
  0
LAYER
  5
66
330
2
100
AcDbSymbolTableRecord
100
AcDbLayerTableRecord
  2
KAGESEN
 70
     0
 62
     5
  6
DASHED2
370
    -3
390
B9E8
  0
LAYER
  5
7DC
330
2
100
AcDbSymbolTableRecord
100
AcDbLayerTableRecord
  2
DEFPOINTS
 70
     0
 62
     7
  6
CONTINUOUS
290
     0
370
    -3
390
B9E8
  0
ENDTAB
  0
TABLE
  2
STYLE
  5
3
330
0
100
AcDbSymbolTable
 70
     1
  0
STYLE
  5
10
330
3
100
AcDbSymbolTableRecord
100
AcDbTextStyleTableRecord
  2
STANDARD
 70
     0
 40
0.0
 41
1.0
 50
0.0
 71
     0
 42
5.0
  3
C:\Program Files\AutoCAD LT\romans.shx
  4
C:\Program Files\AutoCAD LT\extfont.shx
  0
ENDTAB
  0
TABLE
  2
VIEW
  5
6
330
0
100
AcDbSymbolTable
 70
     0
  0
ENDTAB
  0
TABLE
  2
UCS
  5
7
330
0
100
AcDbSymbolTable
 70
     0
  0
ENDTAB
  0
TABLE
  2
APPID
  5
9
330
0
100
AcDbSymbolTable
 70
     1
  0
APPID
  5
11
330
9
100
AcDbSymbolTableRecord
100
AcDbRegAppTableRecord
  2
ACAD
 70
     0
  0
ENDTAB
  0
TABLE
  2
DIMSTYLE
  5
A
330
0
100
AcDbSymbolTable
 70
     8
100
AcDbDimStyleTable
 71
     1
340
1D
  0
DIMSTYLE
105
1D
102
{ACAD_REACTORS
330
E631
330
E62B
330
E735
330
E734
330
E6D3
330
E629
330
E628
330
E65C
330
E632
330
E74A
330
EB4D
330
EC05
102
}
330
A
100
AcDbSymbolTableRecord
100
AcDbDimStyleTableRecord
  2
STANDARD
 70
     0
340
10
  0
DIMSTYLE
105
24
330
A
100
AcDbSymbolTableRecord
100
AcDbDimStyleTableRecord
  2
ISO-25
 70
     0
 41
2.5
 42
0.625
 43
3.75
 44
1.25
 74
     0
 77
     1
 78
     8
140
2.5
141
2.5
143
0.0394
145
1.0
147
0.625
172
     1
340
10
  0
DIMSTYLE
105
25
330
A
100
AcDbSymbolTableRecord
100
AcDbDimStyleTableRecord
  2
ISO-35
 70
     0
 41
3.5
 42
0.875
 43
5.25
 44
1.75
 74
     0
 77
     1
 78
     8
140
3.5
141
3.5
143
0.0394
145
1.399999999999999
147
0.875
172
     1
340
10
  0
DIMSTYLE
105
26
330
A
100
AcDbSymbolTableRecord
100
AcDbDimStyleTableRecord
  2
ISO-5
 70
     0
 41
5.0
 42
1.25
 43
7.5
 44
2.5
 74
     0
 77
     1
 78
     8
140
5.0
141
5.0
143
0.0394
145
2.0
147
1.25
172
     1
340
10
  0
DIMSTYLE
105
27
330
A
100
AcDbSymbolTableRecord
100
AcDbDimStyleTableRecord
  2
ISO-7
 70
     0
 41
7.0
 42
1.75
 43
10.5
 44
3.5
 74
     0
 77
     1
 78
     8
140
7.0
141
7.0
143
0.0394
145
2.799999999999999
147
1.75
172
     1
340
10
  0
DIMSTYLE
105
28
330
A
100
AcDbSymbolTableRecord
100
AcDbDimStyleTableRecord
  2
ISO1
 70
     0
 41
10.0
 42
2.5
 43
15.0
 44
5.0
 74
     0
 77
     1
 78
     8
140
10.0
141
10.0
143
0.0394
145
4.0
147
2.5
172
     1
340
10
  0
DIMSTYLE
105
29
330
A
100
AcDbSymbolTableRecord
100
AcDbDimStyleTableRecord
  2
ISO1-4
 70
     0
 41
14.0
 42
3.5
 43
21.0
 44
7.0
 74
     0
 77
     1
 78
     8
140
14.0
141
14.0
143
0.0394
145
5.599999999999999
147
3.5
172
     1
340
10
  0
DIMSTYLE
105
2A
330
A
100
AcDbSymbolTableRecord
100
AcDbDimStyleTableRecord
  2
ISO2
 70
     0
 41
20.0
 42
5.0
 43
30.0
 44
10.0
 74
     0
 77
     1
 78
     8
140
20.0
141
20.0
143
0.0394
145
8.0
147
5.0
172
     1
340
10
  0
ENDTAB
  0
TABLE
  2
BLOCK_RECORD
  5
1
330
0
100
AcDbSymbolTable
 70
    22
  0
BLOCK_RECORD
  5
1A
330
1
100
AcDbSymbolTableRecord
100
AcDbBlockTableRecord
  2
*MODEL_SPACE
340
B9ED
  0
BLOCK_RECORD
  5
17
330
1
100
AcDbSymbolTableRecord
100
AcDbBlockTableRecord
  2
*PAPER_SPACE
340
B9EE
  0
BLOCK_RECORD
  5
BA
330
1
100
AcDbSymbolTableRecord
100
AcDbBlockTableRecord
  2
_OPEN
340
0
102
{BLKREFS
331
E9C5
331
E9C6
331
E9F2
331
E9F3
331
EBAE
331
EBAF
331
EBB7
331
EBB8
331
EBC0
331
EBC1
331
EBC9
331
EBCA
331
EBD2
331
EBD3
331
EBDB
331
EBDC
331
EBE4
331
EBE5
331
F519
331
F51A
331
F650
331
F651
331
F669
331
F66A
102
}
  0
BLOCK_RECORD
  5
BE42
330
1
100
AcDbSymbolTableRecord
100
AcDbBlockTableRecord
  2
M8WS-1
340
0
102
{BLKREFS
331
BE45
331
D3F6
102
}
  0
BLOCK_RECORD
  5
BE46
330
1
100
AcDbSymbolTableRecord
100
AcDbBlockTableRecord
  2
M8-WS-1
340
0
310
2800000020000000200000000100080000000000000400000000000000000000000000000000000000000000000080000080000000808000800000008000800080800000C0C0C000C0DCC000F0CAA6000020400000206000002080000020A0000020C0000020E00000400000004020000040400000406000004080000040A0
310
000040C0000040E00000600000006020000060400000606000006080000060A0000060C0000060E00000800000008020000080400000806000008080000080A0000080C0000080E00000A0000000A0200000A0400000A0600000A0800000A0A00000A0C00000A0E00000C0000000C0200000C0400000C0600000C0800000C0
310
A00000C0C00000C0E00000E0000000E0200000E0400000E0600000E0800000E0A00000E0C00000E0E00040000000400020004000400040006000400080004000A0004000C0004000E00040200000402020004020400040206000402080004020A0004020C0004020E000404000004040200040404000404060004040800040
310
40A0004040C0004040E00040600000406020004060400040606000406080004060A0004060C0004060E00040800000408020004080400040806000408080004080A0004080C0004080E00040A0000040A0200040A0400040A0600040A0800040A0A00040A0C00040A0E00040C0000040C0200040C0400040C0600040C08000
310
40C0A00040C0C00040C0E00040E0000040E0200040E0400040E0600040E0800040E0A00040E0C00040E0E00080000000800020008000400080006000800080008000A0008000C0008000E00080200000802020008020400080206000802080008020A0008020C0008020E00080400000804020008040400080406000804080
310
008040A0008040C0008040E00080600000806020008060400080606000806080008060A0008060C0008060E00080800000808020008080400080806000808080008080A0008080C0008080E00080A0000080A0200080A0400080A0600080A0800080A0A00080A0C00080A0E00080C0000080C0200080C0400080C0600080C0
310
800080C0A00080C0C00080C0E00080E0000080E0200080E0400080E0600080E0800080E0A00080E0C00080E0E000C0000000C0002000C0004000C0006000C0008000C000A000C000C000C000E000C0200000C0202000C0204000C0206000C0208000C020A000C020C000C020E000C0400000C0402000C0404000C0406000C0
310
408000C040A000C040C000C040E000C0600000C0602000C0604000C0606000C0608000C060A000C060C000C060E000C0800000C0802000C0804000C0806000C0808000C080A000C080C000C080E000C0A00000C0A02000C0A04000C0A06000C0A08000C0A0A000C0A0C000C0A0E000C0C00000C0C02000C0C04000C0C06000
310
C0C08000C0C0A000F0FBFF00A4A0A000808080000000FF0000FF000000FFFF00FF000000FF00FF00FFFF0000FFFFFF00FFFFFFFFFFFFFFFFFFFFFFFFFFFFFFFFFFFFFFFFFFFFFFFFFFFFFFFFFFFFFFFFFFFFFFFFFFFFFFFFFFFFFFFFFFFFFFFFFFFFFFFFFFFFFFFFFFFFFFFFFFFFFFFFFFFFFFFFFFFFFFFFFFFFFFFFFFFFFF
310
FFFFFFFFFFFFFFFFFFFFFFFFFFFFFFFFFFFFFFFFFFFFFFFFFFFFFFFFFFFFFFFFFFFFFFFFFFFFFFFFFFFFFFFFFFFFFFFFFFFFFFFFFFFFFFFFFFFFFFFFFFFFFFFFFFFFFFFFFFFFFFFFFFFFFFFFFFFFFFFFFFFFFFFFFFFFFFFFFFFFFFFFFFFFFFFFFFFFFFFFFFFFFFFFFFFFFFFFFFFFFFFFFFFFFFFFFFFFFFFFFFFFFFFFFFFFFF
310
FFFFFFFFFFFFFFFFFFFFFFFFFFFFFFFFFFFFFFFFFFFFFFFFFFFFFFFFFFFFFFFFFFFFFFFFFFFFFFFFFFFFFFFFFFFFFFFFFFFFFF000000000000000000000000000000000000000000000000000000000000FFFF00FFFFFFFFFFFFFFFFFFFFFFFFFFFFFFFFFFFFFFFFFFFFFFFFFFFFFFFF00FFFF000000000000000000000000
310
000000000000000000000000000000000000FFFFFFFFFF00FFFFFFFFFFFFFFFFFFFF0000FFFFFFFFFFFFFFFFFFFF00FFFFFFFFFFFFFFFF00FFFFFFFFFFFFFFFFFFFF0000FFFFFFFFFFFFFFFFFFFF00FFFFFFFFFFFFFFFF00FFFFFFFFFFFFFFFFFFFF0000FFFFFFFFFFFFFFFFFFFF00FFFFFFFFFFFFFF000000000000000000
310
0000000000000000000000000000000000FFFFFFFFFFFF00FFFFFFFFFF00FFFFFFFFFFFFFFFFFFFFFFFF00FFFFFFFFFF00FFFFFFFFFFFF00FFFFFFFFFF00FFFFFFFFFFFFFFFFFFFFFFFF00FFFFFFFFFF00FFFFFFFFFFFF00FFFFFFFFFF00FFFFFFFFFFFFFFFFFFFFFFFF00FFFFFFFFFF00FFFFFFFFFFFF00FFFFFFFFFF00FF
310
FFFFFFFFFFFFFFFFFFFFFF00FFFFFFFFFF00FFFFFFFFFFFF00FFFFFFFFFF00FFFFFFFFFFFFFFFFFFFFFFFF00FFFFFFFFFF00FFFFFFFFFFFF00FFFFFFFFFF00FFFFFFFFFFFFFFFFFFFFFFFF00FFFFFFFFFF00FFFFFFFFFFFF00FFFFFFFFFF00FFFFFFFFFFFFFFFFFFFFFFFF00FFFFFFFFFF00FFFFFFFFFFFF000000FF000000
310
000000FFFFFFFFFFFF000000000000FF000000FFFFFFFFFFFFFFFF00000000000000000000000000000000000000000000FFFFFFFFFFFFFFFFFFFFFFFFFFFFFFFFFFFFFFFFFFFFFFFFFFFFFFFFFFFFFFFFFFFFFFFFFFFFFFFFFFFFFFFFFFFFFFFFFFFFFFFFFFFFFFFFFFFFFFFFFFFFFFFFFFFFFFFFFFFFFFFFFFFFFFFFFFFF
310
FFFFFFFFFFFFFFFFFFFFFFFFFFFFFFFFFFFFFFFFFFFFFFFFFFFFFFFFFFFFFFFFFFFFFFFFFFFFFFFFFFFFFFFFFFFFFFFFFFFFFFFFFFFFFFFFFFFFFFFFFFFFFFFFFFFFFFFFFFFFFFFFFFFFFFFFFFFFFFFFFFFFFFFFFFFFFFFFFFFFFFFFFFFFFFFFFFFFFFFFFFFFFFFFFFFFFFFFFFFFFFFFFFFFFFFFFFFFFFFFFFFFFFFFFFFFFF
310
FFFFFFFFFFFFFFFFFFFFFFFFFFFFFFFFFFFFFFFFFFFFFFFFFFFFFFFFFFFFFFFFFFFFFFFFFFFFFFFFFFFFFFFFFFFFFFFFFFFFFFFFFFFFFFFF
102
{BLKREFS
331
E74E
331
E836
102
}
  0
BLOCK_RECORD
  5
BE5C
330
1
100
AcDbSymbolTableRecord
100
AcDbBlockTableRecord
  2
M8-WS-2
340
0
310
2800000020000000200000000100080000000000000400000000000000000000000000000000000000000000000080000080000000808000800000008000800080800000C0C0C000C0DCC000F0CAA6000020400000206000002080000020A0000020C0000020E00000400000004020000040400000406000004080000040A0
310
000040C0000040E00000600000006020000060400000606000006080000060A0000060C0000060E00000800000008020000080400000806000008080000080A0000080C0000080E00000A0000000A0200000A0400000A0600000A0800000A0A00000A0C00000A0E00000C0000000C0200000C0400000C0600000C0800000C0
310
A00000C0C00000C0E00000E0000000E0200000E0400000E0600000E0800000E0A00000E0C00000E0E00040000000400020004000400040006000400080004000A0004000C0004000E00040200000402020004020400040206000402080004020A0004020C0004020E000404000004040200040404000404060004040800040
310
40A0004040C0004040E00040600000406020004060400040606000406080004060A0004060C0004060E00040800000408020004080400040806000408080004080A0004080C0004080E00040A0000040A0200040A0400040A0600040A0800040A0A00040A0C00040A0E00040C0000040C0200040C0400040C0600040C08000
310
40C0A00040C0C00040C0E00040E0000040E0200040E0400040E0600040E0800040E0A00040E0C00040E0E00080000000800020008000400080006000800080008000A0008000C0008000E00080200000802020008020400080206000802080008020A0008020C0008020E00080400000804020008040400080406000804080
310
008040A0008040C0008040E00080600000806020008060400080606000806080008060A0008060C0008060E00080800000808020008080400080806000808080008080A0008080C0008080E00080A0000080A0200080A0400080A0600080A0800080A0A00080A0C00080A0E00080C0000080C0200080C0400080C0600080C0
310
800080C0A00080C0C00080C0E00080E0000080E0200080E0400080E0600080E0800080E0A00080E0C00080E0E000C0000000C0002000C0004000C0006000C0008000C000A000C000C000C000E000C0200000C0202000C0204000C0206000C0208000C020A000C020C000C020E000C0400000C0402000C0404000C0406000C0
310
408000C040A000C040C000C040E000C0600000C0602000C0604000C0606000C0608000C060A000C060C000C060E000C0800000C0802000C0804000C0806000C0808000C080A000C080C000C080E000C0A00000C0A02000C0A04000C0A06000C0A08000C0A0A000C0A0C000C0A0E000C0C00000C0C02000C0C04000C0C06000
310
C0C08000C0C0A000F0FBFF00A4A0A000808080000000FF0000FF000000FFFF00FF000000FF00FF00FFFF0000FFFFFF00FFFFFFFFFFFFFFFFFFFFFFFFFFFFFFFFFFFFFFFFFFFFFFFFFFFFFFFFFFFFFFFFFFFFFFFFFFFFFFFFFFFFFFFFFFFFFFFFFFFFFFFFFF000000FFFFFFFFFFFFFFFFFFFFFFFFFFFFFFFFFFFFFFFFFFFFFF
310
FFFFFFFFFFFF00FF00FFFFFFFFFFFFFFFFFFFFFFFFFFFFFFFFFFFFFFFFFFFFFFFFFFFFFFFFFF00FF00FFFFFFFFFFFFFFFFFFFFFFFFFFFFFFFFFFFFFFFFFFFFFFFFFF0000000000FF00FFFFFFFFFFFFFFFFFFFFFFFFFFFFFFFFFF000000000000000000FFFFFF00FF00FFFFFFFFFFFFFFFFFFFFFFFFFFFFFFFFFF00FFFFFFFF
310
FFFFFF00FFFFFF00FF00FFFFFFFFFFFFFFFFFFFFFFFFFFFFFFFFFF00FFFFFFFFFFFFFF00FFFFFF00FF00FFFFFFFFFFFFFFFFFFFFFFFFFFFFFFFFFF00FFFFFFFFFFFFFF00FFFFFF00FF00FFFFFFFFFFFFFFFFFFFFFFFFFFFFFFFF00FFFFFFFFFFFFFFFF00FFFFFF00FF00FFFFFFFFFFFFFFFFFFFFFFFFFFFFFFFF00FFFFFFFF
310
FFFFFFFF00FFFFFF00FF00FFFFFFFFFFFFFFFFFFFFFFFFFFFFFFFF00FFFFFFFFFFFFFFFF00FFFFFF00FF00FFFFFFFFFFFFFFFFFFFFFFFFFFFFFFFF0000FFFFFFFFFFFFFF00FFFFFF00FF00FFFFFFFFFFFFFFFFFFFFFFFFFFFFFFFF0000FFFFFFFFFFFFFF00FFFFFF00FF00FFFFFFFFFFFFFFFFFFFFFFFFFFFFFFFF0000FFFF
310
FFFFFFFFFF00FFFFFF00FF00FFFFFFFFFFFFFFFFFFFFFFFFFFFFFFFF0000000000000000000000000000FF00FFFFFFFFFFFFFFFFFFFFFFFFFFFFFFFF0000FFFFFFFFFFFFFF0000000000FF00FFFFFFFFFFFFFFFFFFFFFFFFFFFFFFFF0000FFFFFFFFFFFFFF00FFFFFF00FF00FFFFFFFFFFFFFFFFFFFFFFFFFFFFFFFF0000FF
310
FFFFFFFFFFFF00FFFFFF00FF00FFFFFFFFFFFFFFFFFFFFFFFFFFFFFFFF0000FFFFFFFFFFFFFF00FFFFFF00FF00FFFFFFFFFFFFFFFFFFFFFFFFFFFFFFFF00FFFFFFFFFFFFFFFF00FFFFFF00FF00FFFFFFFFFFFFFFFFFFFFFFFFFFFFFFFF00FFFFFFFFFFFFFFFF00FFFFFF00FF00FFFFFFFFFFFFFFFFFFFFFFFFFFFFFFFF00FF
310
FFFFFFFFFFFFFF00FFFFFF00FF00FFFFFFFFFFFFFFFFFFFFFFFFFFFFFFFFFF00FFFFFFFFFFFFFF00FFFFFF00FF00FFFFFFFFFFFFFFFFFFFFFFFFFFFFFFFFFF00FFFFFFFFFFFFFF00FFFFFF00FF00FFFFFFFFFFFFFFFFFFFFFFFFFFFFFFFFFF00FFFFFFFFFFFFFF00FFFFFF00FF00FFFFFFFFFFFFFFFFFFFFFFFFFFFFFFFFFF
310
000000000000000000FFFFFF00FF00FFFFFFFFFFFFFFFFFFFFFFFFFFFFFFFFFFFFFFFFFFFFFFFFFF0000000000FF00FFFFFFFFFFFFFFFFFFFFFFFFFFFFFFFFFFFFFFFFFFFFFFFFFFFFFFFFFF00FF00FFFFFFFFFFFFFFFFFFFFFFFFFFFFFFFFFFFFFFFFFFFFFFFFFFFFFFFFFF00FF00FFFFFFFFFFFFFFFFFFFFFFFFFFFFFFFF
310
FFFFFFFFFFFFFFFFFFFFFFFFFF000000FFFFFFFFFFFFFFFFFFFFFFFFFFFFFFFFFFFFFFFFFFFFFFFFFFFFFFFFFFFFFFFFFFFFFFFFFFFFFFFF
102
{BLKREFS
331
E6F1
331
E65E
102
}
  0
BLOCK_RECORD
  5
BFC4
330
1
100
AcDbSymbolTableRecord
100
AcDbBlockTableRecord
  2
ST11-1
340
0
310
2800000020000000200000000100080000000000000400000000000000000000000000000000000000000000000080000080000000808000800000008000800080800000C0C0C000C0DCC000F0CAA6000020400000206000002080000020A0000020C0000020E00000400000004020000040400000406000004080000040A0
310
000040C0000040E00000600000006020000060400000606000006080000060A0000060C0000060E00000800000008020000080400000806000008080000080A0000080C0000080E00000A0000000A0200000A0400000A0600000A0800000A0A00000A0C00000A0E00000C0000000C0200000C0400000C0600000C0800000C0
310
A00000C0C00000C0E00000E0000000E0200000E0400000E0600000E0800000E0A00000E0C00000E0E00040000000400020004000400040006000400080004000A0004000C0004000E00040200000402020004020400040206000402080004020A0004020C0004020E000404000004040200040404000404060004040800040
310
40A0004040C0004040E00040600000406020004060400040606000406080004060A0004060C0004060E00040800000408020004080400040806000408080004080A0004080C0004080E00040A0000040A0200040A0400040A0600040A0800040A0A00040A0C00040A0E00040C0000040C0200040C0400040C0600040C08000
310
40C0A00040C0C00040C0E00040E0000040E0200040E0400040E0600040E0800040E0A00040E0C00040E0E00080000000800020008000400080006000800080008000A0008000C0008000E00080200000802020008020400080206000802080008020A0008020C0008020E00080400000804020008040400080406000804080
310
008040A0008040C0008040E00080600000806020008060400080606000806080008060A0008060C0008060E00080800000808020008080400080806000808080008080A0008080C0008080E00080A0000080A0200080A0400080A0600080A0800080A0A00080A0C00080A0E00080C0000080C0200080C0400080C0600080C0
310
800080C0A00080C0C00080C0E00080E0000080E0200080E0400080E0600080E0800080E0A00080E0C00080E0E000C0000000C0002000C0004000C0006000C0008000C000A000C000C000C000E000C0200000C0202000C0204000C0206000C0208000C020A000C020C000C020E000C0400000C0402000C0404000C0406000C0
310
408000C040A000C040C000C040E000C0600000C0602000C0604000C0606000C0608000C060A000C060C000C060E000C0800000C0802000C0804000C0806000C0808000C080A000C080C000C080E000C0A00000C0A02000C0A04000C0A06000C0A08000C0A0A000C0A0C000C0A0E000C0C00000C0C02000C0C04000C0C06000
310
C0C08000C0C0A000F0FBFF00A4A0A000808080000000FF0000FF000000FFFF00FF000000FF00FF00FFFF0000FFFFFF00FFFFFFFFFFFFFFFFFFFFFFFFFFFFFFFFFFFFFFFFFFFFFFFFFFFFFFFFFFFFFFFFFFFFFFFFFFFFFFFFFFFFFFFFFFFFFF0000FFFFFFFFFFFFFFFFFFFFFFFFFFFFFFFFFFFFFFFFFFFFFFFFFFFFFFFF0000
310
FFFF0000FFFFFFFFFFFFFFFFFFFFFFFFFFFFFFFFFFFFFFFFFFFFFFFFFF00FFFF0000000000FFFFFFFFFFFFFFFFFFFFFFFFFFFFFFFFFFFFFFFFFFFF0000000000FFFFFFFF000000FFFFFFFFFFFFFFFFFFFFFFFFFFFFFFFFFFFF000000FFFFFFFFFFFFFFFFFFFFFF0000FFFFFFFFFFFFFFFFFFFFFFFFFFFFFF0000FFFFFFFFFF
310
FFFFFFFFFFFFFFFFFFFF00FFFFFFFFFFFFFFFFFFFFFFFF0000FFFFFFFFFFFFFFFFFFFFFFFFFFFFFFFFFFFF0000FFFFFFFFFFFFFFFFFF0000FFFFFFFFFFFFFFFFFFFFFFFFFFFFFFFFFFFFFF00FF00FFFFFFFFFFFFFF00FF00FFFFFFFFFFFFFFFFFFFFFFFFFFFFFFFFFFFFFFFF00FF00FFFFFFFFFFFF0000FFFFFFFFFFFFFF00
310
0000000000FFFFFFFFFFFFFFFFFF0000FFFFFFFFFFFF0000FFFFFFFFFFFF00FFFFFFFFFFFF0000FFFFFFFFFFFFFF0000FFFFFFFFFFFF00FFFFFFFFFFFFFF00FFFFFFFFFFFFFFFF00FFFFFFFFFFFF0000FFFFFFFFFFFF00FFFFFFFFFFFF00FFFFFFFFFFFFFFFFFFFF00FFFFFFFFFF0000FFFFFFFFFFFF00FFFFFFFFFFFF00FF
310
FFFFFFFFFFFFFFFFFF00FFFFFFFFFFFF00FFFFFFFFFFFF00FFFFFFFFFFFF00FFFFFFFFFFFFFFFFFFFFFF00FFFFFFFFFF00FFFFFFFFFFFF00FFFFFFFFFFFF00FFFFFFFFFFFFFFFFFFFFFF00FFFFFFFFFF00FFFFFFFFFFFF00FFFFFFFFFFFF00FFFFFFFFFFFFFFFFFFFF00FFFFFFFFFFFF00FFFFFFFFFFFF00FFFFFFFFFFFF00
310
FFFFFFFFFFFFFFFFFFFF00FFFFFFFFFFFF00FFFFFFFFFFFF00FFFFFFFFFFFFFF00FFFFFFFFFFFFFFFF00FFFFFFFFFFFF0000FFFFFFFFFFFF0000FFFFFFFFFFFF00FFFFFFFFFFFF0000FFFFFFFFFFFFFF0000FFFFFFFFFFFF0000FFFFFFFFFFFFFF000000000000FFFFFFFFFFFFFFFFFF0000FFFFFFFFFFFF00FF00FFFFFFFF
310
FFFFFFFFFFFFFFFFFFFFFFFFFFFFFFFF00FF00FFFFFFFFFFFFFF0000FFFFFFFFFFFFFFFFFFFFFFFFFFFFFFFFFFFFFF00FF00FFFFFFFFFFFFFFFFFF0000FFFFFFFFFFFFFFFFFFFFFFFFFFFFFFFFFFFF0000FFFFFFFFFFFFFFFFFFFFFFFF0000FFFFFFFFFFFFFFFFFFFFFFFFFFFFFF00FFFFFFFFFFFFFFFFFFFFFFFFFFFFFF00
310
0000FFFFFFFFFFFFFFFFFFFFFF0000FFFFFFFFFFFFFFFFFFFFFFFFFFFFFFFFFFFF00000000FFFFFFFFFF000000FFFFFFFFFFFFFFFFFFFFFFFFFFFFFFFFFFFFFFFFFFFF00FF000000000000FFFFFFFFFFFFFFFFFFFFFFFFFFFFFFFFFFFFFFFFFFFFFFFFFF0000FFFF0000FFFFFFFFFFFFFFFFFFFFFFFFFFFFFFFFFFFFFFFFFF
310
FFFFFFFFFFFFFF0000FFFFFFFFFFFFFFFFFFFFFFFFFFFFFFFFFFFFFFFFFFFFFFFFFFFFFFFFFFFFFFFFFFFFFFFFFFFFFFFFFFFFFFFFFFFFFF
102
{BLKREFS
331
E6C8
331
E695
331
E6B2
102
}
  0
BLOCK_RECORD
  5
BFF1
330
1
100
AcDbSymbolTableRecord
100
AcDbBlockTableRecord
  2
ST11-3
340
0
310
2800000020000000200000000100080000000000000400000000000000000000000000000000000000000000000080000080000000808000800000008000800080800000C0C0C000C0DCC000F0CAA6000020400000206000002080000020A0000020C0000020E00000400000004020000040400000406000004080000040A0
310
000040C0000040E00000600000006020000060400000606000006080000060A0000060C0000060E00000800000008020000080400000806000008080000080A0000080C0000080E00000A0000000A0200000A0400000A0600000A0800000A0A00000A0C00000A0E00000C0000000C0200000C0400000C0600000C0800000C0
310
A00000C0C00000C0E00000E0000000E0200000E0400000E0600000E0800000E0A00000E0C00000E0E00040000000400020004000400040006000400080004000A0004000C0004000E00040200000402020004020400040206000402080004020A0004020C0004020E000404000004040200040404000404060004040800040
310
40A0004040C0004040E00040600000406020004060400040606000406080004060A0004060C0004060E00040800000408020004080400040806000408080004080A0004080C0004080E00040A0000040A0200040A0400040A0600040A0800040A0A00040A0C00040A0E00040C0000040C0200040C0400040C0600040C08000
310
40C0A00040C0C00040C0E00040E0000040E0200040E0400040E0600040E0800040E0A00040E0C00040E0E00080000000800020008000400080006000800080008000A0008000C0008000E00080200000802020008020400080206000802080008020A0008020C0008020E00080400000804020008040400080406000804080
310
008040A0008040C0008040E00080600000806020008060400080606000806080008060A0008060C0008060E00080800000808020008080400080806000808080008080A0008080C0008080E00080A0000080A0200080A0400080A0600080A0800080A0A00080A0C00080A0E00080C0000080C0200080C0400080C0600080C0
310
800080C0A00080C0C00080C0E00080E0000080E0200080E0400080E0600080E0800080E0A00080E0C00080E0E000C0000000C0002000C0004000C0006000C0008000C000A000C000C000C000E000C0200000C0202000C0204000C0206000C0208000C020A000C020C000C020E000C0400000C0402000C0404000C0406000C0
310
408000C040A000C040C000C040E000C0600000C0602000C0604000C0606000C0608000C060A000C060C000C060E000C0800000C0802000C0804000C0806000C0808000C080A000C080C000C080E000C0A00000C0A02000C0A04000C0A06000C0A08000C0A0A000C0A0C000C0A0E000C0C00000C0C02000C0C04000C0C06000
310
C0C08000C0C0A000F0FBFF00A4A0A000808080000000FF0000FF000000FFFF00FF000000FF00FF00FFFF0000FFFFFF00FFFFFFFFFFFFFFFFFFFFFFFFFFFFFFFFFFFFFFFFFFFFFFFFFFFFFFFFFFFFFFFFFFFFFFFFFFFFFFFFFFFFFFFFFFFFFFFFFFFFFFFFFFFFFFFFFFFFFFFFFFFFFFFFFFFFFFFFFFFFFFFFFFFFFFFFFFFFFF
310
FFFFFFFFFFFFFFFFFFFFFFFFFFFFFFFFFFFFFFFFFFFFFFFFFFFFFFFFFFFFFFFFFFFFFFFFFFFFFFFFFFFFFFFFFFFFFFFFFFFF000000000000FFFFFFFFFFFFFF00000000000000000000FFFFFFFFFFFFFFFFFF00FFFFFFFF00FFFFFFFFFFFFFF00FFFFFFFFFFFFFFFF000000FFFFFFFFFFFFFF00FFFFFFFF00FFFFFFFFFFFFFF
310
00FFFFFFFFFFFFFFFF00FFFF00FFFFFFFFFFFF00FFFFFFFF000000000000000000FFFFFFFFFFFFFFFF00FFFFFF00FFFFFFFFFF00FFFFFFFF00FFFFFFFFFFFFFF00FFFFFFFFFFFFFFFF00FFFFFFFF00FFFFFFFF000000000000FFFFFFFFFFFFFF00000000000000000000FFFFFFFFFF00FFFFFF000000000000FFFFFFFFFFFF
310
FF00000000000000000000FFFFFFFFFFFF00FFFF00FFFFFFFF00FFFFFFFFFFFFFF00FFFFFFFFFFFFFFFF00FFFFFFFFFFFF00FFFF00FFFFFFFF00FFFFFFFFFFFFFF00FFFFFFFFFFFFFFFF00FFFFFFFFFFFF00FFFF00FFFFFFFF00FFFFFFFFFFFFFF00FFFFFFFFFFFFFFFF00FFFFFFFFFFFF00FFFF00FFFFFFFF00FFFFFFFFFF
310
FFFF00FFFFFFFFFFFFFFFF00FFFFFFFFFFFF00FFFF00FFFFFFFF00FFFFFFFFFFFFFF00FFFFFFFFFFFFFFFF00FFFFFFFFFFFF00FFFF00FFFFFFFF00FFFFFFFFFFFFFF00FFFFFFFFFFFFFFFF00FFFFFFFFFFFF00FFFF00FFFFFFFF00FFFFFFFFFFFFFF00FFFFFFFFFFFFFFFF00FFFFFFFFFFFF00FFFF00FFFFFFFF00FFFFFFFF
310
FFFFFF00FFFFFFFFFFFFFFFF00FFFFFFFFFFFF00FFFF00FFFFFFFF00FFFFFFFFFFFFFF00FFFFFFFFFFFFFFFF00FFFFFFFFFFFF00FFFF00FFFFFFFF00FFFFFFFFFFFFFF00FFFFFFFFFFFFFFFF00FFFFFFFFFFFF00FFFF000000000000FFFFFFFFFFFFFF00000000000000000000FFFFFFFFFFFF00FFFF000000000000FFFFFF
310
FFFFFFFF00000000000000000000FFFFFFFFFF00FFFFFF00FFFFFFFF00FFFFFFFFFFFFFF00FFFFFFFFFFFFFFFF00FFFFFFFF00FFFFFFFF00FFFFFFFF000000000000000000FFFFFFFFFFFFFFFF00FFFFFF00FFFFFFFFFF00FFFFFFFF00FFFFFFFFFFFFFF00FFFFFFFFFFFFFFFF00FFFF00FFFFFFFFFFFF00FFFFFFFF00FFFF
310
FFFFFFFFFF00FFFFFFFFFFFFFFFF000000FFFFFFFFFFFFFF000000000000FFFFFFFFFFFFFF00000000000000000000FFFFFFFFFFFFFFFFFFFFFFFFFFFFFFFFFFFFFFFFFFFFFFFFFFFFFFFFFFFFFFFFFFFFFFFFFFFFFFFFFFFFFFFFFFFFFFFFFFFFFFFFFFFFFFFFFFFFFFFFFFFFFFFFFFFFFFFFFFFFFFFFFFFFFFFFFFFFFFFF
310
FFFFFFFFFFFFFFFFFFFFFFFFFFFFFFFFFFFFFFFFFFFFFFFFFFFFFFFFFFFFFFFFFFFFFFFFFFFFFFFFFFFFFFFFFFFFFFFFFFFFFFFFFFFFFFFF
102
{BLKREFS
331
E62A
331
E625
331
E623
102
}
  0
BLOCK_RECORD
  5
CCBE
330
1
100
AcDbSymbolTableRecord
100
AcDbBlockTableRecord
  2
F2060B-4P
340
0
310
2800000020000000200000000100080000000000000400000000000000000000000000000000000000000000000080000080000000808000800000008000800080800000C0C0C000C0DCC000F0CAA6000020400000206000002080000020A0000020C0000020E00000400000004020000040400000406000004080000040A0
310
000040C0000040E00000600000006020000060400000606000006080000060A0000060C0000060E00000800000008020000080400000806000008080000080A0000080C0000080E00000A0000000A0200000A0400000A0600000A0800000A0A00000A0C00000A0E00000C0000000C0200000C0400000C0600000C0800000C0
310
A00000C0C00000C0E00000E0000000E0200000E0400000E0600000E0800000E0A00000E0C00000E0E00040000000400020004000400040006000400080004000A0004000C0004000E00040200000402020004020400040206000402080004020A0004020C0004020E000404000004040200040404000404060004040800040
310
40A0004040C0004040E00040600000406020004060400040606000406080004060A0004060C0004060E00040800000408020004080400040806000408080004080A0004080C0004080E00040A0000040A0200040A0400040A0600040A0800040A0A00040A0C00040A0E00040C0000040C0200040C0400040C0600040C08000
310
40C0A00040C0C00040C0E00040E0000040E0200040E0400040E0600040E0800040E0A00040E0C00040E0E00080000000800020008000400080006000800080008000A0008000C0008000E00080200000802020008020400080206000802080008020A0008020C0008020E00080400000804020008040400080406000804080
310
008040A0008040C0008040E00080600000806020008060400080606000806080008060A0008060C0008060E00080800000808020008080400080806000808080008080A0008080C0008080E00080A0000080A0200080A0400080A0600080A0800080A0A00080A0C00080A0E00080C0000080C0200080C0400080C0600080C0
310
800080C0A00080C0C00080C0E00080E0000080E0200080E0400080E0600080E0800080E0A00080E0C00080E0E000C0000000C0002000C0004000C0006000C0008000C000A000C000C000C000E000C0200000C0202000C0204000C0206000C0208000C020A000C020C000C020E000C0400000C0402000C0404000C0406000C0
310
408000C040A000C040C000C040E000C0600000C0602000C0604000C0606000C0608000C060A000C060C000C060E000C0800000C0802000C0804000C0806000C0808000C080A000C080C000C080E000C0A00000C0A02000C0A04000C0A06000C0A08000C0A0A000C0A0C000C0A0E000C0C00000C0C02000C0C04000C0C06000
310
C0C08000C0C0A000F0FBFF00A4A0A000808080000000FF0000FF000000FFFF00FF000000FF00FF00FFFF0000FFFFFF00FFFFFFFFFFFFFFFFFFFFFFFFFFFFFFFFFFFFFFFFFFFFFFFFFFFFFFFFFFFFFFFFFFFFFFFFFFFFFFFFFFFFFFFFFFFFFFFFFFFFFFFFFFFFFFFFFFFFFFFFFFFFFFFFFFFFFFFFFFFFFFFFFFFFFFFFFFFFFF
310
FFFFFFFFFFFFFFFFFFFFFFFFFFFFFFFFFFFFFFFFFFFFFFFFFFFFFFFFFFFFFFFFFFFFFFFFFFFFFFFFFFFFFFFFFFFFFFFFFFFFFFFFFFFFFFFFFFFFFFFFFFFFFFFFFFFFFFFFFFFFFFFFFFFFFFFFFFFFFFFFFFFFFFFFFFFFFFFFFFFFFFFFFFFFFFFFFFFFFFFFFFFFFFFFFFFFFFFFFFFFFFFFFFFFFFFFFFFFFFFFFFFFFFFFFFFFFF
310
FFFFFFFFFFFFFFFFFFFFFFFFFFFFFFFFFFFFFFFFFFFFFFFFFFFFFFFFFFFFFFFFFFFFFFFFFFFFFFFFFFFFFFFFFFFFFFFFFFFFFFFFFFFFFFFFFFFFFFFFFFFFFFFFFFFFFFFFFFFFFFFFFFFFFFFFFFFFFFFFFFFFFFFFFFFFFFFFFFFFFFFFFFFFFFFFFFFFFFFFFFFFFFFFFFFFFFFFFFFFFFFFFFFFFFFFFFFFFFFFFFFFFFFFFFFFFF
310
FFFFFFFFFFFFFFFFFFFFFFFFFFFFFFFFFFFFFFFFFFFFFFFFFFFFFFFFFFFFFFFFFFFFFFFFFFFFFFFFFFFFFFFFFFFFFFFFFFFFFFFF000000000000000000000000000000000000000000000000000000000000FFFF000000000000000000000000000000000000000000000000000000000000FFFF0000000000000000000000
310
00000000000000000000000000000000000000FFFF00FF0000000000FFFC000000FFFCFCFC00FF000000FCFFFC000000FFFF00FFFF00FF00FF000000FCFC000000FCFC00FC00FC000000FCFCFC00000000FF00FFFF000000000000000000000000000000000000000000000000000000000000FFFF00000000000000000000
310
0000000000000000000000000000000000000000FFFF000000000000000000000000000000000000000000000000000000000000FFFFFFFFFFFFFFFFFFFFFFFFFFFFFFFFFFFFFFFFFFFFFFFFFFFFFFFFFFFFFFFFFFFFFFFFFFFFFFFFFFFFFFFFFFFFFFFFFFFFFFFFFFFFFFFFFFFFFFFFFFFFFFFFFFFFFFFFFFFFFFFFFFFFFF
310
FFFFFFFFFFFFFFFFFFFFFFFFFFFFFFFFFFFFFFFFFFFFFFFFFFFFFFFFFFFFFFFFFFFFFFFFFFFFFFFFFFFFFFFFFFFFFFFFFFFFFFFFFFFFFFFFFFFFFFFFFFFFFFFFFFFFFFFFFFFFFFFFFFFFFFFFFFFFFFFFFFFFFFFFFFFFFFFFFFFFFFFFFFFFFFFFFFFFFFFFFFFFFFFFFFFFFFFFFFFFFFFFFFFFFFFFFFFFFFFFFFFFFFFFFFFFFF
310
FFFFFFFFFFFFFFFFFFFFFFFFFFFFFFFFFFFFFFFFFFFFFFFFFFFFFFFFFFFFFFFFFFFFFFFFFFFFFFFFFFFFFFFFFFFFFFFFFFFFFFFFFFFFFFFFFFFFFFFFFFFFFFFFFFFFFFFFFFFFFFFFFFFFFFFFFFFFFFFFFFFFFFFFFFFFFFFFFFFFFFFFFFFFFFFFFFFFFFFFFFFFFFFFFFFFFFFFFFFFFFFFFFFFFFFFFFFFFFFFFFFFFFFFFFFFFF
310
FFFFFFFFFFFFFFFFFFFFFFFFFFFFFFFFFFFFFFFFFFFFFFFFFFFFFFFFFFFFFFFFFFFFFFFFFFFFFFFFFFFFFFFFFFFFFFFFFFFFFFFFFFFFFFFF
102
{BLKREFS
331
EA11
102
}
  0
BLOCK_RECORD
  5
DDFC
330
1
100
AcDbSymbolTableRecord
100
AcDbBlockTableRecord
  2
SA-7051B
340
0
310
2800000020000000200000000100080000000000000400000000000000000000000000000000000000000000000080000080000000808000800000008000800080800000C0C0C000C0DCC000F0CAA6000020400000206000002080000020A0000020C0000020E00000400000004020000040400000406000004080000040A0
310
000040C0000040E00000600000006020000060400000606000006080000060A0000060C0000060E00000800000008020000080400000806000008080000080A0000080C0000080E00000A0000000A0200000A0400000A0600000A0800000A0A00000A0C00000A0E00000C0000000C0200000C0400000C0600000C0800000C0
310
A00000C0C00000C0E00000E0000000E0200000E0400000E0600000E0800000E0A00000E0C00000E0E00040000000400020004000400040006000400080004000A0004000C0004000E00040200000402020004020400040206000402080004020A0004020C0004020E000404000004040200040404000404060004040800040
310
40A0004040C0004040E00040600000406020004060400040606000406080004060A0004060C0004060E00040800000408020004080400040806000408080004080A0004080C0004080E00040A0000040A0200040A0400040A0600040A0800040A0A00040A0C00040A0E00040C0000040C0200040C0400040C0600040C08000
310
40C0A00040C0C00040C0E00040E0000040E0200040E0400040E0600040E0800040E0A00040E0C00040E0E00080000000800020008000400080006000800080008000A0008000C0008000E00080200000802020008020400080206000802080008020A0008020C0008020E00080400000804020008040400080406000804080
310
008040A0008040C0008040E00080600000806020008060400080606000806080008060A0008060C0008060E00080800000808020008080400080806000808080008080A0008080C0008080E00080A0000080A0200080A0400080A0600080A0800080A0A00080A0C00080A0E00080C0000080C0200080C0400080C0600080C0
310
800080C0A00080C0C00080C0E00080E0000080E0200080E0400080E0600080E0800080E0A00080E0C00080E0E000C0000000C0002000C0004000C0006000C0008000C000A000C000C000C000E000C0200000C0202000C0204000C0206000C0208000C020A000C020C000C020E000C0400000C0402000C0404000C0406000C0
310
408000C040A000C040C000C040E000C0600000C0602000C0604000C0606000C0608000C060A000C060C000C060E000C0800000C0802000C0804000C0806000C0808000C080A000C080C000C080E000C0A00000C0A02000C0A04000C0A06000C0A08000C0A0A000C0A0C000C0A0E000C0C00000C0C02000C0C04000C0C06000
310
C0C08000C0C0A000F0FBFF00A4A0A000808080000000FF0000FF000000FFFF00FF000000FF00FF00FFFF0000FFFFFF00FFFFFFFFFFFFFFFFFFFFFFFFFFFFFFFFFFFFFFFFFFFFFFFFFFFFFFFFFFFFFFFFFFFFFF0000000000000000000000000000000000000000000000000000FFFFFFFFFFFF00FFFFFFFFFFFFFFFFFFFFFF
310
FFFFFFFFFFFFFFFFFFFFFFFFFF00FFFFFFFFFFFF00FFFFFFFFFFFFFFFFFFFFFFFFFFFFFFFFFFFFFFFFFFFFFFFF00FFFFFFFFFFFF00FFFFFFFFFFFFFFFFFFFFFFFFFFFFFFFFFFFFFFFFFFFFFFFF00FFFFFFFFFFFF00FFFFFFFFFFFFFFFFFFFFFFFCFCFFFFFFFFFFFFFFFFFFFFFF00FFFFFFFFFFFF00FFFFFFFFFFFFFFFCFFFF
310
FFFCFCFFFFFCFCFFFFFFFFFFFFFF00FFFFFFFFFFFF00FFFFFFFFFFFFFFFCFCFFFFFCFCFFFFFFFCFFFFFFFFFFFFFF00FFFFFFFFFFFF00FFFFFFFFFCFCFCFFFCFFFFFCFCFFFCFCFFFFFCFFFFFFFFFF00FFFFFFFFFFFF00FFFFFFFFFCFFFFFFFCFFFFFCFCFFFFFCFFFFFFFCFFFFFFFF00FFFFFFFFFFFF00FFFFFFFFFFFCFCFFFF
310
FCFFFCFCFFFCFFFFFCFCFFFFFFFFFF00FFFFFFFFFFFF00FFFFFCFFFFFFFFFCFCFC000000FFFCFCFFFCFFFCFCFCFFFF00FFFFFFFFFFFF00FFFFFCFCFCFFFCFC0000FFFF00000000FCFCFCFFFFFCFFFF00FFFFFFFFFFFF00FFFFFFFCFCFFFCFCFFFFFF000000FF00FFFCFFFCFCFFFFFF00FFFFFFFFFFFF00FFFFFFFFFCFCFC00
310
FFFF00FF0000FFFF00FCFCFFFFFCFFFF00FFFFFFFFFFFF00FFFFFCFCFCFFFF00FFFFFFFF00FFFFFF00FCFCFFFFFCFCFF00FFFFFFFFFFFF00FFFCFCFCFCFCFC00FFFFFFFF00FFFFFF00FCFCFFFFFCFCFF00FFFFFFFFFFFF00FFFFFFFFFCFCFC00FFFFFFFF00FFFFFF00FCFCFCFCFFFFFF00FFFFFFFFFFFF00FFFFFFFCFCFFFC
310
00FFFFFFFF00FFFF00FFFCFFFCFCFCFFFF00FFFFFFFFFFFF00FFFFFCFCFCFCFCFCFC00FFFF00000000FCFCFCFCFFFCFFFF00FFFFFFFFFFFF00FFFFFCFFFFFCFCFFFCFC000000FFFFFCFFFCFFFCFCFCFFFF00FFFFFFFFFFFF00FFFFFFFFFFFCFFFCFFFCFFFCFCFCFCFCFCFCFCFFFFFFFFFF00FFFFFFFFFFFF00FFFFFFFFFCFF
310
FCFCFFFCFFFCFCFCFCFCFFFFFCFFFFFFFFFF00FFFFFFFFFFFF00FFFFFFFFFCFCFFFFFCFFFFFCFCFFFCFCFCFFFFFCFFFFFFFF00FFFFFFFFFFFF00FFFFFFFFFFFFFFFFFCFFFFFCFCFFFCFFFCFFFFFFFFFFFFFF00FFFFFFFFFFFF00FFFFFFFFFFFFFFFCFCFFFFFCFCFFFCFCFCFFFFFFFFFFFFFF00FFFFFFFFFFFF00FFFFFFFFFF
310
FFFFFFFFFFFFFCFCFFFFFFFFFFFFFFFFFFFFFF00FFFFFFFFFFFF00FFFFFFFFFFFFFFFFFFFFFFFFFFFFFFFFFFFFFFFFFFFFFFFF00FFFFFFFFFFFF00FFFFFFFFFFFFFFFFFFFFFFFFFFFFFFFFFFFFFFFFFFFFFFFF00FFFFFFFFFFFF00FFFFFFFFFFFFFFFFFFFFFFFFFFFFFFFFFFFFFFFFFFFFFFFF00FFFFFFFFFFFF0000000000
310
000000000000000000000000000000000000000000FFFFFFFFFFFFFFFFFFFFFFFFFFFFFFFFFFFFFFFFFFFFFFFFFFFFFFFFFFFFFFFFFFFFFF
102
{BLKREFS
331
EA13
102
}
  0
BLOCK_RECORD
  5
DE17
330
1
100
AcDbSymbolTableRecord
100
AcDbBlockTableRecord
  2
CFP-4P-1
340
0
310
2800000020000000200000000100080000000000000400000000000000000000000000000000000000000000000080000080000000808000800000008000800080800000C0C0C000C0DCC000F0CAA6000020400000206000002080000020A0000020C0000020E00000400000004020000040400000406000004080000040A0
310
000040C0000040E00000600000006020000060400000606000006080000060A0000060C0000060E00000800000008020000080400000806000008080000080A0000080C0000080E00000A0000000A0200000A0400000A0600000A0800000A0A00000A0C00000A0E00000C0000000C0200000C0400000C0600000C0800000C0
310
A00000C0C00000C0E00000E0000000E0200000E0400000E0600000E0800000E0A00000E0C00000E0E00040000000400020004000400040006000400080004000A0004000C0004000E00040200000402020004020400040206000402080004020A0004020C0004020E000404000004040200040404000404060004040800040
310
40A0004040C0004040E00040600000406020004060400040606000406080004060A0004060C0004060E00040800000408020004080400040806000408080004080A0004080C0004080E00040A0000040A0200040A0400040A0600040A0800040A0A00040A0C00040A0E00040C0000040C0200040C0400040C0600040C08000
310
40C0A00040C0C00040C0E00040E0000040E0200040E0400040E0600040E0800040E0A00040E0C00040E0E00080000000800020008000400080006000800080008000A0008000C0008000E00080200000802020008020400080206000802080008020A0008020C0008020E00080400000804020008040400080406000804080
310
008040A0008040C0008040E00080600000806020008060400080606000806080008060A0008060C0008060E00080800000808020008080400080806000808080008080A0008080C0008080E00080A0000080A0200080A0400080A0600080A0800080A0A00080A0C00080A0E00080C0000080C0200080C0400080C0600080C0
310
800080C0A00080C0C00080C0E00080E0000080E0200080E0400080E0600080E0800080E0A00080E0C00080E0E000C0000000C0002000C0004000C0006000C0008000C000A000C000C000C000E000C0200000C0202000C0204000C0206000C0208000C020A000C020C000C020E000C0400000C0402000C0404000C0406000C0
310
408000C040A000C040C000C040E000C0600000C0602000C0604000C0606000C0608000C060A000C060C000C060E000C0800000C0802000C0804000C0806000C0808000C080A000C080C000C080E000C0A00000C0A02000C0A04000C0A06000C0A08000C0A0A000C0A0C000C0A0E000C0C00000C0C02000C0C04000C0C06000
310
C0C08000C0C0A000F0FBFF00A4A0A000808080000000FF0000FF000000FFFF00FF000000FF00FF00FFFF0000FFFFFF00FFFFFFFFFFFFFFFFFFFFFFFFFFFFFFFFFFFFFFFFFFFFFFFFFFFFFFFFFFFFFFFFFFFFFFFFFFFFFFFFFFFFFFFFFFFFFFFFFFFFFFFFFFFFFFFFFFFFFFFFFFFFFFFFFFFFFFFFFFFFFFFFFFFFFFFFFFFFFF
310
FFFFFFFFFFFFFFFFFFFFFFFFFFFFFFFFFFFFFFFFFFFFFFFFFFFFFFFFFFFFFFFFFFFFFFFFFFFFFFFFFFFFFFFFFFFFFFFFFFFFFFFFFFFFFFFFFFFFFFFFFFFFFFFFFFFFFFFFFFFFFFFFFFFFFFFFFFFFFFFFFFFFFFFFFFFFFFFFFFFFFFFFFFFFFFFFFFFFFFFFFFFFFFFFFFFFFFFFFFFFFFFFFFFFFFFFFFFFFFFFFFFFFFFFFFFFFF
310
FFFFFFFFFFFFFFFFFFFFFFFFFFFFFFFFFFFFFFFFFFFFFFFFFFFFFFFFFFFFFFFFFFFFFCFFFFFFFFFFFFFFFFFFFFFFFFFFFFFFFFFFFFFFFF0000000000FF00000000FCFC00000000FF0000000000FFFFFFFFFFFF000000000000000000000000000000FC0000000000000000000000000000FFFF00FCFCFCFCFFFFFFFFFFFFFF
310
FFFFFFFCFFFFFFFFFFFFFFFFFFFFFFFFFF00FFFF00FCFCFCFCFFFCFFFFFFFFFCFCFFFFFFFFFCFCFFFFFFFFFCFCFFFFFFFF00FFFF00FFFFFCFFFFFCFFFFFFFFFCFCFFFFFFFFFCFCFFFFFFFFFFFCFFFFFFFF00FFFF00FFFFFCFCFCFCFFFFFFFFFCFCFFFFFFFFFCFCFFFFFFFFFFFCFFFFFFFF00FFFF00FFFCFCFCFFFFFFFFFFFF
310
FFFFFFFFFFFFFFFFFFFFFFFFFFFFFFFFFFFF00FFFF00FFFFFCFFFFFFFFFFFFFFFFFFFFFFFFFFFFFFFFFFFFFFFFFFFFFFFFFF00FFFF00FFFFFCFCFCFCFCFCFCFCFCFCFCFCFCFCFCFCFCFCFCFCFCFCFCFCFFFF00FFFF00FFFFFC00000000FFFF00000000FFFF00000000FFFF00000000FCFFFF00FFFF00FFFFFC00FFFF00FFFF
310
00FFFF00FFFF00FFFF00FFFF00FFFF00FCFFFF00FFFF00FFFFFC00FFFF00FFFF00FFFF00FFFF00FFFF00FFFF00FFFF00FCFFFF00FFFF00FFFFFC00FFFF00FFFF00FFFF00FFFF00FFFF00FFFF00FFFF00FCFFFF00FFFF00FFFFFC00FFFF00FFFF00FFFF00FFFF00FFFF00FFFF00FFFF00FCFFFF00FFFF00FFFFFC00000000FF
310
FF00000000FFFF00000000FFFF00000000FCFFFF00FFFF00FFFFFC00FFFF00FFFF00FFFF00FFFF00FFFF00FFFF00FFFF00FCFFFF00FFFF000000FC00000000000000000000000000000000000000000000FC000000FFFFFFFFFFFFFFFFFFFFFFFFFFFFFFFFFFFFFFFFFFFFFFFFFFFFFFFFFFFFFFFFFFFFFFFFFFFFFFFFFFFF
310
FFFFFFFFFFFFFFFFFFFFFFFFFFFFFFFFFFFFFFFFFFFFFFFFFFFFFFFFFFFFFFFFFFFFFFFFFFFFFFFFFFFFFFFFFFFFFFFFFFFFFFFFFFFFFFFFFFFFFFFFFFFFFFFFFFFFFFFFFFFFFFFFFFFFFFFFFFFFFFFFFFFFFFFFFFFFFFFFFFFFFFFFFFFFFFFFFFFFFFFFFFFFFFFFFFFFFFFFFFFFFFFFFFFFFFFFFFFFFFFFFFFFFFFFFFFFFF
310
FFFFFFFFFFFFFFFFFFFFFFFFFFFFFFFFFFFFFFFFFFFFFFFFFFFFFFFFFFFFFFFFFFFFFFFFFFFFFFFFFFFFFFFFFFFFFFFFFFFFFFFFFFFFFFFF
102
{BLKREFS
331
EA20
102
}
  0
BLOCK_RECORD
  5
E8C5
330
1
100
AcDbSymbolTableRecord
100
AcDbBlockTableRecord
  2
*D9
340
0
  0
BLOCK_RECORD
  5
E8D1
330
1
100
AcDbSymbolTableRecord
100
AcDbBlockTableRecord
  2
*D10
340
0
  0
BLOCK_RECORD
  5
E8FD
330
1
100
AcDbSymbolTableRecord
100
AcDbBlockTableRecord
  2
*D11
340
0
  0
BLOCK_RECORD
  5
E909
330
1
100
AcDbSymbolTableRecord
100
AcDbBlockTableRecord
  2
*D12
340
0
  0
BLOCK_RECORD
  5
E921
330
1
100
AcDbSymbolTableRecord
100
AcDbBlockTableRecord
  2
*D13
340
0
  0
BLOCK_RECORD
  5
E92D
330
1
100
AcDbSymbolTableRecord
100
AcDbBlockTableRecord
  2
*D14
340
0
  0
BLOCK_RECORD
  5
E939
330
1
100
AcDbSymbolTableRecord
100
AcDbBlockTableRecord
  2
*D15
340
0
  0
BLOCK_RECORD
  5
E951
330
1
100
AcDbSymbolTableRecord
100
AcDbBlockTableRecord
  2
*D16
340
0
  0
BLOCK_RECORD
  5
E95D
330
1
100
AcDbSymbolTableRecord
100
AcDbBlockTableRecord
  2
*D17
340
0
  0
BLOCK_RECORD
  5
E969
330
1
100
AcDbSymbolTableRecord
100
AcDbBlockTableRecord
  2
*D18
340
0
  0
BLOCK_RECORD
  5
EB4E
330
1
100
AcDbSymbolTableRecord
100
AcDbBlockTableRecord
  2
*D19
340
0
  0
BLOCK_RECORD
  5
EC06
330
1
100
AcDbSymbolTableRecord
100
AcDbBlockTableRecord
  2
*D20
340
0
  0
BLOCK_RECORD
  5
EDC2
330
1
100
AcDbSymbolTableRecord
100
AcDbBlockTableRecord
  2
M3-TOP
340
0
310
2800000020000000200000000100080000000000000400000000000000000000000000000000000000000000000080000080000000808000800000008000800080800000C0C0C000C0DCC000F0CAA6000020400000206000002080000020A0000020C0000020E00000400000004020000040400000406000004080000040A0
310
000040C0000040E00000600000006020000060400000606000006080000060A0000060C0000060E00000800000008020000080400000806000008080000080A0000080C0000080E00000A0000000A0200000A0400000A0600000A0800000A0A00000A0C00000A0E00000C0000000C0200000C0400000C0600000C0800000C0
310
A00000C0C00000C0E00000E0000000E0200000E0400000E0600000E0800000E0A00000E0C00000E0E00040000000400020004000400040006000400080004000A0004000C0004000E00040200000402020004020400040206000402080004020A0004020C0004020E000404000004040200040404000404060004040800040
310
40A0004040C0004040E00040600000406020004060400040606000406080004060A0004060C0004060E00040800000408020004080400040806000408080004080A0004080C0004080E00040A0000040A0200040A0400040A0600040A0800040A0A00040A0C00040A0E00040C0000040C0200040C0400040C0600040C08000
310
40C0A00040C0C00040C0E00040E0000040E0200040E0400040E0600040E0800040E0A00040E0C00040E0E00080000000800020008000400080006000800080008000A0008000C0008000E00080200000802020008020400080206000802080008020A0008020C0008020E00080400000804020008040400080406000804080
310
008040A0008040C0008040E00080600000806020008060400080606000806080008060A0008060C0008060E00080800000808020008080400080806000808080008080A0008080C0008080E00080A0000080A0200080A0400080A0600080A0800080A0A00080A0C00080A0E00080C0000080C0200080C0400080C0600080C0
310
800080C0A00080C0C00080C0E00080E0000080E0200080E0400080E0600080E0800080E0A00080E0C00080E0E000C0000000C0002000C0004000C0006000C0008000C000A000C000C000C000E000C0200000C0202000C0204000C0206000C0208000C020A000C020C000C020E000C0400000C0402000C0404000C0406000C0
310
408000C040A000C040C000C040E000C0600000C0602000C0604000C0606000C0608000C060A000C060C000C060E000C0800000C0802000C0804000C0806000C0808000C080A000C080C000C080E000C0A00000C0A02000C0A04000C0A06000C0A08000C0A0A000C0A0C000C0A0E000C0C00000C0C02000C0C04000C0C06000
310
C0C08000C0C0A000F0FBFF00A4A0A000808080000000FF0000FF000000FFFF00FF000000FF00FF00FFFF0000FFFFFF00FFFFFFFFFFFFFFFFFFFFFFFFFFFFFFFFFFFFFFFFFFFFFFFFFFFFFFFFFFFFFFFFFFFFFFFFFFFFFFFFFFFFFFFFFFFFFF000000FFFFFFFFFFFFFFFFFFFFFFFFFFFFFFFFFFFFFFFFFFFFFFFFFF00000000
310
FFFFFF00000000FFFFFFFFFFFFFFFFFFFFFFFFFFFFFFFFFFFF000000FFFFFFFFFFFFFFFFFFFFFF0000FFFFFFFFFFFFFFFFFFFFFFFFFFFFFF00FFFFFFFFFFFFFFFFFFFFFFFFFFFFFFFF00FFFFFFFFFFFFFFFFFFFFFFFFFF00FFFFFFFFFFFFFFFFFFFFFFFFFFFFFFFFFFFF00FFFFFFFFFFFFFFFFFFFFFF00FFFFFFFFFFFF0000
310
000000000000FFFFFFFFFFFF00FFFFFFFFFFFFFFFFFF00FFFFFFFFFFFFFF00FFFFFFFFFFFF00FFFFFFFFFFFFFF00FFFFFFFFFFFFFF00FFFFFFFFFFFFFFFF00FFFFFFFFFFFF00FFFFFFFFFFFFFFFF00FFFFFFFFFFFF00FFFFFFFFFFFFFFFF00FFFFFFFFFFFF00FFFFFFFFFFFFFFFF00FFFFFFFFFFFF00FFFFFFFFFFFFFFFF00
310
FFFFFFFFFFFF00FFFFFFFFFFFFFFFFFF00FFFFFFFF00FFFFFFFFFFFFFFFFFF00FFFFFFFFFFFF00FFFFFFFFFFFFFFFFFF00FFFFFFFF00FFFFFF00000000000000FFFFFFFFFFFF00000000000000FFFFFF00FFFFFFFF00FFFFFF00FFFFFFFFFFFFFFFFFFFFFFFFFFFFFFFFFFFF00FFFFFF00FFFFFFFF00FFFFFF00FFFFFFFFFF
310
FFFFFFFFFFFFFFFFFFFFFFFFFF00FFFFFFFF00FFFF00FFFFFFFF00FFFFFFFFFFFFFFFFFFFFFFFFFFFFFFFFFFFF00FFFFFFFF00FFFF00FFFFFFFF00FFFFFFFFFFFFFFFFFFFFFFFFFFFFFFFFFFFF00FFFFFFFF00FFFF00FFFFFFFF00FFFFFFFFFFFFFFFFFFFFFFFFFFFFFFFFFFFF00FFFFFFFF00FFFFFF00FFFFFF00FFFFFFFF
310
FFFFFFFFFFFFFFFFFFFFFFFFFFFF00FFFFFF00FFFFFFFF00FFFFFF00000000000000FFFFFFFFFFFF00000000000000FFFFFF00FFFFFFFF00FFFFFFFFFFFFFFFFFF00FFFFFFFFFFFF00FFFFFFFFFFFFFFFFFF00FFFFFFFF00FFFFFFFFFFFFFFFFFF00FFFFFFFFFFFF00FFFFFFFFFFFFFFFFFF00FFFFFFFFFF00FFFFFFFFFFFF
310
FFFF00FFFFFFFFFFFF00FFFFFFFFFFFFFFFF00FFFFFFFFFFFF00FFFFFFFFFFFFFFFF00FFFFFFFFFFFF00FFFFFFFFFFFFFFFF00FFFFFFFFFFFFFF00FFFFFFFFFFFFFF00FFFFFFFFFFFF00FFFFFFFFFFFFFF00FFFFFFFFFFFFFFFFFF00FFFFFFFFFFFF0000000000000000FFFFFFFFFFFF00FFFFFFFFFFFFFFFFFFFFFF00FFFF
310
FFFFFFFFFFFFFFFFFFFFFFFFFFFFFFFF00FFFFFFFFFFFFFFFFFFFFFFFFFF00FFFFFFFFFFFFFFFFFFFFFFFFFFFFFFFF00FFFFFFFFFFFFFFFFFFFFFFFFFFFFFF0000FFFFFFFFFFFFFFFFFFFFFFFF0000FFFFFFFFFFFFFFFFFFFFFFFFFFFFFFFFFFFF00000000FFFFFFFF00000000FFFFFFFFFFFFFFFFFFFFFFFFFFFFFFFFFFFF
310
FFFFFFFFFFFF00000000FFFFFFFFFFFFFFFFFFFFFFFFFFFFFFFFFFFFFFFFFFFFFFFFFFFFFFFFFFFFFFFFFFFFFFFFFFFFFFFFFFFFFFFFFFFF
102
{BLKREFS
331
EEE5
331
EEE6
331
EEF6
331
EEF7
331
EEF8
331
EEF9
102
}
  0
ENDTAB
  0
ENDSEC
  0
SECTION
  2
BLOCKS
  0
BLOCK
  5
1B
330
1A
100
AcDbEntity
  8
0
100
AcDbBlockBegin
  2
*MODEL_SPACE
 70
     0
 10
0.0
 20
0.0
 30
0.0
  3
*MODEL_SPACE
  1

  0
ENDBLK
  5
1C
330
1A
100
AcDbEntity
  8
0
100
AcDbBlockEnd
  0
BLOCK
  5
18
330
17
100
AcDbEntity
 67
     1
  8
0
100
AcDbBlockBegin
  2
*PAPER_SPACE
 70
     0
 10
0.0
 20
0.0
 30
0.0
  3
*PAPER_SPACE
  1

  0
ENDBLK
  5
19
330
17
100
AcDbEntity
 67
     1
  8
0
100
AcDbBlockEnd
  0
BLOCK
  5
BB
330
BA
100
AcDbEntity
  8
0
100
AcDbBlockBegin
  2
_OPEN
 70
     0
 10
0.0
 20
0.0
 30
0.0
  3
_OPEN
  1

  0
LINE
  5
BC
330
BA
100
AcDbEntity
  8
0
  6
ByBlock
 62
     0
100
AcDbLine
 10
-1.0
 20
0.1666666666666666
 30
0.0
 11
0.0
 21
0.0
 31
0.0
  0
LINE
  5
BD
330
BA
100
AcDbEntity
  8
0
  6
ByBlock
 62
     0
100
AcDbLine
 10
0.0
 20
0.0
 30
0.0
 11
-1.0
 21
-0.1666666666666666
 31
0.0
  0
LINE
  5
BE
330
BA
100
AcDbEntity
  8
0
  6
ByBlock
 62
     0
100
AcDbLine
 10
0.0
 20
0.0
 30
0.0
 11
-1.0
 21
0.0
 31
0.0
  0
ENDBLK
  5
BF
330
BA
100
AcDbEntity
  8
0
100
AcDbBlockEnd
  0
BLOCK
  5
BE43
330
BE42
100
AcDbEntity
  8
0
100
AcDbBlockBegin
  2
M8WS-1
 70
     0
 10
0.0
 20
0.0
 30
0.0
  3
M8WS-1
  1

  0
ENDBLK
  5
BE44
330
BE42
100
AcDbEntity
  8
0
100
AcDbBlockEnd
  0
BLOCK
  5
BE47
330
BE46
100
AcDbEntity
  8
0
100
AcDbBlockBegin
  2
M8-WS-1
 70
     0
 10
0.0
 20
0.0
 30
0.0
  3
M8-WS-1
  1

  0
LINE
  5
BE49
330
BE46
100
AcDbEntity
  8
0
100
AcDbLine
 10
0.7281220318284909
 20
4.099999999999965
 30
0.0
 11
0.2873045800573095
 21
1.599999999999965
 31
0.0
  0
LINE
  5
BE4A
330
BE46
100
AcDbEntity
  8
0
100
AcDbLine
 10
-0.287304580057139
 20
4.099999999999965
 30
0.0
 11
-0.7281220318282636
 21
1.599999999999965
 31
0.0
  0
LINE
  5
BE4B
330
BE46
100
AcDbEntity
  8
0
100
AcDbLine
 10
-8.750000000000056
 20
4.099999999999965
 30
0.0
 11
-8.749999999999943
 21
1.599999999999994
 31
0.0
  0
LINE
  5
BE4C
330
BE46
100
AcDbEntity
  8
0
100
AcDbLine
 10
8.75
 20
4.099999999999965
 30
0.0
 11
8.75
 21
1.599999999999994
 31
0.0
  0
LINE
  5
BE4D
330
BE46
100
AcDbEntity
  8
0
100
AcDbLine
 10
-10.99999999999994
 20
1.599999999999994
 30
0.0
 11
11.0
 21
1.599999999999994
 31
0.0
  0
LINE
  5
BE4E
330
BE46
100
AcDbEntity
  8
0
100
AcDbLine
 10
-10.99999999999994
 20
0.0000000000000284
 30
0.0
 11
11.0
 21
0.0
 31
0.0
  0
LINE
  5
BE4F
330
BE46
100
AcDbEntity
  8
0
100
AcDbLine
 10
-11.0
 20
1.599999999999994
 30
0.0
 11
-10.99999999999994
 21
0.0
 31
0.0
  0
LINE
  5
BE50
330
BE46
100
AcDbEntity
  8
0
100
AcDbLine
 10
11.00000000000005
 20
1.599999999999994
 30
0.0
 11
11.0
 21
0.0
 31
0.0
  0
LINE
  5
BE51
330
BE46
100
AcDbEntity
  8
0
100
AcDbLine
 10
-8.750000000000056
 20
4.099999999999965
 30
0.0
 11
8.749999999999943
 21
4.099999999999965
 31
0.0
  0
LINE
  5
BE52
330
BE46
100
AcDbEntity
  8
0
100
AcDbLine
 10
-9.814954576223613
 20
4.099999999999965
 30
0.0
 11
9.814954576223669
 21
4.099999999999965
 31
0.0
  0
LINE
  5
BE53
330
BE46
100
AcDbEntity
  8
0
100
AcDbLine
 10
-7.361215932167738
 20
11.09999999999996
 30
0.0
 11
7.361215932167681
 21
11.09999999999996
 31
0.0
  0
ELLIPSE
  5
BE54
330
BE46
100
AcDbEntity
  8
0
100
AcDbEllipse
 10
0.0
 20
10.09999999999996
 30
0.0
 11
-4.907477288111863
 21
0.0
 31
0.0
210
0.0
220
0.0
230
1.0
 40
0.2037706832433955
 41
3.141592653589793
 42
6.283185307179586
  0
LINE
  5
BE55
330
BE46
100
AcDbEntity
  8
0
100
AcDbLine
 10
-9.814954576223613
 20
10.09999999999996
 30
0.0
 11
-9.814954576223613
 21
4.099999999999965
 31
0.0
  0
LINE
  5
BE56
330
BE46
100
AcDbEntity
  8
0
100
AcDbLine
 10
-4.907477288111806
 20
10.09999999999996
 30
0.0
 11
-4.907477288111806
 21
4.099999999999965
 31
0.0
  0
ELLIPSE
  5
BE57
330
BE46
100
AcDbEntity
  8
0
100
AcDbEllipse
 10
-7.361215932167738
 20
10.09999999999996
 30
0.0
 11
-2.453738644055874
 21
0.0
 31
0.0
210
0.0
220
0.0
230
1.0
 40
0.4075413664868004
 41
3.141592653589793
 42
6.283185307179586
  0
LINE
  5
BE58
330
BE46
100
AcDbEntity
  8
0
100
AcDbLine
 10
9.814954576223613
 20
10.09999999999996
 30
0.0
 11
9.814954576223613
 21
4.099999999999965
 31
0.0
  0
LINE
  5
BE59
330
BE46
100
AcDbEntity
  8
0
100
AcDbLine
 10
4.907477288111806
 20
10.09999999999996
 30
0.0
 11
4.907477288111806
 21
4.099999999999965
 31
0.0
  0
ELLIPSE
  5
BE5A
330
BE46
100
AcDbEntity
  8
0
100
AcDbEllipse
 10
7.361215932167681
 20
10.09999999999996
 30
0.0
 11
-2.453738644055874
 21
0.0
 31
0.0
210
0.0
220
0.0
230
1.0
 40
0.4075413664868004
 41
3.141592653589793
 42
6.283185307179586
  0
ENDBLK
  5
BE48
330
BE46
100
AcDbEntity
  8
0
100
AcDbBlockEnd
  0
BLOCK
  5
BE5D
330
BE5C
100
AcDbEntity
  8
0
100
AcDbBlockBegin
  2
M8-WS-2
 70
     0
 10
0.0
 20
0.0
 30
0.0
  3
M8-WS-2
  1

  0
LINE
  5
BE5F
330
BE5C
100
AcDbEntity
  8
0
100
AcDbLine
 10
-10.10000000000002
 20
-0.0000000000000853
 30
0.0
 11
-4.100000000000022
 21
-0.0000000000000853
 31
0.0
  0
LINE
  5
BE60
330
BE5C
100
AcDbEntity
  8
0
100
AcDbLine
 10
-10.10000000000002
 20
8.499999999999943
 30
0.0
 11
-4.100000000000079
 21
8.499999999999886
 31
0.0
  0
LINE
  5
BE61
330
BE5C
100
AcDbEntity
  8
0
100
AcDbLine
 10
-10.09999999999996
 20
-8.500000000000085
 30
0.0
 11
-4.100000000000022
 21
-8.500000000000085
 31
0.0
  0
ELLIPSE
  5
BE62
330
BE5C
100
AcDbEntity
  8
0
100
AcDbEllipse
 10
-10.10000000000002
 20
-4.250000000000085
 30
0.0
 11
0.0
 21
4.25
 31
0.0
210
0.0
220
0.0
230
1.0
 40
0.2352941176470588
 41
0.0
 42
3.141592653589793
  0
LINE
  5
BE63
330
BE5C
100
AcDbEntity
  8
0
100
AcDbLine
 10
-11.10000000000002
 20
4.249999999999914
 30
0.0
 11
-11.10000000000002
 21
-4.250000000000085
 31
0.0
  0
ELLIPSE
  5
BE64
330
BE5C
100
AcDbEntity
  8
0
100
AcDbEllipse
 10
-10.10000000000002
 20
4.249999999999914
 30
0.0
 11
0.0
 21
4.25
 31
0.0
210
0.0
220
0.0
230
1.0
 40
0.2352941176470588
 41
0.0
 42
3.141592653589793
  0
LINE
  5
BE65
330
BE5C
100
AcDbEntity
  8
0
100
AcDbLine
 10
-0.0000000000000568
 20
-10.99999999999997
 30
0.0
 11
0.0
 21
10.99999999999997
 31
0.0
  0
LINE
  5
BE66
330
BE5C
100
AcDbEntity
  8
0
100
AcDbLine
 10
-1.600000000000022
 20
-10.99999999999997
 30
0.0
 11
-1.600000000000022
 21
10.99999999999997
 31
0.0
  0
LINE
  5
BE67
330
BE5C
100
AcDbEntity
  8
0
100
AcDbLine
 10
-4.100000000000022
 20
-8.750000000000085
 30
0.0
 11
-4.100000000000022
 21
8.749999999999914
 31
0.0
  0
LINE
  5
BE68
330
BE5C
100
AcDbEntity
  8
0
100
AcDbLine
 10
-4.100000000000022
 20
8.499999999999886
 30
0.0
 11
-4.100000000000079
 21
-8.500000000000085
 31
0.0
  0
LINE
  5
BE69
330
BE5C
100
AcDbEntity
  8
0
100
AcDbLine
 10
-1.600000000000022
 20
-11.00000000000003
 30
0.0
 11
0.0
 21
-10.99999999999997
 31
0.0
  0
LINE
  5
BE6A
330
BE5C
100
AcDbEntity
  8
0
100
AcDbLine
 10
-4.100000000000022
 20
-8.750000000000085
 30
0.0
 11
-1.600000000000022
 21
-8.749999999999971
 31
0.0
  0
LINE
  5
BE6B
330
BE5C
100
AcDbEntity
  8
0
100
AcDbLine
 10
-1.600000000000022
 20
11.00000000000003
 30
0.0
 11
0.0
 21
10.99999999999997
 31
0.0
  0
LINE
  5
BE6C
330
BE5C
100
AcDbEntity
  8
0
100
AcDbLine
 10
-4.100000000000022
 20
-0.2873045800571674
 30
0.0
 11
-1.600000000000022
 21
-0.728122031828292
 31
0.0
  0
LINE
  5
BE6D
330
BE5C
100
AcDbEntity
  8
0
100
AcDbLine
 10
-4.100000000000022
 20
0.7281220318284625
 30
0.0
 11
-1.600000000000022
 21
0.2873045800572811
 31
0.0
  0
LINE
  5
BE6E
330
BE5C
100
AcDbEntity
  8
0
100
AcDbLine
 10
-4.100000000000022
 20
8.749999999999971
 30
0.0
 11
-1.600000000000022
 21
8.749999999999971
 31
0.0
  0
ENDBLK
  5
BE5E
330
BE5C
100
AcDbEntity
  8
0
100
AcDbBlockEnd
  0
BLOCK
  5
BFC5
330
BFC4
100
AcDbEntity
  8
0
100
AcDbBlockBegin
  2
ST11-1
 70
     0
 10
0.0
 20
0.0
 30
0.0
  3
ST11-1
  1

  0
CIRCLE
  5
BFC7
330
BFC4
100
AcDbEntity
  8
0
100
AcDbCircle
 10
0.0
 20
0.0000000000000853
 30
0.0
 40
11.00000013668327
  0
LWPOLYLINE
  5
BFC8
330
BFC4
100
AcDbEntity
  8
0
100
AcDbPolyline
 90
        2
 70
     0
 43
0.0
 10
11.0000001366833
 20
-5.44744087999993
 10
11.0000001366833
 20
5.447440880000016
  0
LWPOLYLINE
  5
BFC9
330
BFC4
100
AcDbEntity
  8
0
100
AcDbPolyline
 90
        2
 70
     0
 43
0.0
 10
-11.00000013668318
 20
5.447440880000215
 10
-11.00000013668318
 20
-5.447440880000158
  0
CIRCLE
  5
BFCA
330
BFC4
100
AcDbEntity
  8
0
100
AcDbCircle
 10
0.0
 20
0.0
 30
0.0
 40
5.25
  0
LINE
  5
BFCB
330
BFC4
100
AcDbEntity
  8
0
100
AcDbLine
 10
11.0000001366833
 20
-5.44744087999993
 30
0.0
 11
10.21762225603549
 21
-6.802559119999983
 31
0.0
  0
LWPOLYLINE
  5
BFCC
330
BFC4
100
AcDbEntity
  8
0
100
AcDbPolyline
 90
        2
 70
     0
 43
0.0
 10
-10.21762225603572
 20
-6.80255911999987
 10
-0.7823778806479141
 20
-12.24999999999997
  0
LINE
  5
BFCD
330
BFC4
100
AcDbEntity
  8
0
100
AcDbLine
 10
-11.00000013668318
 20
-5.447440880000158
 30
0.0
 11
-10.21762225603572
 21
-6.80255911999987
 31
0.0
  0
LWPOLYLINE
  5
BFCE
330
BFC4
100
AcDbEntity
  8
0
100
AcDbPolyline
 90
        2
 70
     0
 43
0.0
 10
0.7823778806478004
 20
-12.25
 10
10.21762225603549
 20
-6.802559119999983
  0
LINE
  5
BFCF
330
BFC4
100
AcDbEntity
  8
0
100
AcDbLine
 10
-0.7823778806479141
 20
-12.24999999999997
 30
0.0
 11
0.7823778806478004
 21
-12.25
 31
0.0
  0
LINE
  5
BFD0
330
BFC4
100
AcDbEntity
  8
0
100
AcDbLine
 10
10.21762225603538
 20
6.802559120000097
 30
0.0
 11
11.0000001366833
 21
5.447440880000016
 31
0.0
  0
LWPOLYLINE
  5
BFD1
330
BFC4
100
AcDbEntity
  8
0
100
AcDbPolyline
 90
        2
 70
     0
 43
0.0
 10
-0.7823778806479141
 20
12.25000000000008
 10
-10.21762225603561
 20
6.802559119999898
  0
LINE
  5
BFD2
330
BFC4
100
AcDbEntity
  8
0
100
AcDbLine
 10
-10.21762225603549
 20
6.802559120000012
 30
0.0
 11
-11.0000001366833
 21
5.447440880000158
 31
0.0
  0
LWPOLYLINE
  5
BFD3
330
BFC4
100
AcDbEntity
  8
0
100
AcDbPolyline
 90
        2
 70
     0
 43
0.0
 10
10.21762225603538
 20
6.802559120000097
 10
0.7823778806478004
 20
12.25000000000003
  0
LINE
  5
BFD4
330
BFC4
100
AcDbEntity
  8
0
100
AcDbLine
 10
-0.7823778806479141
 20
12.25000000000008
 30
0.0
 11
0.7823778806478004
 21
12.25000000000003
 31
0.0
  0
ENDBLK
  5
BFC6
330
BFC4
100
AcDbEntity
  8
0
100
AcDbBlockEnd
  0
BLOCK
  5
BFF2
330
BFF1
100
AcDbEntity
  8
0
100
AcDbBlockBegin
  2
ST11-3
 70
     0
 10
0.0
 20
0.0
 30
0.0
  3
ST11-3
  1

  0
LINE
  5
BFF4
330
BFF1
100
AcDbEntity
  8
0
100
AcDbLine
 10
29.99999999999977
 20
6.0
 30
0.0
 11
29.99999999999977
 21
-6.0
 31
0.0
  0
LINE
  5
BFF5
330
BFF1
100
AcDbEntity
  8
0
100
AcDbLine
 10
5.0
 20
12.25000000000003
 30
0.0
 11
5.0
 21
-12.25
 31
0.0
  0
LINE
  5
BFF6
330
BFF1
100
AcDbEntity
  8
0
100
AcDbLine
 10
22.99999999999989
 20
12.25000000000003
 30
0.0
 11
22.99999999999989
 21
-12.25
 31
0.0
  0
LINE
  5
BFF7
330
BFF1
100
AcDbEntity
  8
0
100
AcDbLine
 10
13.0
 20
12.25000000000003
 30
0.0
 11
13.0
 21
-12.25
 31
0.0
  0
LINE
  5
BFF8
330
BFF1
100
AcDbEntity
  8
0
100
AcDbLine
 10
0.0
 20
12.25000000000003
 30
0.0
 11
0.0
 21
-12.25
 31
0.0
  0
LINE
  5
BFF9
330
BFF1
100
AcDbEntity
  8
0
100
AcDbLine
 10
5.0
 20
-9.300000000000039
 30
0.0
 11
13.0
 21
-9.300000000000011
 31
0.0
  0
LINE
  5
BFFA
330
BFF1
100
AcDbEntity
  8
0
100
AcDbLine
 10
0.0
 20
-12.25000000000003
 30
0.0
 11
5.000000000000113
 21
-12.25000000000003
 31
0.0
  0
LINE
  5
BFFB
330
BFF1
100
AcDbEntity
  8
0
100
AcDbLine
 10
0.0
 20
-5.44744087999993
 30
0.0
 11
5.0
 21
-5.447440879999959
 31
0.0
  0
LINE
  5
BFFC
330
BFF1
100
AcDbEntity
  8
0
100
AcDbLine
 10
0.0
 20
-6.802559119999983
 30
0.0
 11
5.0
 21
-6.802559120000012
 31
0.0
  0
ARC
  5
BFFD
330
BFF1
100
AcDbEntity
  8
0
100
AcDbCircle
 10
24.99999999999977
 20
-6.0
 30
0.0
 40
5.0
100
AcDbArc
 50
270.0
 51
0.0
  0
LINE
  5
BFFE
330
BFF1
100
AcDbEntity
  8
0
100
AcDbLine
 10
13.0
 20
-12.25000000000003
 30
0.0
 11
22.99999999999989
 21
-12.25000000000003
 31
0.0
  0
LINE
  5
BFFF
330
BFF1
100
AcDbEntity
  8
0
100
AcDbLine
 10
24.99999999999977
 20
-11.0
 30
0.0
 11
22.99999999999989
 21
-11.0
 31
0.0
  0
LINE
  5
C000
330
BFF1
100
AcDbEntity
  8
0
100
AcDbLine
 10
12.99999999999988
 20
-6.802559120000012
 30
0.0
 11
23.0
 21
-6.802559119999983
 31
0.0
  0
LINE
  5
C001
330
BFF1
100
AcDbEntity
  8
0
100
AcDbLine
 10
12.99999999999988
 20
-5.447440879999959
 30
0.0
 11
23.0
 21
-5.44744087999993
 31
0.0
  0
LINE
  5
C002
330
BFF1
100
AcDbEntity
  8
0
100
AcDbLine
 10
5.0
 20
9.299999999999982
 30
0.0
 11
12.99999999999988
 21
9.299999999999982
 31
0.0
  0
LINE
  5
C003
330
BFF1
100
AcDbEntity
  8
0
100
AcDbLine
 10
0.0
 20
12.25000000000003
 30
0.0
 11
5.000000000000113
 21
12.25000000000003
 31
0.0
  0
LINE
  5
C004
330
BFF1
100
AcDbEntity
  8
0
100
AcDbLine
 10
0.0
 20
6.802559120000125
 30
0.0
 11
5.0
 21
6.802559120000125
 31
0.0
  0
LINE
  5
C005
330
BFF1
100
AcDbEntity
  8
0
100
AcDbLine
 10
0.0
 20
5.447440880000073
 30
0.0
 11
5.0
 21
5.447440880000073
 31
0.0
  0
ARC
  5
C006
330
BFF1
100
AcDbEntity
  8
0
100
AcDbCircle
 10
24.99999999999977
 20
6.0
 30
0.0
 40
5.0
100
AcDbArc
 50
0.0
 51
90.0
  0
LINE
  5
C007
330
BFF1
100
AcDbEntity
  8
0
100
AcDbLine
 10
13.0
 20
12.25000000000003
 30
0.0
 11
22.99999999999989
 21
12.25000000000003
 31
0.0
  0
LINE
  5
C008
330
BFF1
100
AcDbEntity
  8
0
100
AcDbLine
 10
12.99999999999988
 20
5.447440880000073
 30
0.0
 11
23.0
 21
5.447440880000044
 31
0.0
  0
LINE
  5
C009
330
BFF1
100
AcDbEntity
  8
0
100
AcDbLine
 10
12.99999999999988
 20
6.802559120000125
 30
0.0
 11
23.0
 21
6.802559120000097
 31
0.0
  0
LINE
  5
C00A
330
BFF1
100
AcDbEntity
  8
0
100
AcDbLine
 10
24.99999999999977
 20
11.0
 30
0.0
 11
22.99999999999989
 21
11.0
 31
0.0
  0
ENDBLK
  5
BFF3
330
BFF1
100
AcDbEntity
  8
0
100
AcDbBlockEnd
  0
BLOCK
  5
CCBF
330
CCBE
100
AcDbEntity
  8
0
100
AcDbBlockBegin
  2
F2060B-4P
 70
     0
 10
0.0
 20
0.0
 30
0.0
  3
F2060B-4P
  1

  0
LINE
  5
CCC0
330
CCBE
100
AcDbEntity
  8
0
100
AcDbLine
 10
-22.25
 20
-5.999999999999902
 30
0.0
 11
22.25
 21
-5.999999999999902
 31
0.0
  0
LINE
  5
CCC1
330
CCBE
100
AcDbEntity
  8
0
100
AcDbLine
 10
-22.25
 20
6.000000000000097
 30
0.0
 11
22.25
 21
6.000000000000097
 31
0.0
  0
LINE
  5
CCC2
330
CCBE
100
AcDbEntity
  8
0
100
AcDbLine
 10
-7.00999999999999
 20
4.60000000000012
 30
0.0
 11
-0.6100000000000705
 21
4.60000000000012
 31
0.0
  0
LINE
  5
CCC3
330
CCBE
100
AcDbEntity
  8
0
100
AcDbLine
 10
-5.310000000000059
 20
3.800000000000052
 30
0.0
 11
-2.310000000000002
 21
3.800000000000052
 31
0.0
  0
LINE
  5
CCC4
330
CCBE
100
AcDbEntity
  8
0
100
AcDbLine
 10
-7.00999999999999
 20
3.000000000000098
 30
0.0
 11
-0.6100000000000137
 21
3.000000000000098
 31
0.0
  0
LINE
  5
CCC5
330
CCBE
100
AcDbEntity
  8
0
100
AcDbLine
 10
-7.00999999999999
 20
-2.999999999999901
 30
0.0
 11
-0.6099999999999568
 21
-2.999999999999901
 31
0.0
  0
LINE
  5
CCC6
330
CCBE
100
AcDbEntity
  8
0
100
AcDbLine
 10
-7.00999999999999
 20
-4.599999999999925
 30
0.0
 11
-0.6099999999999568
 21
-4.599999999999925
 31
0.0
  0
LINE
  5
CCC7
330
CCBE
100
AcDbEntity
  8
0
100
AcDbLine
 10
-5.310000000000059
 20
-3.799999999999856
 30
0.0
 11
-2.310000000000002
 21
-3.799999999999856
 31
0.0
  0
LINE
  5
CCC8
330
CCBE
100
AcDbEntity
  8
SUNPOU
100
AcDbLine
 10
-2.310000000000002
 20
-1.499999999999901
 30
0.0
 11
-5.309999999999945
 21
1.500000000000098
 31
0.0
  0
LINE
  5
CCC9
330
CCBE
100
AcDbEntity
  8
SUNPOU
100
AcDbLine
 10
-5.309999999999945
 20
-1.499999999999901
 30
0.0
 11
-2.310000000000002
 21
1.500000000000098
 31
0.0
  0
CIRCLE
  5
CCCA
330
CCBE
100
AcDbEntity
  8
0
100
AcDbCircle
 10
-3.810000000000002
 20
-0.0000000000000155
 30
0.0
 40
2.75
  0
LINE
  5
CCCB
330
CCBE
100
AcDbEntity
  8
0
100
AcDbLine
 10
-22.25
 20
-5.999999999999902
 30
0.0
 11
-22.25
 21
6.000000000000097
 31
0.0
  0
LINE
  5
CCCC
330
CCBE
100
AcDbEntity
  8
0
100
AcDbLine
 10
-7.009999999999934
 20
6.000000000000097
 30
0.0
 11
-7.00999999999999
 21
-5.999999999999902
 31
0.0
  0
LINE
  5
CCCD
330
CCBE
100
AcDbEntity
  8
0
100
AcDbLine
 10
-8.230000000000075
 20
6.000000000000097
 30
0.0
 11
-8.230000000000018
 21
-5.999999999999902
 31
0.0
  0
LINE
  5
CCCE
330
CCBE
100
AcDbEntity
  8
0
100
AcDbLine
 10
-14.62999999999994
 20
6.000000000000097
 30
0.0
 11
-14.62999999999999
 21
-5.999999999999902
 31
0.0
  0
LINE
  5
CCCF
330
CCBE
100
AcDbEntity
  8
0
100
AcDbLine
 10
-15.85000000000008
 20
6.000000000000097
 30
0.0
 11
-15.85000000000002
 21
-5.999999999999902
 31
0.0
  0
CIRCLE
  5
CCD0
330
CCBE
100
AcDbEntity
  8
0
100
AcDbCircle
 10
-19.05000000000001
 20
-0.0000000000000155
 30
0.0
 40
1.25
  0
LINE
  5
CCD1
330
CCBE
100
AcDbEntity
  8
0
100
AcDbLine
 10
-20.55000000000007
 20
3.800000000000052
 30
0.0
 11
-17.55000000000001
 21
3.800000000000052
 31
0.0
  0
LINE
  5
CCD2
330
CCBE
100
AcDbEntity
  8
0
100
AcDbLine
 10
-20.55000000000007
 20
-3.799999999999856
 30
0.0
 11
-17.55000000000001
 21
-3.799999999999856
 31
0.0
  0
LINE
  5
CCD3
330
CCBE
100
AcDbEntity
  8
0
100
AcDbLine
 10
-22.25
 20
-4.599999999999925
 30
0.0
 11
-15.84999999999996
 21
-4.599999999999925
 31
0.0
  0
LINE
  5
CCD4
330
CCBE
100
AcDbEntity
  8
0
100
AcDbLine
 10
-22.25
 20
-2.999999999999901
 30
0.0
 11
-15.84999999999996
 21
-2.999999999999901
 31
0.0
  0
LINE
  5
CCD5
330
CCBE
100
AcDbEntity
  8
0
100
AcDbLine
 10
-22.25
 20
3.000000000000098
 30
0.0
 11
-15.85000000000002
 21
3.000000000000098
 31
0.0
  0
LINE
  5
CCD6
330
CCBE
100
AcDbEntity
  8
0
100
AcDbLine
 10
-22.25
 20
4.60000000000012
 30
0.0
 11
-15.85000000000008
 21
4.60000000000012
 31
0.0
  0
LINE
  5
CCD7
330
CCBE
100
AcDbEntity
  8
0
100
AcDbLine
 10
-20.55000000000001
 20
3.800000000000052
 30
0.0
 11
-20.54999999999996
 21
3.000000000000098
 31
0.0
  0
LINE
  5
CCD8
330
CCBE
100
AcDbEntity
  8
0
100
AcDbLine
 10
-20.55000000000001
 20
-2.999999999999901
 30
0.0
 11
-20.55000000000001
 21
-3.799999999999856
 31
0.0
  0
LINE
  5
CCD9
330
CCBE
100
AcDbEntity
  8
0
100
AcDbLine
 10
-12.93000000000001
 20
3.800000000000052
 30
0.0
 11
-9.930000000000006
 21
3.800000000000052
 31
0.0
  0
LINE
  5
CCDA
330
CCBE
100
AcDbEntity
  8
0
100
AcDbLine
 10
-14.62999999999999
 20
4.60000000000012
 30
0.0
 11
-8.230000000000075
 21
4.60000000000012
 31
0.0
  0
LINE
  5
CCDB
330
CCBE
100
AcDbEntity
  8
0
100
AcDbLine
 10
-14.62999999999999
 20
3.000000000000098
 30
0.0
 11
-8.230000000000075
 21
3.000000000000098
 31
0.0
  0
LINE
  5
CCDC
330
CCBE
100
AcDbEntity
  8
0
100
AcDbLine
 10
-12.93000000000001
 20
-3.799999999999856
 30
0.0
 11
-9.930000000000006
 21
-3.799999999999856
 31
0.0
  0
LINE
  5
CCDD
330
CCBE
100
AcDbEntity
  8
0
100
AcDbLine
 10
-14.63000000000005
 20
-2.999999999999901
 30
0.0
 11
-8.229999999999961
 21
-2.999999999999901
 31
0.0
  0
LINE
  5
CCDE
330
CCBE
100
AcDbEntity
  8
0
100
AcDbLine
 10
-14.63000000000005
 20
-4.599999999999925
 30
0.0
 11
-8.229999999999961
 21
-4.599999999999925
 31
0.0
  0
LINE
  5
CCDF
330
CCBE
100
AcDbEntity
  8
SUNPOU
100
AcDbLine
 10
-9.930000000000006
 20
-1.499999999999901
 30
0.0
 11
-12.93000000000001
 21
1.500000000000098
 31
0.0
  0
LINE
  5
CCE0
330
CCBE
100
AcDbEntity
  8
SUNPOU
100
AcDbLine
 10
-12.93000000000001
 20
-1.499999999999901
 30
0.0
 11
-9.930000000000006
 21
1.500000000000098
 31
0.0
  0
CIRCLE
  5
CCE1
330
CCBE
100
AcDbEntity
  8
0
100
AcDbCircle
 10
-11.43
 20
-0.0000000000000155
 30
0.0
 40
2.75
  0
LINE
  5
CCE2
330
CCBE
100
AcDbEntity
  8
0
100
AcDbLine
 10
-12.93000000000001
 20
3.800000000000052
 30
0.0
 11
-12.93000000000001
 21
3.000000000000098
 31
0.0
  0
LINE
  5
CCE3
330
CCBE
100
AcDbEntity
  8
0
100
AcDbLine
 10
-17.55000000000001
 20
3.800000000000052
 30
0.0
 11
-17.55000000000001
 21
3.000000000000098
 31
0.0
  0
LINE
  5
CCE4
330
CCBE
100
AcDbEntity
  8
0
100
AcDbLine
 10
-12.93000000000001
 20
-2.999999999999901
 30
0.0
 11
-12.93000000000001
 21
-3.799999999999856
 31
0.0
  0
LINE
  5
CCE5
330
CCBE
100
AcDbEntity
  8
0
100
AcDbLine
 10
-17.55000000000001
 20
-2.999999999999901
 30
0.0
 11
-17.55000000000001
 21
-3.799999999999856
 31
0.0
  0
LINE
  5
CCE6
330
CCBE
100
AcDbEntity
  8
0
100
AcDbLine
 10
-5.310000000000002
 20
3.800000000000052
 30
0.0
 11
-5.309999999999945
 21
3.000000000000098
 31
0.0
  0
LINE
  5
CCE7
330
CCBE
100
AcDbEntity
  8
0
100
AcDbLine
 10
-9.930000000000006
 20
3.800000000000052
 30
0.0
 11
-9.930000000000006
 21
3.000000000000098
 31
0.0
  0
LINE
  5
CCE8
330
CCBE
100
AcDbEntity
  8
0
100
AcDbLine
 10
-5.310000000000002
 20
-2.999999999999901
 30
0.0
 11
-5.310000000000002
 21
-3.799999999999856
 31
0.0
  0
LINE
  5
CCE9
330
CCBE
100
AcDbEntity
  8
0
100
AcDbLine
 10
-9.930000000000006
 20
-2.999999999999901
 30
0.0
 11
-9.930000000000006
 21
-3.799999999999856
 31
0.0
  0
LINE
  5
CCEA
330
CCBE
100
AcDbEntity
  8
0
100
AcDbLine
 10
22.25
 20
-5.999999999999902
 30
0.0
 11
22.25000000000003
 21
6.000000000000097
 31
0.0
  0
LINE
  5
CCEB
330
CCBE
100
AcDbEntity
  8
0
100
AcDbLine
 10
7.009999999999934
 20
6.000000000000097
 30
0.0
 11
7.00999999999999
 21
-5.999999999999902
 31
0.0
  0
LINE
  5
CCEC
330
CCBE
100
AcDbEntity
  8
0
100
AcDbLine
 10
14.62999999999994
 20
6.000000000000097
 30
0.0
 11
14.62999999999999
 21
-5.999999999999902
 31
0.0
  0
LINE
  5
CCED
330
CCBE
100
AcDbEntity
  8
0
100
AcDbLine
 10
15.85000000000008
 20
6.000000000000097
 30
0.0
 11
15.85000000000002
 21
-5.999999999999902
 31
0.0
  0
LINE
  5
CCEE
330
CCBE
100
AcDbEntity
  8
0
100
AcDbLine
 10
8.230000000000075
 20
6.000000000000097
 30
0.0
 11
8.230000000000018
 21
-5.999999999999902
 31
0.0
  0
LINE
  5
CCEF
330
CCBE
100
AcDbEntity
  8
0
100
AcDbLine
 10
0.6100000000000705
 20
6.000000000000097
 30
0.0
 11
0.6100000000000137
 21
-5.999999999999902
 31
0.0
  0
LINE
  5
CCF0
330
CCBE
100
AcDbEntity
  8
0
100
AcDbLine
 10
-0.6100000000000705
 20
6.000000000000097
 30
0.0
 11
-0.6100000000000137
 21
-5.999999999999902
 31
0.0
  0
CIRCLE
  5
CCF1
330
CCBE
100
AcDbEntity
  8
0
100
AcDbCircle
 10
11.43
 20
-0.0000000000000155
 30
0.0
 40
2.75
  0
LINE
  5
CCF2
330
CCBE
100
AcDbEntity
  8
0
100
AcDbLine
 10
8.230000000000018
 20
-4.599999999999925
 30
0.0
 11
14.63000000000005
 21
-4.599999999999925
 31
0.0
  0
LINE
  5
CCF3
330
CCBE
100
AcDbEntity
  8
0
100
AcDbLine
 10
8.230000000000018
 20
-2.999999999999901
 30
0.0
 11
14.63000000000005
 21
-2.999999999999901
 31
0.0
  0
LINE
  5
CCF4
330
CCBE
100
AcDbEntity
  8
0
100
AcDbLine
 10
8.230000000000018
 20
3.000000000000098
 30
0.0
 11
14.62999999999999
 21
3.000000000000098
 31
0.0
  0
LINE
  5
CCF5
330
CCBE
100
AcDbEntity
  8
0
100
AcDbLine
 10
8.230000000000018
 20
4.60000000000012
 30
0.0
 11
14.62999999999994
 21
4.60000000000012
 31
0.0
  0
LINE
  5
CCF6
330
CCBE
100
AcDbEntity
  8
0
100
AcDbLine
 10
0.6100000000000137
 20
4.60000000000012
 30
0.0
 11
7.009999999999905
 21
4.60000000000012
 31
0.0
  0
LINE
  5
CCF7
330
CCBE
100
AcDbEntity
  8
0
100
AcDbLine
 10
0.6100000000000137
 20
3.000000000000098
 30
0.0
 11
7.009999999999905
 21
3.000000000000098
 31
0.0
  0
LINE
  5
CCF8
330
CCBE
100
AcDbEntity
  8
0
100
AcDbLine
 10
2.309999999999973
 20
3.800000000000052
 30
0.0
 11
5.309999999999973
 21
3.800000000000052
 31
0.0
  0
LINE
  5
CCF9
330
CCBE
100
AcDbEntity
  8
0
100
AcDbLine
 10
0.6099999999999568
 20
-4.599999999999925
 30
0.0
 11
7.010000000000019
 21
-4.599999999999925
 31
0.0
  0
LINE
  5
CCFA
330
CCBE
100
AcDbEntity
  8
0
100
AcDbLine
 10
0.6099999999999568
 20
-2.999999999999901
 30
0.0
 11
7.010000000000019
 21
-2.999999999999901
 31
0.0
  0
LINE
  5
CCFB
330
CCBE
100
AcDbEntity
  8
0
100
AcDbLine
 10
2.309999999999973
 20
-3.799999999999856
 30
0.0
 11
5.309999999999973
 21
-3.799999999999856
 31
0.0
  0
LINE
  5
CCFC
330
CCBE
100
AcDbEntity
  8
SUNPOU
100
AcDbLine
 10
2.309999999999973
 20
-1.499999999999901
 30
0.0
 11
5.309999999999973
 21
1.500000000000098
 31
0.0
  0
LINE
  5
CCFD
330
CCBE
100
AcDbEntity
  8
SUNPOU
100
AcDbLine
 10
5.309999999999973
 20
-1.499999999999901
 30
0.0
 11
2.309999999999973
 21
1.500000000000098
 31
0.0
  0
CIRCLE
  5
CCFE
330
CCBE
100
AcDbEntity
  8
0
100
AcDbCircle
 10
3.809999999999973
 20
-0.0000000000000155
 30
0.0
 40
2.75
  0
LINE
  5
CCFF
330
CCBE
100
AcDbEntity
  8
SUNPOU
100
AcDbLine
 10
0.0
 20
-0.9999999999999587
 30
0.0
 11
0.0
 21
1.000000000000041
 31
0.0
  0
LINE
  5
CD00
330
CCBE
100
AcDbEntity
  8
SUNPOU
100
AcDbLine
 10
-0.6100000000000421
 20
-0.0000000000000155
 30
0.0
 11
0.6100000000000421
 21
0.0000000000000155
 31
0.0
  0
LINE
  5
CD01
330
CCBE
100
AcDbEntity
  8
0
100
AcDbLine
 10
2.309999999999973
 20
3.800000000000052
 30
0.0
 11
2.309999999999973
 21
3.000000000000098
 31
0.0
  0
LINE
  5
CD02
330
CCBE
100
AcDbEntity
  8
0
100
AcDbLine
 10
-2.310000000000002
 20
3.800000000000052
 30
0.0
 11
-2.310000000000002
 21
3.000000000000098
 31
0.0
  0
LINE
  5
CD03
330
CCBE
100
AcDbEntity
  8
0
100
AcDbLine
 10
2.309999999999973
 20
-2.999999999999901
 30
0.0
 11
2.309999999999973
 21
-3.799999999999856
 31
0.0
  0
LINE
  5
CD04
330
CCBE
100
AcDbEntity
  8
0
100
AcDbLine
 10
-2.310000000000002
 20
-2.999999999999901
 30
0.0
 11
-2.310000000000002
 21
-3.799999999999856
 31
0.0
  0
LINE
  5
CD05
330
CCBE
100
AcDbEntity
  8
0
100
AcDbLine
 10
12.93000000000001
 20
-2.999999999999901
 30
0.0
 11
12.93000000000001
 21
-3.799999999999856
 31
0.0
  0
LINE
  5
CD06
330
CCBE
100
AcDbEntity
  8
0
100
AcDbLine
 10
12.93000000000001
 20
3.800000000000052
 30
0.0
 11
12.93000000000001
 21
3.000000000000098
 31
0.0
  0
LINE
  5
CD07
330
CCBE
100
AcDbEntity
  8
0
100
AcDbLine
 10
9.930000000000006
 20
-2.999999999999901
 30
0.0
 11
9.930000000000006
 21
-3.799999999999856
 31
0.0
  0
LINE
  5
CD08
330
CCBE
100
AcDbEntity
  8
0
100
AcDbLine
 10
9.930000000000006
 20
3.800000000000052
 30
0.0
 11
9.930000000000063
 21
3.000000000000098
 31
0.0
  0
LINE
  5
CD09
330
CCBE
100
AcDbEntity
  8
SUNPOU
100
AcDbLine
 10
9.930000000000063
 20
-1.499999999999901
 30
0.0
 11
12.93000000000001
 21
1.500000000000098
 31
0.0
  0
LINE
  5
CD0A
330
CCBE
100
AcDbEntity
  8
SUNPOU
100
AcDbLine
 10
12.93000000000001
 20
-1.499999999999901
 30
0.0
 11
9.930000000000063
 21
1.500000000000098
 31
0.0
  0
LINE
  5
CD0B
330
CCBE
100
AcDbEntity
  8
0
100
AcDbLine
 10
9.929999999999949
 20
-3.799999999999856
 30
0.0
 11
12.93000000000001
 21
-3.799999999999856
 31
0.0
  0
LINE
  5
CD0C
330
CCBE
100
AcDbEntity
  8
0
100
AcDbLine
 10
9.929999999999949
 20
3.800000000000052
 30
0.0
 11
12.93000000000001
 21
3.800000000000052
 31
0.0
  0
LINE
  5
CD0D
330
CCBE
100
AcDbEntity
  8
0
100
AcDbLine
 10
5.309999999999973
 20
3.800000000000052
 30
0.0
 11
5.309999999999973
 21
3.000000000000098
 31
0.0
  0
LINE
  5
CD0E
330
CCBE
100
AcDbEntity
  8
0
100
AcDbLine
 10
5.309999999999973
 20
-2.999999999999901
 30
0.0
 11
5.309999999999973
 21
-3.799999999999856
 31
0.0
  0
LINE
  5
CD0F
330
CCBE
100
AcDbEntity
  8
0
100
AcDbLine
 10
15.84999999999996
 20
-2.999999999999901
 30
0.0
 11
22.25000000000003
 21
-2.999999999999901
 31
0.0
  0
LINE
  5
CD10
330
CCBE
100
AcDbEntity
  8
0
100
AcDbLine
 10
15.84999999999996
 20
-4.599999999999925
 30
0.0
 11
22.25000000000003
 21
-4.599999999999925
 31
0.0
  0
LINE
  5
CD11
330
CCBE
100
AcDbEntity
  8
0
100
AcDbLine
 10
15.85000000000002
 20
3.000000000000098
 30
0.0
 11
22.24999999999992
 21
3.000000000000098
 31
0.0
  0
LINE
  5
CD12
330
CCBE
100
AcDbEntity
  8
0
100
AcDbLine
 10
15.85000000000002
 20
4.60000000000012
 30
0.0
 11
22.24999999999992
 21
4.60000000000012
 31
0.0
  0
CIRCLE
  5
CD13
330
CCBE
100
AcDbEntity
  8
0
100
AcDbCircle
 10
19.04999999999998
 20
0.0000000000000981
 30
0.0
 40
1.25
  0
LINE
  5
CD14
330
CCBE
100
AcDbEntity
  8
0
100
AcDbLine
 10
20.54999999999998
 20
-2.999999999999901
 30
0.0
 11
20.54999999999998
 21
-3.799999999999856
 31
0.0
  0
LINE
  5
CD15
330
CCBE
100
AcDbEntity
  8
0
100
AcDbLine
 10
20.54999999999998
 20
3.800000000000052
 30
0.0
 11
20.54999999999998
 21
3.000000000000098
 31
0.0
  0
LINE
  5
CD16
330
CCBE
100
AcDbEntity
  8
0
100
AcDbLine
 10
17.54999999999998
 20
-2.999999999999901
 30
0.0
 11
17.54999999999998
 21
-3.799999999999856
 31
0.0
  0
LINE
  5
CD17
330
CCBE
100
AcDbEntity
  8
0
100
AcDbLine
 10
17.54999999999998
 20
3.800000000000052
 30
0.0
 11
17.54999999999998
 21
3.000000000000098
 31
0.0
  0
LINE
  5
CD18
330
CCBE
100
AcDbEntity
  8
0
100
AcDbLine
 10
17.54999999999998
 20
-3.799999999999856
 30
0.0
 11
20.54999999999998
 21
-3.799999999999856
 31
0.0
  0
LINE
  5
CD19
330
CCBE
100
AcDbEntity
  8
0
100
AcDbLine
 10
17.54999999999998
 20
3.800000000000052
 30
0.0
 11
20.54999999999998
 21
3.800000000000052
 31
0.0
  0
ENDBLK
  5
CD1A
330
CCBE
100
AcDbEntity
  8
0
100
AcDbBlockEnd
  0
BLOCK
  5
DDFD
330
DDFC
100
AcDbEntity
  8
0
100
AcDbBlockBegin
  2
SA-7051B
 70
     0
 10
0.0
 20
0.0
 30
0.0
  3
SA-7051B
  1

  0
LINE
  5
DDFE
330
DDFC
100
AcDbEntity
  8
0
100
AcDbLine
 10
-3.599999999999965
 20
0.0
 30
0.0
 11
3.600000000000022
 21
0.0
 31
0.0
  0
LINE
  5
DDFF
330
DDFC
100
AcDbEntity
  8
0
100
AcDbLine
 10
-3.599999999999965
 20
8.299999999999982
 30
0.0
 11
3.600000000000022
 21
8.300000000000039
 31
0.0
  0
CIRCLE
  5
DE00
330
DDFC
100
AcDbEntity
  8
0
100
AcDbCircle
 10
0.0
 20
4.150000000000005
 30
0.0
 40
1.439999999999999
  0
TEXT
  5
DE01
330
DDFC
100
AcDbEntity
  8
SUNPOU
100
AcDbText
 10
0.2588422460098684
 20
5.796259395661248
 30
0.0
 40
1.439999999999999
  1
9
 50
337.5
 41
0.6
 72
     1
 11
0.6199471604314227
 21
5.646684842668264
 31
0.0
100
AcDbText
 73
     1
  0
LINE
  5
DE02
330
DDFC
100
AcDbEntity
  8
0
100
AcDbLine
 10
-3.599999999999965
 20
8.300000000000011
 30
0.0
 11
-3.599999999999965
 21
0.0
 31
0.0
  0
LINE
  5
DE03
330
DDFC
100
AcDbEntity
  8
0
100
AcDbLine
 10
0.0
 20
3.069999999999993
 30
0.0
 11
0.0
 21
5.230000000000018
 31
0.0
  0
LINE
  5
DE04
330
DDFC
100
AcDbEntity
  8
0
100
AcDbLine
 10
0.0
 20
3.069999999999993
 30
0.0
 11
0.3600000000000136
 21
3.789999999999992
 31
0.0
  0
LINE
  5
DE05
330
DDFC
100
AcDbEntity
  8
0
100
AcDbLine
 10
0.0
 20
3.069999999999993
 30
0.0
 11
-0.3600000000000136
 21
3.789999999999992
 31
0.0
  0
TEXT
  5
DE06
330
DDFC
100
AcDbEntity
  8
SUNPOU
100
AcDbText
 10
0.4114285714285715
 20
2.530000000000001
 30
0.0
 40
1.439999999999999
  1
0
 50
180.0
 41
0.6
 72
     1
 11
0.0
 21
2.530000000000001
 31
0.0
100
AcDbText
 73
     1
  0
TEXT
  5
DE07
330
DDFC
100
AcDbEntity
  8
SUNPOU
100
AcDbText
 10
-0.2968532896331899
 20
2.519485294127498
 30
0.0
 40
1.439999999999999
  1
1
 50
157.5
 41
0.6
 72
     1
 11
-0.6199471604314227
 21
2.653315157331746
 31
0.0
100
AcDbText
 73
     1
  0
TEXT
  5
DE08
330
DDFC
100
AcDbEntity
  8
SUNPOU
100
AcDbText
 10
-0.8545890526911659
 20
2.713563081646766
 30
0.0
 40
1.439999999999999
  1
2
 50
135.0
 41
0.6
 72
     1
 11
-1.145512985522202
 21
3.004487014477803
 31
0.0
100
AcDbText
 73
     1
  0
TEXT
  5
DE09
330
DDFC
100
AcDbEntity
  8
SUNPOU
100
AcDbText
 10
-1.339237944780941
 20
3.149942403335336
 30
0.0
 40
1.439999999999999
  1
3
 50
112.4999999999991
 41
0.6
 72
     1
 11
-1.496684842668287
 21
3.530052839568554
 31
0.0
100
AcDbText
 73
     1
  0
TEXT
  5
DE0A
330
DDFC
100
AcDbEntity
  8
SUNPOU
100
AcDbText
 10
-0.4114285714285714
 20
5.77000000000001
 30
0.0
 40
1.439999999999999
  1
8
 41
0.6
 72
     1
 11
0.0
 21
5.77000000000001
 31
0.0
100
AcDbText
 73
     1
  0
TEXT
  5
DE0B
330
DDFC
100
AcDbEntity
  8
SUNPOU
100
AcDbText
 10
-1.000057596664694
 20
5.489237944780913
 30
0.0
 40
1.439999999999999
  1
7
 50
22.50000000000001
 41
0.6
 72
     1
 11
-0.6199471604314795
 21
5.646684842668264
 31
0.0
100
AcDbText
 73
     1
  0
TEXT
  5
DE0C
330
DDFC
100
AcDbEntity
  8
SUNPOU
100
AcDbText
 10
-1.620000000000004
 20
3.718000000000005
 30
0.0
 40
1.439999999999999
  1
4
 50
90.0
 41
0.6
 72
     1
 11
-1.620000000000004
 21
4.150000000000005
 31
0.0
100
AcDbText
 73
     1
  0
TEXT
  5
DE0D
330
DDFC
100
AcDbEntity
  8
SUNPOU
100
AcDbText
 10
-1.654131740555632
 20
4.38983672419821
 30
0.0
 40
1.439999999999999
  1
5
 50
67.50000000000088
 41
0.6
 72
     1
 11
-1.496684842668287
 21
4.769947160431428
 31
0.0
100
AcDbText
 73
     1
  0
TEXT
  5
DE0E
330
DDFC
100
AcDbEntity
  8
SUNPOU
100
AcDbText
 10
-1.450983114994791
 20
4.990042856049591
 30
0.0
 40
1.439999999999999
  1
6
 50
45.0
 41
0.6
 72
     1
 11
-1.145512985522202
 21
5.295512985522179
 31
0.0
100
AcDbText
 73
     1
  0
LINE
  5
DE0F
330
DDFC
100
AcDbEntity
  8
0
100
AcDbLine
 10
3.600000000000022
 20
8.300000000000011
 30
0.0
 11
3.600000000000022
 21
0.0
 31
0.0
  0
TEXT
  5
DE10
330
DDFC
100
AcDbEntity
  8
SUNPOU
100
AcDbText
 10
1.669876430344367
 20
3.948174319425122
 30
0.0
 40
1.439999999999999
  1
D
 50
247.5000000000009
 41
0.6
 72
     1
 11
1.496684842668287
 21
3.530052839568583
 31
0.0
100
AcDbText
 73
     1
  0
TEXT
  5
DE11
330
DDFC
100
AcDbEntity
  8
SUNPOU
100
AcDbText
 10
1.019063118476355
 20
2.818634400113437
 30
0.0
 40
1.439999999999999
  1
F
 50
202.5
 41
0.6
 72
     1
 11
0.6199471604314795
 21
2.653315157331718
 31
0.0
100
AcDbText
 73
     1
  0
TEXT
  5
DE12
330
DDFC
100
AcDbEntity
  8
SUNPOU
100
AcDbText
 10
0.8836814459742697
 20
5.557344525070113
 30
0.0
 40
1.439999999999999
  1
A
 50
315.0
 41
0.6
 72
     1
 11
1.145512985522202
 21
5.295512985522179
 31
0.0
100
AcDbText
 73
     1
  0
TEXT
  5
DE13
330
DDFC
100
AcDbEntity
  8
SUNPOU
100
AcDbText
 10
1.323493254992207
 20
5.188068640287967
 30
0.0
 40
1.439999999999999
  1
B
 50
292.4999999999991
 41
0.6
 72
     1
 11
1.496684842668287
 21
4.769947160431428
 31
0.0
100
AcDbText
 73
     1
  0
TEXT
  5
DE14
330
DDFC
100
AcDbEntity
  8
SUNPOU
100
AcDbText
 10
1.620000000000004
 20
4.582000000000006
 30
0.0
 40
1.439999999999999
  1
C
 50
270.0
 41
0.6
 72
     1
 11
1.620000000000004
 21
4.150000000000005
 31
0.0
100
AcDbText
 73
     1
  0
TEXT
  5
DE15
330
DDFC
100
AcDbEntity
  8
SUNPOU
100
AcDbText
 10
1.450983114994791
 20
3.309957143950391
 30
0.0
 40
1.439999999999999
  1
E
 50
225.0
 41
0.6
 72
     1
 11
1.145512985522202
 21
3.004487014477803
 31
0.0
100
AcDbText
 73
     1
  0
ENDBLK
  5
DE16
330
DDFC
100
AcDbEntity
  8
0
100
AcDbBlockEnd
  0
BLOCK
  5
DE18
330
DE17
100
AcDbEntity
  8
0
100
AcDbBlockBegin
  2
CFP-4P-1
 70
     0
 10
0.0
 20
0.0
 30
0.0
  3
CFP-4P-1
  1

  0
LINE
  5
DE19
330
DE17
100
AcDbEntity
  8
0
100
AcDbLine
 10
-6.069999999999993
 20
0.25
 30
0.0
 11
6.069999999999993
 21
0.2500000000000284
 31
0.0
  0
LINE
  5
DE1A
330
DE17
100
AcDbEntity
  8
0
100
AcDbLine
 10
-2.069999999999993
 20
0.0
 30
0.0
 11
-0.4699999999999705
 21
0.0
 31
0.0
  0
LINE
  5
DE1B
330
DE17
100
AcDbEntity
  8
SUNPOU
100
AcDbLine
 10
-5.060000000000002
 20
3.300000000000011
 30
0.0
 11
5.060000000000059
 21
3.300000000000011
 31
0.0
  0
LINE
  5
DE1C
330
DE17
100
AcDbEntity
  8
0
100
AcDbLine
 10
-6.069999999999993
 20
6.700000000000017
 30
0.0
 11
6.069999999999993
 21
6.700000000000017
 31
0.0
  0
TEXT
  5
DE1D
330
DE17
100
AcDbEntity
  8
SUNPOU
100
AcDbText
 10
-5.879949327824135
 20
0.5081053579144737
 30
0.0
 40
0.8
  1
ON
100
AcDbText
  0
LINE
  5
DE1E
330
DE17
100
AcDbEntity
  8
SUNPOU
100
AcDbLine
 10
-5.160000000000025
 20
1.599999999999965
 30
0.0
 11
-5.546609100398484
 21
2.267240994203973
 31
0.0
  0
LINE
  5
DE1F
330
DE17
100
AcDbEntity
  8
SUNPOU
100
AcDbLine
 10
-5.112725840203154
 20
1.600372497489786
 30
0.0
 11
-4.736679162572158
 21
2.273622849959025
 31
0.0
  0
LINE
  5
DE20
330
DE17
100
AcDbEntity
  8
SUNPOU
100
AcDbLine
 10
-5.160000000000025
 20
3.599999999999965
 30
0.0
 11
-5.160000000000025
 21
1.599999999999965
 31
0.0
  0
TEXT
  5
DE21
330
DE17
100
AcDbEntity
  8
SUNPOU
100
AcDbText
 10
-4.273296460325411
 20
0.9810020746686518
 30
0.0
 40
1.0
  1
1
100
AcDbText
  0
LINE
  5
DE22
330
DE17
100
AcDbEntity
  8
0
100
AcDbLine
 10
-4.610000000000013
 20
0.0
 30
0.0
 11
-3.00999999999999
 21
0.0
 31
0.0
  0
LINE
  5
DE23
330
DE17
100
AcDbEntity
  8
0
100
AcDbLine
 10
-4.61000000000007
 20
0.25
 30
0.0
 11
-4.61000000000007
 21
0.0000000000000284
 31
0.0
  0
LINE
  5
DE24
330
DE17
100
AcDbEntity
  8
0
100
AcDbLine
 10
-3.009999999999934
 20
0.25
 30
0.0
 11
-3.00999999999999
 21
0.0000000000000284
 31
0.0
  0
LINE
  5
DE25
330
DE17
100
AcDbEntity
  8
0
100
AcDbLine
 10
-2.07000000000005
 20
0.25
 30
0.0
 11
-2.07000000000005
 21
0.0000000000000284
 31
0.0
  0
LINE
  5
DE26
330
DE17
100
AcDbEntity
  8
SUNPOU
100
AcDbLine
 10
-5.060000000000002
 20
3.300000000000011
 30
0.0
 11
-5.060000000000002
 21
6.700000000000017
 31
0.0
  0
LINE
  5
DE27
330
DE17
100
AcDbEntity
  8
0
100
AcDbLine
 10
-4.560000000000002
 20
5.650000000000005
 30
0.0
 11
-3.060000000000002
 21
5.650000000000005
 31
0.0
  0
LINE
  5
DE28
330
DE17
100
AcDbEntity
  8
0
100
AcDbLine
 10
-4.560000000000002
 20
6.650000000000005
 30
0.0
 11
-3.060000000000002
 21
6.650000000000005
 31
0.0
  0
LINE
  5
DE29
330
DE17
100
AcDbEntity
  8
0
100
AcDbLine
 10
-4.560000000000002
 20
3.650000000000005
 30
0.0
 11
-3.060000000000002
 21
3.650000000000005
 31
0.0
  0
LINE
  5
DE2A
330
DE17
100
AcDbEntity
  8
0
100
AcDbLine
 10
-4.560000000000002
 20
6.650000000000005
 30
0.0
 11
-4.560000000000002
 21
3.650000000000005
 31
0.0
  0
LINE
  5
DE2B
330
DE17
100
AcDbEntity
  8
0
100
AcDbLine
 10
-3.060000000000002
 20
6.650000000000005
 30
0.0
 11
-3.060000000000002
 21
3.650000000000005
 31
0.0
  0
LINE
  5
DE2C
330
DE17
100
AcDbEntity
  8
0
100
AcDbLine
 10
-6.069999999999936
 20
6.700000000000045
 30
0.0
 11
-6.069999999999993
 21
0.25
 31
0.0
  0
TEXT
  5
DE2D
330
DE17
100
AcDbEntity
  8
SUNPOU
100
AcDbText
 10
0.8067035396745154
 20
0.9810020746686518
 30
0.0
 40
1.0
  1
3
100
AcDbText
  0
TEXT
  5
DE2E
330
DE17
100
AcDbEntity
  8
SUNPOU
100
AcDbText
 10
3.346703539674592
 20
0.9810020746686518
 30
0.0
 40
1.0
  1
4
100
AcDbText
  0
TEXT
  5
DE2F
330
DE17
100
AcDbEntity
  8
SUNPOU
100
AcDbText
 10
-1.733296460325448
 20
0.9810020746686518
 30
0.0
 40
1.0
  1
2
100
AcDbText
  0
LINE
  5
DE30
330
DE17
100
AcDbEntity
  8
SUNPOU
100
AcDbLine
 10
-0.4699999999999705
 20
0.0
 30
0.0
 11
0.4699999999999705
 21
0.0
 31
0.0
  0
LINE
  5
DE31
330
DE17
100
AcDbEntity
  8
SUNPOU
100
AcDbLine
 10
0.0
 20
0.86999094063259
 30
0.0
 11
0.0
 21
-0.5770466074006038
 31
0.0
  0
LINE
  5
DE32
330
DE17
100
AcDbEntity
  8
0
100
AcDbLine
 10
3.009999999999934
 20
0.0
 30
0.0
 11
4.609999999999956
 21
0.0
 31
0.0
  0
LINE
  5
DE33
330
DE17
100
AcDbEntity
  8
0
100
AcDbLine
 10
0.4699999999999705
 20
0.0
 30
0.0
 11
2.069999999999993
 21
0.0
 31
0.0
  0
LINE
  5
DE34
330
DE17
100
AcDbEntity
  8
0
100
AcDbLine
 10
-0.4699999999999705
 20
0.25
 30
0.0
 11
-0.4699999999999705
 21
0.0000000000000284
 31
0.0
  0
LINE
  5
DE35
330
DE17
100
AcDbEntity
  8
0
100
AcDbLine
 10
0.4700000000000273
 20
0.25
 30
0.0
 11
0.4699999999999705
 21
0.0000000000000284
 31
0.0
  0
LINE
  5
DE36
330
DE17
100
AcDbEntity
  8
0
100
AcDbLine
 10
2.069999999999993
 20
0.25
 30
0.0
 11
2.069999999999993
 21
0.0000000000000284
 31
0.0
  0
LINE
  5
DE37
330
DE17
100
AcDbEntity
  8
0
100
AcDbLine
 10
3.009999999999934
 20
0.25
 30
0.0
 11
3.009999999999934
 21
0.0000000000000284
 31
0.0
  0
LINE
  5
DE38
330
DE17
100
AcDbEntity
  8
0
100
AcDbLine
 10
4.609999999999956
 20
0.25
 30
0.0
 11
4.609999999999956
 21
0.0000000000000284
 31
0.0
  0
LINE
  5
DE39
330
DE17
100
AcDbEntity
  8
SUNPOU
100
AcDbLine
 10
5.060000000000059
 20
3.300000000000011
 30
0.0
 11
5.060000000000059
 21
6.700000000000017
 31
0.0
  0
LINE
  5
DE3A
330
DE17
100
AcDbEntity
  8
0
100
AcDbLine
 10
3.060000000000059
 20
5.650000000000005
 30
0.0
 11
4.560000000000059
 21
5.650000000000005
 31
0.0
  0
LINE
  5
DE3B
330
DE17
100
AcDbEntity
  8
0
100
AcDbLine
 10
0.5200000000000387
 20
5.650000000000005
 30
0.0
 11
2.020000000000038
 21
5.650000000000005
 31
0.0
  0
LINE
  5
DE3C
330
DE17
100
AcDbEntity
  8
0
100
AcDbLine
 10
3.060000000000059
 20
6.650000000000005
 30
0.0
 11
4.560000000000059
 21
6.650000000000005
 31
0.0
  0
LINE
  5
DE3D
330
DE17
100
AcDbEntity
  8
0
100
AcDbLine
 10
0.5200000000000387
 20
6.650000000000005
 30
0.0
 11
2.020000000000038
 21
6.650000000000005
 31
0.0
  0
LINE
  5
DE3E
330
DE17
100
AcDbEntity
  8
0
100
AcDbLine
 10
-2.020000000000038
 20
5.650000000000005
 30
0.0
 11
-0.5200000000000387
 21
5.650000000000005
 31
0.0
  0
LINE
  5
DE3F
330
DE17
100
AcDbEntity
  8
0
100
AcDbLine
 10
-2.020000000000038
 20
6.650000000000005
 30
0.0
 11
-0.5200000000000387
 21
6.650000000000005
 31
0.0
  0
LINE
  5
DE40
330
DE17
100
AcDbEntity
  8
0
100
AcDbLine
 10
3.060000000000059
 20
3.650000000000005
 30
0.0
 11
4.560000000000059
 21
3.650000000000005
 31
0.0
  0
LINE
  5
DE41
330
DE17
100
AcDbEntity
  8
0
100
AcDbLine
 10
0.5200000000000387
 20
3.650000000000005
 30
0.0
 11
2.020000000000038
 21
3.650000000000005
 31
0.0
  0
LINE
  5
DE42
330
DE17
100
AcDbEntity
  8
0
100
AcDbLine
 10
-2.020000000000038
 20
3.650000000000005
 30
0.0
 11
-0.5200000000000387
 21
3.650000000000005
 31
0.0
  0
LINE
  5
DE43
330
DE17
100
AcDbEntity
  8
0
100
AcDbLine
 10
3.060000000000059
 20
6.650000000000005
 30
0.0
 11
3.060000000000059
 21
3.650000000000005
 31
0.0
  0
LINE
  5
DE44
330
DE17
100
AcDbEntity
  8
0
100
AcDbLine
 10
4.560000000000059
 20
6.650000000000005
 30
0.0
 11
4.560000000000059
 21
3.650000000000005
 31
0.0
  0
LINE
  5
DE45
330
DE17
100
AcDbEntity
  8
0
100
AcDbLine
 10
0.5200000000000387
 20
6.650000000000005
 30
0.0
 11
0.5200000000000387
 21
3.650000000000005
 31
0.0
  0
LINE
  5
DE46
330
DE17
100
AcDbEntity
  8
0
100
AcDbLine
 10
-0.5200000000000387
 20
6.650000000000005
 30
0.0
 11
-0.5200000000000387
 21
3.650000000000005
 31
0.0
  0
LINE
  5
DE47
330
DE17
100
AcDbEntity
  8
0
100
AcDbLine
 10
2.020000000000038
 20
6.650000000000005
 30
0.0
 11
2.020000000000038
 21
3.650000000000005
 31
0.0
  0
LINE
  5
DE48
330
DE17
100
AcDbEntity
  8
0
100
AcDbLine
 10
-2.020000000000038
 20
6.650000000000005
 30
0.0
 11
-2.020000000000038
 21
3.650000000000005
 31
0.0
  0
LINE
  5
DE49
330
DE17
100
AcDbEntity
  8
0
100
AcDbLine
 10
6.069999999999993
 20
6.700000000000045
 30
0.0
 11
6.069999999999993
 21
0.25
 31
0.0
  0
ENDBLK
  5
DE4A
330
DE17
100
AcDbEntity
  8
0
100
AcDbBlockEnd
  0
BLOCK
  5
E8CF
330
E8C5
100
AcDbEntity
  8
0
100
AcDbBlockBegin
  2
*D9
 70
     1
 10
0.0
 20
0.0
 30
0.0
  3
*D9
  1

  0
LINE
  5
F516
330
E8C5
100
AcDbEntity
  8
SUNPOU
 62
     0
370
    -2
100
AcDbLine
 10
583.3499999999997
 20
314.3131161447444
 30
0.0
 11
583.3499999999997
 21
239.5
 31
0.0
  0
LINE
  5
F517
330
E8C5
100
AcDbEntity
  8
SUNPOU
 62
     0
370
    -2
100
AcDbLine
 10
656.35
 20
276.1131161447445
 30
0.0
 11
656.35
 21
239.5
 31
0.0
  0
LINE
  5
F518
330
E8C5
100
AcDbEntity
  8
SUNPOU
 62
     0
370
    -2
100
AcDbLine
 10
588.3499999999997
 20
240.0
 30
0.0
 11
651.35
 21
240.0
 31
0.0
  0
INSERT
  5
F519
330
E8C5
100
AcDbEntity
  8
SUNPOU
 62
     0
370
    -2
100
AcDbBlockReference
  2
_OPEN
 10
583.3499999999997
 20
240.0
 30
0.0
 41
5.0
 42
5.0
 43
5.0
 50
180.0
  0
INSERT
  5
F51A
330
E8C5
100
AcDbEntity
  8
SUNPOU
 62
     0
370
    -2
100
AcDbBlockReference
  2
_OPEN
 10
656.35
 20
240.0
 30
0.0
 41
5.0
 42
5.0
 43
5.0
  0
MTEXT
  5
F51B
330
E8C5
100
AcDbEntity
  8
SUNPOU
 62
     0
100
AcDbMText
 10
619.8499999999999
 20
244.0
 30
0.0
 40
6.0
 41
0.0
 71
     5
 72
     1
  1
\A1;73
 73
     1
 44
1.0
1001
ACAD
1000
MTEXTBEGIN
1070
    73
1070
     1
1070
    44
1040
1.0
1070
    74
1070
     0
1000
MTEXTEND
  0
POINT
  5
F51C
330
E8C5
100
AcDbEntity
  8
DEFPOINTS
 62
     0
100
AcDbPoint
 10
583.3499999999997
 20
314.8131161447444
 30
0.0
  0
POINT
  5
F51D
330
E8C5
100
AcDbEntity
  8
DEFPOINTS
 62
     0
100
AcDbPoint
 10
656.35
 20
276.6131161447445
 30
0.0
  0
POINT
  5
F51E
330
E8C5
100
AcDbEntity
  8
DEFPOINTS
 62
     0
100
AcDbPoint
 10
656.35
 20
240.0
 30
0.0
  0
ENDBLK
  5
E8D0
330
E8C5
100
AcDbEntity
  8
0
100
AcDbBlockEnd
  0
BLOCK
  5
E8DB
330
E8D1
100
AcDbEntity
  8
0
100
AcDbBlockBegin
  2
*D10
 70
     1
 10
0.0
 20
0.0
 30
0.0
  3
*D10
  1

  0
LINE
  5
EBE1
330
E8D1
100
AcDbEntity
  8
SUNPOU
 62
     0
370
    -2
100
AcDbLine
 10
467.9999999999998
 20
276.9131161447447
 30
0.0
 11
467.9999999999998
 21
259.1131161447446
 31
0.0
  0
LINE
  5
EBE2
330
E8D1
100
AcDbEntity
  8
SUNPOU
 62
     0
370
    -2
100
AcDbLine
 10
527.9999999999999
 20
307.6131161447445
 30
0.0
 11
527.9999999999999
 21
259.1131161447446
 31
0.0
  0
LINE
  5
EBE3
330
E8D1
100
AcDbEntity
  8
SUNPOU
 62
     0
370
    -2
100
AcDbLine
 10
472.9999999999998
 20
259.6131161447446
 30
0.0
 11
522.9999999999998
 21
259.6131161447446
 31
0.0
  0
INSERT
  5
EBE4
330
E8D1
100
AcDbEntity
  8
SUNPOU
 62
     0
370
    -2
100
AcDbBlockReference
  2
_OPEN
 10
467.9999999999998
 20
259.6131161447446
 30
0.0
 41
5.0
 42
5.0
 43
5.0
 50
180.0
  0
INSERT
  5
EBE5
330
E8D1
100
AcDbEntity
  8
SUNPOU
 62
     0
370
    -2
100
AcDbBlockReference
  2
_OPEN
 10
527.9999999999999
 20
259.6131161447446
 30
0.0
 41
5.0
 42
5.0
 43
5.0
  0
MTEXT
  5
EBE6
330
E8D1
100
AcDbEntity
  8
SUNPOU
 62
     0
100
AcDbMText
 10
497.9999999999998
 20
263.6131161447446
 30
0.0
 40
6.0
 41
0.0
 71
     5
 72
     1
  1
\A1;60.0
 73
     1
 44
1.0
1001
ACAD
1000
MTEXTBEGIN
1070
    73
1070
     1
1070
    44
1040
1.0
1070
    74
1070
     0
1000
MTEXTEND
  0
POINT
  5
EBE7
330
E8D1
100
AcDbEntity
  8
DEFPOINTS
 62
     0
100
AcDbPoint
 10
467.9999999999998
 20
277.4131161447447
 30
0.0
  0
POINT
  5
EBE8
330
E8D1
100
AcDbEntity
  8
DEFPOINTS
 62
     0
100
AcDbPoint
 10
527.9999999999999
 20
308.1131161447445
 30
0.0
  0
POINT
  5
EBE9
330
E8D1
100
AcDbEntity
  8
DEFPOINTS
 62
     0
100
AcDbPoint
 10
527.9999999999999
 20
259.6131161447446
 30
0.0
  0
ENDBLK
  5
E8DC
330
E8D1
100
AcDbEntity
  8
0
100
AcDbBlockEnd
  0
BLOCK
  5
E907
330
E8FD
100
AcDbEntity
  8
0
100
AcDbBlockBegin
  2
*D11
 70
     1
 10
0.0
 20
0.0
 30
0.0
  3
*D11
  1

  0
LINE
  5
EBCF
330
E8FD
100
AcDbEntity
  8
SUNPOU
 62
     0
370
    -2
100
AcDbLine
 10
180.4999999999999
 20
441.1131161447447
 30
0.0
 11
180.4999999999999
 21
505.4999999999999
 31
0.0
  0
LINE
  5
EBD0
330
E8FD
100
AcDbEntity
  8
SUNPOU
 62
     0
370
    -2
100
AcDbLine
 10
525.4999999999999
 20
441.1131161447445
 30
0.0
 11
525.4999999999999
 21
505.4999999999999
 31
0.0
  0
LINE
  5
EBD1
330
E8FD
100
AcDbEntity
  8
SUNPOU
 62
     0
370
    -2
100
AcDbLine
 10
185.4999999999999
 20
505.0
 30
0.0
 11
520.4999999999999
 21
505.0
 31
0.0
  0
INSERT
  5
EBD2
330
E8FD
100
AcDbEntity
  8
SUNPOU
 62
     0
370
    -2
100
AcDbBlockReference
  2
_OPEN
 10
180.4999999999999
 20
505.0
 30
0.0
 41
5.0
 42
5.0
 43
5.0
 50
180.0
  0
INSERT
  5
EBD3
330
E8FD
100
AcDbEntity
  8
SUNPOU
 62
     0
370
    -2
100
AcDbBlockReference
  2
_OPEN
 10
525.4999999999999
 20
505.0
 30
0.0
 41
5.0
 42
5.0
 43
5.0
  0
MTEXT
  5
EBD4
330
E8FD
100
AcDbEntity
  8
SUNPOU
 62
     0
100
AcDbMText
 10
352.9999999999999
 20
509.0
 30
0.0
 40
6.0
 41
0.0
 71
     5
 72
     1
  1
\A1;345
 73
     1
 44
1.0
1001
ACAD
1000
MTEXTBEGIN
1070
    73
1070
     1
1070
    44
1040
1.0
1070
    74
1070
     0
1000
MTEXTEND
  0
POINT
  5
EBD5
330
E8FD
100
AcDbEntity
  8
DEFPOINTS
 62
     0
100
AcDbPoint
 10
180.4999999999999
 20
440.6131161447446
 30
0.0
  0
POINT
  5
EBD6
330
E8FD
100
AcDbEntity
  8
DEFPOINTS
 62
     0
100
AcDbPoint
 10
525.4999999999999
 20
440.6131161447445
 30
0.0
  0
POINT
  5
EBD7
330
E8FD
100
AcDbEntity
  8
DEFPOINTS
 62
     0
100
AcDbPoint
 10
525.4999999999999
 20
505.0
 30
0.0
  0
ENDBLK
  5
E908
330
E8FD
100
AcDbEntity
  8
0
100
AcDbBlockEnd
  0
BLOCK
  5
E913
330
E909
100
AcDbEntity
  8
0
100
AcDbBlockBegin
  2
*D12
 70
     1
 10
0.0
 20
0.0
 30
0.0
  3
*D12
  1

  0
LINE
  5
EBD8
330
E909
100
AcDbEntity
  8
SUNPOU
 62
     0
370
    -2
100
AcDbLine
 10
195.4999999999999
 20
461.1131161447444
 30
0.0
 11
195.4999999999999
 21
490.5
 31
0.0
  0
LINE
  5
EBD9
330
E909
100
AcDbEntity
  8
SUNPOU
 62
     0
370
    -2
100
AcDbLine
 10
510.4999999999998
 20
461.1131161447444
 30
0.0
 11
510.4999999999998
 21
490.5
 31
0.0
  0
LINE
  5
EBDA
330
E909
100
AcDbEntity
  8
SUNPOU
 62
     0
370
    -2
100
AcDbLine
 10
200.4999999999999
 20
490.0
 30
0.0
 11
505.4999999999998
 21
490.0
 31
0.0
  0
INSERT
  5
EBDB
330
E909
100
AcDbEntity
  8
SUNPOU
 62
     0
370
    -2
100
AcDbBlockReference
  2
_OPEN
 10
195.4999999999999
 20
490.0
 30
0.0
 41
5.0
 42
5.0
 43
5.0
 50
180.0
  0
INSERT
  5
EBDC
330
E909
100
AcDbEntity
  8
SUNPOU
 62
     0
370
    -2
100
AcDbBlockReference
  2
_OPEN
 10
510.4999999999998
 20
490.0
 30
0.0
 41
5.0
 42
5.0
 43
5.0
  0
MTEXT
  5
EBDD
330
E909
100
AcDbEntity
  8
SUNPOU
 62
     0
100
AcDbMText
 10
352.9999999999999
 20
494.0
 30
0.0
 40
6.0
 41
0.0
 71
     5
 72
     1
  1
\A1;315
 73
     1
 44
1.0
1001
ACAD
1000
MTEXTBEGIN
1070
    73
1070
     1
1070
    44
1040
1.0
1070
    74
1070
     0
1000
MTEXTEND
  0
POINT
  5
EBDE
330
E909
100
AcDbEntity
  8
DEFPOINTS
 62
     0
100
AcDbPoint
 10
195.4999999999999
 20
460.6131161447443
 30
0.0
  0
POINT
  5
EBDF
330
E909
100
AcDbEntity
  8
DEFPOINTS
 62
     0
100
AcDbPoint
 10
510.4999999999998
 20
460.6131161447443
 30
0.0
  0
POINT
  5
EBE0
330
E909
100
AcDbEntity
  8
DEFPOINTS
 62
     0
100
AcDbPoint
 10
510.4999999999998
 20
490.0
 30
0.0
  0
ENDBLK
  5
E914
330
E909
100
AcDbEntity
  8
0
100
AcDbBlockEnd
  0
BLOCK
  5
E92B
330
E921
100
AcDbEntity
  8
0
100
AcDbBlockBegin
  2
*D13
 70
     1
 10
0.0
 20
0.0
 30
0.0
  3
*D13
  1

  0
LINE
  5
E9C2
330
E921
100
AcDbEntity
  8
SUNPOU
 62
     0
370
    -2
100
AcDbLine
 10
402.9999999999999
 20
276.9131161447447
 30
0.0
 11
402.9999999999999
 21
259.1131161447446
 31
0.0
  0
LINE
  5
E9C3
330
E921
100
AcDbEntity
  8
SUNPOU
 62
     0
370
    -2
100
AcDbLine
 10
467.9999999999998
 20
276.9131161447447
 30
0.0
 11
467.9999999999998
 21
259.1131161447446
 31
0.0
  0
LINE
  5
E9C4
330
E921
100
AcDbEntity
  8
SUNPOU
 62
     0
370
    -2
100
AcDbLine
 10
407.9999999999999
 20
259.6131161447446
 30
0.0
 11
462.9999999999999
 21
259.6131161447446
 31
0.0
  0
INSERT
  5
E9C5
330
E921
100
AcDbEntity
  8
SUNPOU
 62
     0
370
    -2
100
AcDbBlockReference
  2
_OPEN
 10
402.9999999999999
 20
259.6131161447446
 30
0.0
 41
5.0
 42
5.0
 43
5.0
 50
180.0
  0
INSERT
  5
E9C6
330
E921
100
AcDbEntity
  8
SUNPOU
 62
     0
370
    -2
100
AcDbBlockReference
  2
_OPEN
 10
467.9999999999998
 20
259.6131161447446
 30
0.0
 41
5.0
 42
5.0
 43
5.0
  0
MTEXT
  5
E9C7
330
E921
100
AcDbEntity
  8
SUNPOU
 62
     0
100
AcDbMText
 10
435.4999999999998
 20
263.6131161447446
 30
0.0
 40
6.0
 41
0.0
 71
     5
 72
     1
  1
\A1;65.0
 73
     1
 44
1.0
1001
ACAD
1000
MTEXTBEGIN
1070
    73
1070
     1
1070
    44
1040
1.0
1070
    74
1070
     0
1000
MTEXTEND
  0
POINT
  5
E9C8
330
E921
100
AcDbEntity
  8
DEFPOINTS
 62
     0
100
AcDbPoint
 10
402.9999999999999
 20
277.4131161447447
 30
0.0
  0
POINT
  5
E9C9
330
E921
100
AcDbEntity
  8
DEFPOINTS
 62
     0
100
AcDbPoint
 10
467.9999999999998
 20
277.4131161447447
 30
0.0
  0
POINT
  5
E9CA
330
E921
100
AcDbEntity
  8
DEFPOINTS
 62
     0
100
AcDbPoint
 10
467.9999999999998
 20
259.6131161447446
 30
0.0
  0
ENDBLK
  5
E92C
330
E921
100
AcDbEntity
  8
0
100
AcDbBlockEnd
  0
BLOCK
  5
E937
330
E92D
100
AcDbEntity
  8
0
100
AcDbBlockBegin
  2
*D14
 70
     1
 10
0.0
 20
0.0
 30
0.0
  3
*D14
  1

  0
LINE
  5
EBAB
330
E92D
100
AcDbEntity
  8
SUNPOU
 62
     0
370
    -2
100
AcDbLine
 10
184.4999999999999
 20
472.6131161447443
 30
0.0
 11
119.4999999999999
 21
472.6131161447444
 31
0.0
  0
LINE
  5
EBAC
330
E92D
100
AcDbEntity
  8
SUNPOU
 62
     0
370
    -2
100
AcDbLine
 10
184.4999999999999
 20
276.6131161447445
 30
0.0
 11
119.4999999999999
 21
276.6131161447445
 31
0.0
  0
LINE
  5
EBAD
330
E92D
100
AcDbEntity
  8
SUNPOU
 62
     0
370
    -2
100
AcDbLine
 10
119.9999999999999
 20
467.6131161447444
 30
0.0
 11
119.9999999999999
 21
281.6131161447446
 31
0.0
  0
INSERT
  5
EBAE
330
E92D
100
AcDbEntity
  8
SUNPOU
 62
     0
370
    -2
100
AcDbBlockReference
  2
_OPEN
 10
119.9999999999999
 20
472.6131161447444
 30
0.0
 41
5.0
 42
5.0
 43
5.0
 50
90.0
  0
INSERT
  5
EBAF
330
E92D
100
AcDbEntity
  8
SUNPOU
 62
     0
370
    -2
100
AcDbBlockReference
  2
_OPEN
 10
119.9999999999999
 20
276.6131161447445
 30
0.0
 41
5.0
 42
5.0
 43
5.0
 50
270.0
  0
MTEXT
  5
EBB0
330
E92D
100
AcDbEntity
  8
SUNPOU
 62
     0
100
AcDbMText
 10
115.9999999999998
 20
374.6131161447445
 30
0.0
 40
6.0
 41
0.0
 71
     5
 72
     1
  1
\A1;196
 11
0.0000000000000001
 21
1.0
 31
0.0
 73
     1
 44
1.0
1001
ACAD
1000
MTEXTBEGIN
1070
    73
1070
     1
1070
    44
1040
1.0
1070
    74
1070
     0
1000
MTEXTEND
  0
POINT
  5
EBB1
330
E92D
100
AcDbEntity
  8
DEFPOINTS
 62
     0
100
AcDbPoint
 10
184.9999999999999
 20
472.6131161447443
 30
0.0
  0
POINT
  5
EBB2
330
E92D
100
AcDbEntity
  8
DEFPOINTS
 62
     0
100
AcDbPoint
 10
184.9999999999999
 20
276.6131161447445
 30
0.0
  0
POINT
  5
EBB3
330
E92D
100
AcDbEntity
  8
DEFPOINTS
 62
     0
100
AcDbPoint
 10
119.9999999999999
 20
276.6131161447445
 30
0.0
  0
ENDBLK
  5
E938
330
E92D
100
AcDbEntity
  8
0
100
AcDbBlockEnd
  0
BLOCK
  5
E943
330
E939
100
AcDbEntity
  8
0
100
AcDbBlockBegin
  2
*D15
 70
     1
 10
0.0
 20
0.0
 30
0.0
  3
*D15
  1

  0
LINE
  5
EBB4
330
E939
100
AcDbEntity
  8
SUNPOU
 62
     0
370
    -2
100
AcDbLine
 10
194.9999999999999
 20
460.6131161447443
 30
0.0
 11
134.4999999999999
 21
460.6131161447443
 31
0.0
  0
LINE
  5
EBB5
330
E939
100
AcDbEntity
  8
SUNPOU
 62
     0
370
    -2
100
AcDbLine
 10
194.9999999999999
 20
288.6131161447445
 30
0.0
 11
134.4999999999999
 21
288.6131161447445
 31
0.0
  0
LINE
  5
EBB6
330
E939
100
AcDbEntity
  8
SUNPOU
 62
     0
370
    -2
100
AcDbLine
 10
134.9999999999999
 20
455.6131161447443
 30
0.0
 11
134.9999999999999
 21
293.6131161447445
 31
0.0
  0
INSERT
  5
EBB7
330
E939
100
AcDbEntity
  8
SUNPOU
 62
     0
370
    -2
100
AcDbBlockReference
  2
_OPEN
 10
134.9999999999999
 20
460.6131161447443
 30
0.0
 41
5.0
 42
5.0
 43
5.0
 50
90.0
  0
INSERT
  5
EBB8
330
E939
100
AcDbEntity
  8
SUNPOU
 62
     0
370
    -2
100
AcDbBlockReference
  2
_OPEN
 10
134.9999999999999
 20
288.6131161447445
 30
0.0
 41
5.0
 42
5.0
 43
5.0
 50
270.0
  0
MTEXT
  5
EBB9
330
E939
100
AcDbEntity
  8
SUNPOU
 62
     0
100
AcDbMText
 10
130.9999999999998
 20
374.6131161447445
 30
0.0
 40
6.0
 41
0.0
 71
     5
 72
     1
  1
\A1;172
 11
0.0000000000000001
 21
1.0
 31
0.0
 73
     1
 44
1.0
1001
ACAD
1000
MTEXTBEGIN
1070
    73
1070
     1
1070
    44
1040
1.0
1070
    74
1070
     0
1000
MTEXTEND
  0
POINT
  5
EBBA
330
E939
100
AcDbEntity
  8
DEFPOINTS
 62
     0
100
AcDbPoint
 10
195.4999999999999
 20
460.6131161447443
 30
0.0
  0
POINT
  5
EBBB
330
E939
100
AcDbEntity
  8
DEFPOINTS
 62
     0
100
AcDbPoint
 10
195.4999999999999
 20
288.6131161447445
 30
0.0
  0
POINT
  5
EBBC
330
E939
100
AcDbEntity
  8
DEFPOINTS
 62
     0
100
AcDbPoint
 10
134.9999999999999
 20
288.6131161447445
 30
0.0
  0
ENDBLK
  5
E944
330
E939
100
AcDbEntity
  8
0
100
AcDbBlockEnd
  0
BLOCK
  5
E95B
330
E951
100
AcDbEntity
  8
0
100
AcDbBlockBegin
  2
*D16
 70
     1
 10
0.0
 20
0.0
 30
0.0
  3
*D16
  1

  0
LINE
  5
F64D
330
E951
100
AcDbEntity
  8
SUNPOU
 62
     0
370
    -2
100
AcDbLine
 10
179.9999999999999
 20
217.9631161447444
 30
0.0
 11
134.4999999999999
 21
217.9631161447444
 31
0.0
  0
LINE
  5
F64E
330
E951
100
AcDbEntity
  8
SUNPOU
 62
     0
370
    -2
100
AcDbLine
 10
179.9999999999999
 20
144.9631161447442
 30
0.0
 11
134.4999999999999
 21
144.9631161447442
 31
0.0
  0
LINE
  5
F64F
330
E951
100
AcDbEntity
  8
SUNPOU
 62
     0
370
    -2
100
AcDbLine
 10
134.9999999999999
 20
212.9631161447444
 30
0.0
 11
134.9999999999999
 21
149.9631161447441
 31
0.0
  0
INSERT
  5
F650
330
E951
100
AcDbEntity
  8
SUNPOU
 62
     0
370
    -2
100
AcDbBlockReference
  2
_OPEN
 10
134.9999999999999
 20
217.9631161447444
 30
0.0
 41
5.0
 42
5.0
 43
5.0
 50
90.0
  0
INSERT
  5
F651
330
E951
100
AcDbEntity
  8
SUNPOU
 62
     0
370
    -2
100
AcDbBlockReference
  2
_OPEN
 10
134.9999999999999
 20
144.9631161447442
 30
0.0
 41
5.0
 42
5.0
 43
5.0
 50
270.0
  0
MTEXT
  5
F652
330
E951
100
AcDbEntity
  8
SUNPOU
 62
     0
100
AcDbMText
 10
130.9999999999998
 20
181.4631161447443
 30
0.0
 40
6.0
 41
0.0
 71
     5
 72
     1
  1
\A1;73.0
 11
0.0000000000000001
 21
1.0
 31
0.0
 73
     1
 44
1.0
1001
ACAD
1000
MTEXTBEGIN
1070
    73
1070
     1
1070
    44
1040
1.0
1070
    74
1070
     0
1000
MTEXTEND
  0
POINT
  5
F653
330
E951
100
AcDbEntity
  8
DEFPOINTS
 62
     0
100
AcDbPoint
 10
180.4999999999999
 20
217.9631161447444
 30
0.0
  0
POINT
  5
F654
330
E951
100
AcDbEntity
  8
DEFPOINTS
 62
     0
100
AcDbPoint
 10
180.4999999999999
 20
144.9631161447442
 30
0.0
  0
POINT
  5
F655
330
E951
100
AcDbEntity
  8
DEFPOINTS
 62
     0
100
AcDbPoint
 10
134.9999999999999
 20
144.9631161447442
 30
0.0
  0
ENDBLK
  5
E95C
330
E951
100
AcDbEntity
  8
0
100
AcDbBlockEnd
  0
BLOCK
  5
E967
330
E95D
100
AcDbEntity
  8
0
100
AcDbBlockBegin
  2
*D17
 70
     1
 10
0.0
 20
0.0
 30
0.0
  3
*D17
  1

  0
LINE
  5
E9EF
330
E95D
100
AcDbEntity
  8
SUNPOU
 62
     0
370
    -2
100
AcDbLine
 10
337.9999999999999
 20
276.4131161447447
 30
0.0
 11
337.9999999999999
 21
259.1131161447446
 31
0.0
  0
LINE
  5
E9F0
330
E95D
100
AcDbEntity
  8
SUNPOU
 62
     0
370
    -2
100
AcDbLine
 10
402.9999999999999
 20
276.9131161447447
 30
0.0
 11
402.9999999999999
 21
259.1131161447446
 31
0.0
  0
LINE
  5
E9F1
330
E95D
100
AcDbEntity
  8
SUNPOU
 62
     0
370
    -2
100
AcDbLine
 10
342.9999999999999
 20
259.6131161447446
 30
0.0
 11
397.9999999999999
 21
259.6131161447446
 31
0.0
  0
INSERT
  5
E9F2
330
E95D
100
AcDbEntity
  8
SUNPOU
 62
     0
370
    -2
100
AcDbBlockReference
  2
_OPEN
 10
337.9999999999999
 20
259.6131161447446
 30
0.0
 41
5.0
 42
5.0
 43
5.0
 50
180.0
  0
INSERT
  5
E9F3
330
E95D
100
AcDbEntity
  8
SUNPOU
 62
     0
370
    -2
100
AcDbBlockReference
  2
_OPEN
 10
402.9999999999999
 20
259.6131161447446
 30
0.0
 41
5.0
 42
5.0
 43
5.0
  0
MTEXT
  5
E9F4
330
E95D
100
AcDbEntity
  8
SUNPOU
 62
     0
100
AcDbMText
 10
370.4999999999999
 20
263.6131161447446
 30
0.0
 40
6.0
 41
0.0
 71
     5
 72
     1
  1
\A1;65.0
 73
     1
 44
1.0
1001
ACAD
1000
MTEXTBEGIN
1070
    73
1070
     1
1070
    44
1040
1.0
1070
    74
1070
     0
1000
MTEXTEND
  0
POINT
  5
E9F5
330
E95D
100
AcDbEntity
  8
DEFPOINTS
 62
     0
100
AcDbPoint
 10
337.9999999999999
 20
276.9131161447447
 30
0.0
  0
POINT
  5
E9F6
330
E95D
100
AcDbEntity
  8
DEFPOINTS
 62
     0
100
AcDbPoint
 10
402.9999999999999
 20
277.4131161447447
 30
0.0
  0
POINT
  5
E9F7
330
E95D
100
AcDbEntity
  8
DEFPOINTS
 62
     0
100
AcDbPoint
 10
402.9999999999999
 20
259.6131161447446
 30
0.0
  0
ENDBLK
  5
E968
330
E95D
100
AcDbEntity
  8
0
100
AcDbBlockEnd
  0
BLOCK
  5
E973
330
E969
100
AcDbEntity
  8
0
100
AcDbBlockBegin
  2
*D18
 70
     1
 10
0.0
 20
0.0
 30
0.0
  3
*D18
  1

  0
LINE
  5
EBBD
330
E969
100
AcDbEntity
  8
SUNPOU
 62
     0
370
    -2
100
AcDbLine
 10
179.9999999999999
 20
308.6131161447445
 30
0.0
 11
149.4999999999998
 21
308.6131161447445
 31
0.0
  0
LINE
  5
EBBE
330
E969
100
AcDbEntity
  8
SUNPOU
 62
     0
370
    -2
100
AcDbLine
 10
179.9999999999998
 20
440.6131161447445
 30
0.0
 11
149.4999999999999
 21
440.6131161447445
 31
0.0
  0
LINE
  5
EBBF
330
E969
100
AcDbEntity
  8
SUNPOU
 62
     0
370
    -2
100
AcDbLine
 10
149.9999999999998
 20
313.6131161447445
 30
0.0
 11
149.9999999999999
 21
435.6131161447446
 31
0.0
  0
INSERT
  5
EBC0
330
E969
100
AcDbEntity
  8
SUNPOU
 62
     0
370
    -2
100
AcDbBlockReference
  2
_OPEN
 10
149.9999999999998
 20
308.6131161447445
 30
0.0
 41
5.0
 42
5.0
 43
5.0
 50
270.0
  0
INSERT
  5
EBC1
330
E969
100
AcDbEntity
  8
SUNPOU
 62
     0
370
    -2
100
AcDbBlockReference
  2
_OPEN
 10
149.9999999999999
 20
440.6131161447445
 30
0.0
 41
5.0
 42
5.0
 43
5.0
 50
90.0
  0
MTEXT
  5
EBC2
330
E969
100
AcDbEntity
  8
SUNPOU
 62
     0
100
AcDbMText
 10
145.9999999999998
 20
374.6131161447446
 30
0.0
 40
6.0
 41
0.0
 71
     5
 72
     1
  1
\A1;132
 11
0.0000000000000001
 21
1.0
 31
0.0
 73
     1
 44
1.0
1001
ACAD
1000
MTEXTBEGIN
1070
    73
1070
     1
1070
    44
1040
1.0
1070
    74
1070
     0
1000
MTEXTEND
  0
POINT
  5
EBC3
330
E969
100
AcDbEntity
  8
DEFPOINTS
 62
     0
100
AcDbPoint
 10
180.4999999999999
 20
308.6131161447445
 30
0.0
  0
POINT
  5
EBC4
330
E969
100
AcDbEntity
  8
DEFPOINTS
 62
     0
100
AcDbPoint
 10
180.4999999999997
 20
440.6131161447445
 30
0.0
  0
POINT
  5
EBC5
330
E969
100
AcDbEntity
  8
DEFPOINTS
 62
     0
100
AcDbPoint
 10
149.9999999999999
 20
440.6131161447445
 30
0.0
  0
ENDBLK
  5
E974
330
E969
100
AcDbEntity
  8
0
100
AcDbBlockEnd
  0
BLOCK
  5
EB58
330
EB4E
100
AcDbEntity
  8
0
100
AcDbBlockBegin
  2
*D19
 70
     1
 10
0.0
 20
0.0
 30
0.0
  3
*D19
  1

  0
LINE
  5
EBC6
330
EB4E
100
AcDbEntity
  8
SUNPOU
 62
     0
370
    -2
100
AcDbLine
 10
177.9999999999998
 20
441.6131161447444
 30
0.0
 11
177.9999999999998
 21
520.5
 31
0.0
  0
LINE
  5
EBC7
330
EB4E
100
AcDbEntity
  8
SUNPOU
 62
     0
370
    -2
100
AcDbLine
 10
527.9999999999999
 20
441.6131161447444
 30
0.0
 11
527.9999999999999
 21
520.5
 31
0.0
  0
LINE
  5
EBC8
330
EB4E
100
AcDbEntity
  8
SUNPOU
 62
     0
370
    -2
100
AcDbLine
 10
182.9999999999998
 20
520.0
 30
0.0
 11
522.9999999999998
 21
520.0
 31
0.0
  0
INSERT
  5
EBC9
330
EB4E
100
AcDbEntity
  8
SUNPOU
 62
     0
370
    -2
100
AcDbBlockReference
  2
_OPEN
 10
177.9999999999998
 20
520.0
 30
0.0
 41
5.0
 42
5.0
 43
5.0
 50
180.0
  0
INSERT
  5
EBCA
330
EB4E
100
AcDbEntity
  8
SUNPOU
 62
     0
370
    -2
100
AcDbBlockReference
  2
_OPEN
 10
527.9999999999999
 20
520.0
 30
0.0
 41
5.0
 42
5.0
 43
5.0
  0
MTEXT
  5
EBCB
330
EB4E
100
AcDbEntity
  8
SUNPOU
 62
     0
100
AcDbMText
 10
352.9999999999998
 20
524.0
 30
0.0
 40
6.0
 41
0.0
 71
     5
 72
     1
  1
\A1;350
 73
     1
 44
1.0
1001
ACAD
1000
MTEXTBEGIN
1070
    73
1070
     1
1070
    44
1040
1.0
1070
    74
1070
     0
1000
MTEXTEND
  0
POINT
  5
EBCC
330
EB4E
100
AcDbEntity
  8
DEFPOINTS
 62
     0
100
AcDbPoint
 10
177.9999999999998
 20
441.1131161447444
 30
0.0
  0
POINT
  5
EBCD
330
EB4E
100
AcDbEntity
  8
DEFPOINTS
 62
     0
100
AcDbPoint
 10
527.9999999999999
 20
441.1131161447444
 30
0.0
  0
POINT
  5
EBCE
330
EB4E
100
AcDbEntity
  8
DEFPOINTS
 62
     0
100
AcDbPoint
 10
527.9999999999999
 20
520.0
 30
0.0
  0
ENDBLK
  5
EB59
330
EB4E
100
AcDbEntity
  8
0
100
AcDbBlockEnd
  0
BLOCK
  5
EC10
330
EC06
100
AcDbEntity
  8
0
100
AcDbBlockBegin
  2
*D20
 70
     1
 10
0.0
 20
0.0
 30
0.0
  3
*D20
  1

  0
LINE
  5
F666
330
EC06
100
AcDbEntity
  8
SUNPOU
 62
     0
370
    -2
100
AcDbLine
 10
617.3499999999998
 20
276.9131161447448
 30
0.0
 11
617.3499999999998
 21
254.5
 31
0.0
  0
LINE
  5
F667
330
EC06
100
AcDbEntity
  8
SUNPOU
 62
     0
370
    -2
100
AcDbLine
 10
656.35
 20
276.1131161447445
 30
0.0
 11
656.35
 21
254.5
 31
0.0
  0
LINE
  5
F668
330
EC06
100
AcDbEntity
  8
SUNPOU
 62
     0
370
    -2
100
AcDbLine
 10
622.3499999999999
 20
255.0
 30
0.0
 11
651.35
 21
255.0
 31
0.0
  0
INSERT
  5
F669
330
EC06
100
AcDbEntity
  8
SUNPOU
 62
     0
370
    -2
100
AcDbBlockReference
  2
_OPEN
 10
617.3499999999998
 20
255.0
 30
0.0
 41
5.0
 42
5.0
 43
5.0
 50
180.0
  0
INSERT
  5
F66A
330
EC06
100
AcDbEntity
  8
SUNPOU
 62
     0
370
    -2
100
AcDbBlockReference
  2
_OPEN
 10
656.35
 20
255.0
 30
0.0
 41
5.0
 42
5.0
 43
5.0
  0
MTEXT
  5
F66B
330
EC06
100
AcDbEntity
  8
SUNPOU
 62
     0
100
AcDbMText
 10
636.8499999999999
 20
259.0
 30
0.0
 40
6.0
 41
0.0
 71
     5
 72
     1
  1
\A1;39
 73
     1
 44
1.0
1001
ACAD
1000
MTEXTBEGIN
1070
    73
1070
     1
1070
    44
1040
1.0
1070
    74
1070
     0
1000
MTEXTEND
  0
POINT
  5
F66C
330
EC06
100
AcDbEntity
  8
DEFPOINTS
 62
     0
100
AcDbPoint
 10
617.3499999999998
 20
277.4131161447448
 30
0.0
  0
POINT
  5
F66D
330
EC06
100
AcDbEntity
  8
DEFPOINTS
 62
     0
100
AcDbPoint
 10
656.35
 20
276.6131161447445
 30
0.0
  0
POINT
  5
F66E
330
EC06
100
AcDbEntity
  8
DEFPOINTS
 62
     0
100
AcDbPoint
 10
656.35
 20
255.0
 30
0.0
  0
ENDBLK
  5
EC11
330
EC06
100
AcDbEntity
  8
0
100
AcDbBlockEnd
  0
BLOCK
  5
EDC3
330
EDC2
100
AcDbEntity
  8
0
100
AcDbBlockBegin
  2
M3-TOP
 70
     0
 10
0.0
 20
0.0
 30
0.0
  3
M3-TOP
  1

  0
CIRCLE
  5
EDC4
330
EDC2
100
AcDbEntity
  8
0
100
AcDbCircle
 10
0.0
 20
0.0
 30
0.0
 40
2.745
  0
LWPOLYLINE
  5
EDC5
330
EDC2
100
AcDbEntity
  8
0
100
AcDbPolyline
 90
       13
 70
     0
 43
0.0
 10
0.6100000000000137
 20
-0.6099999999999853
 10
0.6100000000000137
 20
-1.829999999999984
 10
-0.6100000000000137
 20
-1.829999999999984
 10
-0.6100000000000137
 20
-0.6099999999999853
 10
-1.83000000000004
 20
-0.6099999999999853
 10
-1.83000000000004
 20
0.6100000000000137
 10
-0.6100000000000137
 20
0.6100000000000137
 10
-0.6100000000000137
 20
1.830000000000012
 10
0.6100000000000137
 20
1.830000000000012
 10
0.6100000000000137
 20
0.6100000000000137
 10
1.83000000000004
 20
0.6100000000000137
 10
1.829999999999984
 20
-0.6099999999999853
 10
0.6100000000000137
 20
-0.6099999999999853
  0
ENDBLK
  5
EDC6
330
EDC2
100
AcDbEntity
  8
0
100
AcDbBlockEnd
  0
ENDSEC
  0
SECTION
  2
ENTITIES
  0
LINE
  5
C9
330
1A
100
AcDbEntity
  8
WAKU
 62
     7
100
AcDbLine
 10
809.9999972815888
 20
559.9999981206046
 30
0.0
 11
39.99999986575748
 21
559.9999981206046
 31
0.0
  0
LINE
  5
CB
330
1A
100
AcDbEntity
  8
WAKU
 62
     7
100
AcDbLine
 10
39.99999986575748
 20
9.99999996643937
 30
0.0
 11
809.9999972815888
 21
9.99999996643937
 31
0.0
  0
LINE
  5
D4
330
1A
100
AcDbEntity
  8
WAKU
100
AcDbLine
 10
809.9999972815888
 20
9.99999996643937
 30
0.0
 11
809.9999972815888
 21
559.9999981206046
 31
0.0
  0
LINE
  5
D5
330
1A
100
AcDbEntity
  8
WAKU
100
AcDbLine
 10
39.99999986575748
 20
559.9999981206046
 30
0.0
 11
39.99999986575748
 21
9.99999996643937
 31
0.0
  0
LINE
  5
D6
330
1A
100
AcDbEntity
  8
WAKU
 62
     7
100
AcDbLine
 10
555.4415564815889
 20
73.63961016643937
 30
0.0
 11
809.9999972815888
 21
73.63961016643937
 31
0.0
  0
LINE
  5
D7
330
1A
100
AcDbEntity
  8
WAKU
100
AcDbLine
 10
555.4415564815889
 20
9.99999996643937
 30
0.0
 11
555.4415564815889
 21
73.63961016643937
 31
0.0
  0
LINE
  5
D8
330
1A
100
AcDbEntity
  8
WAKU
100
AcDbLine
 10
725.1471836815889
 20
9.99999996643937
 30
0.0
 11
725.1471836815889
 21
73.63961016643937
 31
0.0
  0
LINE
  5
D9
330
1A
100
AcDbEntity
  8
WAKU
 62
     7
100
AcDbLine
 10
725.1471836815889
 20
24.14213556643937
 30
0.0
 11
809.9999972815888
 21
24.14213556643937
 31
0.0
  0
LINE
  5
DA
330
1A
100
AcDbEntity
  8
WAKU
 62
     7
100
AcDbLine
 10
725.1471836815889
 20
34.04163048643937
 30
0.0
 11
809.9999972815888
 21
34.04163048643937
 31
0.0
  0
LINE
  5
DB
330
1A
100
AcDbEntity
  8
WAKU
 62
     7
100
AcDbLine
 10
725.1471836815889
 20
43.94112540643937
 30
0.0
 11
809.9999972815888
 21
43.94112540643937
 31
0.0
  0
LINE
  5
DC
330
1A
100
AcDbEntity
  8
WAKU
 62
     7
100
AcDbLine
 10
725.1471836815889
 20
53.84062032643937
 30
0.0
 11
809.9999972815888
 21
53.84062032643937
 31
0.0
  0
LINE
  5
DD
330
1A
100
AcDbEntity
  8
WAKU
 62
     7
100
AcDbLine
 10
725.1471836815889
 20
63.74011524643937
 30
0.0
 11
809.9999972815888
 21
63.74011524643937
 31
0.0
  0
LINE
  5
DE
330
1A
100
AcDbEntity
  8
WAKU
100
AcDbLine
 10
746.3603870815888
 20
24.14213556643937
 30
0.0
 11
746.3603870815888
 21
73.63961016643937
 31
0.0
  0
LINE
  5
DF
330
1A
100
AcDbEntity
  8
WAKU
100
AcDbLine
 10
735.0466786015889
 20
9.99999996643937
 30
0.0
 11
735.0466786015889
 21
24.14213556643937
 31
0.0
  0
LINE
  5
E0
330
1A
100
AcDbEntity
  8
WAKU
100
AcDbLine
 10
703.9339802815889
 20
21.31370844643937
 30
0.0
 11
703.9339802815889
 21
42.52691184643937
 31
0.0
  0
LINE
  5
E1
330
1A
100
AcDbEntity
  8
WAKU
100
AcDbLine
 10
682.7207768815888
 20
21.31370844643937
 30
0.0
 11
682.7207768815888
 21
51.01219320643937
 31
0.0
  0
LINE
  5
E2
330
1A
100
AcDbEntity
  8
WAKU
100
AcDbLine
 10
661.5075734815889
 20
21.31370844643937
 30
0.0
 11
661.5075734815889
 21
73.63961016643937
 31
0.0
  0
LINE
  5
E3
330
1A
100
AcDbEntity
  8
WAKU
100
AcDbLine
 10
640.2943700815889
 20
21.31370844643937
 30
0.0
 11
640.2943700815889
 21
73.63961016643937
 31
0.0
  0
LINE
  5
E4
330
1A
100
AcDbEntity
  8
WAKU
100
AcDbLine
 10
725.1471836815889
 20
59.49747456643937
 30
0.0
 11
640.2943700815889
 21
59.49747456643937
 31
0.0
  0
LINE
  5
E5
330
1A
100
AcDbEntity
  8
WAKU
100
AcDbLine
 10
725.1471836815889
 20
51.01219320643937
 30
0.0
 11
640.2943700815889
 21
51.01219320643937
 31
0.0
  0
LINE
  5
E6
330
1A
100
AcDbEntity
  8
WAKU
100
AcDbLine
 10
725.1471836815889
 20
42.52691184643937
 30
0.0
 11
640.2943700815889
 21
42.52691184643937
 31
0.0
  0
LINE
  5
E7
330
1A
100
AcDbEntity
  8
WAKU
100
AcDbLine
 10
725.1471836815889
 20
21.31370844643937
 30
0.0
 11
555.4415564815889
 21
21.31370844643937
 31
0.0
  0
MTEXT
  5
E9
330
1A
100
AcDbEntity
  8
WAKU
100
AcDbMText
 10
345.0
 20
43.0
 30
0.0
 40
4.0
 41
15.0
 71
     1
 72
     5
  1

 73
     1
 44
1.0
1001
ACAD
1000
MTEXTBEGIN
1070
    73
1070
     1
1070
    44
1040
1.0
1070
    74
1070
     0
1000
MTEXTEND
  0
MTEXT
  5
EA
330
1A
100
AcDbEntity
  8
WAKU
100
AcDbMText
 10
345.0
 20
49.0
 30
0.0
 40
4.0
 41
14.0
 71
     1
 72
     5
  1

 73
     1
 44
1.0
1001
ACAD
1000
MTEXTBEGIN
1070
    73
1070
     1
1070
    44
1040
1.0
1070
    74
1070
     0
1000
MTEXTEND
  0
MTEXT
  5
ED
330
1A
100
AcDbEntity
  8
WAKU
100
AcDbMText
 10
728.4270717042163
 20
51.6917497839624
 30
0.0
 40
4.24264068
 41
15.55634916
 71
     1
 72
     5
  1
部品表
 73
     1
 44
1.0
1001
ACAD
1000
MTEXTBEGIN
1070
    73
1070
     1
1070
    44
1040
1.0
1070
    74
1070
     0
1000
MTEXTEND
  0
MTEXT
  5
EE
330
1A
100
AcDbEntity
  8
WAKU
100
AcDbMText
 10
327.0
 20
82.0
 30
0.0
 40
3.0
 41
37.0
 71
     1
 72
     5
  1

 73
     1
 44
1.0
1001
ACAD
1000
MTEXTBEGIN
1070
    73
1070
     1
1070
    44
1040
1.0
1070
    74
1070
     0
1000
MTEXTEND
  0
MTEXT
  5
F0
330
1A
100
AcDbEntity
  8
WAKU
100
AcDbMText
 10
728.2584535135889
 20
70.38691897843938
 30
0.0
 40
4.24264068
 41
14.1421356
 71
     1
 72
     5
  1
機種名
 73
     1
 44
1.0
1001
ACAD
1000
MTEXTBEGIN
1070
    73
1070
     1
1070
    44
1040
1.0
1070
    74
1070
     0
1000
MTEXTEND
  0
MTEXT
  5
F1
330
1A
100
AcDbEntity
  8
WAKU
100
AcDbMText
 10
728.3998748695888
 20
60.48742405843936
 30
0.0
 40
4.24264068
 41
14.1421356
 71
     1
 72
     5
  1
部　名
 73
     1
 44
1.0
1001
ACAD
1000
MTEXTBEGIN
1070
    73
1070
     1
1070
    44
1040
1.0
1070
    74
1070
     0
1000
MTEXTEND
  0
MTEXT
  5
F2
330
1A
100
AcDbEntity
  8
WAKU
100
AcDbMText
 10
726.5613972415889
 20
41.11269828643937
 30
0.0
 40
4.24264068
 41
14.1421356
 71
     1
 72
     5
  1
ｽﾄｯｸNo.
 73
     1
 44
1.0
1001
ACAD
1000
MTEXTBEGIN
1070
    73
1070
     1
1070
    44
1040
1.0
1070
    74
1070
     0
1000
MTEXTEND
  0
MTEXT
  5
F3
330
1A
100
AcDbEntity
  8
WAKU
100
AcDbMText
 10
727.9756108015889
 20
31.21320336643937
 30
0.0
 40
4.24264068
 41
16.97056272
 71
     1
 72
     5
  1
適用ﾛｯﾄ
 73
     1
 44
1.0
1001
ACAD
1000
MTEXTBEGIN
1070
    73
1070
     1
1070
    44
1040
1.0
1070
    74
1070
     0
1000
MTEXTEND
  0
MTEXT
  5
F5
330
1A
100
AcDbEntity
  8
WAKU
100
AcDbMText
 10
330.0
 20
85.0
 30
0.0
 40
3.0
 41
12.0
 71
     1
 72
     5
  1

 73
     1
 44
1.0
1001
ACAD
1000
MTEXTBEGIN
1070
    73
1070
     1
1070
    44
1040
1.0
1070
    74
1070
     0
1000
MTEXTEND
  0
MTEXT
  5
FF
330
1A
100
AcDbEntity
  8
WAKU
100
AcDbMText
 10
271.0
 20
82.0
 30
0.0
 40
3.0
 41
74.0
 71
     1
 72
     5
  1

 73
     1
 44
1.0
1001
ACAD
1000
MTEXTBEGIN
1070
    73
1070
     1
1070
    44
1040
1.0
1070
    74
1070
     0
1000
MTEXTEND
  0
LINE
  5
78B
330
1A
100
AcDbEntity
  8
WAKU
100
AcDbLine
 10
640.2943700815889
 20
26.97056268643937
 30
0.0
 11
555.4415564815889
 21
26.97056268643937
 31
0.0
  0
LINE
  5
78C
330
1A
100
AcDbEntity
  8
WAKU
100
AcDbLine
 10
640.2943700815889
 20
32.62741692643937
 30
0.0
 11
555.4415564815889
 21
32.62741692643937
 31
0.0
  0
LINE
  5
78D
330
1A
100
AcDbEntity
  8
WAKU
100
AcDbLine
 10
640.2943700815889
 20
38.28427116643938
 30
0.0
 11
555.4415564815889
 21
38.28427116643938
 31
0.0
  0
LINE
  5
78E
330
1A
100
AcDbEntity
  8
WAKU
100
AcDbLine
 10
640.2943700815889
 20
43.94112540643937
 30
0.0
 11
555.4415564815889
 21
43.94112540643937
 31
0.0
  0
LINE
  5
78F
330
1A
100
AcDbEntity
  8
WAKU
100
AcDbLine
 10
640.2943700815889
 20
49.59797964643937
 30
0.0
 11
555.4415564815889
 21
49.59797964643937
 31
0.0
  0
LINE
  5
790
330
1A
100
AcDbEntity
  8
WAKU
100
AcDbLine
 10
640.2943700815889
 20
55.25483388643937
 30
0.0
 11
555.4415564815889
 21
55.25483388643937
 31
0.0
  0
LINE
  5
791
330
1A
100
AcDbEntity
  8
WAKU
100
AcDbLine
 10
640.2943700815889
 20
60.91168812643937
 30
0.0
 11
555.4415564815889
 21
60.91168812643937
 31
0.0
  0
LINE
  5
792
330
1A
100
AcDbEntity
  8
WAKU
100
AcDbLine
 10
640.2943700815889
 20
66.56854236643937
 30
0.0
 11
555.4415564815889
 21
66.56854236643937
 31
0.0
  0
LINE
  5
794
330
1A
100
AcDbEntity
  8
WAKU
100
AcDbLine
 10
566.7552649615888
 20
21.31370844643937
 30
0.0
 11
566.7552649615888
 21
73.63961016643937
 31
0.0
  0
LINE
  5
795
330
1A
100
AcDbEntity
  8
WAKU
100
AcDbLine
 10
585.1400412415889
 20
21.31370844643937
 30
0.0
 11
585.1400412415889
 21
73.63961016643937
 31
0.0
  0
LINE
  5
796
330
1A
100
AcDbEntity
  8
WAKU
100
AcDbLine
 10
599.2821768415889
 20
21.31370844643937
 30
0.0
 11
599.2821768415889
 21
73.63961016643937
 31
0.0
  0
TEXT
  5
797
330
1A
100
AcDbEntity
  8
WAKU
100
AcDbText
 10
556.8557700415889
 20
67.98275592643938
 30
0.0
 40
4.24264068
  1
記号
100
AcDbText
  0
TEXT
  5
798
330
1A
100
AcDbEntity
  8
WAKU
100
AcDbText
 10
568.8765853015889
 20
67.98275592643938
 30
0.0
 40
4.24264068
  1
年月日
100
AcDbText
  0
TEXT
  5
799
330
1A
100
AcDbEntity
  8
WAKU
100
AcDbText
 10
587.9684683615888
 20
67.98275592643938
 30
0.0
 40
4.24264068
  1
担当
100
AcDbText
  0
TEXT
  5
79A
330
1A
100
AcDbEntity
  8
WAKU
100
AcDbText
 10
609.8887785415889
 20
67.98275592643938
 30
0.0
 40
4.24264068
  1
改連No.
100
AcDbText
  0
TEXT
  5
7CC
330
1A
100
AcDbEntity
  8
WAKU
100
AcDbText
 10
556.8557700415889
 20
22.02081522643937
 30
0.0
 40
4.24264068
  1
設置
100
AcDbText
  0
TEXT
  5
7CD
330
1A
100
AcDbEntity
  8
WAKU
100
AcDbText
 10
643.8299039815888
 20
53.13351354643938
 30
0.0
 40
4.24264068
  1
尺　度
 72
     4
 11
650.9009717815888
 21
55.25483388643937
 31
0.0
100
AcDbText
  0
LINE
  5
7CE
330
1A
100
AcDbEntity
  8
WAKU
100
AcDbLine
 10
658.6791463615888
 20
70.81118304643938
 30
0.0
 11
643.1227972015889
 21
62.32590168643938
 31
0.0
  0
TEXT
  5
7CF
330
1A
100
AcDbEntity
  8
WAKU
100
AcDbText
 10
727.2685040215889
 20
17.77817454643937
 30
0.0
 40
4.24264068
  1
図
100
AcDbText
  0
TEXT
  5
7D0
330
1A
100
AcDbEntity
  8
WAKU
100
AcDbText
 10
727.2685040215889
 20
11.41421352643937
 30
0.0
 40
4.24264068
  1
番
100
AcDbText
  0
TEXT
  5
7D1
330
1A
100
AcDbEntity
  8
WAKU
100
AcDbText
 10
599.9892836215889
 20
11.41421352643937
 30
0.0
 40
8.48528136
  1
東洋測器株式会社
100
AcDbText
  0
TEXT
  5
8C1
330
1A
100
AcDbEntity
  8
0
100
AcDbText
 10
651.608078561589
 20
61.61879490643937
 30
0.0
 40
4.24264068
  1
2
100
AcDbText
  0
TEXT
  5
8C4
330
1A
100
AcDbEntity
  8
0
100
AcDbText
 10
682.0
 20
63.0
 30
0.0
 40
5.65685424
  1
外形図
100
AcDbText
  0
TEXT
  5
8C5
330
1A
100
AcDbEntity
  8
0
100
AcDbText
 10
749.2442701721454
 20
65.86143558643937
 30
0.0
 40
5.65685424
  1
大型表示器(ED-3021)
 41
0.7
100
AcDbText
  0
TEXT
  5
8C6
330
1A
100
AcDbEntity
  8
0
100
AcDbText
 10
643.8299039815889
 20
65.86143558643937
 30
0.0
 40
4.24264068
  1
1
100
AcDbText
  0
TEXT
  5
222A
330
1A
100
AcDbEntity
  8
0
100
AcDbText
 10
743.5319599615889
 20
13.53553386643937
 30
0.0
 40
4.24264068
  1
EA3-00081
100
AcDbText
  0
TEXT
  5
222B
330
1A
100
AcDbEntity
  8
WAKU
100
AcDbText
 10
641.34584946
 20
22.72792200643937
 30
0.0
 40
2.82842712
  1
08.03.07
100
AcDbText
  0
TEXT
  5
2240
330
1A
100
AcDbEntity
  8
WAKU
100
AcDbText
 10
644.5370107615889
 20
29.79898980643937
 30
0.0
 40
5.65685424
  1
大野
100
AcDbText
  0
TEXT
  5
6A21
330
1A
100
AcDbEntity
  8
WAKU
100
AcDbText
 10
568.51385112
 20
22.72792200643937
 30
0.0
 40
2.82842712
  1
08.02.15
 41
0.8
100
AcDbText
  0
TEXT
  5
6A22
330
1A
100
AcDbEntity
  8
WAKU
100
AcDbText
 10
587.685625649589
 20
22.02081522643937
 30
0.0
 40
4.24264068
  1
大野
 72
     4
 11
592.211109041589
 21
24.14213556643937
 31
0.0
100
AcDbText
  0
LWPOLYLINE
  5
B19E
330
1A
100
AcDbEntity
  8
0
100
AcDbPolyline
 90
        3
 70
     1
 43
0.0
 10
561.0984107215889
 20
38.28427116643938
 10
558.0365485482478
 20
32.98097031643937
 10
564.16027289493
 20
32.98097031643937
  0
TEXT
  5
B19F
330
1A
100
AcDbEntity
  8
WAKU
100
AcDbText
 10
559.6841971615889
 20
27.67766946643937
 30
0.0
 40
2.82842712
  1
1
100
AcDbText
  0
LWPOLYLINE
  5
B1A0
330
1A
100
AcDbEntity
  8
0
100
AcDbPolyline
 90
        3
 70
     1
 43
0.0
 10
561.0984107215889
 20
32.62741692643937
 10
558.0365485482478
 20
27.32411607643937
 10
564.16027289493
 20
27.32411607643937
  0
TEXT
  5
B1A1
330
1A
100
AcDbEntity
  8
WAKU
100
AcDbText
 10
559.6841971615889
 20
50.30508642643937
 30
0.0
 40
2.82842712
  1
5
100
AcDbText
  0
LWPOLYLINE
  5
B1A2
330
1A
100
AcDbEntity
  8
0
100
AcDbPolyline
 90
        3
 70
     1
 43
0.0
 10
561.0984107215889
 20
55.25483388643937
 10
558.0365485482478
 20
49.95153303643937
 10
564.16027289493
 20
49.95153303643937
  0
TEXT
  5
B1A3
330
1A
100
AcDbEntity
  8
WAKU
100
AcDbText
 10
559.6841971615889
 20
44.64823218643937
 30
0.0
 40
2.82842712
  1
4
100
AcDbText
  0
TEXT
  5
B1A4
330
1A
100
AcDbEntity
  8
WAKU
100
AcDbText
 10
559.6841971615889
 20
33.33452370643937
 30
0.0
 40
2.82842712
  1
2
100
AcDbText
  0
TEXT
  5
B1A5
330
1A
100
AcDbEntity
  8
WAKU
100
AcDbText
 10
559.6841971615889
 20
38.99137794643937
 30
0.0
 40
2.82842712
  1
3
100
AcDbText
  0
LWPOLYLINE
  5
B1A6
330
1A
100
AcDbEntity
  8
0
100
AcDbPolyline
 90
        3
 70
     1
 43
0.0
 10
561.0984107215889
 20
43.94112540643937
 10
558.0365485482478
 20
38.63782455643937
 10
564.16027289493
 20
38.63782455643937
  0
LWPOLYLINE
  5
B1A7
330
1A
100
AcDbEntity
  8
0
100
AcDbPolyline
 90
        3
 70
     1
 43
0.0
 10
561.0984107215889
 20
49.59797964643937
 10
558.0365485482478
 20
44.29467879643937
 10
564.16027289493
 20
44.29467879643937
  0
TEXT
  5
B1A8
330
1A
100
AcDbEntity
  8
WAKU
100
AcDbText
 10
559.6841971615889
 20
61.61879490643937
 30
0.0
 40
2.82842712
  1
7
100
AcDbText
  0
TEXT
  5
B1A9
330
1A
100
AcDbEntity
  8
WAKU
100
AcDbText
 10
559.6841971615889
 20
55.96194066643938
 30
0.0
 40
2.82842712
  1
6
100
AcDbText
  0
LWPOLYLINE
  5
B1AA
330
1A
100
AcDbEntity
  8
0
100
AcDbPolyline
 90
        3
 70
     1
 43
0.0
 10
561.0984107215889
 20
60.91168812643937
 10
558.0365485482478
 20
55.60838727643937
 10
564.16027289493
 20
55.60838727643937
  0
LWPOLYLINE
  5
B1AB
330
1A
100
AcDbEntity
  8
0
100
AcDbPolyline
 90
        3
 70
     1
 43
0.0
 10
561.0984107215889
 20
66.56854236643937
 10
558.0365485482478
 20
61.26524151643938
 10
564.16027289493
 20
61.26524151643938
  0
LWPOLYLINE
  5
B1AC
330
1A
100
AcDbEntity
  8
0
100
AcDbPolyline
 90
        3
 70
     1
 43
0.0
 10
800.1009254853807
 20
22.37440503499423
 10
793.9772011386986
 20
11.76780333499423
 10
806.2246498320629
 20
11.76780333499423
  0
INSERT
  5
BE45
330
1A
100
AcDbEntity
  8
0
100
AcDbBlockReference
  2
M8WS-1
 10
425.0
 20
209.4
 30
0.0
  0
LWPOLYLINE
  5
CA57
330
1A
100
AcDbEntity
  8
SUNPOU
100
AcDbPolyline
 90
        5
 70
     0
 43
0.0
 10
406.9999999999998
 20
134.9631161447444
 10
411.6602540378442
 20
134.9631161447444
 10
402.9999999999999
 20
119.9631161447444
 10
394.3397459621555
 20
134.9631161447444
 10
398.9999999999999
 20
134.9631161447444
  0
LINE
  5
CA58
330
1A
100
AcDbEntity
  8
SUNPOU
100
AcDbLine
 10
398.9999999999999
 20
144.4631161447443
 30
0.0
 11
406.9999999999998
 21
144.4631161447443
 31
0.0
  0
LINE
  5
CA5B
330
1A
100
AcDbEntity
  8
SUNPOU
100
AcDbLine
 10
398.9999999999999
 20
134.9631161447444
 30
0.0
 11
398.9999999999999
 21
144.4631161447443
 31
0.0
  0
LINE
  5
CA5C
330
1A
100
AcDbEntity
  8
SUNPOU
100
AcDbLine
 10
406.9999999999998
 20
134.9631161447444
 30
0.0
 11
406.9999999999998
 21
144.4631161447443
 31
0.0
  0
INSERT
  5
D3F6
330
1A
100
AcDbEntity
  8
0
100
AcDbBlockReference
  2
M8WS-1
 10
1311.000000103438
 20
204.3999997425028
 30
0.0
  0
MTEXT
  5
D491
330
1A
100
AcDbEntity
  8
WAKU
100
AcDbMText
 10
1157.000000103439
 20
76.99999974250272
 30
0.0
 40
3.0
 41
74.0
 71
     1
 72
     5
  1

 73
     1
 44
1.0
1001
ACAD
1000
MTEXTBEGIN
1070
    73
1070
     1
1070
    44
1040
1.0
1070
    74
1070
     0
1000
MTEXTEND
  0
MTEXT
  5
D492
330
1A
100
AcDbEntity
  8
WAKU
100
AcDbMText
 10
1216.000000103439
 20
79.99999974250272
 30
0.0
 40
3.0
 41
12.0
 71
     1
 72
     5
  1

 73
     1
 44
1.0
1001
ACAD
1000
MTEXTBEGIN
1070
    73
1070
     1
1070
    44
1040
1.0
1070
    74
1070
     0
1000
MTEXTEND
  0
MTEXT
  5
D497
330
1A
100
AcDbEntity
  8
WAKU
100
AcDbMText
 10
1213.000000103439
 20
76.99999974250272
 30
0.0
 40
3.0
 41
37.0
 71
     1
 72
     5
  1

 73
     1
 44
1.0
1001
ACAD
1000
MTEXTBEGIN
1070
    73
1070
     1
1070
    44
1040
1.0
1070
    74
1070
     0
1000
MTEXTEND
  0
MTEXT
  5
D499
330
1A
100
AcDbEntity
  8
WAKU
100
AcDbMText
 10
1231.000000103439
 20
43.99999974250272
 30
0.0
 40
4.0
 41
14.0
 71
     1
 72
     5
  1

 73
     1
 44
1.0
1001
ACAD
1000
MTEXTBEGIN
1070
    73
1070
     1
1070
    44
1040
1.0
1070
    74
1070
     0
1000
MTEXTEND
  0
MTEXT
  5
D49A
330
1A
100
AcDbEntity
  8
WAKU
100
AcDbMText
 10
1231.000000103439
 20
37.99999974250273
 30
0.0
 40
4.0
 41
15.0
 71
     1
 72
     5
  1

 73
     1
 44
1.0
1001
ACAD
1000
MTEXTBEGIN
1070
    73
1070
     1
1070
    44
1040
1.0
1070
    74
1070
     0
1000
MTEXTEND
  0
INSERT
  5
E623
330
1A
100
AcDbEntity
  8
0
100
AcDbBlockReference
  2
ST11-3
 10
337.9999999999999
 20
307.4131161447444
 30
0.0
 50
270.0
  0
INSERT
  5
E625
330
1A
100
AcDbEntity
  8
0
100
AcDbBlockReference
  2
ST11-3
 10
402.9999999999999
 20
307.4131161447444
 30
0.0
 50
270.0
  0
LINE
  5
E626
330
1A
100
AcDbEntity
  8
0
100
AcDbLine
 10
207.9999999999999
 20
278.6131161447445
 30
0.0
 11
207.9999999999999
 21
308.6131161447445
 31
0.0
  0
LINE
  5
E627
330
1A
100
AcDbEntity
  8
0
100
AcDbLine
 10
182.9999999999999
 20
278.6131161447445
 30
0.0
 11
182.9999999999999
 21
306.1131161447445
 31
0.0
  0
DIMENSION
  5
E628
330
1A
100
AcDbEntity
  8
SUNPOU
100
AcDbDimension
  2
*D15
 10
134.9999999999999
 20
288.6131161447445
 30
0.0
 11
130.9999999999998
 21
374.6131161447445
 31
0.0
 70
    32
 71
     5
 42
171.9999999999999
  3
STANDARD
100
AcDbAlignedDimension
 13
195.4999999999999
 23
460.6131161447443
 33
0.0
 14
195.4999999999999
 24
288.6131161447445
 34
0.0
 50
90.0
100
AcDbRotatedDimension
1001
ACAD
1000
DSTYLE
1002
{
1070
    41
1040
5.0
1070
    42
1040
0.5
1070
    43
1040
10.0
1070
    44
1040
0.5
1070
    73
1070
     0
1070
    74
1070
     0
1070
    77
1070
     1
1070
   140
1040
6.0
1070
   141
1040
0.0
1070
   147
1040
1.0
1070
   173
1070
     1
1070
   271
1070
     0
1070
   272
1070
     2
1070
   343
1005
BA
1070
   344
1005
BA
1002
}
  0
DIMENSION
  5
E629
330
1A
100
AcDbEntity
  8
SUNPOU
100
AcDbDimension
  2
*D14
 10
119.9999999999999
 20
276.6131161447445
 30
0.0
 11
115.9999999999998
 21
374.6131161447445
 31
0.0
 70
    32
 71
     5
 42
195.9999999999999
  3
STANDARD
100
AcDbAlignedDimension
 13
184.9999999999999
 23
472.6131161447443
 33
0.0
 14
184.9999999999999
 24
276.6131161447445
 34
0.0
 50
90.0
100
AcDbRotatedDimension
1001
ACAD
1000
DSTYLE
1002
{
1070
    41
1040
5.0
1070
    42
1040
0.5
1070
    43
1040
10.0
1070
    44
1040
0.5
1070
    73
1070
     0
1070
    74
1070
     0
1070
    77
1070
     1
1070
   140
1040
6.0
1070
   141
1040
0.0
1070
   147
1040
1.0
1070
   173
1070
     1
1070
   271
1070
     0
1070
   272
1070
     2
1070
   343
1005
BA
1070
   344
1005
BA
1002
}
  0
INSERT
  5
E62A
330
1A
100
AcDbEntity
  8
0
100
AcDbBlockReference
  2
ST11-3
 10
467.9999999999998
 20
307.4131161447444
 30
0.0
 50
270.0
  0
DIMENSION
  5
E62B
330
1A
100
AcDbEntity
  8
SUNPOU
100
AcDbDimension
  2
*D10
 10
527.9999999999999
 20
259.6131161447446
 30
0.0
 11
497.9999999999998
 21
263.6131161447446
 31
0.0
 70
    32
 71
     5
 42
60.0
  3
STANDARD
100
AcDbAlignedDimension
 13
467.9999999999998
 23
277.4131161447447
 33
0.0
 14
527.9999999999999
 24
308.1131161447445
 34
0.0
100
AcDbRotatedDimension
1001
ACAD
1000
DSTYLE
1002
{
1070
    41
1040
5.0
1070
    42
1040
0.5
1070
    43
1040
10.0
1070
    44
1040
0.5
1070
    73
1070
     0
1070
    74
1070
     0
1070
    77
1070
     1
1070
   140
1040
6.0
1070
   141
1040
0.0
1070
   147
1040
1.0
1070
   173
1070
     1
1070
   271
1070
     1
1070
   272
1070
     2
1070
   279
1070
     1
1070
   343
1005
BA
1070
   344
1005
BA
1002
}
  0
LINE
  5
E62C
330
1A
100
AcDbEntity
  8
0
100
AcDbLine
 10
656.3499999999997
 20
472.6131161447443
 30
0.0
 11
656.35
 21
276.6131161447445
 31
0.0
  0
LINE
  5
E62D
330
1A
100
AcDbEntity
  8
0
100
AcDbLine
 10
654.3499999999998
 20
463.1131161447444
 30
0.0
 11
654.3499999999998
 21
441.1131161447445
 31
0.0
  0
LINE
  5
E62E
330
1A
100
AcDbEntity
  8
0
100
AcDbLine
 10
497.9999999999998
 20
278.6131161447445
 30
0.0
 11
497.9999999999998
 21
308.6131161447445
 31
0.0
  0
LINE
  5
E62F
330
1A
100
AcDbEntity
  8
0
100
AcDbLine
 10
522.9999999999998
 20
278.6131161447445
 30
0.0
 11
522.9999999999998
 21
306.1131161447445
 31
0.0
  0
DIMENSION
  5
E631
330
1A
100
AcDbEntity
  8
SUNPOU
100
AcDbDimension
  2
*D9
 10
656.35
 20
240.0
 30
0.0
 11
619.8499999999999
 21
244.0
 31
0.0
 70
    32
 71
     5
 42
73.00000000000034
  3
STANDARD
100
AcDbAlignedDimension
 13
583.3499999999997
 23
314.8131161447444
 33
0.0
 14
656.35
 24
276.6131161447445
 34
0.0
100
AcDbRotatedDimension
1001
ACAD
1000
DSTYLE
1002
{
1070
    41
1040
5.0
1070
    42
1040
0.5
1070
    43
1040
10.0
1070
    44
1040
0.5
1070
    73
1070
     0
1070
    74
1070
     0
1070
    77
1070
     1
1070
   140
1040
6.0
1070
   141
1040
0.0
1070
   147
1040
1.0
1070
   173
1070
     1
1070
   271
1070
     0
1070
   272
1070
     2
1070
   343
1005
BA
1070
   344
1005
BA
1002
}
  0
DIMENSION
  5
E632
330
1A
100
AcDbEntity
  8
SUNPOU
100
AcDbDimension
  2
*D17
 10
402.9999999999999
 20
259.6131161447446
 30
0.0
 11
370.4999999999999
 21
263.6131161447446
 31
0.0
 70
    32
 71
     5
 42
65.0
  3
STANDARD
100
AcDbAlignedDimension
 13
337.9999999999999
 23
276.9131161447447
 33
0.0
 14
402.9999999999999
 24
277.4131161447447
 34
0.0
100
AcDbRotatedDimension
1001
ACAD
1000
DSTYLE
1002
{
1070
    41
1040
5.0
1070
    42
1040
0.5
1070
    43
1040
10.0
1070
    44
1040
0.5
1070
    73
1070
     0
1070
    74
1070
     0
1070
    77
1070
     1
1070
   140
1040
6.0
1070
   141
1040
0.0
1070
   147
1040
1.0
1070
   173
1070
     1
1070
   271
1070
     1
1070
   272
1070
     2
1070
   343
1005
BA
1070
   344
1005
BA
1002
}
  0
LINE
  5
E640
330
1A
100
AcDbEntity
  8
0
100
AcDbLine
 10
525.4999999999999
 20
217.9631161447444
 30
0.0
 11
180.4999999999999
 21
217.9631161447444
 31
0.0
  0
LINE
  5
E641
330
1A
100
AcDbEntity
  8
0
100
AcDbLine
 10
207.9999999999999
 20
154.4631161447443
 30
0.0
 11
497.9999999999998
 21
154.4631161447442
 31
0.0
  0
LINE
  5
E642
330
1A
100
AcDbEntity
  8
0
100
AcDbLine
 10
207.9999999999999
 20
152.4631161447443
 30
0.0
 11
497.9999999999998
 21
152.4631161447443
 31
0.0
  0
LINE
  5
E644
330
1A
100
AcDbEntity
  8
0
100
AcDbLine
 10
207.9999999999999
 20
155.9631161447443
 30
0.0
 11
497.9999999999998
 21
155.9631161447442
 31
0.0
  0
LINE
  5
E645
330
1A
100
AcDbEntity
  8
0
100
AcDbLine
 10
312.0
 20
161.9631161447444
 30
0.0
 11
493.9999999999998
 21
161.9631161447443
 31
0.0
  0
LINE
  5
E646
330
1A
100
AcDbEntity
  8
0
100
AcDbLine
 10
312.0
 20
205.9631161447444
 30
0.0
 11
493.9999999999998
 21
205.9631161447444
 31
0.0
  0
LINE
  5
E659
330
1A
100
AcDbEntity
  8
0
100
AcDbLine
 10
180.4999999999999
 20
217.9631161447444
 30
0.0
 11
180.4999999999999
 21
193.9631161447442
 31
0.0
  0
DIMENSION
  5
E65C
330
1A
100
AcDbEntity
  8
SUNPOU
100
AcDbDimension
  2
*D16
 10
134.9999999999999
 20
144.9631161447442
 30
0.0
 11
130.9999999999998
 21
181.4631161447443
 31
0.0
 70
    32
 71
     5
 42
73.00000000000022
  3
STANDARD
100
AcDbAlignedDimension
 13
180.4999999999999
 23
217.9631161447444
 33
0.0
 14
180.4999999999999
 24
144.9631161447442
 34
0.0
 50
90.0
100
AcDbRotatedDimension
1001
ACAD
1000
DSTYLE
1002
{
1070
    41
1040
5.0
1070
    42
1040
0.5
1070
    43
1040
10.0
1070
    44
1040
0.5
1070
    73
1070
     0
1070
    74
1070
     0
1070
    77
1070
     1
1070
   140
1040
6.0
1070
   141
1040
0.0
1070
   147
1040
1.0
1070
   173
1070
     1
1070
   271
1070
     1
1070
   272
1070
     2
1070
   343
1005
BA
1070
   344
1005
BA
1002
}
  0
INSERT
  5
E65E
330
1A
100
AcDbEntity
  8
0
100
AcDbBlockReference
  2
M8-WS-2
 10
178.0
 20
178.9631161447441
 30
0.0
 41
-0.8333333330000414
 42
0.8333333330000005
 43
0.833333333
 50
180.0
  0
LINE
  5
E661
330
1A
100
AcDbEntity
  8
0
100
AcDbLine
 10
177.9999999999999
 20
193.9631161447442
 30
0.0
 11
177.9999999999999
 21
146.9631161447441
 31
0.0
  0
LINE
  5
E662
330
1A
100
AcDbEntity
  8
0
100
AcDbLine
 10
207.9999999999999
 20
191.9631161447443
 30
0.0
 11
207.9999999999999
 21
147.9631161447443
 31
0.0
  0
LINE
  5
E666
330
1A
100
AcDbEntity
  8
0
100
AcDbLine
 10
179.9999999999999
 20
144.9631161447442
 30
0.0
 11
207.9999999999999
 21
144.9631161447442
 31
0.0
  0
LINE
  5
E667
330
1A
100
AcDbEntity
  8
0
100
AcDbLine
 10
179.9999999999999
 20
146.9631161447441
 30
0.0
 11
207.9999999999999
 21
146.9631161447441
 31
0.0
  0
LINE
  5
E668
330
1A
100
AcDbEntity
  8
0
100
AcDbLine
 10
177.9999999999999
 20
147.9631161447443
 30
0.0
 11
207.9999999999999
 21
147.9631161447443
 31
0.0
  0
LINE
  5
E669
330
1A
100
AcDbEntity
  8
KAGESEN
100
AcDbLine
 10
195.4999999999999
 20
156.9631161447441
 30
0.0
 11
195.4999999999999
 21
136.9631161447441
 31
0.0
  0
LINE
  5
E66D
330
1A
100
AcDbEntity
  8
0
100
AcDbLine
 10
184.9999999999999
 20
146.9631161447441
 30
0.0
 11
184.9999999999999
 21
144.9631161447442
 31
0.0
  0
LINE
  5
E66E
330
1A
100
AcDbEntity
  8
0
100
AcDbLine
 10
182.9999999999999
 20
146.9631161447441
 30
0.0
 11
182.9999999999999
 21
144.9631161447442
 31
0.0
  0
LINE
  5
E66F
330
1A
100
AcDbEntity
  8
0
100
AcDbLine
 10
179.9999999999999
 20
147.9631161447443
 30
0.0
 11
179.9999999999999
 21
146.9631161447441
 31
0.0
  0
ARC
  5
E670
330
1A
100
AcDbEntity
  8
0
100
AcDbCircle
 10
179.9999999999999
 20
146.9631161447441
 30
0.0
 40
2.0
100
AcDbArc
 50
180.0
 51
270.0
  0
LINE
  5
E673
330
1A
100
AcDbEntity
  8
0
100
AcDbLine
 10
207.9999999999999
 20
146.9631161447441
 30
0.0
 11
207.9999999999999
 21
144.9631161447442
 31
0.0
  0
LINE
  5
E674
330
1A
100
AcDbEntity
  8
0
100
AcDbLine
 10
205.9999999999999
 20
146.9631161447441
 30
0.0
 11
205.9999999999999
 21
144.9631161447442
 31
0.0
  0
LINE
  5
E675
330
1A
100
AcDbEntity
  8
0
100
AcDbLine
 10
213.0000000000003
 20
154.4631161447441
 30
0.0
 11
207.9999999999999
 21
154.4631161447442
 31
0.0
  0
LINE
  5
E679
330
1A
100
AcDbEntity
  8
0
100
AcDbLine
 10
177.9999999999999
 20
193.9631161447442
 30
0.0
 11
205.9999999999999
 21
193.9631161447443
 31
0.0
  0
LINE
  5
E68A
330
1A
100
AcDbEntity
  8
0
100
AcDbLine
 10
205.9999999999999
 20
276.6131161447445
 30
0.0
 11
184.9999999999999
 21
276.6131161447445
 31
0.0
  0
CIRCLE
  5
E68C
330
1A
100
AcDbEntity
  8
0
100
AcDbCircle
 10
195.4999999999999
 20
288.6131161447445
 30
0.0
 40
3.5
  0
LINE
  5
E691
330
1A
100
AcDbEntity
  8
0
100
AcDbLine
 10
310.0
 20
163.9631161447444
 30
0.0
 11
310.0
 21
203.9631161447444
 31
0.0
  0
INSERT
  5
E695
330
1A
100
AcDbEntity
  8
0
100
AcDbBlockReference
  2
ST11-1
 10
337.9999999999999
 20
183.9631161447442
 30
0.0
  0
INSERT
  5
E6B2
330
1A
100
AcDbEntity
  8
0
100
AcDbBlockReference
  2
ST11-1
 10
402.9999999999999
 20
183.9631161447442
 30
0.0
  0
LINE
  5
E6C2
330
1A
100
AcDbEntity
  8
0
100
AcDbLine
 10
495.9999999999998
 20
163.9631161447443
 30
0.0
 11
495.9999999999999
 21
203.9631161447444
 31
0.0
  0
INSERT
  5
E6C8
330
1A
100
AcDbEntity
  8
0
100
AcDbBlockReference
  2
ST11-1
 10
467.9999999999998
 20
183.9631161447442
 30
0.0
  0
DIMENSION
  5
E6D3
330
1A
100
AcDbEntity
  8
SUNPOU
100
AcDbDimension
  2
*D13
 10
467.9999999999998
 20
259.6131161447446
 30
0.0
 11
435.4999999999998
 21
263.6131161447446
 31
0.0
 70
    32
 71
     5
 42
65.0
  3
STANDARD
100
AcDbAlignedDimension
 13
402.9999999999999
 23
277.4131161447447
 33
0.0
 14
467.9999999999998
 24
277.4131161447447
 34
0.0
100
AcDbRotatedDimension
1001
ACAD
1000
DSTYLE
1002
{
1070
    41
1040
5.0
1070
    42
1040
0.5
1070
    43
1040
10.0
1070
    44
1040
0.5
1070
    73
1070
     0
1070
    74
1070
     0
1070
    77
1070
     1
1070
   140
1040
6.0
1070
   141
1040
0.0
1070
   147
1040
1.0
1070
   173
1070
     1
1070
   271
1070
     1
1070
   272
1070
     2
1070
   279
1070
     1
1070
   343
1005
BA
1070
   344
1005
BA
1002
}
  0
LEADER
  5
E6D4
330
1A
100
AcDbEntity
  8
SUNPOU
100
AcDbLeader
  3
STANDARD
 73
     0
 74
     0
 75
     1
 40
6.000000000000001
 41
46.28571428571429
 76
     3
 10
537.2499999963004
 20
178.9631161447442
 30
0.0
 10
556.70225810017
 20
203.5631167515082
 30
0.0
 10
561.70225810017
 20
203.5631167515082
 30
0.0
340
E706
213
0.0
223
-3.0
233
0.0
1001
ACAD
1000
DSTYLE
1002
{
1070
    41
1040
5.0
1070
    42
1040
0.5
1070
    43
1040
10.0
1070
    44
1040
0.5
1070
    73
1070
     0
1070
    74
1070
     0
1070
   140
1040
6.0
1070
   141
1040
0.0
1070
   147
1040
1.0
1070
   173
1070
     1
1070
   271
1070
     2
1070
   272
1070
     2
1070
   343
1005
BA
1070
   344
1005
BA
1002
}
  0
LINE
  5
E6D6
330
1A
100
AcDbEntity
  8
0
100
AcDbLine
 10
525.4999999999999
 20
217.9631161447444
 30
0.0
 11
525.4999999999998
 21
193.9631161447442
 31
0.0
  0
LINE
  5
E6DB
330
1A
100
AcDbEntity
  8
0
100
AcDbLine
 10
527.9999999999999
 20
193.9631161447442
 30
0.0
 11
527.9999999999999
 21
146.9631161447441
 31
0.0
  0
LINE
  5
E6DC
330
1A
100
AcDbEntity
  8
0
100
AcDbLine
 10
497.9999999999999
 20
191.9631161447443
 30
0.0
 11
497.9999999999998
 21
147.9631161447443
 31
0.0
  0
LINE
  5
E6E1
330
1A
100
AcDbEntity
  8
KAGESEN
100
AcDbLine
 10
510.4999999999998
 20
156.9631161447441
 30
0.0
 11
510.4999999999998
 21
136.9631161447441
 31
0.0
  0
LINE
  5
E6E2
330
1A
100
AcDbEntity
  8
0
100
AcDbLine
 10
525.9999999999998
 20
144.9631161447442
 30
0.0
 11
497.9999999999998
 21
144.9631161447442
 31
0.0
  0
LINE
  5
E6E3
330
1A
100
AcDbEntity
  8
0
100
AcDbLine
 10
527.9999999999999
 20
147.9631161447443
 30
0.0
 11
497.9999999999998
 21
147.9631161447443
 31
0.0
  0
LINE
  5
E6E4
330
1A
100
AcDbEntity
  8
0
100
AcDbLine
 10
525.9999999999998
 20
146.9631161447441
 30
0.0
 11
497.9999999999998
 21
146.9631161447441
 31
0.0
  0
LINE
  5
E6E5
330
1A
100
AcDbEntity
  8
0
100
AcDbLine
 10
499.9999999999999
 20
146.9631161447441
 30
0.0
 11
499.9999999999999
 21
144.9631161447442
 31
0.0
  0
LINE
  5
E6E6
330
1A
100
AcDbEntity
  8
0
100
AcDbLine
 10
497.9999999999998
 20
146.9631161447441
 30
0.0
 11
497.9999999999998
 21
144.9631161447442
 31
0.0
  0
LINE
  5
E6EB
330
1A
100
AcDbEntity
  8
0
100
AcDbLine
 10
520.9999999999999
 20
146.9631161447441
 30
0.0
 11
520.9999999999999
 21
144.9631161447442
 31
0.0
  0
LINE
  5
E6EC
330
1A
100
AcDbEntity
  8
0
100
AcDbLine
 10
522.9999999999998
 20
146.9631161447441
 30
0.0
 11
522.9999999999998
 21
144.9631161447442
 31
0.0
  0
LINE
  5
E6ED
330
1A
100
AcDbEntity
  8
0
100
AcDbLine
 10
525.9999999999998
 20
147.9631161447443
 30
0.0
 11
525.9999999999998
 21
146.9631161447441
 31
0.0
  0
ARC
  5
E6EE
330
1A
100
AcDbEntity
  8
0
100
AcDbCircle
 10
525.9999999999998
 20
146.9631161447441
 30
0.0
 40
2.0
100
AcDbArc
 50
270.0
 51
0.0
  0
INSERT
  5
E6F1
330
1A
100
AcDbEntity
  8
0
100
AcDbBlockReference
  2
M8-WS-2
 10
527.9999999999999
 20
178.9631161447441
 30
0.0
 41
0.8333333330000414
 42
0.8333333330000005
 43
0.833333333
 50
180.0
  0
LINE
  5
E6F9
330
1A
100
AcDbEntity
  8
0
100
AcDbLine
 10
527.9999999999999
 20
193.9631161447442
 30
0.0
 11
499.9999999999999
 21
193.9631161447443
 31
0.0
  0
CIRCLE
  5
E702
330
1A
100
AcDbEntity
  8
0
100
AcDbCircle
 10
510.4999999999998
 20
288.6131161447445
 30
0.0
 40
3.5
  0
LINE
  5
E703
330
1A
100
AcDbEntity
  8
0
100
AcDbLine
 10
499.9999999999999
 20
276.6131161447445
 30
0.0
 11
520.9999999999999
 21
276.6131161447445
 31
0.0
  0
MTEXT
  5
E706
102
{ACAD_REACTORS
330
E6D4
102
}
330
1A
100
AcDbEntity
  8
SUNPOU
100
AcDbMText
 10
562.7022581001701
 20
206.5631167515082
 30
0.0
 40
6.0
 41
0.0
 71
     1
 72
     1
  1
M8固定ボルト
 73
     1
 44
1.0
1001
ACAD
1000
MTEXTBEGIN
1070
    73
1070
     1
1070
    44
1040
1.0
1070
    74
1070
     0
1000
MTEXTEND
  0
LINE
  5
E707
330
1A
100
AcDbEntity
  8
0
100
AcDbLine
 10
654.35
 20
292.1131161447446
 30
0.0
 11
654.35
 21
276.6131161447445
 31
0.0
  0
LINE
  5
E708
330
1A
100
AcDbEntity
  8
0
100
AcDbLine
 10
654.35
 20
276.6131161447445
 30
0.0
 11
656.35
 21
276.6131161447445
 31
0.0
  0
LINE
  5
E709
330
1A
100
AcDbEntity
  8
0
100
AcDbLine
 10
609.4999999999998
 20
157.6131161447446
 30
0.0
 11
609.4999999999998
 21
121.6131161447446
 31
0.0
  0
LINE
  5
E70A
330
1A
100
AcDbEntity
  8
0
100
AcDbLine
 10
599.0000000000001
 20
121.6131161447446
 30
0.0
 11
598.9999999999999
 21
157.6131161447446
 31
0.0
  0
LINE
  5
E70B
330
1A
100
AcDbEntity
  8
0
100
AcDbLine
 10
649.5
 20
121.6131161447446
 30
0.0
 11
649.4999999999999
 21
157.6131161447446
 31
0.0
  0
MTEXT
  5
E70C
330
1A
100
AcDbEntity
  8
0
100
AcDbMText
 10
624.4999999999999
 20
158.6131161447446
 30
0.0
 40
32.0
 41
35.0
 71
     1
 72
     5
  1
{\fArial|b0|i0|c0|p32;\H0.875x;t}
 73
     1
 44
1.0
1001
ACAD
1000
MTEXTBEGIN
1070
    73
1070
     1
1070
    44
1040
1.0
1070
    74
1070
     0
1000
MTEXTEND
  0
LINE
  5
E70D
330
1A
100
AcDbEntity
  8
0
100
AcDbLine
 10
558.9999999999998
 20
157.6131161447446
 30
0.0
 11
558.9999999999998
 21
121.6131161447446
 31
0.0
  0
MTEXT
  5
E70E
330
1A
100
AcDbEntity
  8
0
100
AcDbMText
 10
562.4999999999999
 20
155.1131161447446
 30
0.0
 40
26.0
 41
35.0
 71
     1
 72
     5
  1
{\fMS PGothic|b0|i0|c128|p50;kg}
 73
     1
 44
1.0
1001
ACAD
1000
MTEXTBEGIN
1070
    73
1070
     1
1070
    44
1040
1.0
1070
    74
1070
     0
1000
MTEXTEND
  0
LINE
  5
E70F
330
1A
100
AcDbEntity
  8
0
100
AcDbLine
 10
611.4999999999999
 20
119.6131161447446
 30
0.0
 11
647.5000000000001
 21
119.6131161447446
 31
0.0
  0
LINE
  5
E710
330
1A
100
AcDbEntity
  8
0
100
AcDbLine
 10
560.9999999999998
 20
119.6131161447446
 30
0.0
 11
597.0000000000001
 21
119.6131161447446
 31
0.0
  0
ARC
  5
E711
330
1A
100
AcDbEntity
  8
0
100
AcDbCircle
 10
560.9999999999998
 20
121.6131161447446
 30
0.0
 40
2.0
100
AcDbArc
 50
180.0
 51
270.0
  0
ARC
  5
E712
330
1A
100
AcDbEntity
  8
0
100
AcDbCircle
 10
597.0000000000001
 20
121.6131161447446
 30
0.0
 40
2.0
100
AcDbArc
 50
270.0
 51
0.0000000000002036
  0
ARC
  5
E713
330
1A
100
AcDbEntity
  8
0
100
AcDbCircle
 10
611.4999999999999
 20
121.6131161447446
 30
0.0
 40
2.0
100
AcDbArc
 50
180.0
 51
270.0
  0
ARC
  5
E714
330
1A
100
AcDbEntity
  8
0
100
AcDbCircle
 10
647.5000000000001
 20
121.6131161447446
 30
0.0
 40
2.0
100
AcDbArc
 50
270.0
 51
0.0000000000002036
  0
LINE
  5
E715
330
1A
100
AcDbEntity
  8
0
100
AcDbLine
 10
647.4999999999998
 20
159.6131161447446
 30
0.0
 11
611.4999999999999
 21
159.6131161447446
 31
0.0
  0
LINE
  5
E716
330
1A
100
AcDbEntity
  8
0
100
AcDbLine
 10
596.9999999999998
 20
159.6131161447446
 30
0.0
 11
560.9999999999998
 21
159.6131161447446
 31
0.0
  0
ARC
  5
E717
330
1A
100
AcDbEntity
  8
0
100
AcDbCircle
 10
560.9999999999998
 20
157.6131161447446
 30
0.0
 40
2.0
100
AcDbArc
 50
90.0
 51
180.0
  0
ARC
  5
E718
330
1A
100
AcDbEntity
  8
0
100
AcDbCircle
 10
596.9999999999998
 20
157.6131161447446
 30
0.0
 40
2.0
100
AcDbArc
 50
0.0
 51
90.0
  0
ARC
  5
E719
330
1A
100
AcDbEntity
  8
0
100
AcDbCircle
 10
611.4999999999999
 20
157.6131161447446
 30
0.0
 40
2.0
100
AcDbArc
 50
90.0
 51
180.0
  0
ARC
  5
E71A
330
1A
100
AcDbEntity
  8
0
100
AcDbCircle
 10
647.4999999999998
 20
157.6131161447446
 30
0.0
 40
2.0
100
AcDbArc
 50
0.0
 51
90.0
  0
LINE
  5
E720
330
1A
100
AcDbEntity
  8
0
100
AcDbLine
 10
502.9999999999999
 20
413.6131161447444
 30
0.0
 11
202.9999999999999
 21
413.6131161447445
 31
0.0
  0
LINE
  5
E721
330
1A
100
AcDbEntity
  8
0
100
AcDbLine
 10
502.9999999999999
 20
335.6131161447445
 30
0.0
 11
202.9999999999999
 21
335.6131161447445
 31
0.0
  0
LINE
  5
E722
330
1A
100
AcDbEntity
  8
0
100
AcDbLine
 10
525.4999999999999
 20
440.6131161447444
 30
0.0
 11
180.4999999999999
 21
440.6131161447446
 31
0.0
  0
LINE
  5
E723
330
1A
100
AcDbEntity
  8
0
100
AcDbLine
 10
525.4999999999999
 20
308.6131161447445
 30
0.0
 11
180.4999999999999
 21
308.6131161447445
 31
0.0
  0
LINE
  5
E724
330
1A
100
AcDbEntity
  8
0
100
AcDbLine
 10
495.9999999999999
 20
307.4131161447446
 30
0.0
 11
309.9999999999999
 21
307.4131161447446
 31
0.0
  0
DIMENSION
  5
E734
330
1A
100
AcDbEntity
  8
SUNPOU
100
AcDbDimension
  2
*D12
 10
510.4999999999998
 20
490.0
 30
0.0
 11
352.9999999999999
 21
494.0
 31
0.0
 70
    32
 71
     5
 42
315.0
  3
STANDARD
100
AcDbAlignedDimension
 13
195.4999999999999
 23
460.6131161447443
 33
0.0
 14
510.4999999999998
 24
460.6131161447443
 34
0.0
100
AcDbRotatedDimension
1001
ACAD
1000
DSTYLE
1002
{
1070
    41
1040
5.0
1070
    42
1040
0.5
1070
    43
1040
10.0
1070
    44
1040
0.5
1070
    73
1070
     0
1070
    74
1070
     0
1070
    77
1070
     1
1070
   140
1040
6.0
1070
   141
1040
0.0
1070
   147
1040
1.0
1070
   173
1070
     1
1070
   271
1070
     0
1070
   272
1070
     2
1070
   343
1005
BA
1070
   344
1005
BA
1002
}
  0
DIMENSION
  5
E735
330
1A
100
AcDbEntity
  8
SUNPOU
100
AcDbDimension
  2
*D11
 10
525.4999999999999
 20
505.0
 30
0.0
 11
352.9999999999999
 21
509.0
 31
0.0
 70
    32
 71
     5
 42
345.0
  3
STANDARD
100
AcDbAlignedDimension
 13
180.4999999999999
 23
440.6131161447446
 33
0.0
 14
525.4999999999999
 24
440.6131161447445
 34
0.0
100
AcDbRotatedDimension
1001
ACAD
1000
DSTYLE
1002
{
1070
    41
1040
5.0
1070
    42
1040
0.5
1070
    43
1040
10.0
1070
    44
1040
0.5
1070
    73
1070
     0
1070
    74
1070
     0
1070
    77
1070
     1
1070
   140
1040
6.0
1070
   141
1040
0.0
1070
   147
1040
1.0
1070
   173
1070
     1
1070
   271
1070
     0
1070
   272
1070
     2
1070
   343
1005
BA
1070
   344
1005
BA
1002
}
  0
LINE
  5
E73F
330
1A
100
AcDbEntity
  8
0
100
AcDbLine
 10
177.9999999999998
 20
308.1131161447445
 30
0.0
 11
177.9999999999998
 21
441.1131161447444
 31
0.0
  0
LINE
  5
E740
330
1A
100
AcDbEntity
  8
0
100
AcDbLine
 10
179.9999999999998
 20
308.6131161447445
 30
0.0
 11
179.9999999999998
 21
440.6131161447445
 31
0.0
  0
DIMENSION
  5
E74A
330
1A
100
AcDbEntity
  8
SUNPOU
100
AcDbDimension
  2
*D18
 10
149.9999999999999
 20
440.6131161447445
 30
0.0
 11
145.9999999999998
 21
374.6131161447446
 31
0.0
 70
    32
 71
     5
 42
132.0000000000001
  3
STANDARD
100
AcDbAlignedDimension
 13
180.4999999999999
 23
308.6131161447445
 33
0.0
 14
180.4999999999997
 24
440.6131161447445
 34
0.0
 50
90.0
100
AcDbRotatedDimension
1001
ACAD
1000
DSTYLE
1002
{
1070
    41
1040
5.0
1070
    42
1040
0.5
1070
    43
1040
10.0
1070
    44
1040
0.5
1070
    73
1070
     0
1070
    74
1070
     0
1070
    77
1070
     1
1070
   140
1040
6.0
1070
   141
1040
0.0
1070
   147
1040
1.0
1070
   173
1070
     1
1070
   271
1070
     0
1070
   272
1070
     2
1070
   343
1005
BA
1070
   344
1005
BA
1002
}
  0
LINE
  5
E74B
330
1A
100
AcDbEntity
  8
0
100
AcDbLine
 10
202.9999999999999
 20
413.6131161447445
 30
0.0
 11
202.9999999999999
 21
335.6131161447445
 31
0.0
  0
LINE
  5
E74C
330
1A
100
AcDbEntity
  8
0
100
AcDbLine
 10
180.4999999999999
 20
440.6131161447446
 30
0.0
 11
180.4999999999999
 21
308.6131161447445
 31
0.0
  0
INSERT
  5
E74E
330
1A
100
AcDbEntity
  8
0
100
AcDbBlockReference
  2
M8-WS-1
 10
177.9999999999998
 20
374.6131161447445
 30
0.0
 41
-0.8333332999999996
 42
0.8333332999999996
 43
0.8333332999999999
 50
90.0
  0
LINE
  5
E74F
330
1A
100
AcDbEntity
  8
0
100
AcDbLine
 10
207.9999999999999
 20
306.1131161447445
 30
0.0
 11
179.9999999999998
 21
306.1131161447445
 31
0.0
  0
LINE
  5
E750
330
1A
100
AcDbEntity
  8
0
100
AcDbLine
 10
207.9999999999999
 20
308.1131161447445
 30
0.0
 11
180.4999999999997
 21
308.1131161447445
 31
0.0
  0
ARC
  5
E755
330
1A
100
AcDbEntity
  8
0
100
AcDbCircle
 10
180.4999999999997
 20
308.6131161447445
 30
0.0
 40
0.5
100
AcDbArc
 50
180.0
 51
270.0
  0
ARC
  5
E756
330
1A
100
AcDbEntity
  8
0
100
AcDbCircle
 10
179.9999999999998
 20
308.1131161447445
 30
0.0
 40
2.0
100
AcDbArc
 50
180.0
 51
270.0
  0
LINE
  5
E77D
330
1A
100
AcDbEntity
  8
0
100
AcDbLine
 10
207.9999999999999
 20
441.1131161447446
 30
0.0
 11
180.4999999999997
 21
441.1131161447445
 31
0.0
  0
LINE
  5
E77E
330
1A
100
AcDbEntity
  8
0
100
AcDbLine
 10
207.9999999999999
 20
443.1131161447444
 30
0.0
 11
179.9999999999998
 21
443.1131161447445
 31
0.0
  0
LINE
  5
E77F
330
1A
100
AcDbEntity
  8
0
100
AcDbLine
 10
205.9999999999998
 20
472.6131161447445
 30
0.0
 11
184.9999999999998
 21
472.6131161447443
 31
0.0
  0
CIRCLE
  5
E780
330
1A
100
AcDbEntity
  8
0
100
AcDbCircle
 10
195.4999999999999
 20
460.6131161447443
 30
0.0
 40
3.5
  0
LINE
  5
E781
330
1A
100
AcDbEntity
  8
0
100
AcDbLine
 10
182.9999999999999
 20
443.1131161447445
 30
0.0
 11
182.9999999999999
 21
470.6131161447443
 31
0.0
  0
ARC
  5
E783
330
1A
100
AcDbEntity
  8
0
100
AcDbCircle
 10
179.9999999999998
 20
441.1131161447444
 30
0.0
 40
2.0
100
AcDbArc
 50
90.0
 51
180.0
  0
ARC
  5
E784
330
1A
100
AcDbEntity
  8
0
100
AcDbCircle
 10
180.4999999999997
 20
440.6131161447445
 30
0.0
 40
0.5
100
AcDbArc
 50
90.0
 51
180.0
  0
LINE
  5
E788
330
1A
100
AcDbEntity
  8
0
100
AcDbLine
 10
207.9999999999999
 20
440.6131161447445
 30
0.0
 11
207.9999999999999
 21
470.6131161447444
 31
0.0
  0
LINE
  5
E799
330
1A
100
AcDbEntity
  8
0
100
AcDbLine
 10
309.9999999999999
 20
307.4131161447446
 30
0.0
 11
309.9999999999999
 21
308.6131161447445
 31
0.0
  0
MTEXT
  5
E7CC
330
1A
100
AcDbEntity
  8
0
100
AcDbMText
 10
465.4999999999996
 20
372.1131161447445
 30
0.0
 40
26.0
 41
35.0
 71
     1
 72
     5
  1
{\fMS PGothic|b0|i0|c128|p50;kg}
 73
     1
 44
1.0
1001
ACAD
1000
MTEXTBEGIN
1070
    73
1070
     1
1070
    44
1040
1.0
1070
    74
1070
     0
1000
MTEXTEND
  0
LINE
  5
E7CD
330
1A
100
AcDbEntity
  8
0
100
AcDbLine
 10
499.9999999999994
 20
376.6131161447445
 30
0.0
 11
463.9999999999997
 21
376.6131161447445
 31
0.0
  0
LINE
  5
E7CE
330
1A
100
AcDbEntity
  8
0
100
AcDbLine
 10
463.9999999999997
 20
336.6131161447445
 30
0.0
 11
499.9999999999999
 21
336.6131161447445
 31
0.0
  0
LINE
  5
E7E2
330
1A
100
AcDbEntity
  8
0
100
AcDbLine
 10
461.9999999999996
 20
374.6131161447445
 30
0.0
 11
461.9999999999996
 21
338.6131161447445
 31
0.0
  0
ARC
  5
E7E3
330
1A
100
AcDbEntity
  8
0
100
AcDbCircle
 10
463.9999999999997
 20
338.6131161447445
 30
0.0
 40
2.0
100
AcDbArc
 50
180.0
 51
270.0
  0
LINE
  5
E7E6
330
1A
100
AcDbEntity
  8
0
100
AcDbLine
 10
495.9999999999999
 20
307.4131161447446
 30
0.0
 11
495.9999999999999
 21
308.6131161447445
 31
0.0
  0
ARC
  5
E7EC
330
1A
100
AcDbEntity
  8
0
100
AcDbCircle
 10
463.9999999999997
 20
374.6131161447445
 30
0.0
 40
2.0
100
AcDbArc
 50
90.0
 51
180.0
  0
LINE
  5
E807
330
1A
100
AcDbEntity
  8
0
100
AcDbLine
 10
583.3499999999999
 20
434.4131161447444
 30
0.0
 11
583.3499999999999
 21
314.8131161447444
 31
0.0
  0
LINE
  5
E80D
330
1A
100
AcDbEntity
  8
0
100
AcDbLine
 10
607.3499999999999
 20
443.1131161447445
 30
0.0
 11
607.3499999999999
 21
306.1131161447446
 31
0.0
  0
LINE
  5
E815
330
1A
100
AcDbEntity
  8
0
100
AcDbLine
 10
502.9999999999999
 20
335.6131161447445
 30
0.0
 11
502.9999999999999
 21
413.6131161447444
 31
0.0
  0
LINE
  5
E816
330
1A
100
AcDbEntity
  8
0
100
AcDbLine
 10
525.4999999999999
 20
308.6131161447445
 30
0.0
 11
525.4999999999999
 21
440.6131161447445
 31
0.0
  0
LINE
  5
E818
330
1A
100
AcDbEntity
  8
0
100
AcDbLine
 10
527.9999999999999
 20
308.1131161447445
 30
0.0
 11
527.9999999999999
 21
441.1131161447444
 31
0.0
  0
LINE
  5
E819
330
1A
100
AcDbEntity
  8
0
100
AcDbLine
 10
525.9999999999998
 20
308.6131161447445
 30
0.0
 11
525.9999999999998
 21
440.6131161447445
 31
0.0
  0
ARC
  5
E823
330
1A
100
AcDbEntity
  8
0
100
AcDbCircle
 10
589.5499999999997
 20
314.8131161447444
 30
0.0
 40
6.2
100
AcDbArc
 50
180.0
 51
270.0
  0
LINE
  5
E824
330
1A
100
AcDbEntity
  8
0
100
AcDbLine
 10
501.9999999999998
 20
338.6131161447445
 30
0.0
 11
501.9999999999994
 21
374.6131161447445
 31
0.0
  0
LINE
  5
E825
330
1A
100
AcDbEntity
  8
0
100
AcDbLine
 10
497.9999999999998
 20
306.1131161447445
 30
0.0
 11
525.9999999999998
 21
306.1131161447445
 31
0.0
  0
LINE
  5
E826
330
1A
100
AcDbEntity
  8
0
100
AcDbLine
 10
497.9999999999998
 20
308.1131161447445
 30
0.0
 11
525.4999999999999
 21
308.1131161447445
 31
0.0
  0
ARC
  5
E828
330
1A
100
AcDbEntity
  8
0
100
AcDbCircle
 10
525.4999999999999
 20
308.6131161447445
 30
0.0
 40
0.5
100
AcDbArc
 50
270.0
 51
0.0
  0
ARC
  5
E829
330
1A
100
AcDbEntity
  8
0
100
AcDbCircle
 10
525.9999999999998
 20
308.1131161447445
 30
0.0
 40
2.0
100
AcDbArc
 50
270.0
 51
0.0
  0
ARC
  5
E832
330
1A
100
AcDbEntity
  8
0
100
AcDbCircle
 10
499.9999999999999
 20
338.6131161447445
 30
0.0
 40
2.0
100
AcDbArc
 50
270.0
 51
0.0000000000002036
  0
INSERT
  5
E836
330
1A
100
AcDbEntity
  8
0
100
AcDbBlockReference
  2
M8-WS-1
 10
527.9999999999999
 20
374.6131161447445
 30
0.0
 41
0.8333332999999996
 42
0.8333332999999996
 43
0.8333332999999999
 50
270.0
  0
ARC
  5
E83E
330
1A
100
AcDbEntity
  8
0
100
AcDbCircle
 10
499.9999999999994
 20
374.6131161447445
 30
0.0
 40
2.0
100
AcDbArc
 50
0.0
 51
90.0
  0
LINE
  5
E84B
330
1A
100
AcDbEntity
  8
0
100
AcDbLine
 10
589.5499999999997
 20
308.6131161447445
 30
0.0
 11
607.3499999999999
 21
308.6131161447445
 31
0.0
  0
LINE
  5
E84C
330
1A
100
AcDbEntity
  8
0
100
AcDbLine
 10
595.3500000000001
 20
307.4131161447446
 30
0.0
 11
607.3499999999996
 21
307.4131161447446
 31
0.0
  0
LINE
  5
E84F
330
1A
100
AcDbEntity
  8
0
100
AcDbLine
 10
607.3499999999999
 20
306.1131161447446
 30
0.0
 11
653.3499999999998
 21
306.1131161447446
 31
0.0
  0
LINE
  5
E851
330
1A
100
AcDbEntity
  8
0
100
AcDbLine
 10
595.3500000000001
 20
308.6131161447445
 30
0.0
 11
595.3500000000001
 21
307.4131161447446
 31
0.0
  0
LINE
  5
E85D
330
1A
100
AcDbEntity
  8
0
100
AcDbLine
 10
653.3499999999998
 20
308.1131161447446
 30
0.0
 11
653.3499999999998
 21
306.1131161447446
 31
0.0
  0
LINE
  5
E85E
330
1A
100
AcDbEntity
  8
0
100
AcDbLine
 10
653.3499999999998
 20
308.1131161447446
 30
0.0
 11
656.35
 21
308.1131161447446
 31
0.0
  0
LWPOLYLINE
  5
E86C
330
1A
100
AcDbEntity
  8
0
100
AcDbPolyline
 90
        6
 70
     1
 43
0.0
 10
615.26666695
 20
370.5235519015673
 10
622.35
 20
366.4339876583901
 10
629.4333330499999
 20
370.5235519015673
 10
629.4333330499999
 20
378.7026803879218
 10
622.35
 20
382.7922446310991
 10
615.26666695
 20
378.7026803879218
  0
CIRCLE
  5
E86D
330
1A
100
AcDbEntity
  8
0
100
AcDbCircle
 10
622.35
 20
374.6131161447445
 30
0.0
 40
9.166666300000001
  0
ARC
  5
E879
330
1A
100
AcDbEntity
  8
0
100
AcDbCircle
 10
589.5499999999999
 20
434.4131161447444
 30
0.0
 40
6.2
100
AcDbArc
 50
90.0
 51
179.9999999999999
  0
LINE
  5
E886
330
1A
100
AcDbEntity
  8
0
100
AcDbLine
 10
522.9999999999998
 20
443.1131161447445
 30
0.0
 11
523.0
 21
470.6131161447443
 31
0.0
  0
LINE
  5
E887
330
1A
100
AcDbEntity
  8
0
100
AcDbLine
 10
497.9999999999998
 20
440.6131161447445
 30
0.0
 11
497.9999999999998
 21
470.6131161447446
 31
0.0
  0
CIRCLE
  5
E888
330
1A
100
AcDbEntity
  8
0
100
AcDbCircle
 10
510.4999999999998
 20
460.6131161447443
 30
0.0
 40
3.5
  0
LINE
  5
E889
330
1A
100
AcDbEntity
  8
0
100
AcDbLine
 10
497.9999999999998
 20
441.1131161447446
 30
0.0
 11
525.4999999999999
 21
441.1131161447445
 31
0.0
  0
LINE
  5
E88A
330
1A
100
AcDbEntity
  8
0
100
AcDbLine
 10
497.9999999999998
 20
443.1131161447444
 30
0.0
 11
525.9999999999998
 21
443.1131161447445
 31
0.0
  0
ARC
  5
E88D
330
1A
100
AcDbEntity
  8
0
100
AcDbCircle
 10
525.4999999999999
 20
440.6131161447445
 30
0.0
 40
0.5
100
AcDbArc
 50
0.0
 51
90.0
  0
ARC
  5
E88F
330
1A
100
AcDbEntity
  8
0
100
AcDbCircle
 10
525.9999999999998
 20
441.1131161447444
 30
0.0
 40
2.0
100
AcDbArc
 50
0.0
 51
90.0
  0
LINE
  5
E890
330
1A
100
AcDbEntity
  8
0
100
AcDbLine
 10
499.9999999999999
 20
472.6131161447447
 30
0.0
 11
521.0
 21
472.6131161447443
 31
0.0
  0
LINE
  5
E8AD
330
1A
100
AcDbEntity
  8
0
100
AcDbLine
 10
589.5499999999999
 20
440.6131161447444
 30
0.0
 11
607.3499999999999
 21
440.6131161447444
 31
0.0
  0
LINE
  5
E8AE
330
1A
100
AcDbEntity
  8
0
100
AcDbLine
 10
607.3499999999999
 20
443.1131161447445
 30
0.0
 11
653.3499999999998
 21
443.1131161447447
 31
0.0
  0
LINE
  5
E8B5
330
1A
100
AcDbEntity
  8
0
100
AcDbLine
 10
653.3499999999998
 20
443.1131161447447
 30
0.0
 11
653.3499999999998
 21
441.1131161447445
 31
0.0
  0
LINE
  5
E8B6
330
1A
100
AcDbEntity
  8
0
100
AcDbLine
 10
653.3499999999995
 20
441.1131161447445
 30
0.0
 11
656.3499999999997
 21
441.1131161447445
 31
0.0
  0
LINE
  5
E8B7
330
1A
100
AcDbEntity
  8
0
100
AcDbLine
 10
654.3499999999998
 20
472.6131161447443
 30
0.0
 11
654.3499999999998
 21
463.1131161447444
 31
0.0
  0
LINE
  5
E8B8
330
1A
100
AcDbEntity
  8
0
100
AcDbLine
 10
654.3499999999998
 20
472.6131161447443
 30
0.0
 11
656.3499999999997
 21
472.6131161447443
 31
0.0
  0
LINE
  5
EA05
330
1A
100
AcDbEntity
  8
0
100
AcDbLine
 10
312.9999999999999
 20
70.46311614474439
 30
0.0
 11
492.9999999999998
 21
70.46311614474427
 31
0.0
  0
LINE
  5
EA06
330
1A
100
AcDbEntity
  8
0
100
AcDbLine
 10
312.9999999999999
 20
109.4631161447444
 30
0.0
 11
492.9999999999998
 21
109.4631161447444
 31
0.0
  0
LINE
  5
EA07
330
1A
100
AcDbEntity
  8
KAGESEN
100
AcDbLine
 10
311.9999999999999
 20
111.9631161447444
 30
0.0
 11
493.9999999999998
 21
111.9631161447444
 31
0.0
  0
LINE
  5
EA08
330
1A
100
AcDbEntity
  8
KAGESEN
100
AcDbLine
 10
311.9999999999999
 20
67.96311614474439
 30
0.0
 11
493.9999999999998
 21
67.96311614474439
 31
0.0
  0
LINE
  5
EA09
330
1A
100
AcDbEntity
  8
0
100
AcDbLine
 10
422.9999999999998
 20
99.46311614474439
 30
0.0
 11
412.9999999999999
 21
99.46311614474451
 31
0.0
  0
LINE
  5
EA0A
330
1A
100
AcDbEntity
  8
0
100
AcDbLine
 10
422.9999999999998
 20
80.46311614474427
 30
0.0
 11
412.9999999999999
 21
80.46311614474427
 31
0.0
  0
LINE
  5
EA0E
330
1A
100
AcDbEntity
  8
0
100
AcDbLine
 10
348.4
 20
104.8631161447445
 30
0.0
 11
372.7699999999999
 21
104.8631161447445
 31
0.0
  0
LINE
  5
EA0F
330
1A
100
AcDbEntity
  8
0
100
AcDbLine
 10
322.9999999999999
 20
105.4631161447444
 30
0.0
 11
412.9999999999999
 21
105.4631161447444
 31
0.0
  0
LINE
  5
EA10
330
1A
100
AcDbEntity
  8
0
100
AcDbLine
 10
322.9999999999999
 20
74.46311614474433
 30
0.0
 11
412.9999999999999
 21
74.46311614474428
 31
0.0
  0
INSERT
  5
EA11
330
1A
100
AcDbEntity
  8
0
100
AcDbBlockReference
  2
F2060B-4P
 10
370.4999999999999
 20
83.46311614474421
 30
0.0
  0
LINE
  5
EA12
330
1A
100
AcDbEntity
  8
0
100
AcDbLine
 10
348.4
 20
95.56311614474452
 30
0.0
 11
372.7699999999999
 21
95.56311614474452
 31
0.0
  0
INSERT
  5
EA13
330
1A
100
AcDbEntity
  8
SUNPOU
100
AcDbBlockReference
  2
SA-7051B
 10
352.9999999999999
 20
104.8631161447445
 30
0.0
 50
180.0
  0
LINE
  5
EA14
330
1A
100
AcDbEntity
  8
0
100
AcDbLine
 10
312.9999999999999
 20
70.46311614474439
 30
0.0
 11
312.9999999999999
 21
109.4631161447444
 31
0.0
  0
LINE
  5
EA15
330
1A
100
AcDbEntity
  8
KAGESEN
100
AcDbLine
 10
309.9999999999999
 20
69.96311614474439
 30
0.0
 11
309.9999999999999
 21
109.9631161447444
 31
0.0
  0
LINE
  5
EA16
330
1A
100
AcDbEntity
  8
KAGESEN
100
AcDbLine
 10
309.9999999999999
 20
69.96311614474439
 30
0.0
 11
311.9999999999999
 21
67.96311614474439
 31
0.0
  0
CIRCLE
  5
EA17
330
1A
100
AcDbEntity
  8
SUNPOU
100
AcDbCircle
 10
317.9999999999999
 20
76.46311614474439
 30
0.0
 40
1.0
  0
CIRCLE
  5
EA18
330
1A
100
AcDbEntity
  8
SUNPOU
100
AcDbCircle
 10
317.9999999999999
 20
76.46311614474439
 30
0.0
 40
1.5
  0
CIRCLE
  5
EA19
330
1A
100
AcDbEntity
  8
SUNPOU
100
AcDbCircle
 10
317.9999999999999
 20
103.4631161447444
 30
0.0
 40
1.0
  0
CIRCLE
  5
EA1A
330
1A
100
AcDbEntity
  8
SUNPOU
100
AcDbCircle
 10
317.9999999999999
 20
103.4631161447444
 30
0.0
 40
1.5
  0
LINE
  5
EA1B
330
1A
100
AcDbEntity
  8
KAGESEN
100
AcDbLine
 10
309.9999999999999
 20
109.9631161447444
 30
0.0
 11
311.9999999999999
 21
111.9631161447444
 31
0.0
  0
LINE
  5
EA1C
330
1A
100
AcDbEntity
  8
0
100
AcDbLine
 10
348.4
 20
104.8631161447445
 30
0.0
 11
348.4
 21
95.56311614474452
 31
0.0
  0
LINE
  5
EA1D
330
1A
100
AcDbEntity
  8
0
100
AcDbLine
 10
322.9999999999999
 20
74.46311614474433
 30
0.0
 11
322.9999999999999
 21
105.4631161447444
 31
0.0
  0
CIRCLE
  5
EA1F
330
1A
100
AcDbEntity
  8
SUNPOU
100
AcDbCircle
 10
351.4499999999997
 20
83.46311614474416
 30
0.0
 40
1.75
  0
INSERT
  5
EA20
330
1A
100
AcDbEntity
  8
SUNPOU
100
AcDbBlockReference
  2
CFP-4P-1
 10
365.7
 20
104.8631161447445
 30
0.0
 50
180.0
  0
LINE
  5
EA21
330
1A
100
AcDbEntity
  8
0
100
AcDbLine
 10
372.7699999999999
 20
104.8631161447445
 30
0.0
 11
372.7699999999999
 21
95.56311614474452
 31
0.0
  0
CIRCLE
  5
EA27
330
1A
100
AcDbEntity
  8
SUNPOU
100
AcDbCircle
 10
389.5499999999998
 20
83.46311614474428
 30
0.0
 40
1.75
  0
CIRCLE
  5
EA29
330
1A
100
AcDbEntity
  8
SUNPOU
100
AcDbCircle
 10
416.4499999999996
 20
83.46311614474421
 30
0.0
 40
1.75
  0
CIRCLE
  5
EA2A
330
1A
100
AcDbEntity
  8
SUNPOU
100
AcDbCircle
 10
417.9999999999998
 20
76.46311614474439
 30
0.0
 40
1.0
  0
CIRCLE
  5
EA2B
330
1A
100
AcDbEntity
  8
SUNPOU
100
AcDbCircle
 10
417.9999999999998
 20
76.46311614474439
 30
0.0
 40
1.5
  0
LINE
  5
EA2C
330
1A
100
AcDbEntity
  8
0
100
AcDbLine
 10
412.9999999999999
 20
74.46311614474428
 30
0.0
 11
412.9999999999999
 21
80.46311614474427
 31
0.0
  0
CIRCLE
  5
EA2D
330
1A
100
AcDbEntity
  8
SUNPOU
100
AcDbCircle
 10
417.9999999999998
 20
103.4631161447444
 30
0.0
 40
1.5
  0
CIRCLE
  5
EA2E
330
1A
100
AcDbEntity
  8
SUNPOU
100
AcDbCircle
 10
417.9999999999998
 20
103.4631161447444
 30
0.0
 40
1.0
  0
LINE
  5
EA2F
330
1A
100
AcDbEntity
  8
0
100
AcDbLine
 10
412.9999999999999
 20
99.46311614474451
 30
0.0
 11
412.9999999999999
 21
105.4631161447444
 31
0.0
  0
CIRCLE
  5
EA30
330
1A
100
AcDbEntity
  8
SUNPOU
100
AcDbCircle
 10
454.5499999999998
 20
83.46311614474434
 30
0.0
 40
1.75
  0
LINE
  5
EA31
330
1A
100
AcDbEntity
  8
0
100
AcDbLine
 10
422.9999999999998
 20
74.46311614474428
 30
0.0
 11
482.9999999999999
 21
74.46311614474439
 31
0.0
  0
LINE
  5
EA32
330
1A
100
AcDbEntity
  8
0
100
AcDbLine
 10
422.9999999999998
 20
105.4631161447444
 30
0.0
 11
482.9999999999999
 21
105.4631161447444
 31
0.0
  0
LINE
  5
EA33
330
1A
100
AcDbEntity
  8
0
100
AcDbLine
 10
422.9999999999998
 20
74.46311614474428
 30
0.0
 11
422.9999999999998
 21
80.46311614474427
 31
0.0
  0
LINE
  5
EA35
330
1A
100
AcDbEntity
  8
0
100
AcDbLine
 10
422.9999999999998
 20
99.46311614474439
 30
0.0
 11
422.9999999999998
 21
105.4631161447444
 31
0.0
  0
LINE
  5
EA36
330
1A
100
AcDbEntity
  8
0
100
AcDbLine
 10
482.9999999999999
 20
74.46311614474439
 30
0.0
 11
482.9999999999999
 21
105.4631161447444
 31
0.0
  0
LINE
  5
EA38
330
1A
100
AcDbEntity
  8
0
100
AcDbLine
 10
492.9999999999998
 20
70.46311614474427
 30
0.0
 11
492.9999999999998
 21
109.4631161447444
 31
0.0
  0
LINE
  5
EA39
330
1A
100
AcDbEntity
  8
KAGESEN
100
AcDbLine
 10
495.9999999999999
 20
69.96311614474439
 30
0.0
 11
495.9999999999999
 21
109.9631161447444
 31
0.0
  0
LINE
  5
EA3A
330
1A
100
AcDbEntity
  8
KAGESEN
100
AcDbLine
 10
493.9999999999998
 20
67.96311614474439
 30
0.0
 11
495.9999999999999
 21
69.96311614474439
 31
0.0
  0
CIRCLE
  5
EA3C
330
1A
100
AcDbEntity
  8
SUNPOU
100
AcDbCircle
 10
487.9999999999999
 20
76.46311614474427
 30
0.0
 40
1.0
  0
CIRCLE
  5
EA3D
330
1A
100
AcDbEntity
  8
SUNPOU
100
AcDbCircle
 10
487.9999999999999
 20
76.46311614474427
 30
0.0
 40
1.5
  0
CIRCLE
  5
EA3E
330
1A
100
AcDbEntity
  8
SUNPOU
100
AcDbCircle
 10
487.9999999999999
 20
103.4631161447445
 30
0.0
 40
1.0
  0
CIRCLE
  5
EA3F
330
1A
100
AcDbEntity
  8
SUNPOU
100
AcDbCircle
 10
487.9999999999999
 20
103.4631161447445
 30
0.0
 40
1.5
  0
LINE
  5
EA40
330
1A
100
AcDbEntity
  8
KAGESEN
100
AcDbLine
 10
495.9999999999999
 20
109.9631161447444
 30
0.0
 11
493.9999999999998
 21
111.9631161447444
 31
0.0
  0
LINE
  5
EA41
330
1A
100
AcDbEntity
  8
0
100
AcDbLine
 10
422.9999999999998
 20
77.46311614474439
 30
0.0
 11
457.7499999999998
 21
77.46311614474439
 31
0.0
  0
LINE
  5
EA42
330
1A
100
AcDbEntity
  8
0
100
AcDbLine
 10
413.2499999999998
 20
89.46311614474439
 30
0.0
 11
457.7499999999998
 21
89.46311614474439
 31
0.0
  0
LINE
  5
EA43
330
1A
100
AcDbEntity
  8
0
100
AcDbLine
 10
428.4899999999999
 20
88.06311614474441
 30
0.0
 11
434.8899999999998
 21
88.06311614474441
 31
0.0
  0
LINE
  5
EA44
330
1A
100
AcDbEntity
  8
0
100
AcDbLine
 10
430.1899999999998
 20
87.26311614474434
 30
0.0
 11
433.1899999999999
 21
87.26311614474434
 31
0.0
  0
LINE
  5
EA45
330
1A
100
AcDbEntity
  8
0
100
AcDbLine
 10
428.4899999999999
 20
86.4631161447444
 30
0.0
 11
434.8899999999998
 21
86.4631161447444
 31
0.0
  0
LINE
  5
EA46
330
1A
100
AcDbEntity
  8
0
100
AcDbLine
 10
428.4899999999999
 20
80.46311614474438
 30
0.0
 11
434.8899999999999
 21
80.46311614474438
 31
0.0
  0
LINE
  5
EA47
330
1A
100
AcDbEntity
  8
0
100
AcDbLine
 10
428.4899999999999
 20
78.86311614474436
 30
0.0
 11
434.8899999999999
 21
78.86311614474436
 31
0.0
  0
LINE
  5
EA48
330
1A
100
AcDbEntity
  8
0
100
AcDbLine
 10
430.1899999999998
 20
79.66311614474443
 30
0.0
 11
433.1899999999999
 21
79.66311614474443
 31
0.0
  0
LINE
  5
EA49
330
1A
100
AcDbEntity
  8
SUNPOU
100
AcDbLine
 10
433.1899999999999
 20
81.96311614474439
 30
0.0
 11
430.1899999999999
 21
84.96311614474439
 31
0.0
  0
LINE
  5
EA4A
330
1A
100
AcDbEntity
  8
SUNPOU
100
AcDbLine
 10
430.1899999999999
 20
81.96311614474439
 30
0.0
 11
433.1899999999999
 21
84.96311614474439
 31
0.0
  0
CIRCLE
  5
EA4B
330
1A
100
AcDbEntity
  8
0
100
AcDbCircle
 10
431.6899999999998
 20
83.46311614474428
 30
0.0
 40
2.75
  0
LINE
  5
EA4C
330
1A
100
AcDbEntity
  8
0
100
AcDbLine
 10
413.2499999999998
 20
80.46311614474427
 30
0.0
 11
413.2499999999998
 21
89.46311614474439
 31
0.0
  0
LINE
  5
EA4D
330
1A
100
AcDbEntity
  8
0
100
AcDbLine
 10
428.4899999999999
 20
89.46311614474439
 30
0.0
 11
428.4899999999999
 21
77.46311614474439
 31
0.0
  0
LINE
  5
EA4E
330
1A
100
AcDbEntity
  8
0
100
AcDbLine
 10
427.2699999999998
 20
89.46311614474439
 30
0.0
 11
427.2699999999998
 21
77.46311614474439
 31
0.0
  0
LINE
  5
EA4F
330
1A
100
AcDbEntity
  8
0
100
AcDbLine
 10
420.8699999999999
 20
89.46311614474439
 30
0.0
 11
420.8699999999999
 21
80.46311614474427
 31
0.0
  0
LINE
  5
EA50
330
1A
100
AcDbEntity
  8
0
100
AcDbLine
 10
419.6499999999998
 20
89.46311614474439
 30
0.0
 11
419.6499999999998
 21
80.46311614474427
 31
0.0
  0
CIRCLE
  5
EA51
330
1A
100
AcDbEntity
  8
0
100
AcDbCircle
 10
416.4499999999998
 20
83.46311614474428
 30
0.0
 40
1.25
  0
LINE
  5
EA52
330
1A
100
AcDbEntity
  8
0
100
AcDbLine
 10
414.9499999999997
 20
87.26311614474434
 30
0.0
 11
417.9499999999999
 21
87.26311614474434
 31
0.0
  0
LINE
  5
EA55
330
1A
100
AcDbEntity
  8
0
100
AcDbLine
 10
413.2499999999998
 20
80.46311614474438
 30
0.0
 11
419.6499999999999
 21
80.46311614474438
 31
0.0
  0
LINE
  5
EA56
330
1A
100
AcDbEntity
  8
0
100
AcDbLine
 10
413.2499999999998
 20
86.4631161447444
 30
0.0
 11
419.6499999999998
 21
86.4631161447444
 31
0.0
  0
LINE
  5
EA57
330
1A
100
AcDbEntity
  8
0
100
AcDbLine
 10
413.2499999999998
 20
88.06311614474441
 30
0.0
 11
419.6499999999998
 21
88.06311614474441
 31
0.0
  0
LINE
  5
EA58
330
1A
100
AcDbEntity
  8
0
100
AcDbLine
 10
414.9499999999998
 20
87.26311614474434
 30
0.0
 11
414.9499999999999
 21
86.4631161447444
 31
0.0
  0
LINE
  5
EA5A
330
1A
100
AcDbEntity
  8
0
100
AcDbLine
 10
422.5699999999998
 20
87.26311614474434
 30
0.0
 11
425.5699999999999
 21
87.26311614474434
 31
0.0
  0
LINE
  5
EA5B
330
1A
100
AcDbEntity
  8
0
100
AcDbLine
 10
420.8699999999998
 20
88.06311614474441
 30
0.0
 11
427.2699999999998
 21
88.06311614474441
 31
0.0
  0
LINE
  5
EA5C
330
1A
100
AcDbEntity
  8
0
100
AcDbLine
 10
420.8699999999998
 20
86.4631161447444
 30
0.0
 11
427.2699999999998
 21
86.4631161447444
 31
0.0
  0
LINE
  5
EA5D
330
1A
100
AcDbEntity
  8
0
100
AcDbLine
 10
422.9999999999998
 20
79.66311614474441
 30
0.0
 11
425.5699999999999
 21
79.66311614474443
 31
0.0
  0
LINE
  5
EA5E
330
1A
100
AcDbEntity
  8
0
100
AcDbLine
 10
420.8699999999998
 20
80.46311614474438
 30
0.0
 11
427.2699999999999
 21
80.46311614474438
 31
0.0
  0
LINE
  5
EA5F
330
1A
100
AcDbEntity
  8
0
100
AcDbLine
 10
422.9999999999998
 20
78.86311614474436
 30
0.0
 11
427.2699999999999
 21
78.86311614474436
 31
0.0
  0
LINE
  5
EA60
330
1A
100
AcDbEntity
  8
SUNPOU
100
AcDbLine
 10
425.5699999999999
 20
81.96311614474439
 30
0.0
 11
422.5699999999998
 21
84.96311614474439
 31
0.0
  0
LINE
  5
EA61
330
1A
100
AcDbEntity
  8
SUNPOU
100
AcDbLine
 10
422.5699999999998
 20
81.96311614474439
 30
0.0
 11
425.5699999999999
 21
84.96311614474439
 31
0.0
  0
CIRCLE
  5
EA62
330
1A
100
AcDbEntity
  8
0
100
AcDbCircle
 10
424.0699999999998
 20
83.46311614474428
 30
0.0
 40
2.75
  0
LINE
  5
EA63
330
1A
100
AcDbEntity
  8
0
100
AcDbLine
 10
422.5699999999998
 20
87.26311614474434
 30
0.0
 11
422.5699999999998
 21
86.4631161447444
 31
0.0
  0
LINE
  5
EA64
330
1A
100
AcDbEntity
  8
0
100
AcDbLine
 10
417.9499999999999
 20
87.26311614474434
 30
0.0
 11
417.9499999999999
 21
86.4631161447444
 31
0.0
  0
LINE
  5
EA67
330
1A
100
AcDbEntity
  8
0
100
AcDbLine
 10
430.1899999999998
 20
87.26311614474434
 30
0.0
 11
430.1899999999999
 21
86.4631161447444
 31
0.0
  0
LINE
  5
EA68
330
1A
100
AcDbEntity
  8
0
100
AcDbLine
 10
425.5699999999999
 20
87.26311614474434
 30
0.0
 11
425.5699999999999
 21
86.4631161447444
 31
0.0
  0
LINE
  5
EA69
330
1A
100
AcDbEntity
  8
0
100
AcDbLine
 10
430.1899999999998
 20
80.46311614474438
 30
0.0
 11
430.1899999999998
 21
79.66311614474443
 31
0.0
  0
LINE
  5
EA6A
330
1A
100
AcDbEntity
  8
0
100
AcDbLine
 10
425.5699999999999
 20
80.46311614474438
 30
0.0
 11
425.5699999999999
 21
79.66311614474443
 31
0.0
  0
LINE
  5
EA6B
330
1A
100
AcDbEntity
  8
0
100
AcDbLine
 10
457.7499999999998
 20
77.46311614474439
 30
0.0
 11
457.7499999999998
 21
89.46311614474439
 31
0.0
  0
LINE
  5
EA6C
330
1A
100
AcDbEntity
  8
0
100
AcDbLine
 10
442.5099999999998
 20
89.46311614474439
 30
0.0
 11
442.5099999999998
 21
77.46311614474439
 31
0.0
  0
LINE
  5
EA6D
330
1A
100
AcDbEntity
  8
0
100
AcDbLine
 10
450.1299999999998
 20
89.46311614474439
 30
0.0
 11
450.1299999999998
 21
77.46311614474439
 31
0.0
  0
LINE
  5
EA6E
330
1A
100
AcDbEntity
  8
0
100
AcDbLine
 10
451.3499999999999
 20
89.46311614474439
 30
0.0
 11
451.3499999999999
 21
77.46311614474439
 31
0.0
  0
LINE
  5
EA6F
330
1A
100
AcDbEntity
  8
0
100
AcDbLine
 10
443.7299999999999
 20
89.46311614474439
 30
0.0
 11
443.7299999999999
 21
77.46311614474439
 31
0.0
  0
LINE
  5
EA70
330
1A
100
AcDbEntity
  8
0
100
AcDbLine
 10
436.1099999999999
 20
89.46311614474439
 30
0.0
 11
436.1099999999999
 21
77.46311614474439
 31
0.0
  0
LINE
  5
EA71
330
1A
100
AcDbEntity
  8
0
100
AcDbLine
 10
434.8899999999998
 20
89.46311614474439
 30
0.0
 11
434.8899999999998
 21
77.46311614474439
 31
0.0
  0
CIRCLE
  5
EA72
330
1A
100
AcDbEntity
  8
0
100
AcDbCircle
 10
446.9299999999998
 20
83.46311614474428
 30
0.0
 40
2.75
  0
LINE
  5
EA73
330
1A
100
AcDbEntity
  8
0
100
AcDbLine
 10
443.7299999999999
 20
78.86311614474436
 30
0.0
 11
450.1299999999999
 21
78.86311614474436
 31
0.0
  0
LINE
  5
EA74
330
1A
100
AcDbEntity
  8
0
100
AcDbLine
 10
443.7299999999999
 20
80.46311614474438
 30
0.0
 11
450.1299999999999
 21
80.46311614474438
 31
0.0
  0
LINE
  5
EA75
330
1A
100
AcDbEntity
  8
0
100
AcDbLine
 10
443.7299999999999
 20
86.4631161447444
 30
0.0
 11
450.1299999999998
 21
86.4631161447444
 31
0.0
  0
LINE
  5
EA76
330
1A
100
AcDbEntity
  8
0
100
AcDbLine
 10
443.7299999999999
 20
88.06311614474441
 30
0.0
 11
450.1299999999998
 21
88.06311614474441
 31
0.0
  0
LINE
  5
EA77
330
1A
100
AcDbEntity
  8
0
100
AcDbLine
 10
436.1099999999999
 20
88.06311614474441
 30
0.0
 11
442.5099999999997
 21
88.06311614474441
 31
0.0
  0
LINE
  5
EA78
330
1A
100
AcDbEntity
  8
0
100
AcDbLine
 10
436.1099999999999
 20
86.4631161447444
 30
0.0
 11
442.5099999999997
 21
86.4631161447444
 31
0.0
  0
LINE
  5
EA79
330
1A
100
AcDbEntity
  8
0
100
AcDbLine
 10
437.8099999999998
 20
87.26311614474434
 30
0.0
 11
440.8099999999998
 21
87.26311614474434
 31
0.0
  0
LINE
  5
EA7A
330
1A
100
AcDbEntity
  8
0
100
AcDbLine
 10
436.1099999999998
 20
78.86311614474436
 30
0.0
 11
442.5099999999998
 21
78.86311614474436
 31
0.0
  0
LINE
  5
EA7B
330
1A
100
AcDbEntity
  8
0
100
AcDbLine
 10
436.1099999999998
 20
80.46311614474438
 30
0.0
 11
442.5099999999998
 21
80.46311614474438
 31
0.0
  0
LINE
  5
EA7C
330
1A
100
AcDbEntity
  8
0
100
AcDbLine
 10
437.8099999999998
 20
79.66311614474443
 30
0.0
 11
440.8099999999998
 21
79.66311614474443
 31
0.0
  0
LINE
  5
EA7D
330
1A
100
AcDbEntity
  8
SUNPOU
100
AcDbLine
 10
437.8099999999998
 20
81.96311614474439
 30
0.0
 11
440.8099999999998
 21
84.96311614474439
 31
0.0
  0
LINE
  5
EA7E
330
1A
100
AcDbEntity
  8
SUNPOU
100
AcDbLine
 10
440.8099999999998
 20
81.96311614474439
 30
0.0
 11
437.8099999999998
 21
84.96311614474439
 31
0.0
  0
CIRCLE
  5
EA7F
330
1A
100
AcDbEntity
  8
0
100
AcDbCircle
 10
439.3099999999998
 20
83.46311614474428
 30
0.0
 40
2.75
  0
LINE
  5
EA80
330
1A
100
AcDbEntity
  8
SUNPOU
100
AcDbLine
 10
435.4999999999998
 20
82.46311614474434
 30
0.0
 11
435.4999999999998
 21
84.46311614474433
 31
0.0
  0
LINE
  5
EA81
330
1A
100
AcDbEntity
  8
SUNPOU
100
AcDbLine
 10
434.8899999999998
 20
83.46311614474428
 30
0.0
 11
436.1099999999999
 21
83.46311614474428
 31
0.0
  0
LINE
  5
EA82
330
1A
100
AcDbEntity
  8
0
100
AcDbLine
 10
437.8099999999998
 20
87.26311614474434
 30
0.0
 11
437.8099999999998
 21
86.4631161447444
 31
0.0
  0
LINE
  5
EA83
330
1A
100
AcDbEntity
  8
0
100
AcDbLine
 10
433.1899999999999
 20
87.26311614474434
 30
0.0
 11
433.1899999999999
 21
86.4631161447444
 31
0.0
  0
LINE
  5
EA84
330
1A
100
AcDbEntity
  8
0
100
AcDbLine
 10
437.8099999999998
 20
80.46311614474438
 30
0.0
 11
437.8099999999998
 21
79.66311614474443
 31
0.0
  0
LINE
  5
EA85
330
1A
100
AcDbEntity
  8
0
100
AcDbLine
 10
433.1899999999999
 20
80.46311614474438
 30
0.0
 11
433.1899999999999
 21
79.66311614474443
 31
0.0
  0
LINE
  5
EA86
330
1A
100
AcDbEntity
  8
0
100
AcDbLine
 10
448.4299999999999
 20
80.46311614474438
 30
0.0
 11
448.4299999999999
 21
79.66311614474443
 31
0.0
  0
LINE
  5
EA87
330
1A
100
AcDbEntity
  8
0
100
AcDbLine
 10
448.4299999999999
 20
87.26311614474434
 30
0.0
 11
448.4299999999999
 21
86.4631161447444
 31
0.0
  0
LINE
  5
EA88
330
1A
100
AcDbEntity
  8
0
100
AcDbLine
 10
445.4299999999999
 20
80.46311614474438
 30
0.0
 11
445.4299999999999
 21
79.66311614474443
 31
0.0
  0
LINE
  5
EA89
330
1A
100
AcDbEntity
  8
0
100
AcDbLine
 10
445.4299999999999
 20
87.26311614474434
 30
0.0
 11
445.4299999999999
 21
86.4631161447444
 31
0.0
  0
LINE
  5
EA8A
330
1A
100
AcDbEntity
  8
SUNPOU
100
AcDbLine
 10
445.4299999999999
 20
81.96311614474439
 30
0.0
 11
448.4299999999999
 21
84.96311614474439
 31
0.0
  0
LINE
  5
EA8B
330
1A
100
AcDbEntity
  8
SUNPOU
100
AcDbLine
 10
448.4299999999999
 20
81.96311614474439
 30
0.0
 11
445.4299999999999
 21
84.96311614474439
 31
0.0
  0
LINE
  5
EA8C
330
1A
100
AcDbEntity
  8
0
100
AcDbLine
 10
445.4299999999998
 20
79.66311614474443
 30
0.0
 11
448.4299999999999
 21
79.66311614474443
 31
0.0
  0
LINE
  5
EA8D
330
1A
100
AcDbEntity
  8
0
100
AcDbLine
 10
445.4299999999998
 20
87.26311614474434
 30
0.0
 11
448.4299999999999
 21
87.26311614474434
 31
0.0
  0
LINE
  5
EA8E
330
1A
100
AcDbEntity
  8
0
100
AcDbLine
 10
440.8099999999998
 20
87.26311614474434
 30
0.0
 11
440.8099999999998
 21
86.4631161447444
 31
0.0
  0
LINE
  5
EA8F
330
1A
100
AcDbEntity
  8
0
100
AcDbLine
 10
440.8099999999998
 20
80.46311614474438
 30
0.0
 11
440.8099999999998
 21
79.66311614474443
 31
0.0
  0
LINE
  5
EA90
330
1A
100
AcDbEntity
  8
0
100
AcDbLine
 10
451.3499999999998
 20
80.46311614474438
 30
0.0
 11
457.7499999999998
 21
80.46311614474438
 31
0.0
  0
LINE
  5
EA91
330
1A
100
AcDbEntity
  8
0
100
AcDbLine
 10
451.3499999999998
 20
78.86311614474436
 30
0.0
 11
457.7499999999998
 21
78.86311614474436
 31
0.0
  0
LINE
  5
EA92
330
1A
100
AcDbEntity
  8
0
100
AcDbLine
 10
451.3499999999999
 20
86.4631161447444
 30
0.0
 11
457.7499999999997
 21
86.4631161447444
 31
0.0
  0
LINE
  5
EA93
330
1A
100
AcDbEntity
  8
0
100
AcDbLine
 10
451.3499999999999
 20
88.06311614474441
 30
0.0
 11
457.7499999999997
 21
88.06311614474441
 31
0.0
  0
CIRCLE
  5
EA94
330
1A
100
AcDbEntity
  8
0
100
AcDbCircle
 10
454.5499999999998
 20
83.46311614474439
 30
0.0
 40
1.25
  0
LINE
  5
EA95
330
1A
100
AcDbEntity
  8
0
100
AcDbLine
 10
456.0499999999998
 20
80.46311614474438
 30
0.0
 11
456.0499999999998
 21
79.66311614474443
 31
0.0
  0
LINE
  5
EA96
330
1A
100
AcDbEntity
  8
0
100
AcDbLine
 10
456.0499999999998
 20
87.26311614474434
 30
0.0
 11
456.0499999999998
 21
86.4631161447444
 31
0.0
  0
LINE
  5
EA97
330
1A
100
AcDbEntity
  8
0
100
AcDbLine
 10
453.0499999999998
 20
80.46311614474438
 30
0.0
 11
453.0499999999998
 21
79.66311614474443
 31
0.0
  0
LINE
  5
EA98
330
1A
100
AcDbEntity
  8
0
100
AcDbLine
 10
453.0499999999998
 20
87.26311614474434
 30
0.0
 11
453.0499999999998
 21
86.4631161447444
 31
0.0
  0
LINE
  5
EA99
330
1A
100
AcDbEntity
  8
0
100
AcDbLine
 10
453.0499999999998
 20
79.66311614474443
 30
0.0
 11
456.0499999999998
 21
79.66311614474443
 31
0.0
  0
LINE
  5
EA9A
330
1A
100
AcDbEntity
  8
0
100
AcDbLine
 10
453.0499999999998
 20
87.26311614474434
 30
0.0
 11
456.0499999999998
 21
87.26311614474434
 31
0.0
  0
LINE
  5
EA9D
330
1A
100
AcDbEntity
  8
0
100
AcDbLine
 10
654.35
 20
278.6131161447445
 30
0.0
 11
656.35
 21
278.6131161447445
 31
0.0
  0
LINE
  5
EA9E
330
1A
100
AcDbEntity
  8
0
100
AcDbLine
 10
654.3499999999998
 20
470.6131161447443
 30
0.0
 11
656.3499999999997
 21
470.6131161447443
 31
0.0
  0
LINE
  5
EAB3
330
1A
100
AcDbEntity
  8
SUNPOU
100
AcDbLine
 10
415.3499999999998
 20
306.1631161447445
 30
0.0
 11
420.6499999999998
 21
306.1631161447445
 31
0.0
  0
LINE
  5
EAB4
330
1A
100
AcDbEntity
  8
SUNPOU
100
AcDbLine
 10
415.0999999999998
 20
306.9131161447446
 30
0.0
 11
420.8999999999998
 21
306.9131161447446
 31
0.0
  0
LINE
  5
EAB5
330
1A
100
AcDbEntity
  8
SUNPOU
100
AcDbLine
 10
415.0999999999998
 20
307.4131161447446
 30
0.0
 11
420.8999999999998
 21
307.4131161447446
 31
0.0
  0
ELLIPSE
  5
EAB6
330
1A
100
AcDbEntity
  8
SUNPOU
100
AcDbEllipse
 10
417.9999999999998
 20
305.6631162608417
 30
0.0
 11
2.650000000000005
 21
-0.0000000000000005
 31
0.0
210
0.0
220
0.0
230
1.0
 40
0.596226458904585
 41
2.81960193203065
 42
6.605176028738728
  0
LINE
  5
EABA
330
1A
100
AcDbEntity
  8
SUNPOU
100
AcDbLine
 10
415.3499999999998
 20
306.1631161447445
 30
0.0
 11
415.3499999999999
 21
306.9131161447446
 31
0.0
  0
LINE
  5
EABB
330
1A
100
AcDbEntity
  8
SUNPOU
100
AcDbLine
 10
415.0999999999998
 20
306.9131161447446
 30
0.0
 11
415.0999999999998
 21
307.4131161447445
 31
0.0
  0
LINE
  5
EABF
330
1A
100
AcDbEntity
  8
SUNPOU
100
AcDbLine
 10
417.4251975435534
 20
306.9131161447446
 30
0.0
 11
418.1751975435536
 21
306.1631161447445
 31
0.0
  0
LINE
  5
EAC0
330
1A
100
AcDbEntity
  8
SUNPOU
100
AcDbLine
 10
417.7787509341467
 20
306.9131161447446
 30
0.0
 11
418.5287509341468
 21
306.1631161447445
 31
0.0
  0
LINE
  5
EAC1
330
1A
100
AcDbEntity
  8
SUNPOU
100
AcDbLine
 10
420.6499999999998
 20
306.1631161447445
 30
0.0
 11
420.6499999999998
 21
306.9131161447446
 31
0.0
  0
LINE
  5
EAC2
330
1A
100
AcDbEntity
  8
SUNPOU
100
AcDbLine
 10
420.8999999999998
 20
306.9131161447446
 30
0.0
 11
420.8999999999998
 21
307.4131161447446
 31
0.0
  0
LINE
  5
EAC5
330
1A
100
AcDbEntity
  8
SUNPOU
100
AcDbLine
 10
485.3500000000001
 20
306.1631161447445
 30
0.0
 11
490.6500000000001
 21
306.1631161447445
 31
0.0
  0
LINE
  5
EAC6
330
1A
100
AcDbEntity
  8
SUNPOU
100
AcDbLine
 10
485.1000000000001
 20
306.9131161447446
 30
0.0
 11
490.9
 21
306.9131161447446
 31
0.0
  0
LINE
  5
EAC7
330
1A
100
AcDbEntity
  8
SUNPOU
100
AcDbLine
 10
485.1000000000001
 20
307.4131161447446
 30
0.0
 11
490.9
 21
307.4131161447446
 31
0.0
  0
ELLIPSE
  5
EAC8
330
1A
100
AcDbEntity
  8
SUNPOU
100
AcDbEllipse
 10
488.0000000000001
 20
305.6631162608417
 30
0.0
 11
2.650000000000005
 21
-0.0000000000000005
 31
0.0
210
0.0
220
0.0
230
1.0
 40
0.596226458904585
 41
2.81960193203065
 42
6.605176028738728
  0
LINE
  5
EACC
330
1A
100
AcDbEntity
  8
SUNPOU
100
AcDbLine
 10
485.3500000000001
 20
306.1631161447445
 30
0.0
 11
485.3500000000001
 21
306.9131161447446
 31
0.0
  0
LINE
  5
EACD
330
1A
100
AcDbEntity
  8
SUNPOU
100
AcDbLine
 10
485.1000000000001
 20
306.9131161447446
 30
0.0
 11
485.1000000000001
 21
307.4131161447445
 31
0.0
  0
LINE
  5
EAD1
330
1A
100
AcDbEntity
  8
SUNPOU
100
AcDbLine
 10
487.4251975435536
 20
306.9131161447446
 30
0.0
 11
488.1751975435538
 21
306.1631161447445
 31
0.0
  0
LINE
  5
EAD2
330
1A
100
AcDbEntity
  8
SUNPOU
100
AcDbLine
 10
487.7787509341469
 20
306.9131161447446
 30
0.0
 11
488.528750934147
 21
306.1631161447445
 31
0.0
  0
LINE
  5
EAD3
330
1A
100
AcDbEntity
  8
SUNPOU
100
AcDbLine
 10
490.6500000000001
 20
306.1631161447445
 30
0.0
 11
490.6500000000001
 21
306.9131161447446
 31
0.0
  0
LINE
  5
EAD4
330
1A
100
AcDbEntity
  8
SUNPOU
100
AcDbLine
 10
490.9
 20
306.9131161447446
 30
0.0
 11
490.9
 21
307.4131161447446
 31
0.0
  0
LINE
  5
EAD7
330
1A
100
AcDbEntity
  8
SUNPOU
100
AcDbLine
 10
315.3499999999998
 20
306.1631161447445
 30
0.0
 11
320.6499999999999
 21
306.1631161447445
 31
0.0
  0
LINE
  5
EAD8
330
1A
100
AcDbEntity
  8
SUNPOU
100
AcDbLine
 10
315.0999999999999
 20
306.9131161447446
 30
0.0
 11
320.8999999999999
 21
306.9131161447446
 31
0.0
  0
LINE
  5
EAD9
330
1A
100
AcDbEntity
  8
SUNPOU
100
AcDbLine
 10
315.0999999999999
 20
307.4131161447446
 30
0.0
 11
320.8999999999999
 21
307.4131161447446
 31
0.0
  0
ELLIPSE
  5
EADA
330
1A
100
AcDbEntity
  8
SUNPOU
100
AcDbEllipse
 10
317.9999999999999
 20
305.6631162608417
 30
0.0
 11
2.650000000000005
 21
-0.0000000000000005
 31
0.0
210
0.0
220
0.0
230
1.0
 40
0.596226458904585
 41
2.81960193203065
 42
6.605176028738728
  0
LINE
  5
EADE
330
1A
100
AcDbEntity
  8
SUNPOU
100
AcDbLine
 10
315.3499999999998
 20
306.1631161447445
 30
0.0
 11
315.3499999999999
 21
306.9131161447446
 31
0.0
  0
LINE
  5
EADF
330
1A
100
AcDbEntity
  8
SUNPOU
100
AcDbLine
 10
315.0999999999999
 20
306.9131161447446
 30
0.0
 11
315.0999999999999
 21
307.4131161447445
 31
0.0
  0
LINE
  5
EAE3
330
1A
100
AcDbEntity
  8
SUNPOU
100
AcDbLine
 10
317.4251975435534
 20
306.9131161447446
 30
0.0
 11
318.1751975435536
 21
306.1631161447445
 31
0.0
  0
LINE
  5
EAE4
330
1A
100
AcDbEntity
  8
SUNPOU
100
AcDbLine
 10
317.7787509341467
 20
306.9131161447446
 30
0.0
 11
318.5287509341468
 21
306.1631161447445
 31
0.0
  0
LINE
  5
EAE5
330
1A
100
AcDbEntity
  8
SUNPOU
100
AcDbLine
 10
320.6499999999999
 20
306.1631161447445
 30
0.0
 11
320.6499999999999
 21
306.9131161447446
 31
0.0
  0
LINE
  5
EAE6
330
1A
100
AcDbEntity
  8
SUNPOU
100
AcDbLine
 10
320.8999999999999
 20
306.9131161447446
 30
0.0
 11
320.8999999999999
 21
307.4131161447446
 31
0.0
  0
LINE
  5
EAE9
330
1A
100
AcDbEntity
  8
SUNPOU
100
AcDbLine
 10
267.0999999999998
 20
151.2131161447443
 30
0.0
 11
272.3999999999999
 21
151.2131161447444
 31
0.0
  0
LINE
  5
EAEA
330
1A
100
AcDbEntity
  8
SUNPOU
100
AcDbLine
 10
266.8499999999999
 20
151.9631161447444
 30
0.0
 11
272.6499999999999
 21
151.9631161447444
 31
0.0
  0
LINE
  5
EAEB
330
1A
100
AcDbEntity
  8
SUNPOU
100
AcDbLine
 10
266.8499999999999
 20
152.4631161447444
 30
0.0
 11
272.6499999999999
 21
152.4631161447444
 31
0.0
  0
ELLIPSE
  5
EAEC
330
1A
100
AcDbEntity
  8
SUNPOU
100
AcDbEllipse
 10
269.7499999999999
 20
150.7131162608415
 30
0.0
 11
2.650000000000005
 21
-0.0000000000000005
 31
0.0
210
0.0
220
0.0
230
1.0
 40
0.596226458904585
 41
2.81960193203065
 42
6.605176028738728
  0
LINE
  5
EAF0
330
1A
100
AcDbEntity
  8
SUNPOU
100
AcDbLine
 10
267.0999999999998
 20
151.2131161447444
 30
0.0
 11
267.0999999999999
 21
151.9631161447444
 31
0.0
  0
LINE
  5
EAF1
330
1A
100
AcDbEntity
  8
SUNPOU
100
AcDbLine
 10
266.8499999999999
 20
151.9631161447444
 30
0.0
 11
266.8499999999999
 21
152.4631161447443
 31
0.0
  0
LINE
  5
EAF5
330
1A
100
AcDbEntity
  8
SUNPOU
100
AcDbLine
 10
269.1751975435535
 20
151.9631161447444
 30
0.0
 11
269.9251975435536
 21
151.2131161447444
 31
0.0
  0
LINE
  5
EAF6
330
1A
100
AcDbEntity
  8
SUNPOU
100
AcDbLine
 10
269.5287509341467
 20
151.9631161447444
 30
0.0
 11
270.2787509341468
 21
151.2131161447444
 31
0.0
  0
LINE
  5
EAF7
330
1A
100
AcDbEntity
  8
SUNPOU
100
AcDbLine
 10
272.3999999999999
 20
151.2131161447444
 30
0.0
 11
272.3999999999999
 21
151.9631161447444
 31
0.0
  0
LINE
  5
EAF8
330
1A
100
AcDbEntity
  8
SUNPOU
100
AcDbLine
 10
272.6499999999999
 20
151.9631161447444
 30
0.0
 11
272.6499999999999
 21
152.4631161447444
 31
0.0
  0
LINE
  5
EAFB
330
1A
100
AcDbEntity
  8
SUNPOU
100
AcDbLine
 10
350.3499999999998
 20
151.2131161447444
 30
0.0
 11
355.6499999999999
 21
151.2131161447445
 31
0.0
  0
LINE
  5
EAFC
330
1A
100
AcDbEntity
  8
SUNPOU
100
AcDbLine
 10
350.0999999999999
 20
151.9631161447445
 30
0.0
 11
355.8999999999999
 21
151.9631161447445
 31
0.0
  0
LINE
  5
EAFD
330
1A
100
AcDbEntity
  8
SUNPOU
100
AcDbLine
 10
350.0999999999999
 20
152.4631161447445
 30
0.0
 11
355.8999999999999
 21
152.4631161447445
 31
0.0
  0
ELLIPSE
  5
EAFE
330
1A
100
AcDbEntity
  8
SUNPOU
100
AcDbEllipse
 10
352.9999999999999
 20
150.7131162608416
 30
0.0
 11
2.650000000000005
 21
-0.0000000000000005
 31
0.0
210
0.0
220
0.0
230
1.0
 40
0.596226458904585
 41
2.81960193203065
 42
6.605176028738728
  0
LINE
  5
EB02
330
1A
100
AcDbEntity
  8
SUNPOU
100
AcDbLine
 10
350.3499999999998
 20
151.2131161447445
 30
0.0
 11
350.3499999999999
 21
151.9631161447445
 31
0.0
  0
LINE
  5
EB03
330
1A
100
AcDbEntity
  8
SUNPOU
100
AcDbLine
 10
350.0999999999999
 20
151.9631161447445
 30
0.0
 11
350.0999999999999
 21
152.4631161447444
 31
0.0
  0
LINE
  5
EB07
330
1A
100
AcDbEntity
  8
SUNPOU
100
AcDbLine
 10
352.4251975435535
 20
151.9631161447445
 30
0.0
 11
353.1751975435536
 21
151.2131161447445
 31
0.0
  0
LINE
  5
EB08
330
1A
100
AcDbEntity
  8
SUNPOU
100
AcDbLine
 10
352.7787509341467
 20
151.9631161447445
 30
0.0
 11
353.5287509341468
 21
151.2131161447445
 31
0.0
  0
LINE
  5
EB09
330
1A
100
AcDbEntity
  8
SUNPOU
100
AcDbLine
 10
355.6499999999999
 20
151.2131161447445
 30
0.0
 11
355.6499999999999
 21
151.9631161447445
 31
0.0
  0
LINE
  5
EB0A
330
1A
100
AcDbEntity
  8
SUNPOU
100
AcDbLine
 10
355.8999999999999
 20
151.9631161447445
 30
0.0
 11
355.8999999999999
 21
152.4631161447445
 31
0.0
  0
LINE
  5
EB0D
330
1A
100
AcDbEntity
  8
SUNPOU
100
AcDbLine
 10
433.5999999999998
 20
151.2131161447443
 30
0.0
 11
438.8999999999998
 21
151.2131161447444
 31
0.0
  0
LINE
  5
EB0E
330
1A
100
AcDbEntity
  8
SUNPOU
100
AcDbLine
 10
433.3499999999999
 20
151.9631161447444
 30
0.0
 11
439.1499999999998
 21
151.9631161447444
 31
0.0
  0
LINE
  5
EB0F
330
1A
100
AcDbEntity
  8
SUNPOU
100
AcDbLine
 10
433.3499999999999
 20
152.4631161447444
 30
0.0
 11
439.1499999999998
 21
152.4631161447444
 31
0.0
  0
ELLIPSE
  5
EB10
330
1A
100
AcDbEntity
  8
SUNPOU
100
AcDbEllipse
 10
436.2499999999998
 20
150.7131162608415
 30
0.0
 11
2.650000000000005
 21
-0.0000000000000005
 31
0.0
210
0.0
220
0.0
230
1.0
 40
0.596226458904585
 41
2.81960193203065
 42
6.605176028738728
  0
LINE
  5
EB14
330
1A
100
AcDbEntity
  8
SUNPOU
100
AcDbLine
 10
433.5999999999998
 20
151.2131161447444
 30
0.0
 11
433.5999999999999
 21
151.9631161447444
 31
0.0
  0
LINE
  5
EB15
330
1A
100
AcDbEntity
  8
SUNPOU
100
AcDbLine
 10
433.3499999999999
 20
151.9631161447444
 30
0.0
 11
433.3499999999999
 21
152.4631161447443
 31
0.0
  0
LINE
  5
EB19
330
1A
100
AcDbEntity
  8
SUNPOU
100
AcDbLine
 10
435.6751975435535
 20
151.9631161447444
 30
0.0
 11
436.4251975435535
 21
151.2131161447444
 31
0.0
  0
LINE
  5
EB1A
330
1A
100
AcDbEntity
  8
SUNPOU
100
AcDbLine
 10
436.0287509341467
 20
151.9631161447444
 30
0.0
 11
436.7787509341467
 21
151.2131161447444
 31
0.0
  0
LINE
  5
EB1B
330
1A
100
AcDbEntity
  8
SUNPOU
100
AcDbLine
 10
438.8999999999998
 20
151.2131161447444
 30
0.0
 11
438.8999999999998
 21
151.9631161447444
 31
0.0
  0
LINE
  5
EB1C
330
1A
100
AcDbEntity
  8
SUNPOU
100
AcDbLine
 10
439.1499999999998
 20
151.9631161447444
 30
0.0
 11
439.1499999999998
 21
152.4631161447444
 31
0.0
  0
MTEXT
  5
EB30
102
{ACAD_REACTORS
330
EB31
102
}
330
1A
100
AcDbEntity
  8
SUNPOU
100
AcDbMText
 10
548.20225804737
 20
507.2131163885082
 30
0.0
 40
8.0
 41
0.0
 71
     1
 72
     1
  1
４－φ７取り付け穴
 73
     1
 44
1.0
1001
ACAD
1000
MTEXTBEGIN
1070
    73
1070
     1
1070
    44
1040
1.0
1070
    74
1070
     0
1000
MTEXTEND
  0
LEADER
  5
EB31
330
1A
100
AcDbEntity
  8
SUNPOU
100
AcDbLeader
  3
STANDARD
 73
     0
 74
     0
 75
     1
 40
8.0
 41
85.33333333333331
 76
     3
 10
514.70225804737
 20
465.7131163885083
 30
0.0
 10
542.20225804737
 20
504.2131163885081
 30
0.0
 10
547.20225804737
 20
504.2131163885081
 30
0.0
340
EB30
213
0.0
223
-3.0
233
0.0
1001
ACAD
1000
DSTYLE
1002
{
1070
    41
1040
5.0
1070
    42
1040
0.5
1070
    43
1040
10.0
1070
    44
1040
0.5
1070
    73
1070
     0
1070
    74
1070
     0
1070
   140
1040
6.0
1070
   141
1040
0.0
1070
   147
1040
1.0
1070
   173
1070
     1
1070
   271
1070
     2
1070
   272
1070
     2
1070
   343
1005
BA
1070
   344
1005
BA
1002
}
  0
DIMENSION
  5
EB4D
330
1A
100
AcDbEntity
  8
SUNPOU
100
AcDbDimension
  2
*D19
 10
527.9999999999999
 20
520.0
 30
0.0
 11
352.9999999999998
 21
524.0
 31
0.0
 70
    32
 71
     5
 42
350.0000000000001
  3
STANDARD
100
AcDbAlignedDimension
 13
177.9999999999998
 23
441.1131161447444
 33
0.0
 14
527.9999999999999
 24
441.1131161447444
 34
0.0
100
AcDbRotatedDimension
1001
ACAD
1000
DSTYLE
1002
{
1070
    41
1040
5.0
1070
    42
1040
0.5
1070
    43
1040
10.0
1070
    44
1040
0.5
1070
    73
1070
     0
1070
    74
1070
     0
1070
    77
1070
     1
1070
   140
1040
6.0
1070
   141
1040
0.0
1070
   147
1040
1.0
1070
   173
1070
     1
1070
   271
1070
     0
1070
   272
1070
     2
1070
   343
1005
BA
1070
   344
1005
BA
1002
}
  0
DIMENSION
  5
EC05
330
1A
100
AcDbEntity
  8
SUNPOU
100
AcDbDimension
  2
*D20
 10
656.35
 20
255.0
 30
0.0
 11
636.8499999999999
 21
259.0
 31
0.0
 70
    32
 71
     5
 42
39.00000000000011
  3
STANDARD
100
AcDbAlignedDimension
 13
617.3499999999998
 23
277.4131161447448
 33
0.0
 14
656.35
 24
276.6131161447445
 34
0.0
100
AcDbRotatedDimension
1001
ACAD
1000
DSTYLE
1002
{
1070
    41
1040
5.0
1070
    42
1040
0.5
1070
    43
1040
10.0
1070
    44
1040
0.5
1070
    73
1070
     0
1070
    74
1070
     0
1070
    77
1070
     1
1070
   140
1040
6.0
1070
   141
1040
0.0
1070
   147
1040
1.0
1070
   173
1070
     1
1070
   271
1070
     0
1070
   272
1070
     2
1070
   343
1005
BA
1070
   344
1005
BA
1002
}
  0
LINE
  5
EC41
330
1A
100
AcDbEntity
  8
0
100
AcDbLine
 10
456.6743549430321
 20
396.6080511675764
 30
0.0
 11
453.3720887696937
 21
377.8799690551838
 31
0.0
  0
LINE
  5
EC42
330
1A
100
AcDbEntity
  8
0
100
AcDbLine
 10
424.6190534714859
 20
398.5181811219126
 30
0.0
 11
420.9653161772171
 21
377.796807231267
 31
0.0
  0
LINE
  5
EC43
330
1A
100
AcDbEntity
  8
0
100
AcDbLine
 10
451.166777188297
 20
397.0462632343052
 30
0.0
 11
447.7725787310007
 21
377.796807231267
 31
0.0
  0
LINE
  5
EC44
330
1A
100
AcDbEntity
  8
0
100
AcDbLine
 10
429.9590246732063
 20
397.129425058222
 30
0.0
 11
426.5648262159102
 21
377.8799690551838
 31
0.0
  0
CIRCLE
  5
EC45
330
1A
100
AcDbEntity
  8
0
100
AcDbCircle
 10
453.4499999999997
 20
348.9631161447445
 30
0.0
 40
2.75
  0
LINE
  5
EC47
330
1A
100
AcDbEntity
  8
0
100
AcDbLine
 10
421.9420876985344
 20
346.1631161447446
 30
0.0
 11
443.1645038869466
 21
346.1631161447445
 31
0.0
  0
LINE
  5
EC48
330
1A
100
AcDbEntity
  8
0
100
AcDbLine
 10
422.4669138982249
 20
351.6631161447445
 30
0.0
 11
442.724122416354
 21
351.6631161447445
 31
0.0
  0
LINE
  5
EC49
330
1A
100
AcDbEntity
  8
0
100
AcDbLine
 10
425.4274212689988
 20
371.4294250582221
 30
0.0
 11
422.0332228117026
 21
352.1799690551838
 31
0.0
  0
LINE
  5
EC4A
330
1A
100
AcDbEntity
  8
0
100
AcDbLine
 10
423.2379496350664
 20
375.0883881432254
 30
0.0
 11
420.9653161772171
 21
377.796807231267
 31
0.0
  0
LINE
  5
EC4B
330
1A
100
AcDbEntity
  8
0
100
AcDbLine
 10
425.4274212689988
 20
371.4294250582221
 30
0.0
 11
423.1547878111496
 21
374.1378441462637
 31
0.0
  0
LINE
  5
EC4C
330
1A
100
AcDbEntity
  8
0
100
AcDbLine
 10
419.8279112303057
 20
371.3462632343053
 30
0.0
 11
416.5256450569674
 21
352.6181811219126
 31
0.0
  0
ARC
  5
EC4D
330
1A
100
AcDbEntity
  8
0
100
AcDbCircle
 10
421.9420876985344
 20
351.6631161447445
 30
0.0
 40
5.5
100
AcDbArc
 50
223.5165406301832
 51
270.0
  0
ARC
  5
EC4E
330
1A
100
AcDbEntity
  8
0
100
AcDbCircle
 10
421.9420876985344
 20
351.6631161447445
 30
0.0
 40
5.5
100
AcDbArc
 50
170.0000000000014
 51
216.4834593698152
  0
LINE
  5
EC4F
330
1A
100
AcDbEntity
  8
0
100
AcDbLine
 10
417.5199306977882
 20
348.3928673070029
 30
0.0
 11
422.0332228117026
 21
352.1799690551838
 31
0.0
  0
LINE
  5
EC50
330
1A
100
AcDbEntity
  8
0
100
AcDbLine
 10
417.9536217843105
 20
347.8760143965636
 30
0.0
 11
422.466913898225
 21
351.6631161447445
 31
0.0
  0
LINE
  5
EC51
330
1A
100
AcDbEntity
  8
0
100
AcDbLine
 10
419.8279112303056
 20
371.3462632343052
 30
0.0
 11
423.1547878111496
 21
374.1378441462637
 31
0.0
  0
LINE
  5
EC52
330
1A
100
AcDbEntity
  8
0
100
AcDbLine
 10
452.2346838227824
 20
371.429425058222
 30
0.0
 11
448.5809465285136
 21
350.7080511675764
 31
0.0
  0
LINE
  5
EC53
330
1A
100
AcDbEntity
  8
0
100
AcDbLine
 10
446.6351737840894
 20
371.3462632343052
 30
0.0
 11
443.2409753267932
 21
352.0968072312669
 31
0.0
  0
ARC
  5
EC54
330
1A
100
AcDbEntity
  8
0
100
AcDbCircle
 10
443.1645038869466
 20
351.6631161447445
 30
0.0
 40
5.5
100
AcDbArc
 50
270.0
 51
306.4834593698152
  0
ARC
  5
EC55
330
1A
100
AcDbEntity
  8
0
100
AcDbCircle
 10
443.1645038869466
 20
351.6631161447445
 30
0.0
 40
5.5
100
AcDbArc
 50
313.5165406301832
 51
350.0000000000014
  0
LINE
  5
EC56
330
1A
100
AcDbEntity
  8
0
100
AcDbLine
 10
446.4347527246882
 20
347.2409591439982
 30
0.0
 11
442.724122416354
 21
351.6631161447445
 31
0.0
  0
LINE
  5
EC57
330
1A
100
AcDbEntity
  8
0
100
AcDbLine
 10
446.9516056351275
 20
347.6746502305207
 30
0.0
 11
443.2409753267931
 21
352.0968072312671
 31
0.0
  0
LINE
  5
EC58
330
1A
100
AcDbEntity
  8
0
100
AcDbLine
 10
425.9442741794382
 20
371.8631161447445
 30
0.0
 11
446.201482697567
 21
371.8631161447445
 31
0.0
  0
LINE
  5
EC59
330
1A
100
AcDbEntity
  8
0
100
AcDbLine
 10
426.9985173024324
 20
377.3631161447445
 30
0.0
 11
447.2557258205617
 21
377.3631161447445
 31
0.0
  0
LINE
  5
EC5A
330
1A
100
AcDbEntity
  8
0
100
AcDbLine
 10
423.2379496350664
 20
375.0883881432254
 30
0.0
 11
426.5648262159102
 21
377.8799690551839
 31
0.0
  0
LINE
  5
EC5B
330
1A
100
AcDbEntity
  8
0
100
AcDbLine
 10
423.6716407215888
 20
374.5715352327862
 30
0.0
 11
426.9985173024324
 21
377.3631161447444
 31
0.0
  0
LINE
  5
EC5C
330
1A
100
AcDbEntity
  8
0
100
AcDbLine
 10
425.9442741794382
 20
371.8631161447445
 30
0.0
 11
423.6716407215888
 21
374.5715352327863
 31
0.0
  0
LINE
  5
EC5F
330
1A
100
AcDbEntity
  8
0
100
AcDbLine
 10
449.5283592784107
 20
374.654697056703
 30
0.0
 11
447.2557258205617
 21
377.3631161447445
 31
0.0
  0
LINE
  5
EC60
330
1A
100
AcDbEntity
  8
0
100
AcDbLine
 10
446.201482697567
 20
371.8631161447445
 30
0.0
 11
449.5283592784107
 21
374.654697056703
 31
0.0
  0
LINE
  5
EC61
330
1A
100
AcDbEntity
  8
0
100
AcDbLine
 10
446.6351737840894
 20
371.3462632343053
 30
0.0
 11
449.9620503649333
 21
374.1378441462637
 31
0.0
  0
LINE
  5
EC62
330
1A
100
AcDbEntity
  8
0
100
AcDbLine
 10
450.0452121888501
 20
375.0883881432255
 30
0.0
 11
447.7725787310007
 21
377.796807231267
 31
0.0
  0
LINE
  5
EC63
330
1A
100
AcDbEntity
  8
0
100
AcDbLine
 10
450.0452121888501
 20
375.0883881432255
 30
0.0
 11
453.3720887696937
 21
377.8799690551837
 31
0.0
  0
LINE
  5
EC64
330
1A
100
AcDbEntity
  8
0
100
AcDbLine
 10
452.2346838227824
 20
371.4294250582221
 30
0.0
 11
449.9620503649333
 21
374.1378441462637
 31
0.0
  0
ARC
  5
EC66
330
1A
100
AcDbEntity
  8
0
100
AcDbCircle
 10
451.2579123014651
 20
397.5631161447445
 30
0.0
 40
5.5
100
AcDbArc
 50
350.0000000000014
 51
36.48345936981517
  0
LINE
  5
EC67
330
1A
100
AcDbEntity
  8
0
100
AcDbLine
 10
430.035496113053
 20
403.0631161447444
 30
0.0
 11
451.2579123014651
 21
403.0631161447444
 31
0.0
  0
LINE
  5
EC68
330
1A
100
AcDbEntity
  8
0
100
AcDbLine
 10
430.4758775836456
 20
397.5631161447444
 30
0.0
 11
450.7330861017743
 21
397.5631161447444
 31
0.0
  0
ARC
  5
EC69
330
1A
100
AcDbEntity
  8
0
100
AcDbCircle
 10
430.035496113053
 20
397.5631161447445
 30
0.0
 40
5.5
100
AcDbArc
 50
133.5165406301831
 51
170.0000000000014
  0
ARC
  5
EC6A
330
1A
100
AcDbEntity
  8
0
100
AcDbCircle
 10
430.035496113053
 20
397.5631161447445
 30
0.0
 40
5.5
100
AcDbArc
 50
90.0
 51
126.4834593698151
  0
LINE
  5
EC6B
330
1A
100
AcDbEntity
  8
0
100
AcDbLine
 10
430.4758775836456
 20
397.5631161447444
 30
0.0
 11
426.7652472753113
 21
401.9852731454907
 31
0.0
  0
LINE
  5
EC6C
330
1A
100
AcDbEntity
  8
0
100
AcDbLine
 10
429.9590246732064
 20
397.129425058222
 30
0.0
 11
426.248394364872
 21
401.5515820589682
 31
0.0
  0
ARC
  5
EC6D
330
1A
100
AcDbEntity
  8
0
100
AcDbCircle
 10
451.2579123014651
 20
397.5631161447445
 30
0.0
 40
5.5
100
AcDbArc
 50
43.51654063018317
 51
90.0
  0
LINE
  5
EC6E
330
1A
100
AcDbEntity
  8
0
100
AcDbLine
 10
450.7330861017744
 20
397.5631161447445
 30
0.0
 11
455.2463782156889
 21
401.3502178929254
 31
0.0
  0
LINE
  5
EC6F
330
1A
100
AcDbEntity
  8
0
100
AcDbLine
 10
451.166777188297
 20
397.0462632343052
 30
0.0
 11
455.6800693022114
 21
400.8333649824861
 31
0.0
  0
LINE
  5
EC72
330
1A
100
AcDbEntity
  8
0
100
AcDbLine
 10
304.2743549430323
 20
396.6080511675764
 30
0.0
 11
300.9720887696939
 21
377.8799690551838
 31
0.0
  0
LINE
  5
EC73
330
1A
100
AcDbEntity
  8
0
100
AcDbLine
 10
272.2190534714861
 20
398.5181811219126
 30
0.0
 11
268.5653161772173
 21
377.796807231267
 31
0.0
  0
LINE
  5
EC74
330
1A
100
AcDbEntity
  8
0
100
AcDbLine
 10
298.7667771882971
 20
397.0462632343052
 30
0.0
 11
295.3725787310009
 21
377.796807231267
 31
0.0
  0
LINE
  5
EC75
330
1A
100
AcDbEntity
  8
0
100
AcDbLine
 10
277.5590246732065
 20
397.129425058222
 30
0.0
 11
274.1648262159103
 21
377.8799690551838
 31
0.0
  0
CIRCLE
  5
EC76
330
1A
100
AcDbEntity
  8
0
100
AcDbCircle
 10
301.0499999999999
 20
348.9631161447445
 30
0.0
 40
2.75
  0
LINE
  5
EC78
330
1A
100
AcDbEntity
  8
0
100
AcDbLine
 10
269.5420876985346
 20
346.1631161447446
 30
0.0
 11
290.7645038869467
 21
346.1631161447445
 31
0.0
  0
LINE
  5
EC79
330
1A
100
AcDbEntity
  8
0
100
AcDbLine
 10
270.0669138982251
 20
351.6631161447445
 30
0.0
 11
290.3241224163542
 21
351.6631161447445
 31
0.0
  0
LINE
  5
EC7A
330
1A
100
AcDbEntity
  8
0
100
AcDbLine
 10
273.027421268999
 20
371.4294250582221
 30
0.0
 11
269.6332228117028
 21
352.1799690551838
 31
0.0
  0
LINE
  5
EC7B
330
1A
100
AcDbEntity
  8
0
100
AcDbLine
 10
270.8379496350666
 20
375.0883881432254
 30
0.0
 11
268.5653161772173
 21
377.796807231267
 31
0.0
  0
LINE
  5
EC7C
330
1A
100
AcDbEntity
  8
0
100
AcDbLine
 10
273.027421268999
 20
371.4294250582221
 30
0.0
 11
270.7547878111498
 21
374.1378441462637
 31
0.0
  0
LINE
  5
EC7D
330
1A
100
AcDbEntity
  8
0
100
AcDbLine
 10
267.4279112303059
 20
371.3462632343053
 30
0.0
 11
264.1256450569675
 21
352.6181811219126
 31
0.0
  0
ARC
  5
EC7E
330
1A
100
AcDbEntity
  8
0
100
AcDbCircle
 10
269.5420876985346
 20
351.6631161447445
 30
0.0
 40
5.5
100
AcDbArc
 50
223.5165406301832
 51
270.0
  0
ARC
  5
EC7F
330
1A
100
AcDbEntity
  8
0
100
AcDbCircle
 10
269.5420876985346
 20
351.6631161447445
 30
0.0
 40
5.5
100
AcDbArc
 50
170.0000000000014
 51
216.4834593698152
  0
LINE
  5
EC80
330
1A
100
AcDbEntity
  8
0
100
AcDbLine
 10
265.1199306977883
 20
348.3928673070029
 30
0.0
 11
269.6332228117027
 21
352.1799690551838
 31
0.0
  0
LINE
  5
EC81
330
1A
100
AcDbEntity
  8
0
100
AcDbLine
 10
265.5536217843107
 20
347.8760143965636
 30
0.0
 11
270.0669138982251
 21
351.6631161447445
 31
0.0
  0
LINE
  5
EC82
330
1A
100
AcDbEntity
  8
0
100
AcDbLine
 10
267.4279112303058
 20
371.3462632343052
 30
0.0
 11
270.7547878111498
 21
374.1378441462637
 31
0.0
  0
LINE
  5
EC83
330
1A
100
AcDbEntity
  8
0
100
AcDbLine
 10
299.8346838227826
 20
371.429425058222
 30
0.0
 11
296.1809465285138
 21
350.7080511675764
 31
0.0
  0
LINE
  5
EC84
330
1A
100
AcDbEntity
  8
0
100
AcDbLine
 10
294.2351737840896
 20
371.3462632343052
 30
0.0
 11
290.8409753267934
 21
352.0968072312669
 31
0.0
  0
ARC
  5
EC85
330
1A
100
AcDbEntity
  8
0
100
AcDbCircle
 10
290.7645038869467
 20
351.6631161447445
 30
0.0
 40
5.5
100
AcDbArc
 50
270.0
 51
306.4834593698152
  0
ARC
  5
EC86
330
1A
100
AcDbEntity
  8
0
100
AcDbCircle
 10
290.7645038869467
 20
351.6631161447445
 30
0.0
 40
5.5
100
AcDbArc
 50
313.5165406301832
 51
350.0000000000014
  0
LINE
  5
EC87
330
1A
100
AcDbEntity
  8
0
100
AcDbLine
 10
294.0347527246884
 20
347.2409591439982
 30
0.0
 11
290.3241224163542
 21
351.6631161447445
 31
0.0
  0
LINE
  5
EC88
330
1A
100
AcDbEntity
  8
0
100
AcDbLine
 10
294.5516056351277
 20
347.6746502305207
 30
0.0
 11
290.8409753267933
 21
352.0968072312671
 31
0.0
  0
LINE
  5
EC89
330
1A
100
AcDbEntity
  8
0
100
AcDbLine
 10
273.5442741794383
 20
371.8631161447445
 30
0.0
 11
293.8014826975671
 21
371.8631161447445
 31
0.0
  0
LINE
  5
EC8A
330
1A
100
AcDbEntity
  8
0
100
AcDbLine
 10
274.5985173024326
 20
377.3631161447445
 30
0.0
 11
294.8557258205619
 21
377.3631161447445
 31
0.0
  0
LINE
  5
EC8B
330
1A
100
AcDbEntity
  8
0
100
AcDbLine
 10
270.8379496350666
 20
375.0883881432254
 30
0.0
 11
274.1648262159103
 21
377.8799690551839
 31
0.0
  0
LINE
  5
EC8C
330
1A
100
AcDbEntity
  8
0
100
AcDbLine
 10
271.2716407215889
 20
374.5715352327862
 30
0.0
 11
274.5985173024326
 21
377.3631161447444
 31
0.0
  0
LINE
  5
EC8D
330
1A
100
AcDbEntity
  8
0
100
AcDbLine
 10
273.5442741794383
 20
371.8631161447445
 30
0.0
 11
271.2716407215891
 21
374.5715352327863
 31
0.0
  0
LINE
  5
EC90
330
1A
100
AcDbEntity
  8
0
100
AcDbLine
 10
297.1283592784109
 20
374.654697056703
 30
0.0
 11
294.8557258205618
 21
377.3631161447445
 31
0.0
  0
LINE
  5
EC91
330
1A
100
AcDbEntity
  8
0
100
AcDbLine
 10
293.8014826975671
 20
371.8631161447445
 30
0.0
 11
297.1283592784109
 21
374.654697056703
 31
0.0
  0
LINE
  5
EC92
330
1A
100
AcDbEntity
  8
0
100
AcDbLine
 10
294.2351737840896
 20
371.3462632343053
 30
0.0
 11
297.5620503649334
 21
374.1378441462637
 31
0.0
  0
LINE
  5
EC93
330
1A
100
AcDbEntity
  8
0
100
AcDbLine
 10
297.6452121888502
 20
375.0883881432255
 30
0.0
 11
295.3725787310009
 21
377.796807231267
 31
0.0
  0
LINE
  5
EC94
330
1A
100
AcDbEntity
  8
0
100
AcDbLine
 10
297.6452121888502
 20
375.0883881432255
 30
0.0
 11
300.9720887696939
 21
377.8799690551837
 31
0.0
  0
LINE
  5
EC95
330
1A
100
AcDbEntity
  8
0
100
AcDbLine
 10
299.8346838227826
 20
371.4294250582221
 30
0.0
 11
297.5620503649334
 21
374.1378441462637
 31
0.0
  0
ARC
  5
EC97
330
1A
100
AcDbEntity
  8
0
100
AcDbCircle
 10
298.8579123014653
 20
397.5631161447445
 30
0.0
 40
5.5
100
AcDbArc
 50
350.0000000000014
 51
36.48345936981517
  0
LINE
  5
EC98
330
1A
100
AcDbEntity
  8
0
100
AcDbLine
 10
277.6354961130532
 20
403.0631161447444
 30
0.0
 11
298.8579123014653
 21
403.0631161447444
 31
0.0
  0
LINE
  5
EC99
330
1A
100
AcDbEntity
  8
0
100
AcDbLine
 10
278.0758775836457
 20
397.5631161447444
 30
0.0
 11
298.3330861017745
 21
397.5631161447444
 31
0.0
  0
ARC
  5
EC9A
330
1A
100
AcDbEntity
  8
0
100
AcDbCircle
 10
277.6354961130532
 20
397.5631161447445
 30
0.0
 40
5.5
100
AcDbArc
 50
133.5165406301831
 51
170.0000000000014
  0
ARC
  5
EC9B
330
1A
100
AcDbEntity
  8
0
100
AcDbCircle
 10
277.6354961130532
 20
397.5631161447445
 30
0.0
 40
5.5
100
AcDbArc
 50
90.0
 51
126.4834593698151
  0
LINE
  5
EC9C
330
1A
100
AcDbEntity
  8
0
100
AcDbLine
 10
278.0758775836457
 20
397.5631161447444
 30
0.0
 11
274.3652472753115
 21
401.9852731454907
 31
0.0
  0
LINE
  5
EC9D
330
1A
100
AcDbEntity
  8
0
100
AcDbLine
 10
277.5590246732065
 20
397.129425058222
 30
0.0
 11
273.8483943648722
 21
401.5515820589682
 31
0.0
  0
ARC
  5
EC9E
330
1A
100
AcDbEntity
  8
0
100
AcDbCircle
 10
298.8579123014653
 20
397.5631161447445
 30
0.0
 40
5.5
100
AcDbArc
 50
43.51654063018317
 51
90.0
  0
LINE
  5
EC9F
330
1A
100
AcDbEntity
  8
0
100
AcDbLine
 10
298.3330861017746
 20
397.5631161447445
 30
0.0
 11
302.8463782156891
 21
401.3502178929254
 31
0.0
  0
LINE
  5
ECA0
330
1A
100
AcDbEntity
  8
0
100
AcDbLine
 10
298.7667771882971
 20
397.0462632343052
 30
0.0
 11
303.2800693022115
 21
400.8333649824861
 31
0.0
  0
LINE
  5
ECA3
330
1A
100
AcDbEntity
  8
0
100
AcDbLine
 10
253.4743549430323
 20
396.6080511675764
 30
0.0
 11
250.172088769694
 21
377.8799690551838
 31
0.0
  0
LINE
  5
ECA4
330
1A
100
AcDbEntity
  8
0
100
AcDbLine
 10
221.4190534714861
 20
398.5181811219126
 30
0.0
 11
217.7653161772174
 21
377.796807231267
 31
0.0
  0
LINE
  5
ECA5
330
1A
100
AcDbEntity
  8
0
100
AcDbLine
 10
247.9667771882972
 20
397.0462632343052
 30
0.0
 11
244.572578731001
 21
377.796807231267
 31
0.0
  0
LINE
  5
ECA6
330
1A
100
AcDbEntity
  8
0
100
AcDbLine
 10
226.7590246732065
 20
397.129425058222
 30
0.0
 11
223.3648262159104
 21
377.8799690551838
 31
0.0
  0
CIRCLE
  5
ECA7
330
1A
100
AcDbEntity
  8
0
100
AcDbCircle
 10
250.2499999999999
 20
348.9631161447445
 30
0.0
 40
2.75
  0
LINE
  5
ECA9
330
1A
100
AcDbEntity
  8
0
100
AcDbLine
 10
218.7420876985346
 20
346.1631161447446
 30
0.0
 11
239.9645038869468
 21
346.1631161447445
 31
0.0
  0
LINE
  5
ECAA
330
1A
100
AcDbEntity
  8
0
100
AcDbLine
 10
219.2669138982251
 20
351.6631161447445
 30
0.0
 11
239.5241224163543
 21
351.6631161447445
 31
0.0
  0
LINE
  5
ECAB
330
1A
100
AcDbEntity
  8
0
100
AcDbLine
 10
222.227421268999
 20
371.4294250582221
 30
0.0
 11
218.8332228117029
 21
352.1799690551838
 31
0.0
  0
LINE
  5
ECAC
330
1A
100
AcDbEntity
  8
0
100
AcDbLine
 10
220.0379496350667
 20
375.0883881432254
 30
0.0
 11
217.7653161772174
 21
377.796807231267
 31
0.0
  0
LINE
  5
ECAD
330
1A
100
AcDbEntity
  8
0
100
AcDbLine
 10
222.227421268999
 20
371.4294250582221
 30
0.0
 11
219.9547878111498
 21
374.1378441462637
 31
0.0
  0
LINE
  5
ECAE
330
1A
100
AcDbEntity
  8
0
100
AcDbLine
 10
216.6279112303059
 20
371.3462632343053
 30
0.0
 11
213.3256450569676
 21
352.6181811219126
 31
0.0
  0
ARC
  5
ECAF
330
1A
100
AcDbEntity
  8
0
100
AcDbCircle
 10
218.7420876985346
 20
351.6631161447445
 30
0.0
 40
5.5
100
AcDbArc
 50
223.5165406301832
 51
270.0
  0
ARC
  5
ECB0
330
1A
100
AcDbEntity
  8
0
100
AcDbCircle
 10
218.7420876985346
 20
351.6631161447445
 30
0.0
 40
5.5
100
AcDbArc
 50
170.0000000000014
 51
216.4834593698152
  0
LINE
  5
ECB1
330
1A
100
AcDbEntity
  8
0
100
AcDbLine
 10
214.3199306977884
 20
348.3928673070029
 30
0.0
 11
218.8332228117028
 21
352.1799690551838
 31
0.0
  0
LINE
  5
ECB2
330
1A
100
AcDbEntity
  8
0
100
AcDbLine
 10
214.7536217843108
 20
347.8760143965636
 30
0.0
 11
219.2669138982252
 21
351.6631161447445
 31
0.0
  0
LINE
  5
ECB3
330
1A
100
AcDbEntity
  8
0
100
AcDbLine
 10
216.6279112303059
 20
371.3462632343052
 30
0.0
 11
219.9547878111498
 21
374.1378441462637
 31
0.0
  0
LINE
  5
ECB4
330
1A
100
AcDbEntity
  8
0
100
AcDbLine
 10
249.0346838227826
 20
371.429425058222
 30
0.0
 11
245.3809465285138
 21
350.7080511675764
 31
0.0
  0
LINE
  5
ECB5
330
1A
100
AcDbEntity
  8
0
100
AcDbLine
 10
243.4351737840896
 20
371.3462632343052
 30
0.0
 11
240.0409753267934
 21
352.0968072312669
 31
0.0
  0
ARC
  5
ECB6
330
1A
100
AcDbEntity
  8
0
100
AcDbCircle
 10
239.9645038869468
 20
351.6631161447445
 30
0.0
 40
5.5
100
AcDbArc
 50
270.0
 51
306.4834593698152
  0
ARC
  5
ECB7
330
1A
100
AcDbEntity
  8
0
100
AcDbCircle
 10
239.9645038869468
 20
351.6631161447445
 30
0.0
 40
5.5
100
AcDbArc
 50
313.5165406301832
 51
350.0000000000014
  0
LINE
  5
ECB8
330
1A
100
AcDbEntity
  8
0
100
AcDbLine
 10
243.2347527246885
 20
347.2409591439982
 30
0.0
 11
239.5241224163542
 21
351.6631161447445
 31
0.0
  0
LINE
  5
ECB9
330
1A
100
AcDbEntity
  8
0
100
AcDbLine
 10
243.7516056351277
 20
347.6746502305207
 30
0.0
 11
240.0409753267933
 21
352.0968072312671
 31
0.0
  0
LINE
  5
ECBA
330
1A
100
AcDbEntity
  8
0
100
AcDbLine
 10
222.7442741794384
 20
371.8631161447445
 30
0.0
 11
243.0014826975671
 21
371.8631161447445
 31
0.0
  0
LINE
  5
ECBB
330
1A
100
AcDbEntity
  8
0
100
AcDbLine
 10
223.7985173024326
 20
377.3631161447445
 30
0.0
 11
244.0557258205619
 21
377.3631161447445
 31
0.0
  0
LINE
  5
ECBC
330
1A
100
AcDbEntity
  8
0
100
AcDbLine
 10
220.0379496350667
 20
375.0883881432254
 30
0.0
 11
223.3648262159103
 21
377.8799690551839
 31
0.0
  0
LINE
  5
ECBD
330
1A
100
AcDbEntity
  8
0
100
AcDbLine
 10
220.471640721589
 20
374.5715352327862
 30
0.0
 11
223.7985173024326
 21
377.3631161447444
 31
0.0
  0
LINE
  5
ECBE
330
1A
100
AcDbEntity
  8
0
100
AcDbLine
 10
222.7442741794384
 20
371.8631161447445
 30
0.0
 11
220.4716407215891
 21
374.5715352327863
 31
0.0
  0
LINE
  5
ECC1
330
1A
100
AcDbEntity
  8
0
100
AcDbLine
 10
246.328359278411
 20
374.654697056703
 30
0.0
 11
244.0557258205619
 21
377.3631161447445
 31
0.0
  0
LINE
  5
ECC2
330
1A
100
AcDbEntity
  8
0
100
AcDbLine
 10
243.0014826975671
 20
371.8631161447445
 30
0.0
 11
246.328359278411
 21
374.654697056703
 31
0.0
  0
LINE
  5
ECC3
330
1A
100
AcDbEntity
  8
0
100
AcDbLine
 10
243.4351737840896
 20
371.3462632343053
 30
0.0
 11
246.7620503649335
 21
374.1378441462637
 31
0.0
  0
LINE
  5
ECC4
330
1A
100
AcDbEntity
  8
0
100
AcDbLine
 10
246.8452121888503
 20
375.0883881432255
 30
0.0
 11
244.572578731001
 21
377.796807231267
 31
0.0
  0
LINE
  5
ECC5
330
1A
100
AcDbEntity
  8
0
100
AcDbLine
 10
246.8452121888503
 20
375.0883881432255
 30
0.0
 11
250.172088769694
 21
377.8799690551837
 31
0.0
  0
LINE
  5
ECC6
330
1A
100
AcDbEntity
  8
0
100
AcDbLine
 10
249.0346838227826
 20
371.4294250582221
 30
0.0
 11
246.7620503649335
 21
374.1378441462637
 31
0.0
  0
ARC
  5
ECC8
330
1A
100
AcDbEntity
  8
0
100
AcDbCircle
 10
248.0579123014653
 20
397.5631161447445
 30
0.0
 40
5.5
100
AcDbArc
 50
350.0000000000014
 51
36.48345936981517
  0
LINE
  5
ECC9
330
1A
100
AcDbEntity
  8
0
100
AcDbLine
 10
226.8354961130532
 20
403.0631161447444
 30
0.0
 11
248.0579123014653
 21
403.0631161447444
 31
0.0
  0
LINE
  5
ECCA
330
1A
100
AcDbEntity
  8
0
100
AcDbLine
 10
227.2758775836457
 20
397.5631161447444
 30
0.0
 11
247.5330861017745
 21
397.5631161447444
 31
0.0
  0
ARC
  5
ECCB
330
1A
100
AcDbEntity
  8
0
100
AcDbCircle
 10
226.8354961130532
 20
397.5631161447445
 30
0.0
 40
5.5
100
AcDbArc
 50
133.5165406301831
 51
170.0000000000014
  0
ARC
  5
ECCC
330
1A
100
AcDbEntity
  8
0
100
AcDbCircle
 10
226.8354961130532
 20
397.5631161447445
 30
0.0
 40
5.5
100
AcDbArc
 50
90.0
 51
126.4834593698151
  0
LINE
  5
ECCD
330
1A
100
AcDbEntity
  8
0
100
AcDbLine
 10
227.2758775836457
 20
397.5631161447444
 30
0.0
 11
223.5652472753116
 21
401.9852731454907
 31
0.0
  0
LINE
  5
ECCE
330
1A
100
AcDbEntity
  8
0
100
AcDbLine
 10
226.7590246732066
 20
397.129425058222
 30
0.0
 11
223.0483943648723
 21
401.5515820589682
 31
0.0
  0
ARC
  5
ECCF
330
1A
100
AcDbEntity
  8
0
100
AcDbCircle
 10
248.0579123014653
 20
397.5631161447445
 30
0.0
 40
5.5
100
AcDbArc
 50
43.51654063018317
 51
90.0
  0
LINE
  5
ECD0
330
1A
100
AcDbEntity
  8
0
100
AcDbLine
 10
247.5330861017746
 20
397.5631161447445
 30
0.0
 11
252.0463782156891
 21
401.3502178929254
 31
0.0
  0
LINE
  5
ECD1
330
1A
100
AcDbEntity
  8
0
100
AcDbLine
 10
247.9667771882972
 20
397.0462632343052
 30
0.0
 11
252.4800693022116
 21
400.8333649824861
 31
0.0
  0
LINE
  5
ECD4
330
1A
100
AcDbEntity
  8
0
100
AcDbLine
 10
355.0743549430322
 20
396.6080511675764
 30
0.0
 11
351.7720887696939
 21
377.8799690551838
 31
0.0
  0
LINE
  5
ECD5
330
1A
100
AcDbEntity
  8
0
100
AcDbLine
 10
323.019053471486
 20
398.5181811219126
 30
0.0
 11
319.3653161772173
 21
377.796807231267
 31
0.0
  0
LINE
  5
ECD6
330
1A
100
AcDbEntity
  8
0
100
AcDbLine
 10
349.5667771882971
 20
397.0462632343052
 30
0.0
 11
346.1725787310009
 21
377.796807231267
 31
0.0
  0
LINE
  5
ECD7
330
1A
100
AcDbEntity
  8
0
100
AcDbLine
 10
328.3590246732064
 20
397.129425058222
 30
0.0
 11
324.9648262159103
 21
377.8799690551838
 31
0.0
  0
CIRCLE
  5
ECD8
330
1A
100
AcDbEntity
  8
0
100
AcDbCircle
 10
351.8499999999999
 20
348.9631161447445
 30
0.0
 40
2.75
  0
LINE
  5
ECDA
330
1A
100
AcDbEntity
  8
0
100
AcDbLine
 10
320.3420876985346
 20
346.1631161447446
 30
0.0
 11
341.5645038869467
 21
346.1631161447445
 31
0.0
  0
LINE
  5
ECDB
330
1A
100
AcDbEntity
  8
0
100
AcDbLine
 10
320.8669138982251
 20
351.6631161447445
 30
0.0
 11
341.1241224163542
 21
351.6631161447445
 31
0.0
  0
LINE
  5
ECDC
330
1A
100
AcDbEntity
  8
0
100
AcDbLine
 10
323.8274212689989
 20
371.4294250582221
 30
0.0
 11
320.4332228117028
 21
352.1799690551838
 31
0.0
  0
LINE
  5
ECDD
330
1A
100
AcDbEntity
  8
0
100
AcDbLine
 10
321.6379496350665
 20
375.0883881432254
 30
0.0
 11
319.3653161772173
 21
377.796807231267
 31
0.0
  0
LINE
  5
ECDE
330
1A
100
AcDbEntity
  8
0
100
AcDbLine
 10
323.8274212689989
 20
371.4294250582221
 30
0.0
 11
321.5547878111497
 21
374.1378441462637
 31
0.0
  0
LINE
  5
ECDF
330
1A
100
AcDbEntity
  8
0
100
AcDbLine
 10
318.2279112303058
 20
371.3462632343053
 30
0.0
 11
314.9256450569675
 21
352.6181811219126
 31
0.0
  0
ARC
  5
ECE0
330
1A
100
AcDbEntity
  8
0
100
AcDbCircle
 10
320.3420876985346
 20
351.6631161447445
 30
0.0
 40
5.5
100
AcDbArc
 50
223.5165406301832
 51
270.0
  0
ARC
  5
ECE1
330
1A
100
AcDbEntity
  8
0
100
AcDbCircle
 10
320.3420876985346
 20
351.6631161447445
 30
0.0
 40
5.5
100
AcDbArc
 50
170.0000000000014
 51
216.4834593698152
  0
LINE
  5
ECE2
330
1A
100
AcDbEntity
  8
0
100
AcDbLine
 10
315.9199306977883
 20
348.3928673070029
 30
0.0
 11
320.4332228117027
 21
352.1799690551838
 31
0.0
  0
LINE
  5
ECE3
330
1A
100
AcDbEntity
  8
0
100
AcDbLine
 10
316.3536217843107
 20
347.8760143965636
 30
0.0
 11
320.8669138982251
 21
351.6631161447445
 31
0.0
  0
LINE
  5
ECE4
330
1A
100
AcDbEntity
  8
0
100
AcDbLine
 10
318.2279112303058
 20
371.3462632343052
 30
0.0
 11
321.5547878111497
 21
374.1378441462637
 31
0.0
  0
LINE
  5
ECE5
330
1A
100
AcDbEntity
  8
0
100
AcDbLine
 10
350.6346838227826
 20
371.429425058222
 30
0.0
 11
346.9809465285138
 21
350.7080511675764
 31
0.0
  0
LINE
  5
ECE6
330
1A
100
AcDbEntity
  8
0
100
AcDbLine
 10
345.0351737840895
 20
371.3462632343052
 30
0.0
 11
341.6409753267934
 21
352.0968072312669
 31
0.0
  0
ARC
  5
ECE7
330
1A
100
AcDbEntity
  8
0
100
AcDbCircle
 10
341.5645038869467
 20
351.6631161447445
 30
0.0
 40
5.5
100
AcDbArc
 50
270.0
 51
306.4834593698152
  0
ARC
  5
ECE8
330
1A
100
AcDbEntity
  8
0
100
AcDbCircle
 10
341.5645038869467
 20
351.6631161447445
 30
0.0
 40
5.5
100
AcDbArc
 50
313.5165406301832
 51
350.0000000000014
  0
LINE
  5
ECE9
330
1A
100
AcDbEntity
  8
0
100
AcDbLine
 10
344.8347527246884
 20
347.2409591439982
 30
0.0
 11
341.1241224163541
 21
351.6631161447445
 31
0.0
  0
LINE
  5
ECEA
330
1A
100
AcDbEntity
  8
0
100
AcDbLine
 10
345.3516056351276
 20
347.6746502305207
 30
0.0
 11
341.6409753267932
 21
352.0968072312671
 31
0.0
  0
LINE
  5
ECEB
330
1A
100
AcDbEntity
  8
0
100
AcDbLine
 10
324.3442741794383
 20
371.8631161447445
 30
0.0
 11
344.601482697567
 21
371.8631161447445
 31
0.0
  0
LINE
  5
ECEC
330
1A
100
AcDbEntity
  8
0
100
AcDbLine
 10
325.3985173024326
 20
377.3631161447445
 30
0.0
 11
345.6557258205618
 21
377.3631161447445
 31
0.0
  0
LINE
  5
ECED
330
1A
100
AcDbEntity
  8
0
100
AcDbLine
 10
321.6379496350665
 20
375.0883881432254
 30
0.0
 11
324.9648262159102
 21
377.8799690551839
 31
0.0
  0
LINE
  5
ECEE
330
1A
100
AcDbEntity
  8
0
100
AcDbLine
 10
322.0716407215889
 20
374.5715352327862
 30
0.0
 11
325.3985173024326
 21
377.3631161447444
 31
0.0
  0
LINE
  5
ECEF
330
1A
100
AcDbEntity
  8
0
100
AcDbLine
 10
324.3442741794383
 20
371.8631161447445
 30
0.0
 11
322.071640721589
 21
374.5715352327863
 31
0.0
  0
LINE
  5
ECF2
330
1A
100
AcDbEntity
  8
0
100
AcDbLine
 10
347.9283592784109
 20
374.654697056703
 30
0.0
 11
345.6557258205618
 21
377.3631161447445
 31
0.0
  0
LINE
  5
ECF3
330
1A
100
AcDbEntity
  8
0
100
AcDbLine
 10
344.601482697567
 20
371.8631161447445
 30
0.0
 11
347.9283592784109
 21
374.654697056703
 31
0.0
  0
LINE
  5
ECF4
330
1A
100
AcDbEntity
  8
0
100
AcDbLine
 10
345.0351737840895
 20
371.3462632343053
 30
0.0
 11
348.3620503649334
 21
374.1378441462637
 31
0.0
  0
LINE
  5
ECF5
330
1A
100
AcDbEntity
  8
0
100
AcDbLine
 10
348.4452121888502
 20
375.0883881432255
 30
0.0
 11
346.1725787310009
 21
377.796807231267
 31
0.0
  0
LINE
  5
ECF6
330
1A
100
AcDbEntity
  8
0
100
AcDbLine
 10
348.4452121888502
 20
375.0883881432255
 30
0.0
 11
351.7720887696939
 21
377.8799690551837
 31
0.0
  0
LINE
  5
ECF7
330
1A
100
AcDbEntity
  8
0
100
AcDbLine
 10
350.6346838227826
 20
371.4294250582221
 30
0.0
 11
348.3620503649334
 21
374.1378441462637
 31
0.0
  0
ARC
  5
ECF9
330
1A
100
AcDbEntity
  8
0
100
AcDbCircle
 10
349.6579123014652
 20
397.5631161447445
 30
0.0
 40
5.5
100
AcDbArc
 50
350.0000000000014
 51
36.48345936981517
  0
LINE
  5
ECFA
330
1A
100
AcDbEntity
  8
0
100
AcDbLine
 10
328.4354961130532
 20
403.0631161447444
 30
0.0
 11
349.6579123014652
 21
403.0631161447444
 31
0.0
  0
LINE
  5
ECFB
330
1A
100
AcDbEntity
  8
0
100
AcDbLine
 10
328.8758775836456
 20
397.5631161447444
 30
0.0
 11
349.1330861017744
 21
397.5631161447444
 31
0.0
  0
ARC
  5
ECFC
330
1A
100
AcDbEntity
  8
0
100
AcDbCircle
 10
328.4354961130532
 20
397.5631161447445
 30
0.0
 40
5.5
100
AcDbArc
 50
133.5165406301831
 51
170.0000000000014
  0
ARC
  5
ECFD
330
1A
100
AcDbEntity
  8
0
100
AcDbCircle
 10
328.4354961130532
 20
397.5631161447445
 30
0.0
 40
5.5
100
AcDbArc
 50
90.0
 51
126.4834593698151
  0
LINE
  5
ECFE
330
1A
100
AcDbEntity
  8
0
100
AcDbLine
 10
328.8758775836456
 20
397.5631161447444
 30
0.0
 11
325.1652472753115
 21
401.9852731454907
 31
0.0
  0
LINE
  5
ECFF
330
1A
100
AcDbEntity
  8
0
100
AcDbLine
 10
328.3590246732065
 20
397.129425058222
 30
0.0
 11
324.6483943648722
 21
401.5515820589682
 31
0.0
  0
ARC
  5
ED00
330
1A
100
AcDbEntity
  8
0
100
AcDbCircle
 10
349.6579123014652
 20
397.5631161447445
 30
0.0
 40
5.5
100
AcDbArc
 50
43.51654063018317
 51
90.0
  0
LINE
  5
ED01
330
1A
100
AcDbEntity
  8
0
100
AcDbLine
 10
349.1330861017746
 20
397.5631161447445
 30
0.0
 11
353.646378215689
 21
401.3502178929254
 31
0.0
  0
LINE
  5
ED02
330
1A
100
AcDbEntity
  8
0
100
AcDbLine
 10
349.5667771882971
 20
397.0462632343052
 30
0.0
 11
354.0800693022115
 21
400.8333649824861
 31
0.0
  0
LINE
  5
ED05
330
1A
100
AcDbEntity
  8
0
100
AcDbLine
 10
405.8743549430322
 20
396.6080511675764
 30
0.0
 11
402.5720887696938
 21
377.8799690551838
 31
0.0
  0
LINE
  5
ED06
330
1A
100
AcDbEntity
  8
0
100
AcDbLine
 10
373.819053471486
 20
398.5181811219126
 30
0.0
 11
370.1653161772172
 21
377.796807231267
 31
0.0
  0
LINE
  5
ED07
330
1A
100
AcDbEntity
  8
0
100
AcDbLine
 10
400.366777188297
 20
397.0462632343052
 30
0.0
 11
396.9725787310008
 21
377.796807231267
 31
0.0
  0
LINE
  5
ED08
330
1A
100
AcDbEntity
  8
0
100
AcDbLine
 10
379.1590246732064
 20
397.129425058222
 30
0.0
 11
375.7648262159102
 21
377.8799690551838
 31
0.0
  0
CIRCLE
  5
ED09
330
1A
100
AcDbEntity
  8
0
100
AcDbCircle
 10
402.6499999999997
 20
348.9631161447445
 30
0.0
 40
2.75
  0
LINE
  5
ED0B
330
1A
100
AcDbEntity
  8
0
100
AcDbLine
 10
371.1420876985345
 20
346.1631161447446
 30
0.0
 11
392.3645038869466
 21
346.1631161447445
 31
0.0
  0
LINE
  5
ED0C
330
1A
100
AcDbEntity
  8
0
100
AcDbLine
 10
371.666913898225
 20
351.6631161447445
 30
0.0
 11
391.9241224163542
 21
351.6631161447445
 31
0.0
  0
LINE
  5
ED0D
330
1A
100
AcDbEntity
  8
0
100
AcDbLine
 10
374.6274212689989
 20
371.4294250582221
 30
0.0
 11
371.2332228117027
 21
352.1799690551838
 31
0.0
  0
LINE
  5
ED0E
330
1A
100
AcDbEntity
  8
0
100
AcDbLine
 10
372.4379496350665
 20
375.0883881432254
 30
0.0
 11
370.1653161772172
 21
377.796807231267
 31
0.0
  0
LINE
  5
ED0F
330
1A
100
AcDbEntity
  8
0
100
AcDbLine
 10
374.6274212689989
 20
371.4294250582221
 30
0.0
 11
372.3547878111497
 21
374.1378441462637
 31
0.0
  0
LINE
  5
ED10
330
1A
100
AcDbEntity
  8
0
100
AcDbLine
 10
369.0279112303058
 20
371.3462632343053
 30
0.0
 11
365.7256450569674
 21
352.6181811219126
 31
0.0
  0
ARC
  5
ED11
330
1A
100
AcDbEntity
  8
0
100
AcDbCircle
 10
371.1420876985345
 20
351.6631161447445
 30
0.0
 40
5.5
100
AcDbArc
 50
223.5165406301832
 51
270.0
  0
ARC
  5
ED12
330
1A
100
AcDbEntity
  8
0
100
AcDbCircle
 10
371.1420876985345
 20
351.6631161447445
 30
0.0
 40
5.5
100
AcDbArc
 50
170.0000000000014
 51
216.4834593698152
  0
LINE
  5
ED13
330
1A
100
AcDbEntity
  8
0
100
AcDbLine
 10
366.7199306977882
 20
348.3928673070029
 30
0.0
 11
371.2332228117027
 21
352.1799690551838
 31
0.0
  0
LINE
  5
ED14
330
1A
100
AcDbEntity
  8
0
100
AcDbLine
 10
367.1536217843106
 20
347.8760143965636
 30
0.0
 11
371.6669138982251
 21
351.6631161447445
 31
0.0
  0
LINE
  5
ED15
330
1A
100
AcDbEntity
  8
0
100
AcDbLine
 10
369.0279112303057
 20
371.3462632343052
 30
0.0
 11
372.3547878111497
 21
374.1378441462637
 31
0.0
  0
LINE
  5
ED16
330
1A
100
AcDbEntity
  8
0
100
AcDbLine
 10
401.4346838227825
 20
371.429425058222
 30
0.0
 11
397.7809465285137
 21
350.7080511675764
 31
0.0
  0
LINE
  5
ED17
330
1A
100
AcDbEntity
  8
0
100
AcDbLine
 10
395.8351737840895
 20
371.3462632343052
 30
0.0
 11
392.4409753267933
 21
352.0968072312669
 31
0.0
  0
ARC
  5
ED18
330
1A
100
AcDbEntity
  8
0
100
AcDbCircle
 10
392.3645038869466
 20
351.6631161447445
 30
0.0
 40
5.5
100
AcDbArc
 50
270.0
 51
306.4834593698152
  0
ARC
  5
ED19
330
1A
100
AcDbEntity
  8
0
100
AcDbCircle
 10
392.3645038869466
 20
351.6631161447445
 30
0.0
 40
5.5
100
AcDbArc
 50
313.5165406301832
 51
350.0000000000014
  0
LINE
  5
ED1A
330
1A
100
AcDbEntity
  8
0
100
AcDbLine
 10
395.6347527246883
 20
347.2409591439982
 30
0.0
 11
391.924122416354
 21
351.6631161447445
 31
0.0
  0
LINE
  5
ED1B
330
1A
100
AcDbEntity
  8
0
100
AcDbLine
 10
396.1516056351276
 20
347.6746502305207
 30
0.0
 11
392.4409753267932
 21
352.0968072312671
 31
0.0
  0
LINE
  5
ED1C
330
1A
100
AcDbEntity
  8
0
100
AcDbLine
 10
375.1442741794382
 20
371.8631161447445
 30
0.0
 11
395.401482697567
 21
371.8631161447445
 31
0.0
  0
LINE
  5
ED1D
330
1A
100
AcDbEntity
  8
0
100
AcDbLine
 10
376.1985173024325
 20
377.3631161447445
 30
0.0
 11
396.4557258205618
 21
377.3631161447445
 31
0.0
  0
LINE
  5
ED1E
330
1A
100
AcDbEntity
  8
0
100
AcDbLine
 10
372.4379496350665
 20
375.0883881432254
 30
0.0
 11
375.7648262159102
 21
377.8799690551839
 31
0.0
  0
LINE
  5
ED1F
330
1A
100
AcDbEntity
  8
0
100
AcDbLine
 10
372.8716407215888
 20
374.5715352327862
 30
0.0
 11
376.1985173024325
 21
377.3631161447444
 31
0.0
  0
LINE
  5
ED20
330
1A
100
AcDbEntity
  8
0
100
AcDbLine
 10
375.1442741794382
 20
371.8631161447445
 30
0.0
 11
372.871640721589
 21
374.5715352327863
 31
0.0
  0
LINE
  5
ED23
330
1A
100
AcDbEntity
  8
0
100
AcDbLine
 10
398.7283592784109
 20
374.654697056703
 30
0.0
 11
396.4557258205617
 21
377.3631161447445
 31
0.0
  0
LINE
  5
ED24
330
1A
100
AcDbEntity
  8
0
100
AcDbLine
 10
395.401482697567
 20
371.8631161447445
 30
0.0
 11
398.7283592784109
 21
374.654697056703
 31
0.0
  0
LINE
  5
ED25
330
1A
100
AcDbEntity
  8
0
100
AcDbLine
 10
395.8351737840895
 20
371.3462632343053
 30
0.0
 11
399.1620503649333
 21
374.1378441462637
 31
0.0
  0
LINE
  5
ED26
330
1A
100
AcDbEntity
  8
0
100
AcDbLine
 10
399.2452121888502
 20
375.0883881432255
 30
0.0
 11
396.9725787310009
 21
377.796807231267
 31
0.0
  0
LINE
  5
ED27
330
1A
100
AcDbEntity
  8
0
100
AcDbLine
 10
399.2452121888502
 20
375.0883881432255
 30
0.0
 11
402.5720887696938
 21
377.8799690551837
 31
0.0
  0
LINE
  5
ED28
330
1A
100
AcDbEntity
  8
0
100
AcDbLine
 10
401.4346838227825
 20
371.4294250582221
 30
0.0
 11
399.1620503649333
 21
374.1378441462637
 31
0.0
  0
ARC
  5
ED2A
330
1A
100
AcDbEntity
  8
0
100
AcDbCircle
 10
400.4579123014651
 20
397.5631161447445
 30
0.0
 40
5.5
100
AcDbArc
 50
350.0000000000014
 51
36.48345936981517
  0
LINE
  5
ED2B
330
1A
100
AcDbEntity
  8
0
100
AcDbLine
 10
379.2354961130531
 20
403.0631161447444
 30
0.0
 11
400.4579123014651
 21
403.0631161447444
 31
0.0
  0
LINE
  5
ED2C
330
1A
100
AcDbEntity
  8
0
100
AcDbLine
 10
379.6758775836456
 20
397.5631161447444
 30
0.0
 11
399.9330861017744
 21
397.5631161447444
 31
0.0
  0
ARC
  5
ED2D
330
1A
100
AcDbEntity
  8
0
100
AcDbCircle
 10
379.2354961130531
 20
397.5631161447445
 30
0.0
 40
5.5
100
AcDbArc
 50
133.5165406301831
 51
170.0000000000014
  0
ARC
  5
ED2E
330
1A
100
AcDbEntity
  8
0
100
AcDbCircle
 10
379.2354961130531
 20
397.5631161447445
 30
0.0
 40
5.5
100
AcDbArc
 50
90.0
 51
126.4834593698151
  0
LINE
  5
ED2F
330
1A
100
AcDbEntity
  8
0
100
AcDbLine
 10
379.6758775836456
 20
397.5631161447444
 30
0.0
 11
375.9652472753114
 21
401.9852731454907
 31
0.0
  0
LINE
  5
ED30
330
1A
100
AcDbEntity
  8
0
100
AcDbLine
 10
379.1590246732064
 20
397.129425058222
 30
0.0
 11
375.4483943648721
 21
401.5515820589682
 31
0.0
  0
ARC
  5
ED31
330
1A
100
AcDbEntity
  8
0
100
AcDbCircle
 10
400.4579123014651
 20
397.5631161447445
 30
0.0
 40
5.5
100
AcDbArc
 50
43.51654063018317
 51
90.0
  0
LINE
  5
ED32
330
1A
100
AcDbEntity
  8
0
100
AcDbLine
 10
399.9330861017745
 20
397.5631161447445
 30
0.0
 11
404.4463782156889
 21
401.3502178929254
 31
0.0
  0
LINE
  5
ED33
330
1A
100
AcDbEntity
  8
0
100
AcDbLine
 10
400.366777188297
 20
397.0462632343052
 30
0.0
 11
404.8800693022114
 21
400.8333649824861
 31
0.0
  0
LINE
  5
ED37
330
1A
100
AcDbEntity
  8
0
100
AcDbLine
 10
618.1323778806476
 20
294.4131161447446
 30
0.0
 11
618.1323778806476
 21
284.4131161447447
 31
0.0
  0
LINE
  5
ED38
330
1A
100
AcDbEntity
  8
0
100
AcDbLine
 10
616.5676221193518
 20
294.4131161447446
 30
0.0
 11
616.5676221193518
 21
284.4131161447447
 31
0.0
  0
LINE
  5
ED39
330
1A
100
AcDbEntity
  8
0
100
AcDbLine
 10
607.1323777439641
 20
294.4131161447446
 30
0.0
 11
607.1323777439641
 21
284.4131161447447
 31
0.0
  0
LINE
  5
ED3A
330
1A
100
AcDbEntity
  8
0
100
AcDbLine
 10
606.3499998633166
 20
294.4131161447446
 30
0.0
 11
606.3499998633166
 21
284.4131161447447
 31
0.0
  0
LINE
  5
ED3B
330
1A
100
AcDbEntity
  8
0
100
AcDbLine
 10
627.5676222560353
 20
294.4131161447446
 30
0.0
 11
627.5676222560353
 21
284.4131161447447
 31
0.0
  0
LINE
  5
ED3C
330
1A
100
AcDbEntity
  8
0
100
AcDbLine
 10
628.3500001366831
 20
294.4131161447446
 30
0.0
 11
628.3500001366831
 21
284.4131161447447
 31
0.0
  0
LINE
  5
ED3D
330
1A
100
AcDbEntity
  8
0
100
AcDbLine
 10
628.3500001366831
 20
284.4131161447447
 30
0.0
 11
606.3499998633166
 21
284.4131161447447
 31
0.0
  0
ARC
  5
ED3E
330
1A
100
AcDbEntity
  8
0
100
AcDbCircle
 10
623.3500001366831
 20
282.4131161447447
 30
0.0
 40
5.0
100
AcDbArc
 50
270.0
 51
0.0
  0
ARC
  5
ED3F
330
1A
100
AcDbEntity
  8
0
100
AcDbCircle
 10
611.3499998633166
 20
282.4131161447448
 30
0.0
 40
5.0
100
AcDbArc
 50
180.0
 51
270.0
  0
LINE
  5
ED40
330
1A
100
AcDbEntity
  8
0
100
AcDbLine
 10
606.3499998633166
 20
282.4131161447448
 30
0.0
 11
606.3499998633166
 21
284.4131161447447
 31
0.0
  0
LINE
  5
ED41
330
1A
100
AcDbEntity
  8
0
100
AcDbLine
 10
623.3500001366831
 20
277.4131161447448
 30
0.0
 11
611.3499998633166
 21
277.4131161447448
 31
0.0
  0
LINE
  5
ED42
330
1A
100
AcDbEntity
  8
0
100
AcDbLine
 10
628.3500001366831
 20
282.4131161447447
 30
0.0
 11
628.3500001366831
 21
284.4131161447446
 31
0.0
  0
LINE
  5
ED43
330
1A
100
AcDbEntity
  8
0
100
AcDbLine
 10
628.3500001366831
 20
294.4131161447446
 30
0.0
 11
606.3499998633166
 21
294.4131161447446
 31
0.0
  0
LINE
  5
ED44
330
1A
100
AcDbEntity
  8
0
100
AcDbLine
 10
628.3500001366831
 20
302.4131161447446
 30
0.0
 11
606.3499998633166
 21
302.4131161447446
 31
0.0
  0
LINE
  5
ED45
330
1A
100
AcDbEntity
  8
0
100
AcDbLine
 10
607.3499999999993
 20
307.4131161447446
 30
0.0
 11
606.3499998633166
 21
307.4131161447446
 31
0.0
  0
LINE
  5
ED46
330
1A
100
AcDbEntity
  8
0
100
AcDbLine
 10
608.0499999999997
 20
302.4131161447446
 30
0.0
 11
608.0499999999997
 21
294.4131161447446
 31
0.0
  0
LINE
  5
ED47
330
1A
100
AcDbEntity
  8
0
100
AcDbLine
 10
607.1323777439639
 20
307.4131161447446
 30
0.0
 11
607.1323777439641
 21
302.4131161447446
 31
0.0
  0
LINE
  5
ED48
330
1A
100
AcDbEntity
  8
0
100
AcDbLine
 10
606.3499998633164
 20
307.4131161447446
 30
0.0
 11
606.3499998633166
 21
302.4131161447446
 31
0.0
  0
LINE
  5
ED49
330
1A
100
AcDbEntity
  8
0
100
AcDbLine
 10
626.6499999999997
 20
302.4131161447446
 30
0.0
 11
626.6499999999997
 21
294.4131161447447
 31
0.0
  0
LINE
  5
ED4A
330
1A
100
AcDbEntity
  8
0
100
AcDbLine
 10
618.1323778806475
 20
306.1131161447447
 30
0.0
 11
618.1323778806476
 21
302.4131161447446
 31
0.0
  0
LINE
  5
ED4B
330
1A
100
AcDbEntity
  8
0
100
AcDbLine
 10
616.5676221193518
 20
306.1131161447447
 30
0.0
 11
616.5676221193518
 21
302.4131161447446
 31
0.0
  0
LINE
  5
ED4C
330
1A
100
AcDbEntity
  8
0
100
AcDbLine
 10
627.5676222560353
 20
306.1131161447447
 30
0.0
 11
627.5676222560353
 21
302.4131161447446
 31
0.0
  0
LINE
  5
ED4D
330
1A
100
AcDbEntity
  8
0
100
AcDbLine
 10
628.350000136683
 20
306.1131161447447
 30
0.0
 11
628.3500001366831
 21
302.4131161447446
 31
0.0
  0
TEXT
  5
ED4F
330
1A
100
AcDbEntity
  8
WAKU
100
AcDbText
 10
662.55905286
 20
22.72792200643937
 30
0.0
 40
2.82842712
  1
08.03.07
100
AcDbText
  0
TEXT
  5
ED50
330
1A
100
AcDbEntity
  8
WAKU
100
AcDbText
 10
665.7502141615889
 20
29.79898980643937
 30
0.0
 40
5.65685424
  1
横山
100
AcDbText
  0
TEXT
  5
ED51
330
1A
100
AcDbEntity
  8
WAKU
100
AcDbText
 10
704.98545966
 20
22.72792200643937
 30
0.0
 40
2.82842712
  1
08.03.07
100
AcDbText
  0
TEXT
  5
ED52
330
1A
100
AcDbEntity
  8
WAKU
100
AcDbText
 10
708.1766209615889
 20
29.79898980643937
 30
0.0
 40
5.65685424
  1
串田
100
AcDbText
  0
ELLIPSE
  5
ED61
330
1A
100
AcDbEntity
  8
SUNPOU
100
AcDbEllipse
 10
603.8500000000001
 20
305.6631162608417
 30
0.0
 11
2.650000000000005
 21
-0.0000000000000005
 31
0.0
210
0.0
220
0.0
230
1.0
 40
0.596226458904585
 41
2.81960193203065
 42
5.945114208044913
  0
LINE
  5
ED63
330
1A
100
AcDbEntity
  8
SUNPOU
100
AcDbLine
 10
600.9500000000001
 20
306.9131161447446
 30
0.0
 11
606.3499998633167
 21
306.9131161447446
 31
0.0
  0
LINE
  5
ED64
330
1A
100
AcDbEntity
  8
SUNPOU
100
AcDbLine
 10
601.2000000000001
 20
306.1631161447445
 30
0.0
 11
606.3499998633169
 21
306.1631161447446
 31
0.0
  0
LINE
  5
ED65
330
1A
100
AcDbEntity
  8
SUNPOU
100
AcDbLine
 10
600.9500000000001
 20
306.9131161447446
 30
0.0
 11
600.9500000000001
 21
307.4131161447445
 31
0.0
  0
LINE
  5
ED66
330
1A
100
AcDbEntity
  8
SUNPOU
100
AcDbLine
 10
601.2000000000001
 20
306.1631161447445
 30
0.0
 11
601.2000000000001
 21
306.9131161447446
 31
0.0
  0
LINE
  5
ED69
330
1A
100
AcDbEntity
  8
SUNPOU
100
AcDbLine
 10
603.628750934147
 20
306.9131161447446
 30
0.0
 11
604.378750934147
 21
306.1631161447445
 31
0.0
  0
LINE
  5
ED6A
330
1A
100
AcDbEntity
  8
SUNPOU
100
AcDbLine
 10
603.2751975435536
 20
306.9131161447446
 30
0.0
 11
604.0251975435539
 21
306.1631161447445
 31
0.0
  0
INSERT
  5
EEE5
330
1A
100
AcDbEntity
  8
SUNPOU
100
AcDbBlockReference
  2
M3-TOP
 10
317.9999999999999
 20
170.4631161447444
 30
0.0
  0
INSERT
  5
EEE6
330
1A
100
AcDbEntity
  8
SUNPOU
100
AcDbBlockReference
  2
M3-TOP
 10
317.9999999999999
 20
197.4631161447444
 30
0.0
  0
INSERT
  5
EEF6
330
1A
100
AcDbEntity
  8
SUNPOU
100
AcDbBlockReference
  2
M3-TOP
 10
417.9999999999998
 20
170.4631161447444
 30
0.0
  0
INSERT
  5
EEF7
330
1A
100
AcDbEntity
  8
SUNPOU
100
AcDbBlockReference
  2
M3-TOP
 10
417.9999999999998
 20
197.4631161447444
 30
0.0
  0
INSERT
  5
EEF8
330
1A
100
AcDbEntity
  8
SUNPOU
100
AcDbBlockReference
  2
M3-TOP
 10
487.9999999999999
 20
170.4631161447445
 30
0.0
  0
INSERT
  5
EEF9
330
1A
100
AcDbEntity
  8
SUNPOU
100
AcDbBlockReference
  2
M3-TOP
 10
487.9999999999999
 20
197.4631161447445
 30
0.0
  0
TEXT
  5
EF04
330
1A
100
AcDbEntity
  8
0
100
AcDbText
 10
587.0
 20
107.5
 30
0.0
 40
5.65685424
  1
付属単位ｼｰﾙ
100
AcDbText
  0
MTEXT
  5
EF14
330
1A
100
AcDbEntity
  8
SUNPOU
100
AcDbMText
 10
562.7022581001701
 20
197.5631167515082
 30
0.0
 40
6.0
 41
0.0
 71
     1
 72
     1
  1
(L=15～20)
 73
     1
 44
1.0
1001
ACAD
1000
MTEXTBEGIN
1070
    73
1070
     1
1070
    44
1040
1.0
1070
    74
1070
     0
1000
MTEXTEND
  0
TEXT
  5
EF52
330
1A
100
AcDbEntity
  8
0
100
AcDbText
 10
798.0319599615889
 20
13.53553386643936
 30
0.0
 40
4.24264068
  1
1
100
AcDbText
  0
TEXT
  5
EF54
330
1A
100
AcDbEntity
  8
WAKU
100
AcDbText
 10
587.685625649589
 20
27.67766946643937
 30
0.0
 40
4.24264068
  1
大野
 72
     4
 11
592.211109041589
 21
29.79898980643937
 31
0.0
100
AcDbText
  0
TEXT
  5
EF55
330
1A
100
AcDbEntity
  8
WAKU
100
AcDbText
 10
568.51385112
 20
28.38477624643937
 30
0.0
 40
2.82842712
  1
08.03.07
 41
0.8
100
AcDbText
  0
TEXT
  5
EF59
330
1A
100
AcDbEntity
  8
WAKU
100
AcDbText
 10
643.8299039815888
 20
44.64823218643937
 30
0.0
 40
4.24264068
  1
設　計
 72
     4
 11
650.9009717815888
 21
46.76955252643937
 31
0.0
100
AcDbText
  0
TEXT
  5
EF5A
330
1A
100
AcDbEntity
  8
WAKU
100
AcDbText
 10
665.1845287375888
 20
44.64823218643935
 30
0.0
 40
4.24264068
  1
検　図
 72
     4
 11
672.1141751815888
 21
46.76955252643936
 31
0.0
100
AcDbText
  0
TEXT
  5
EF5B
330
1A
100
AcDbEntity
  8
WAKU
100
AcDbText
 10
696.8629124815889
 20
44.64823218643937
 30
0.0
 40
4.24264068
  1
承　認
 72
     4
 11
703.9339802815889
 21
46.76955252643937
 31
0.0
100
AcDbText
  0
TEXT
  5
EF5C
330
1A
100
AcDbEntity
  8
WAKU
100
AcDbText
 10
686.2563107815888
 20
53.13351354643938
 30
0.0
 40
4.24264068
  1
名　称
 72
     4
 11
693.3273785815888
 21
55.25483388643937
 31
0.0
100
AcDbText
  0
TEXT
  5
F068
330
1A
100
AcDbEntity
  8
SUNPOU
100
AcDbText
 10
279.8020008651452
 20
174.4631161002548
 30
0.0
 40
2.4
  1
E
 72
     1
 11
281.0020008651451
 21
175.6631161002548
 31
0.0
100
AcDbText
 73
     2
  0
TEXT
  5
F069
330
1A
100
AcDbEntity
  8
SUNPOU
100
AcDbText
 10
212.5
 20
198.7156752647442
 30
0.0
 40
3.0
  1
TOYO SOKKI
 11
212.5
 21
201.7156752647442
 31
0.0
100
AcDbText
 73
     3
  0
TEXT
  5
F06A
330
1A
100
AcDbEntity
  8
SUNPOU
100
AcDbText
 10
279.6400008651452
 20
191.4631161002549
 30
0.0
 40
2.5
  1
～
 41
1.5
 11
279.6400008651452
 21
192.7131161002549
 31
0.0
100
AcDbText
 73
     2
  0
TEXT
  5
F06B
330
1A
100
AcDbEntity
  8
SUNPOU
100
AcDbText
 10
284.1400008651452
 20
191.4631161002549
 30
0.0
 40
2.5
  1
20VA, 50/60Hz
 41
0.7
 11
284.1400008651452
 21
192.7131161002549
 31
0.0
100
AcDbText
 73
     2
  0
TEXT
  5
F06C
330
1A
100
AcDbEntity
  8
SUNPOU
100
AcDbText
 10
261.7500008651452
 20
191.4631161002549
 30
0.0
 40
2.5
  1
AC 85-264V,
 41
0.7
 11
261.7500008651452
 21
192.7131161002549
 31
0.0
100
AcDbText
 73
     2
  0
LINE
  5
F06D
330
1A
100
AcDbEntity
  8
SUNPOU
100
AcDbLine
 10
226.658000173029
 20
180.8631160646631
 30
0.0
 11
226.658000173029
 21
182.8631160646631
 31
0.0
  0
LINE
  5
F06E
330
1A
100
AcDbEntity
  8
SUNPOU
100
AcDbLine
 10
226.658000173029
 20
182.8631160646631
 30
0.0
 11
228.2580001730289
 21
182.8631160646631
 31
0.0
  0
LINE
  5
F06F
330
1A
100
AcDbEntity
  8
SUNPOU
100
AcDbLine
 10
249.4420001730289
 20
182.8631160646632
 30
0.0
 11
249.4420001730289
 21
180.8631160646632
 31
0.0
  0
LINE
  5
F070
330
1A
100
AcDbEntity
  8
SUNPOU
100
AcDbLine
 10
247.8420001730289
 20
182.8631160646632
 30
0.0
 11
249.4420001730289
 21
182.8631160646632
 31
0.0
  0
LINE
  5
F071
102
{ACAD_REACTORS
330
F60E
102
}
330
1A
100
AcDbEntity
  8
SUNPOU
100
AcDbLine
 10
306.4999999999999
 20
202.4631161447444
 30
0.0
 11
306.4999999999999
 21
165.4631161447444
 31
0.0
  0
LINE
  5
F072
102
{ACAD_REACTORS
330
F60E
102
}
330
1A
100
AcDbEntity
  8
SUNPOU
100
AcDbLine
 10
211.4999999999999
 20
165.4631161447444
 30
0.0
 11
306.4999999999999
 21
165.4631161447444
 31
0.0
  0
LINE
  5
F073
102
{ACAD_REACTORS
330
F60E
102
}
330
1A
100
AcDbEntity
  8
SUNPOU
100
AcDbLine
 10
211.4999999999999
 20
202.4631161447444
 30
0.0
 11
306.4999999999999
 21
202.4631161447444
 31
0.0
  0
LINE
  5
F074
102
{ACAD_REACTORS
330
F60E
102
}
330
1A
100
AcDbEntity
  8
SUNPOU
100
AcDbLine
 10
211.4999999999999
 20
202.4631161447444
 30
0.0
 11
211.4999999999999
 21
165.4631161447444
 31
0.0
  0
TEXT
  5
F075
330
1A
100
AcDbEntity
  8
SUNPOU
100
AcDbText
 10
258.547619047619
 20
183.4631161447445
 30
0.0
 40
4.0
  1
No.
 72
     2
 11
267.4999999999999
 21
185.4631161447445
 31
0.0
100
AcDbText
 73
     2
  0
LINE
  5
F076
330
1A
100
AcDbEntity
  8
SUNPOU
100
AcDbLine
 10
303.5
 20
189.4631161447444
 30
0.0
 11
268.5
 21
189.4631161447444
 31
0.0
  0
LINE
  5
F077
330
1A
100
AcDbEntity
  8
SUNPOU
100
AcDbLine
 10
268.5
 20
181.4631161447444
 30
0.0
 11
303.5
 21
181.4631161447444
 31
0.0
  0
LINE
  5
F078
330
1A
100
AcDbEntity
  8
SUNPOU
100
AcDbLine
 10
303.5
 20
189.4631161447444
 30
0.0
 11
303.5
 21
181.4631161447444
 31
0.0
  0
LINE
  5
F079
330
1A
100
AcDbEntity
  8
SUNPOU
100
AcDbLine
 10
268.5
 20
189.4631161447444
 30
0.0
 11
268.5
 21
181.4631161447444
 31
0.0
  0
TEXT
  5
F07A
330
1A
100
AcDbEntity
  8
SUNPOU
100
AcDbText
 10
269.3809523809524
 20
195.9631161447444
 30
0.0
 40
5.0
  1
ED-3021
 72
     2
 11
302.0
 21
200.9631161447444
 31
0.0
100
AcDbText
 73
     3
  0
LINE
  5
F07B
102
{ACAD_REACTORS
330
F60E
102
}
330
1A
100
AcDbEntity
  8
SUNPOU
100
AcDbLine
 10
308.0
 20
203.9631161447444
 30
0.0
 11
308.0
 21
163.9631161447444
 31
0.0
  0
LINE
  5
F07C
102
{ACAD_REACTORS
330
F60E
102
}
330
1A
100
AcDbEntity
  8
SUNPOU
100
AcDbLine
 10
210.0
 20
203.9631161447444
 30
0.0
 11
210.0
 21
163.9631161447444
 31
0.0
  0
LINE
  5
F07D
330
1A
100
AcDbEntity
  8
SUNPOU
100
AcDbLine
 10
221.4000008651451
 20
189.563116100255
 30
0.0
 11
221.4000008651451
 21
197.863116100255
 31
0.0
  0
LINE
  5
F07E
330
1A
100
AcDbEntity
  8
SUNPOU
100
AcDbLine
 10
225.0000008651452
 20
195.3331161002551
 30
0.0
 11
225.5400008651452
 21
194.253116100255
 31
0.0
  0
LINE
  5
F07F
330
1A
100
AcDbEntity
  8
SUNPOU
100
AcDbLine
 10
225.0000008651452
 20
195.3331161002551
 30
0.0
 11
224.4600008651452
 21
194.253116100255
 31
0.0
  0
LINE
  5
F080
330
1A
100
AcDbEntity
  8
SUNPOU
100
AcDbLine
 10
225.0000008651452
 20
195.3331161002551
 30
0.0
 11
225.0000008651452
 21
192.093116100255
 31
0.0
  0
LINE
  5
F081
330
1A
100
AcDbEntity
  8
SUNPOU
100
AcDbLine
 10
228.6000008651452
 20
189.563116100255
 30
0.0
 11
228.6000008651452
 21
197.863116100255
 31
0.0
  0
CIRCLE
  5
F082
330
1A
100
AcDbEntity
  8
SUNPOU
100
AcDbCircle
 10
225.0000008651452
 20
193.713116100255
 30
0.0
 40
2.16
  0
LINE
  5
F083
330
1A
100
AcDbEntity
  8
SUNPOU
100
AcDbLine
 10
228.6000008651452
 20
189.5631161002551
 30
0.0
 11
221.4000008651451
 21
189.563116100255
 31
0.0
  0
LINE
  5
F084
330
1A
100
AcDbEntity
  8
SUNPOU
100
AcDbLine
 10
228.6000008651452
 20
197.863116100255
 30
0.0
 11
221.4000008651451
 21
197.863116100255
 31
0.0
  0
LINE
  5
F085
330
1A
100
AcDbEntity
  8
SUNPOU
100
AcDbLine
 10
231.6300008651452
 20
191.163116100255
 30
0.0
 11
231.6300008651452
 21
197.613116100255
 31
0.0
  0
LINE
  5
F086
330
1A
100
AcDbEntity
  8
SUNPOU
100
AcDbLine
 10
239.7200008651452
 20
191.213116100255
 30
0.0
 11
239.7200008651452
 21
194.213116100255
 31
0.0
  0
LINE
  5
F087
330
1A
100
AcDbEntity
  8
SUNPOU
100
AcDbLine
 10
235.6800008651451
 20
191.213116100255
 30
0.0
 11
235.6800008651451
 21
194.213116100255
 31
0.0
  0
LINE
  5
F088
330
1A
100
AcDbEntity
  8
SUNPOU
100
AcDbLine
 10
238.2200008651452
 20
191.213116100255
 30
0.0
 11
238.2200008651452
 21
194.213116100255
 31
0.0
  0
LINE
  5
F089
330
1A
100
AcDbEntity
  8
SUNPOU
100
AcDbLine
 10
237.1800008651451
 20
191.213116100255
 30
0.0
 11
237.1800008651451
 21
194.213116100255
 31
0.0
  0
LINE
  5
F08A
330
1A
100
AcDbEntity
  8
SUNPOU
100
AcDbLine
 10
233.1400008651451
 20
191.213116100255
 30
0.0
 11
233.1400008651451
 21
194.213116100255
 31
0.0
  0
LINE
  5
F08B
330
1A
100
AcDbEntity
  8
SUNPOU
100
AcDbLine
 10
234.6400008651451
 20
191.213116100255
 30
0.0
 11
234.6400008651451
 21
194.213116100255
 31
0.0
  0
LINE
  5
F08C
330
1A
100
AcDbEntity
  8
SUNPOU
100
AcDbLine
 10
239.7200008651452
 20
194.213116100255
 30
0.0
 11
238.2200008651452
 21
194.213116100255
 31
0.0
  0
LINE
  5
F08D
330
1A
100
AcDbEntity
  8
SUNPOU
100
AcDbLine
 10
237.1800008651451
 20
194.213116100255
 30
0.0
 11
235.6800008651451
 21
194.213116100255
 31
0.0
  0
LINE
  5
F08E
330
1A
100
AcDbEntity
  8
SUNPOU
100
AcDbLine
 10
234.6400008651451
 20
194.213116100255
 30
0.0
 11
233.1400008651451
 21
194.213116100255
 31
0.0
  0
LINE
  5
F08F
330
1A
100
AcDbEntity
  8
SUNPOU
100
AcDbLine
 10
239.7200008651452
 20
191.213116100255
 30
0.0
 11
238.2200008651452
 21
191.213116100255
 31
0.0
  0
LINE
  5
F090
330
1A
100
AcDbEntity
  8
SUNPOU
100
AcDbLine
 10
239.7200008651452
 20
192.213116100255
 30
0.0
 11
238.2200008651452
 21
192.213116100255
 31
0.0
  0
LINE
  5
F091
330
1A
100
AcDbEntity
  8
SUNPOU
100
AcDbLine
 10
237.1800008651451
 20
191.213116100255
 30
0.0
 11
235.6800008651451
 21
191.213116100255
 31
0.0
  0
LINE
  5
F092
330
1A
100
AcDbEntity
  8
SUNPOU
100
AcDbLine
 10
234.6400008651451
 20
191.213116100255
 30
0.0
 11
233.1400008651451
 21
191.213116100255
 31
0.0
  0
LINE
  5
F093
330
1A
100
AcDbEntity
  8
SUNPOU
100
AcDbLine
 10
237.1800008651451
 20
192.213116100255
 30
0.0
 11
235.6800008651451
 21
192.213116100255
 31
0.0
  0
LINE
  5
F094
330
1A
100
AcDbEntity
  8
SUNPOU
100
AcDbLine
 10
234.6400008651451
 20
192.213116100255
 30
0.0
 11
233.1400008651451
 21
192.213116100255
 31
0.0
  0
LINE
  5
F095
330
1A
100
AcDbEntity
  8
SUNPOU
100
AcDbLine
 10
243.7700008651451
 20
191.163116100255
 30
0.0
 11
243.7700008651451
 21
197.613116100255
 31
0.0
  0
LINE
  5
F096
330
1A
100
AcDbEntity
  8
SUNPOU
100
AcDbLine
 10
240.7600008651452
 20
191.213116100255
 30
0.0
 11
240.7600008651452
 21
194.213116100255
 31
0.0
  0
LINE
  5
F097
330
1A
100
AcDbEntity
  8
SUNPOU
100
AcDbLine
 10
242.2600008651452
 20
191.213116100255
 30
0.0
 11
242.2600008651452
 21
194.213116100255
 31
0.0
  0
LINE
  5
F098
330
1A
100
AcDbEntity
  8
SUNPOU
100
AcDbLine
 10
242.2600008651452
 20
194.213116100255
 30
0.0
 11
240.7600008651452
 21
194.213116100255
 31
0.0
  0
LINE
  5
F099
330
1A
100
AcDbEntity
  8
SUNPOU
100
AcDbLine
 10
242.2600008651452
 20
191.213116100255
 30
0.0
 11
240.7600008651452
 21
191.213116100255
 31
0.0
  0
LINE
  5
F09A
330
1A
100
AcDbEntity
  8
SUNPOU
100
AcDbLine
 10
242.2600008651452
 20
192.213116100255
 30
0.0
 11
240.7600008651452
 21
192.213116100255
 31
0.0
  0
LINE
  5
F09B
330
1A
100
AcDbEntity
  8
SUNPOU
100
AcDbLine
 10
243.7700008651451
 20
191.163116100255
 30
0.0
 11
231.6300008651452
 21
191.163116100255
 31
0.0
  0
LINE
  5
F09C
330
1A
100
AcDbEntity
  8
SUNPOU
100
AcDbLine
 10
243.7700008651451
 20
197.613116100255
 30
0.0
 11
231.6300008651452
 21
197.613116100255
 31
0.0
  0
LINE
  5
F09D
102
{ACAD_REACTORS
330
F60E
102
}
330
1A
100
AcDbEntity
  8
SUNPOU
100
AcDbLine
 10
210.0
 20
163.9631161447444
 30
0.0
 11
308.0
 21
163.9631161447444
 31
0.0
  0
LINE
  5
F09E
102
{ACAD_REACTORS
330
F60E
102
}
330
1A
100
AcDbEntity
  8
SUNPOU
100
AcDbLine
 10
210.0
 20
203.9631161447444
 30
0.0
 11
308.0
 21
203.9631161447444
 31
0.0
  0
TEXT
  5
F09F
330
1A
100
AcDbEntity
  8
SUNPOU
100
AcDbText
 10
291.9368580080023
 20
174.4631161002548
 30
0.0
 40
2.4
  1
N
 72
     1
 11
293.1940008651451
 21
175.6631161002548
 31
0.0
100
AcDbText
 73
     2
  0
TEXT
  5
F0A0
330
1A
100
AcDbEntity
  8
SUNPOU
100
AcDbText
 10
279.5020008651452
 20
167.0631161002549
 30
0.0
 40
3.0
  1
E
 72
     1
 11
281.0020008651451
 21
170.0631161002549
 31
0.0
100
AcDbText
 73
     3
  0
TEXT
  5
F0A1
330
1A
100
AcDbEntity
  8
SUNPOU
100
AcDbText
 10
287.6231430301717
 20
166.2631161358465
 30
0.0
 40
3.0
  1
AC
 72
     1
 11
290.2660001730289
 21
169.2631161358464
 31
0.0
100
AcDbText
 73
     3
  0
LINE
  5
F0A2
330
1A
100
AcDbEntity
  8
SUNPOU
100
AcDbLine
 10
285.858000173029
 20
170.0631161358464
 30
0.0
 11
285.858000173029
 21
168.0631161358465
 31
0.0
  0
LINE
  5
F0A3
330
1A
100
AcDbEntity
  8
SUNPOU
100
AcDbLine
 10
285.858000173029
 20
168.0631161358465
 30
0.0
 11
287.458000173029
 21
168.0631161358465
 31
0.0
  0
LINE
  5
F0A4
330
1A
100
AcDbEntity
  8
SUNPOU
100
AcDbLine
 10
293.2500001730289
 20
168.0631161358465
 30
0.0
 11
294.8500001730289
 21
168.0631161358465
 31
0.0
  0
LINE
  5
F0A5
330
1A
100
AcDbEntity
  8
SUNPOU
100
AcDbLine
 10
294.8500001730289
 20
168.0631161358465
 30
0.0
 11
294.8500001730289
 21
170.0631161358464
 31
0.0
  0
TEXT
  5
F0A6
330
1A
100
AcDbEntity
  8
SUNPOU
100
AcDbText
 10
285.955143722288
 20
174.4631161002548
 30
0.0
 40
2.4
  1
L
 72
     1
 11
287.0980008651451
 21
175.6631161002548
 31
0.0
100
AcDbText
 73
     2
  0
TEXT
  5
F0A7
330
1A
100
AcDbEntity
  8
SUNPOU
100
AcDbText
 10
271.4202865794309
 20
167.0631161002549
 30
0.0
 40
3.0
  1
SHL
 41
0.8
 72
     1
 11
274.9060008651451
 21
170.0631161002549
 31
0.0
100
AcDbText
 73
     3
  0
TEXT
  5
F0A8
330
1A
100
AcDbEntity
  8
SUNPOU
100
AcDbText
 10
244.4985714285713
 20
194.2156752647442
 30
0.0
 40
3.0
  1
TEST
 72
     1
 11
249.5699999999999
 21
197.2156752647442
 31
0.0
100
AcDbText
 73
     3
  0
TEXT
  5
F0A9
330
1A
100
AcDbEntity
  8
SUNPOU
100
AcDbText
 10
212.1571428571428
 20
194.7156752647442
 30
0.0
 40
3.0
  1
DATA
 41
0.8
 72
     1
 11
216.5
 21
197.7156752647442
 31
0.0
100
AcDbText
 73
     3
  0
TEXT
  5
F0AA
330
1A
100
AcDbEntity
  8
SUNPOU
100
AcDbText
 10
211.9428571428571
 20
189.7156752647442
 30
0.0
 40
3.0
  1
SEL
 41
1.1
 72
     1
 11
216.5
 21
192.7156752647442
 31
0.0
100
AcDbText
 73
     3
  0
TEXT
  5
F0AB
330
1A
100
AcDbEntity
  8
SUNPOU
100
AcDbText
 10
228.3014294365737
 20
181.4631161002549
 30
0.0
 40
3.0
  1
C/L (Data)
 41
0.8
 72
     1
 11
238.0500008651452
 21
181.4631161002549
 31
0.0
100
AcDbText
 73
     1
  0
TEXT
  5
F0AC
330
1A
100
AcDbEntity
  8
SUNPOU
100
AcDbText
 10
228.3231430301717
 20
166.5631161358465
 30
0.0
 40
3.0
  1
OUT
 41
0.8
 72
     1
 11
231.8660001730289
 21
169.5631161358465
 31
0.0
100
AcDbText
 73
     3
  0
LINE
  5
F0AD
330
1A
100
AcDbEntity
  8
SUNPOU
100
AcDbLine
 10
238.8500001730289
 20
170.4631161358465
 30
0.0
 11
238.8500001730289
 21
168.4631161358465
 31
0.0
  0
LINE
  5
F0AE
330
1A
100
AcDbEntity
  8
SUNPOU
100
AcDbLine
 10
238.8500001730289
 20
168.4631161358465
 30
0.0
 11
240.4500001730289
 21
168.4631161358465
 31
0.0
  0
LINE
  5
F0AF
330
1A
100
AcDbEntity
  8
SUNPOU
100
AcDbLine
 10
247.8420001730289
 20
168.4631161358465
 30
0.0
 11
249.4420001730289
 21
168.4631161358465
 31
0.0
  0
LINE
  5
F0B0
330
1A
100
AcDbEntity
  8
SUNPOU
100
AcDbLine
 10
249.4420001730289
 20
168.4631161358465
 30
0.0
 11
249.4420001730289
 21
170.4631161358465
 31
0.0
  0
LINE
  5
F0B1
330
1A
100
AcDbEntity
  8
SUNPOU
100
AcDbLine
 10
237.2500001730289
 20
168.4631161358464
 30
0.0
 11
237.2500001730289
 21
170.4631161358464
 31
0.0
  0
LINE
  5
F0B2
330
1A
100
AcDbEntity
  8
SUNPOU
100
AcDbLine
 10
235.650000173029
 20
168.4631161358464
 30
0.0
 11
237.2500001730289
 21
168.4631161358464
 31
0.0
  0
LINE
  5
F0B3
330
1A
100
AcDbEntity
  8
SUNPOU
100
AcDbLine
 10
226.658000173029
 20
168.4631161358464
 30
0.0
 11
228.2580001730289
 21
168.4631161358464
 31
0.0
  0
LINE
  5
F0B4
330
1A
100
AcDbEntity
  8
SUNPOU
100
AcDbLine
 10
226.658000173029
 20
170.4631161358464
 30
0.0
 11
226.658000173029
 21
168.4631161358464
 31
0.0
  0
TEXT
  5
F0B5
330
1A
100
AcDbEntity
  8
SUNPOU
100
AcDbText
 10
241.9151430301717
 20
166.5631161358464
 30
0.0
 40
3.0
  1
IN
 72
     1
 11
244.0580001730288
 21
169.5631161358464
 31
0.0
100
AcDbText
 73
     3
  0
TEXT
  5
F0B6
330
1A
100
AcDbEntity
  8
SUNPOU
100
AcDbText
 10
273.763143722288
 20
174.4631161002548
 30
0.0
 40
2.4
  1
5
 72
     1
 11
274.9060008651451
 21
175.6631161002548
 31
0.0
100
AcDbText
 73
     2
  0
TEXT
  5
F0B7
330
1A
100
AcDbEntity
  8
SUNPOU
100
AcDbText
 10
245.9940008651452
 20
174.4631161002548
 30
0.0
 40
2.4
  1
4
 72
     1
 11
247.1940008651452
 21
175.6631161002548
 31
0.0
100
AcDbText
 73
     2
  0
TEXT
  5
F0B8
330
1A
100
AcDbEntity
  8
SUNPOU
100
AcDbText
 10
239.955143722288
 20
174.4631161002548
 30
0.0
 40
2.4
  1
3
 72
     1
 11
241.0980008651451
 21
175.6631161002548
 31
0.0
100
AcDbText
 73
     2
  0
TEXT
  5
F0B9
330
1A
100
AcDbEntity
  8
SUNPOU
100
AcDbText
 10
233.859143722288
 20
174.4631161002548
 30
0.0
 40
2.4
  1
2
 72
     1
 11
235.0020008651451
 21
175.6631161002548
 31
0.0
100
AcDbText
 73
     2
  0
LINE
  5
F0BA
330
1A
100
AcDbEntity
  8
SUNPOU
100
AcDbLine
 10
298.0900008651452
 20
178.7031161002549
 30
0.0
 11
300.4900008651451
 21
178.7031161002549
 31
0.0
  0
LINE
  5
F0BB
330
1A
100
AcDbEntity
  8
SUNPOU
100
AcDbLine
 10
298.0900008651452
 20
172.623116100255
 30
0.0
 11
300.4900008651451
 21
172.623116100255
 31
0.0
  0
LINE
  5
F0BC
330
1A
100
AcDbEntity
  8
SUNPOU
100
AcDbLine
 10
298.0900008651452
 20
178.7031161002549
 30
0.0
 11
298.0900008651452
 21
178.0631161002549
 31
0.0
  0
LINE
  5
F0BD
330
1A
100
AcDbEntity
  8
SUNPOU
100
AcDbLine
 10
298.0900008651452
 20
173.2631161002549
 30
0.0
 11
298.0900008651452
 21
172.623116100255
 31
0.0
  0
LINE
  5
F0BE
330
1A
100
AcDbEntity
  8
SUNPOU
100
AcDbLine
 10
300.4900008651451
 20
178.7031161002549
 30
0.0
 11
300.4900008651451
 21
178.0631161002549
 31
0.0
  0
LINE
  5
F0BF
330
1A
100
AcDbEntity
  8
SUNPOU
100
AcDbLine
 10
300.4900008651451
 20
173.2631161002549
 30
0.0
 11
300.4900008651451
 21
172.623116100255
 31
0.0
  0
CIRCLE
  5
F0C0
330
1A
100
AcDbEntity
  8
SUNPOU
100
AcDbCircle
 10
299.2900008651452
 20
175.6631161002549
 30
0.0
 40
1.0
  0
LINE
  5
F0C1
330
1A
100
AcDbEntity
  8
SUNPOU
100
AcDbLine
 10
296.7300008651451
 20
179.3431161002549
 30
0.0
 11
301.8500008651451
 21
179.3431161002549
 31
0.0
  0
LINE
  5
F0C2
330
1A
100
AcDbEntity
  8
SUNPOU
100
AcDbLine
 10
296.7300008651451
 20
178.0631161002549
 30
0.0
 11
301.8500008651451
 21
178.0631161002549
 31
0.0
  0
LINE
  5
F0C3
330
1A
100
AcDbEntity
  8
SUNPOU
100
AcDbLine
 10
296.7300008651451
 20
171.9831161002549
 30
0.0
 11
301.8500008651452
 21
171.9831161002549
 31
0.0
  0
LINE
  5
F0C4
330
1A
100
AcDbEntity
  8
SUNPOU
100
AcDbLine
 10
296.7300008651451
 20
173.2631161002549
 30
0.0
 11
301.8500008651452
 21
173.2631161002549
 31
0.0
  0
LINE
  5
F0C5
330
1A
100
AcDbEntity
  8
SUNPOU
100
AcDbLine
 10
288.2980008651451
 20
173.2631161002549
 30
0.0
 11
288.2980008651451
 21
172.623116100255
 31
0.0
  0
LINE
  5
F0C6
330
1A
100
AcDbEntity
  8
SUNPOU
100
AcDbLine
 10
288.2980008651451
 20
178.7031161002549
 30
0.0
 11
288.2980008651451
 21
178.0631161002549
 31
0.0
  0
LINE
  5
F0C7
330
1A
100
AcDbEntity
  8
SUNPOU
100
AcDbLine
 10
291.9940008651451
 20
178.7031161002549
 30
0.0
 11
294.3940008651452
 21
178.7031161002549
 31
0.0
  0
LINE
  5
F0C8
330
1A
100
AcDbEntity
  8
SUNPOU
100
AcDbLine
 10
291.9940008651451
 20
172.623116100255
 30
0.0
 11
294.3940008651452
 21
172.623116100255
 31
0.0
  0
LINE
  5
F0C9
330
1A
100
AcDbEntity
  8
SUNPOU
100
AcDbLine
 10
291.9940008651451
 20
178.7031161002549
 30
0.0
 11
291.9940008651452
 21
178.0631161002549
 31
0.0
  0
LINE
  5
F0CA
330
1A
100
AcDbEntity
  8
SUNPOU
100
AcDbLine
 10
291.9940008651451
 20
173.2631161002549
 30
0.0
 11
291.9940008651451
 21
172.623116100255
 31
0.0
  0
LINE
  5
F0CB
330
1A
100
AcDbEntity
  8
SUNPOU
100
AcDbLine
 10
294.3940008651452
 20
178.7031161002549
 30
0.0
 11
294.3940008651452
 21
178.0631161002549
 31
0.0
  0
LINE
  5
F0CC
330
1A
100
AcDbEntity
  8
SUNPOU
100
AcDbLine
 10
294.3940008651452
 20
173.2631161002549
 30
0.0
 11
294.3940008651452
 21
172.623116100255
 31
0.0
  0
LINE
  5
F0CD
330
1A
100
AcDbEntity
  8
SUNPOU
100
AcDbLine
 10
282.2020008651451
 20
173.2631161002549
 30
0.0
 11
282.2020008651451
 21
172.623116100255
 31
0.0
  0
LINE
  5
F0CE
330
1A
100
AcDbEntity
  8
SUNPOU
100
AcDbLine
 10
285.8980008651451
 20
173.2631161002549
 30
0.0
 11
285.8980008651451
 21
172.623116100255
 31
0.0
  0
LINE
  5
F0CF
330
1A
100
AcDbEntity
  8
SUNPOU
100
AcDbLine
 10
282.2020008651451
 20
178.7031161002549
 30
0.0
 11
282.2020008651451
 21
178.0631161002549
 31
0.0
  0
LINE
  5
F0D0
330
1A
100
AcDbEntity
  8
SUNPOU
100
AcDbLine
 10
285.8980008651451
 20
178.7031161002549
 30
0.0
 11
285.8980008651451
 21
178.0631161002549
 31
0.0
  0
CIRCLE
  5
F0D1
330
1A
100
AcDbEntity
  8
SUNPOU
100
AcDbCircle
 10
287.0980008651451
 20
175.6631161002548
 30
0.0
 40
2.2
  0
LINE
  5
F0D2
330
1A
100
AcDbEntity
  8
SUNPOU
100
AcDbLine
 10
285.8980008651451
 20
172.623116100255
 30
0.0
 11
288.2980008651451
 21
172.623116100255
 31
0.0
  0
LINE
  5
F0D3
330
1A
100
AcDbEntity
  8
SUNPOU
100
AcDbLine
 10
284.5380008651451
 20
173.2631161002549
 30
0.0
 11
289.6580008651452
 21
173.2631161002549
 31
0.0
  0
LINE
  5
F0D4
330
1A
100
AcDbEntity
  8
SUNPOU
100
AcDbLine
 10
284.5380008651451
 20
171.9831161002549
 30
0.0
 11
289.6580008651452
 21
171.9831161002549
 31
0.0
  0
LINE
  5
F0D5
330
1A
100
AcDbEntity
  8
SUNPOU
100
AcDbLine
 10
285.8980008651451
 20
178.7031161002549
 30
0.0
 11
288.2980008651451
 21
178.7031161002549
 31
0.0
  0
LINE
  5
F0D6
330
1A
100
AcDbEntity
  8
SUNPOU
100
AcDbLine
 10
284.5380008651451
 20
178.0631161002549
 30
0.0
 11
289.6580008651451
 21
178.0631161002549
 31
0.0
  0
LINE
  5
F0D7
330
1A
100
AcDbEntity
  8
SUNPOU
100
AcDbLine
 10
284.5380008651451
 20
179.3431161002549
 30
0.0
 11
289.6580008651451
 21
179.3431161002549
 31
0.0
  0
LINE
  5
F0D8
330
1A
100
AcDbEntity
  8
SUNPOU
100
AcDbLine
 10
290.6340008651451
 20
179.3431161002549
 30
0.0
 11
295.7540008651451
 21
179.3431161002549
 31
0.0
  0
LINE
  5
F0D9
330
1A
100
AcDbEntity
  8
SUNPOU
100
AcDbLine
 10
290.6340008651451
 20
178.0631161002549
 30
0.0
 11
295.7540008651451
 21
178.0631161002549
 31
0.0
  0
LINE
  5
F0DA
330
1A
100
AcDbEntity
  8
SUNPOU
100
AcDbLine
 10
290.6340008651451
 20
173.2631161002549
 30
0.0
 11
295.7540008651452
 21
173.2631161002549
 31
0.0
  0
LINE
  5
F0DB
330
1A
100
AcDbEntity
  8
SUNPOU
100
AcDbLine
 10
290.6340008651451
 20
171.9831161002549
 30
0.0
 11
295.7540008651452
 21
171.9831161002549
 31
0.0
  0
CIRCLE
  5
F0DC
330
1A
100
AcDbEntity
  8
SUNPOU
100
AcDbCircle
 10
293.1940008651451
 20
175.6631161002548
 30
0.0
 40
2.2
  0
LINE
  5
F0DD
330
1A
100
AcDbEntity
  8
SUNPOU
100
AcDbLine
 10
283.5620008651451
 20
180.4631161002549
 30
0.0
 11
283.5620008651451
 21
170.8631161002549
 31
0.0
  0
LINE
  5
F0DE
330
1A
100
AcDbEntity
  8
SUNPOU
100
AcDbLine
 10
284.5380008651452
 20
180.4631161002549
 30
0.0
 11
284.5380008651451
 21
170.8631161002549
 31
0.0
  0
LINE
  5
F0DF
330
1A
100
AcDbEntity
  8
SUNPOU
100
AcDbLine
 10
290.6340008651452
 20
180.4631161002549
 30
0.0
 11
290.6340008651451
 21
170.8631161002549
 31
0.0
  0
LINE
  5
F0E0
330
1A
100
AcDbEntity
  8
SUNPOU
100
AcDbLine
 10
296.7300008651452
 20
180.4631161002549
 30
0.0
 11
296.7300008651451
 21
170.8631161002549
 31
0.0
  0
LINE
  5
F0E1
330
1A
100
AcDbEntity
  8
SUNPOU
100
AcDbLine
 10
295.7540008651451
 20
180.4631161002549
 30
0.0
 11
295.7540008651451
 21
170.8631161002549
 31
0.0
  0
LINE
  5
F0E2
330
1A
100
AcDbEntity
  8
SUNPOU
100
AcDbLine
 10
289.6580008651451
 20
180.4631161002549
 30
0.0
 11
289.6580008651451
 21
170.8631161002549
 31
0.0
  0
LINE
  5
F0E3
330
1A
100
AcDbEntity
  8
SUNPOU
100
AcDbLine
 10
301.8500008651451
 20
170.8631161002549
 30
0.0
 11
301.8500008651452
 21
180.4631161002549
 31
0.0
  0
LINE
  5
F0E4
330
1A
100
AcDbEntity
  8
SUNPOU
100
AcDbLine
 10
276.1060008651451
 20
173.2631161002549
 30
0.0
 11
276.1060008651451
 21
172.623116100255
 31
0.0
  0
LINE
  5
F0E5
330
1A
100
AcDbEntity
  8
SUNPOU
100
AcDbLine
 10
279.8020008651452
 20
173.2631161002549
 30
0.0
 11
279.8020008651452
 21
172.623116100255
 31
0.0
  0
LINE
  5
F0E6
330
1A
100
AcDbEntity
  8
SUNPOU
100
AcDbLine
 10
276.1060008651451
 20
178.7031161002549
 30
0.0
 11
276.1060008651451
 21
178.0631161002549
 31
0.0
  0
LINE
  5
F0E7
330
1A
100
AcDbEntity
  8
SUNPOU
100
AcDbLine
 10
279.8020008651452
 20
178.7031161002549
 30
0.0
 11
279.8020008651452
 21
178.0631161002549
 31
0.0
  0
LINE
  5
F0E8
330
1A
100
AcDbEntity
  8
SUNPOU
100
AcDbLine
 10
270.0100008651451
 20
173.2631161002549
 30
0.0
 11
270.0100008651451
 21
172.623116100255
 31
0.0
  0
LINE
  5
F0E9
330
1A
100
AcDbEntity
  8
SUNPOU
100
AcDbLine
 10
273.7060008651452
 20
173.2631161002549
 30
0.0
 11
273.7060008651452
 21
172.623116100255
 31
0.0
  0
LINE
  5
F0EA
330
1A
100
AcDbEntity
  8
SUNPOU
100
AcDbLine
 10
270.0100008651451
 20
178.7031161002549
 30
0.0
 11
270.0100008651451
 21
178.0631161002549
 31
0.0
  0
LINE
  5
F0EB
330
1A
100
AcDbEntity
  8
SUNPOU
100
AcDbLine
 10
273.7060008651452
 20
178.7031161002549
 30
0.0
 11
273.7060008651452
 21
178.0631161002549
 31
0.0
  0
CIRCLE
  5
F0EC
330
1A
100
AcDbEntity
  8
SUNPOU
100
AcDbCircle
 10
274.9060008651451
 20
175.6631161002548
 30
0.0
 40
2.2
  0
LINE
  5
F0ED
330
1A
100
AcDbEntity
  8
SUNPOU
100
AcDbLine
 10
272.3460008651451
 20
171.9831161002549
 30
0.0
 11
277.4660008651452
 21
171.9831161002549
 31
0.0
  0
LINE
  5
F0EE
330
1A
100
AcDbEntity
  8
SUNPOU
100
AcDbLine
 10
272.3460008651451
 20
173.2631161002549
 30
0.0
 11
277.4660008651452
 21
173.2631161002549
 31
0.0
  0
LINE
  5
F0EF
330
1A
100
AcDbEntity
  8
SUNPOU
100
AcDbLine
 10
273.7060008651452
 20
172.623116100255
 30
0.0
 11
276.1060008651451
 21
172.623116100255
 31
0.0
  0
LINE
  5
F0F0
330
1A
100
AcDbEntity
  8
SUNPOU
100
AcDbLine
 10
272.3460008651451
 20
178.0631161002549
 30
0.0
 11
277.4660008651451
 21
178.0631161002549
 31
0.0
  0
LINE
  5
F0F1
330
1A
100
AcDbEntity
  8
SUNPOU
100
AcDbLine
 10
272.3460008651451
 20
179.3431161002549
 30
0.0
 11
277.4660008651451
 21
179.3431161002549
 31
0.0
  0
LINE
  5
F0F2
330
1A
100
AcDbEntity
  8
SUNPOU
100
AcDbLine
 10
273.7060008651452
 20
178.7031161002549
 30
0.0
 11
276.1060008651451
 21
178.7031161002549
 31
0.0
  0
LINE
  5
F0F3
330
1A
100
AcDbEntity
  8
SUNPOU
100
AcDbLine
 10
267.6100008651451
 20
173.2631161002549
 30
0.0
 11
267.6100008651451
 21
172.623116100255
 31
0.0
  0
LINE
  5
F0F4
330
1A
100
AcDbEntity
  8
SUNPOU
100
AcDbLine
 10
267.6100008651451
 20
178.7031161002549
 30
0.0
 11
267.6100008651452
 21
178.0631161002549
 31
0.0
  0
LINE
  5
F0F5
330
1A
100
AcDbEntity
  8
SUNPOU
100
AcDbLine
 10
266.2500008651451
 20
179.3431161002549
 30
0.0
 11
271.3700008651451
 21
179.3431161002549
 31
0.0
  0
LINE
  5
F0F6
330
1A
100
AcDbEntity
  8
SUNPOU
100
AcDbLine
 10
266.2500008651451
 20
178.0631161002549
 30
0.0
 11
271.3700008651451
 21
178.0631161002549
 31
0.0
  0
LINE
  5
F0F7
330
1A
100
AcDbEntity
  8
SUNPOU
100
AcDbLine
 10
266.2500008651451
 20
173.2631161002549
 30
0.0
 11
271.3700008651452
 21
173.2631161002549
 31
0.0
  0
LINE
  5
F0F8
330
1A
100
AcDbEntity
  8
SUNPOU
100
AcDbLine
 10
266.2500008651451
 20
171.9831161002549
 30
0.0
 11
271.3700008651452
 21
171.9831161002549
 31
0.0
  0
LINE
  5
F0F9
330
1A
100
AcDbEntity
  8
SUNPOU
100
AcDbLine
 10
267.6100008651451
 20
172.623116100255
 30
0.0
 11
270.0100008651451
 21
172.623116100255
 31
0.0
  0
LINE
  5
F0FA
330
1A
100
AcDbEntity
  8
SUNPOU
100
AcDbLine
 10
267.6100008651451
 20
178.7031161002549
 30
0.0
 11
270.0100008651451
 21
178.7031161002549
 31
0.0
  0
CIRCLE
  5
F0FB
330
1A
100
AcDbEntity
  8
SUNPOU
100
AcDbCircle
 10
268.8100008651451
 20
175.6631161002548
 30
0.0
 40
1.0
  0
LINE
  5
F0FC
330
1A
100
AcDbEntity
  8
SUNPOU
100
AcDbLine
 10
271.3700008651451
 20
180.4631161002549
 30
0.0
 11
271.3700008651451
 21
170.8631161002549
 31
0.0
  0
LINE
  5
F0FD
330
1A
100
AcDbEntity
  8
SUNPOU
100
AcDbLine
 10
272.3460008651452
 20
180.4631161002549
 30
0.0
 11
272.3460008651451
 21
170.8631161002549
 31
0.0
  0
LINE
  5
F0FE
330
1A
100
AcDbEntity
  8
SUNPOU
100
AcDbLine
 10
277.4660008651451
 20
180.4631161002549
 30
0.0
 11
277.4660008651451
 21
170.8631161002549
 31
0.0
  0
LINE
  5
F0FF
330
1A
100
AcDbEntity
  8
SUNPOU
100
AcDbLine
 10
278.4420008651452
 20
180.4631161002549
 30
0.0
 11
278.4420008651451
 21
170.8631161002549
 31
0.0
  0
LINE
  5
F100
330
1A
100
AcDbEntity
  8
SUNPOU
100
AcDbLine
 10
266.2500008651451
 20
170.8631161002549
 30
0.0
 11
266.2500008651451
 21
180.4631161002549
 31
0.0
  0
CIRCLE
  5
F101
330
1A
100
AcDbEntity
  8
SUNPOU
100
AcDbCircle
 10
281.0020008651451
 20
175.6631161002548
 30
0.0
 40
2.2
  0
LINE
  5
F102
330
1A
100
AcDbEntity
  8
SUNPOU
100
AcDbLine
 10
279.8020008651451
 20
172.623116100255
 30
0.0
 11
282.2020008651451
 21
172.623116100255
 31
0.0
  0
LINE
  5
F103
330
1A
100
AcDbEntity
  8
SUNPOU
100
AcDbLine
 10
278.4420008651451
 20
171.9831161002549
 30
0.0
 11
283.5620008651452
 21
171.9831161002549
 31
0.0
  0
LINE
  5
F104
330
1A
100
AcDbEntity
  8
SUNPOU
100
AcDbLine
 10
278.4420008651451
 20
173.2631161002549
 30
0.0
 11
283.5620008651452
 21
173.2631161002549
 31
0.0
  0
LINE
  5
F105
330
1A
100
AcDbEntity
  8
SUNPOU
100
AcDbLine
 10
278.4420008651451
 20
178.0631161002549
 30
0.0
 11
283.5620008651451
 21
178.0631161002549
 31
0.0
  0
LINE
  5
F106
330
1A
100
AcDbEntity
  8
SUNPOU
100
AcDbLine
 10
279.8020008651451
 20
178.7031161002549
 30
0.0
 11
282.2020008651451
 21
178.7031161002549
 31
0.0
  0
LINE
  5
F107
330
1A
100
AcDbEntity
  8
SUNPOU
100
AcDbLine
 10
278.4420008651451
 20
179.3431161002549
 30
0.0
 11
283.5620008651451
 21
179.3431161002549
 31
0.0
  0
LINE
  5
F108
330
1A
100
AcDbEntity
  8
SUNPOU
100
AcDbLine
 10
266.2500008651451
 20
180.4631161002549
 30
0.0
 11
301.8500008651451
 21
180.4631161002549
 31
0.0
  0
LINE
  5
F109
330
1A
100
AcDbEntity
  8
SUNPOU
100
AcDbLine
 10
266.2500008651451
 20
170.8631161002549
 30
0.0
 11
301.8500008651451
 21
170.8631161002549
 31
0.0
  0
LINE
  5
F10A
330
1A
100
AcDbEntity
  8
SUNPOU
100
AcDbLine
 10
252.0900008651452
 20
178.7031161002548
 30
0.0
 11
254.4900008651451
 21
178.7031161002548
 31
0.0
  0
LINE
  5
F10B
330
1A
100
AcDbEntity
  8
SUNPOU
100
AcDbLine
 10
252.0900008651452
 20
172.6231161002549
 30
0.0
 11
254.4900008651451
 21
172.6231161002549
 31
0.0
  0
LINE
  5
F10C
330
1A
100
AcDbEntity
  8
SUNPOU
100
AcDbLine
 10
252.0900008651452
 20
178.7031161002548
 30
0.0
 11
252.0900008651452
 21
178.0631161002549
 31
0.0
  0
LINE
  5
F10D
330
1A
100
AcDbEntity
  8
SUNPOU
100
AcDbLine
 10
252.0900008651452
 20
173.2631161002549
 30
0.0
 11
252.0900008651452
 21
172.6231161002549
 31
0.0
  0
LINE
  5
F10E
330
1A
100
AcDbEntity
  8
SUNPOU
100
AcDbLine
 10
254.4900008651451
 20
178.7031161002548
 30
0.0
 11
254.4900008651451
 21
178.0631161002549
 31
0.0
  0
LINE
  5
F10F
330
1A
100
AcDbEntity
  8
SUNPOU
100
AcDbLine
 10
254.4900008651451
 20
173.2631161002549
 30
0.0
 11
254.4900008651451
 21
172.6231161002549
 31
0.0
  0
CIRCLE
  5
F110
330
1A
100
AcDbEntity
  8
SUNPOU
100
AcDbCircle
 10
253.2900008651452
 20
175.6631161002549
 30
0.0
 40
1.0
  0
LINE
  5
F111
330
1A
100
AcDbEntity
  8
SUNPOU
100
AcDbLine
 10
250.7300008651451
 20
179.3431161002549
 30
0.0
 11
255.8500008651451
 21
179.3431161002549
 31
0.0
  0
LINE
  5
F112
330
1A
100
AcDbEntity
  8
SUNPOU
100
AcDbLine
 10
250.7300008651451
 20
178.0631161002549
 30
0.0
 11
255.8500008651451
 21
178.0631161002549
 31
0.0
  0
LINE
  5
F113
330
1A
100
AcDbEntity
  8
SUNPOU
100
AcDbLine
 10
250.7300008651451
 20
171.9831161002549
 30
0.0
 11
255.8500008651451
 21
171.9831161002549
 31
0.0
  0
LINE
  5
F114
330
1A
100
AcDbEntity
  8
SUNPOU
100
AcDbLine
 10
250.7300008651451
 20
173.2631161002549
 30
0.0
 11
255.8500008651451
 21
173.2631161002549
 31
0.0
  0
LINE
  5
F115
330
1A
100
AcDbEntity
  8
SUNPOU
100
AcDbLine
 10
242.2980008651451
 20
173.2631161002549
 30
0.0
 11
242.2980008651451
 21
172.6231161002549
 31
0.0
  0
LINE
  5
F116
330
1A
100
AcDbEntity
  8
SUNPOU
100
AcDbLine
 10
242.2980008651451
 20
178.7031161002548
 30
0.0
 11
242.2980008651451
 21
178.0631161002549
 31
0.0
  0
LINE
  5
F117
330
1A
100
AcDbEntity
  8
SUNPOU
100
AcDbLine
 10
245.9940008651451
 20
178.7031161002548
 30
0.0
 11
248.3940008651451
 21
178.7031161002548
 31
0.0
  0
LINE
  5
F118
330
1A
100
AcDbEntity
  8
SUNPOU
100
AcDbLine
 10
245.9940008651451
 20
172.6231161002549
 30
0.0
 11
248.3940008651451
 21
172.6231161002549
 31
0.0
  0
LINE
  5
F119
330
1A
100
AcDbEntity
  8
SUNPOU
100
AcDbLine
 10
245.9940008651452
 20
178.7031161002548
 30
0.0
 11
245.9940008651452
 21
178.0631161002549
 31
0.0
  0
LINE
  5
F11A
330
1A
100
AcDbEntity
  8
SUNPOU
100
AcDbLine
 10
245.9940008651452
 20
173.2631161002549
 30
0.0
 11
245.9940008651452
 21
172.6231161002549
 31
0.0
  0
LINE
  5
F11B
330
1A
100
AcDbEntity
  8
SUNPOU
100
AcDbLine
 10
248.3940008651451
 20
178.7031161002548
 30
0.0
 11
248.3940008651451
 21
178.0631161002549
 31
0.0
  0
LINE
  5
F11C
330
1A
100
AcDbEntity
  8
SUNPOU
100
AcDbLine
 10
248.3940008651451
 20
173.2631161002549
 30
0.0
 11
248.3940008651451
 21
172.6231161002549
 31
0.0
  0
LINE
  5
F11D
330
1A
100
AcDbEntity
  8
SUNPOU
100
AcDbLine
 10
236.2020008651451
 20
173.2631161002549
 30
0.0
 11
236.2020008651451
 21
172.6231161002549
 31
0.0
  0
LINE
  5
F11E
330
1A
100
AcDbEntity
  8
SUNPOU
100
AcDbLine
 10
239.8980008651451
 20
173.2631161002549
 30
0.0
 11
239.8980008651451
 21
172.6231161002549
 31
0.0
  0
LINE
  5
F11F
330
1A
100
AcDbEntity
  8
SUNPOU
100
AcDbLine
 10
236.2020008651451
 20
178.7031161002548
 30
0.0
 11
236.2020008651451
 21
178.0631161002549
 31
0.0
  0
LINE
  5
F120
330
1A
100
AcDbEntity
  8
SUNPOU
100
AcDbLine
 10
239.8980008651451
 20
178.7031161002548
 30
0.0
 11
239.8980008651451
 21
178.0631161002549
 31
0.0
  0
CIRCLE
  5
F121
330
1A
100
AcDbEntity
  8
SUNPOU
100
AcDbCircle
 10
241.0980008651451
 20
175.6631161002548
 30
0.0
 40
2.2
  0
LINE
  5
F122
330
1A
100
AcDbEntity
  8
SUNPOU
100
AcDbLine
 10
239.8980008651451
 20
172.6231161002549
 30
0.0
 11
242.2980008651451
 21
172.6231161002549
 31
0.0
  0
LINE
  5
F123
330
1A
100
AcDbEntity
  8
SUNPOU
100
AcDbLine
 10
238.5380008651451
 20
173.2631161002549
 30
0.0
 11
243.6580008651451
 21
173.2631161002549
 31
0.0
  0
LINE
  5
F124
330
1A
100
AcDbEntity
  8
SUNPOU
100
AcDbLine
 10
238.5380008651451
 20
171.9831161002549
 30
0.0
 11
243.6580008651451
 21
171.9831161002549
 31
0.0
  0
LINE
  5
F125
330
1A
100
AcDbEntity
  8
SUNPOU
100
AcDbLine
 10
239.8980008651451
 20
178.7031161002548
 30
0.0
 11
242.2980008651451
 21
178.7031161002548
 31
0.0
  0
LINE
  5
F126
330
1A
100
AcDbEntity
  8
SUNPOU
100
AcDbLine
 10
238.5380008651452
 20
178.0631161002549
 30
0.0
 11
243.6580008651451
 21
178.0631161002549
 31
0.0
  0
LINE
  5
F127
330
1A
100
AcDbEntity
  8
SUNPOU
100
AcDbLine
 10
238.5380008651452
 20
179.3431161002549
 30
0.0
 11
243.6580008651451
 21
179.3431161002549
 31
0.0
  0
LINE
  5
F128
330
1A
100
AcDbEntity
  8
SUNPOU
100
AcDbLine
 10
244.6340008651451
 20
179.3431161002549
 30
0.0
 11
249.7540008651451
 21
179.3431161002549
 31
0.0
  0
LINE
  5
F129
330
1A
100
AcDbEntity
  8
SUNPOU
100
AcDbLine
 10
244.6340008651451
 20
178.0631161002549
 30
0.0
 11
249.7540008651451
 21
178.0631161002549
 31
0.0
  0
LINE
  5
F12A
330
1A
100
AcDbEntity
  8
SUNPOU
100
AcDbLine
 10
244.6340008651451
 20
173.2631161002549
 30
0.0
 11
249.7540008651451
 21
173.2631161002549
 31
0.0
  0
LINE
  5
F12B
330
1A
100
AcDbEntity
  8
SUNPOU
100
AcDbLine
 10
244.6340008651451
 20
171.9831161002549
 30
0.0
 11
249.7540008651451
 21
171.9831161002549
 31
0.0
  0
CIRCLE
  5
F12C
330
1A
100
AcDbEntity
  8
SUNPOU
100
AcDbCircle
 10
247.1940008651452
 20
175.6631161002548
 30
0.0
 40
2.2
  0
LINE
  5
F12D
330
1A
100
AcDbEntity
  8
SUNPOU
100
AcDbLine
 10
237.5620008651451
 20
180.4631161002549
 30
0.0
 11
237.5620008651452
 21
170.8631161002549
 31
0.0
  0
LINE
  5
F12E
330
1A
100
AcDbEntity
  8
SUNPOU
100
AcDbLine
 10
238.5380008651452
 20
180.4631161002549
 30
0.0
 11
238.5380008651452
 21
170.8631161002549
 31
0.0
  0
LINE
  5
F12F
330
1A
100
AcDbEntity
  8
SUNPOU
100
AcDbLine
 10
244.6340008651452
 20
180.4631161002549
 30
0.0
 11
244.6340008651451
 21
170.8631161002549
 31
0.0
  0
LINE
  5
F130
330
1A
100
AcDbEntity
  8
SUNPOU
100
AcDbLine
 10
250.7300008651452
 20
180.4631161002549
 30
0.0
 11
250.7300008651451
 21
170.8631161002549
 31
0.0
  0
LINE
  5
F131
330
1A
100
AcDbEntity
  8
SUNPOU
100
AcDbLine
 10
249.7540008651451
 20
180.4631161002549
 30
0.0
 11
249.7540008651451
 21
170.8631161002549
 31
0.0
  0
LINE
  5
F132
330
1A
100
AcDbEntity
  8
SUNPOU
100
AcDbLine
 10
243.6580008651451
 20
180.4631161002549
 30
0.0
 11
243.6580008651451
 21
170.8631161002549
 31
0.0
  0
LINE
  5
F133
330
1A
100
AcDbEntity
  8
SUNPOU
100
AcDbLine
 10
255.8500008651451
 20
170.8631161002549
 30
0.0
 11
255.8500008651451
 21
180.4631161002549
 31
0.0
  0
LINE
  5
F134
330
1A
100
AcDbEntity
  8
SUNPOU
100
AcDbLine
 10
230.1060008651451
 20
173.2631161002549
 30
0.0
 11
230.1060008651451
 21
172.6231161002549
 31
0.0
  0
LINE
  5
F135
330
1A
100
AcDbEntity
  8
SUNPOU
100
AcDbLine
 10
233.8020008651451
 20
173.2631161002549
 30
0.0
 11
233.8020008651451
 21
172.6231161002549
 31
0.0
  0
LINE
  5
F136
330
1A
100
AcDbEntity
  8
SUNPOU
100
AcDbLine
 10
230.1060008651451
 20
178.7031161002548
 30
0.0
 11
230.1060008651451
 21
178.0631161002549
 31
0.0
  0
LINE
  5
F137
330
1A
100
AcDbEntity
  8
SUNPOU
100
AcDbLine
 10
233.8020008651451
 20
178.7031161002548
 30
0.0
 11
233.8020008651451
 21
178.0631161002549
 31
0.0
  0
LINE
  5
F138
330
1A
100
AcDbEntity
  8
SUNPOU
100
AcDbLine
 10
224.0100008651451
 20
173.2631161002549
 30
0.0
 11
224.0100008651451
 21
172.6231161002549
 31
0.0
  0
LINE
  5
F139
330
1A
100
AcDbEntity
  8
SUNPOU
100
AcDbLine
 10
227.7060008651452
 20
173.2631161002549
 30
0.0
 11
227.7060008651452
 21
172.6231161002549
 31
0.0
  0
LINE
  5
F13A
330
1A
100
AcDbEntity
  8
SUNPOU
100
AcDbLine
 10
224.0100008651451
 20
178.7031161002548
 30
0.0
 11
224.0100008651451
 21
178.0631161002549
 31
0.0
  0
LINE
  5
F13B
330
1A
100
AcDbEntity
  8
SUNPOU
100
AcDbLine
 10
227.7060008651452
 20
178.7031161002548
 30
0.0
 11
227.7060008651452
 21
178.0631161002549
 31
0.0
  0
CIRCLE
  5
F13C
330
1A
100
AcDbEntity
  8
SUNPOU
100
AcDbCircle
 10
228.9060008651451
 20
175.6631161002548
 30
0.0
 40
2.2
  0
LINE
  5
F13D
330
1A
100
AcDbEntity
  8
SUNPOU
100
AcDbLine
 10
226.3460008651451
 20
171.9831161002549
 30
0.0
 11
231.4660008651451
 21
171.9831161002549
 31
0.0
  0
LINE
  5
F13E
330
1A
100
AcDbEntity
  8
SUNPOU
100
AcDbLine
 10
226.3460008651451
 20
173.2631161002549
 30
0.0
 11
231.4660008651451
 21
173.2631161002549
 31
0.0
  0
LINE
  5
F13F
330
1A
100
AcDbEntity
  8
SUNPOU
100
AcDbLine
 10
227.7060008651452
 20
172.6231161002549
 30
0.0
 11
230.1060008651451
 21
172.6231161002549
 31
0.0
  0
LINE
  5
F140
330
1A
100
AcDbEntity
  8
SUNPOU
100
AcDbLine
 10
226.3460008651451
 20
178.0631161002549
 30
0.0
 11
231.4660008651451
 21
178.0631161002549
 31
0.0
  0
LINE
  5
F141
330
1A
100
AcDbEntity
  8
SUNPOU
100
AcDbLine
 10
226.3460008651451
 20
179.3431161002549
 30
0.0
 11
231.4660008651451
 21
179.3431161002549
 31
0.0
  0
LINE
  5
F142
330
1A
100
AcDbEntity
  8
SUNPOU
100
AcDbLine
 10
227.7060008651452
 20
178.7031161002548
 30
0.0
 11
230.1060008651451
 21
178.7031161002548
 31
0.0
  0
LINE
  5
F143
330
1A
100
AcDbEntity
  8
SUNPOU
100
AcDbLine
 10
221.6100008651451
 20
173.2631161002549
 30
0.0
 11
221.6100008651451
 21
172.6231161002549
 31
0.0
  0
LINE
  5
F144
330
1A
100
AcDbEntity
  8
SUNPOU
100
AcDbLine
 10
221.6100008651451
 20
178.7031161002548
 30
0.0
 11
221.6100008651451
 21
178.0631161002549
 31
0.0
  0
LINE
  5
F145
330
1A
100
AcDbEntity
  8
SUNPOU
100
AcDbLine
 10
220.2500008651451
 20
179.3431161002549
 30
0.0
 11
225.3700008651451
 21
179.3431161002549
 31
0.0
  0
LINE
  5
F146
330
1A
100
AcDbEntity
  8
SUNPOU
100
AcDbLine
 10
220.2500008651451
 20
178.0631161002549
 30
0.0
 11
225.3700008651451
 21
178.0631161002549
 31
0.0
  0
LINE
  5
F147
330
1A
100
AcDbEntity
  8
SUNPOU
100
AcDbLine
 10
220.2500008651451
 20
173.2631161002549
 30
0.0
 11
225.3700008651451
 21
173.2631161002549
 31
0.0
  0
LINE
  5
F148
330
1A
100
AcDbEntity
  8
SUNPOU
100
AcDbLine
 10
220.2500008651451
 20
171.9831161002549
 30
0.0
 11
225.3700008651451
 21
171.9831161002549
 31
0.0
  0
LINE
  5
F149
330
1A
100
AcDbEntity
  8
SUNPOU
100
AcDbLine
 10
221.6100008651451
 20
172.6231161002549
 30
0.0
 11
224.0100008651451
 21
172.6231161002549
 31
0.0
  0
LINE
  5
F14A
330
1A
100
AcDbEntity
  8
SUNPOU
100
AcDbLine
 10
221.6100008651451
 20
178.7031161002548
 30
0.0
 11
224.0100008651451
 21
178.7031161002548
 31
0.0
  0
CIRCLE
  5
F14B
330
1A
100
AcDbEntity
  8
SUNPOU
100
AcDbCircle
 10
222.8100008651451
 20
175.6631161002548
 30
0.0
 40
1.0
  0
LINE
  5
F14C
330
1A
100
AcDbEntity
  8
SUNPOU
100
AcDbLine
 10
225.3700008651451
 20
180.4631161002549
 30
0.0
 11
225.3700008651451
 21
170.8631161002549
 31
0.0
  0
LINE
  5
F14D
330
1A
100
AcDbEntity
  8
SUNPOU
100
AcDbLine
 10
226.3460008651452
 20
180.4631161002549
 30
0.0
 11
226.3460008651451
 21
170.8631161002549
 31
0.0
  0
LINE
  5
F14E
330
1A
100
AcDbEntity
  8
SUNPOU
100
AcDbLine
 10
231.4660008651451
 20
180.4631161002549
 30
0.0
 11
231.4660008651451
 21
170.8631161002549
 31
0.0
  0
LINE
  5
F14F
330
1A
100
AcDbEntity
  8
SUNPOU
100
AcDbLine
 10
232.4420008651452
 20
180.4631161002549
 30
0.0
 11
232.4420008651451
 21
170.8631161002549
 31
0.0
  0
LINE
  5
F150
330
1A
100
AcDbEntity
  8
SUNPOU
100
AcDbLine
 10
220.2500008651451
 20
170.8631161002549
 30
0.0
 11
220.2500008651451
 21
180.4631161002549
 31
0.0
  0
CIRCLE
  5
F151
330
1A
100
AcDbEntity
  8
SUNPOU
100
AcDbCircle
 10
235.0020008651451
 20
175.6631161002548
 30
0.0
 40
2.2
  0
LINE
  5
F152
330
1A
100
AcDbEntity
  8
SUNPOU
100
AcDbLine
 10
233.8020008651451
 20
172.6231161002549
 30
0.0
 11
236.2020008651451
 21
172.6231161002549
 31
0.0
  0
LINE
  5
F153
330
1A
100
AcDbEntity
  8
SUNPOU
100
AcDbLine
 10
232.4420008651451
 20
171.9831161002549
 30
0.0
 11
237.5620008651452
 21
171.9831161002549
 31
0.0
  0
LINE
  5
F154
330
1A
100
AcDbEntity
  8
SUNPOU
100
AcDbLine
 10
232.4420008651451
 20
173.2631161002549
 30
0.0
 11
237.5620008651452
 21
173.2631161002549
 31
0.0
  0
LINE
  5
F155
330
1A
100
AcDbEntity
  8
SUNPOU
100
AcDbLine
 10
232.4420008651451
 20
178.0631161002549
 30
0.0
 11
237.5620008651452
 21
178.0631161002549
 31
0.0
  0
LINE
  5
F156
330
1A
100
AcDbEntity
  8
SUNPOU
100
AcDbLine
 10
233.8020008651451
 20
178.7031161002548
 30
0.0
 11
236.2020008651451
 21
178.7031161002548
 31
0.0
  0
LINE
  5
F157
330
1A
100
AcDbEntity
  8
SUNPOU
100
AcDbLine
 10
232.4420008651451
 20
179.3431161002549
 30
0.0
 11
237.5620008651451
 21
179.3431161002549
 31
0.0
  0
LINE
  5
F158
330
1A
100
AcDbEntity
  8
SUNPOU
100
AcDbLine
 10
220.2500008651451
 20
180.4631161002549
 30
0.0
 11
255.8500008651451
 21
180.4631161002549
 31
0.0
  0
LINE
  5
F159
330
1A
100
AcDbEntity
  8
SUNPOU
100
AcDbLine
 10
220.2500008651451
 20
170.8631161002549
 30
0.0
 11
255.8500008651451
 21
170.8631161002549
 31
0.0
  0
LINE
  5
F15A
330
1A
100
AcDbEntity
  8
SUNPOU
100
AcDbLine
 10
231.6300008651452
 20
187.663116100255
 30
0.0
 11
232.6300008651452
 21
187.663116100255
 31
0.0
  0
LINE
  5
F15B
330
1A
100
AcDbEntity
  8
SUNPOU
100
AcDbLine
 10
242.7700008651452
 20
187.663116100255
 30
0.0
 11
243.7700008651451
 21
187.663116100255
 31
0.0
  0
LINE
  5
F15C
330
1A
100
AcDbEntity
  8
SUNPOU
100
AcDbLine
 10
243.7700008651451
 20
189.663116100255
 30
0.0
 11
243.7700008651451
 21
187.663116100255
 31
0.0
  0
LINE
  5
F15D
330
1A
100
AcDbEntity
  8
SUNPOU
100
AcDbLine
 10
231.6300008651452
 20
189.663116100255
 30
0.0
 11
231.6300008651452
 21
187.663116100255
 31
0.0
  0
TEXT
  5
F15E
330
1A
100
AcDbEntity
  8
SUNPOU
100
AcDbText
 10
235.2395246746689
 20
194.713116100255
 30
0.0
 40
2.5
  1
3
 72
     1
 11
236.4300008651451
 21
194.713116100255
 31
0.0
100
AcDbText
 73
     1
  0
TEXT
  5
F15F
330
1A
100
AcDbEntity
  8
SUNPOU
100
AcDbText
 10
232.6400008651451
 20
194.713116100255
 30
0.0
 40
2.5
  1
4
 72
     1
 11
233.8900008651451
 21
194.713116100255
 31
0.0
100
AcDbText
 73
     1
  0
TEXT
  5
F160
330
1A
100
AcDbEntity
  8
SUNPOU
100
AcDbText
 10
237.779524674669
 20
194.713116100255
 30
0.0
 40
2.5
  1
2
 72
     1
 11
238.9700008651452
 21
194.713116100255
 31
0.0
100
AcDbText
 73
     1
  0
TEXT
  5
F161
330
1A
100
AcDbEntity
  8
SUNPOU
100
AcDbText
 10
240.4980961032404
 20
194.713116100255
 30
0.0
 40
2.5
  1
1
 72
     1
 11
241.5100008651452
 21
194.713116100255
 31
0.0
100
AcDbText
 73
     1
  0
TEXT
  5
F162
330
1A
100
AcDbEntity
  8
SUNPOU
100
AcDbText
 10
245.4400502621264
 20
190.5135441426593
 30
0.0
 40
2.5
  1
ON
 41
0.8
100
AcDbText
  0
LINE
  5
F163
330
1A
100
AcDbEntity
  8
SUNPOU
100
AcDbLine
 10
244.4499998633168
 20
191.7105570247445
 30
0.0
 11
244.9499998633168
 21
192.7105570247445
 31
0.0
  0
LINE
  5
F164
330
1A
100
AcDbEntity
  8
SUNPOU
100
AcDbLine
 10
244.9499998633168
 20
192.7105570247445
 30
0.0
 11
245.4499998633168
 21
191.7105570247445
 31
0.0
  0
LINE
  5
F165
330
1A
100
AcDbEntity
  8
SUNPOU
100
AcDbLine
 10
244.9499998633168
 20
192.7105570247445
 30
0.0
 11
244.9499998633168
 21
190.2105570247445
 31
0.0
  0
TEXT
  5
F166
330
1A
100
AcDbEntity
  8
SUNPOU
100
AcDbText
 10
220.2142865794309
 20
185.563116100255
 30
0.0
 40
3.0
  1
RSW
 72
     1
 11
225.0000008651452
 21
188.563116100255
 31
0.0
100
AcDbText
 73
     3
  0
TEXT
  5
F167
330
1A
100
AcDbEntity
  8
SUNPOU
100
AcDbText
 10
232.9142865794309
 20
185.663116100255
 30
0.0
 40
3.0
  1
DSW
 72
     1
 11
237.7000008651452
 21
188.663116100255
 31
0.0
100
AcDbText
 73
     3
  0
TEXT
  5
F168
330
1A
100
AcDbEntity
  8
SUNPOU
100
AcDbText
 10
227.9345722937166
 20
174.4631161002548
 30
0.0
 40
2.4
  1
1
 72
     1
 11
228.9060008651451
 21
175.6631161002548
 31
0.0
100
AcDbText
 73
     2
  0
ARC
  5
F5CC
330
1A
100
AcDbEntity
  8
0
100
AcDbCircle
 10
312.0
 20
203.9631161447444
 30
0.0
 40
2.0
100
AcDbArc
 50
90.0
 51
180.0
  0
ARC
  5
F5CD
330
1A
100
AcDbEntity
  8
0
100
AcDbCircle
 10
312.0
 20
163.9631161447444
 30
0.0
 40
2.0
100
AcDbArc
 50
179.9999999999999
 51
270.0
  0
ARC
  5
F5CE
330
1A
100
AcDbEntity
  8
0
100
AcDbCircle
 10
493.9999999999998
 20
163.9631161447443
 30
0.0
 40
2.0
100
AcDbArc
 50
270.0
 51
0.0
  0
ARC
  5
F5CF
330
1A
100
AcDbEntity
  8
0
100
AcDbCircle
 10
493.9999999999998
 20
203.9631161447444
 30
0.0
 40
2.0
100
AcDbArc
 50
359.9999999999999
 51
90.0
  0
HATCH
  5
F60E
330
1A
100
AcDbEntity
  8
SUNPOU
100
AcDbHatch
 10
0.0
 20
0.0
 30
0.0
210
0.0
220
0.0
230
1.0
  2
SOLID
 70
     1
 71
     1
 91
        2
 92
        1
 93
        4
 72
     1
 10
210.0
 20
163.9631161447444
 11
308.0
 21
163.9631161447444
 72
     1
 10
308.0
 20
163.9631161447444
 11
308.0
 21
203.9631161447444
 72
     1
 10
308.0
 20
203.9631161447444
 11
210.0
 21
203.9631161447444
 72
     1
 10
210.0
 20
203.9631161447444
 11
210.0
 21
163.9631161447444
 97
        4
330
F09D
330
F07B
330
F09E
330
F07C
 92
       16
 93
        4
 72
     1
 10
211.4999999999999
 20
165.4631161447444
 11
306.4999999999999
 21
165.4631161447444
 72
     1
 10
306.4999999999999
 20
165.4631161447444
 11
306.4999999999999
 21
202.4631161447444
 72
     1
 10
306.4999999999999
 20
202.4631161447444
 11
211.4999999999999
 21
202.4631161447444
 72
     1
 10
211.4999999999999
 20
202.4631161447444
 11
211.4999999999999
 21
165.4631161447444
 97
        4
330
F072
330
F071
330
F073
330
F074
 75
     0
 76
     1
 98
        1
 10
0.0
 20
-20.0
  0
LINE
  5
F62B
330
1A
100
AcDbEntity
  8
SUNPOU
100
AcDbLine
 10
455.4999999999998
 20
94.96311614474439
 30
0.0
 11
415.4999999999999
 21
94.96311614474439
 31
0.0
  0
LINE
  5
F62C
330
1A
100
AcDbEntity
  8
SUNPOU
100
AcDbLine
 10
455.4999999999998
 20
89.96311614474439
 30
0.0
 11
455.4999999999998
 21
94.96311614474439
 31
0.0
  0
LINE
  5
F62D
330
1A
100
AcDbEntity
  8
SUNPOU
100
AcDbLine
 10
415.4999999999999
 20
89.96311614474439
 30
0.0
 11
455.4999999999998
 21
89.96311614474439
 31
0.0
  0
LINE
  5
F62E
330
1A
100
AcDbEntity
  8
SUNPOU
100
AcDbLine
 10
415.4999999999999
 20
94.96311614474439
 30
0.0
 11
415.4999999999999
 21
89.96311614474439
 31
0.0
  0
LINE
  5
F62F
330
1A
100
AcDbEntity
  8
SUNPOU
100
AcDbLine
 10
390.4999999999999
 20
94.96311614474432
 30
0.0
 11
350.4999999999999
 21
94.96311614474432
 31
0.0
  0
LINE
  5
F630
330
1A
100
AcDbEntity
  8
SUNPOU
100
AcDbLine
 10
390.4999999999999
 20
89.96311614474432
 30
0.0
 11
390.4999999999999
 21
94.96311614474432
 31
0.0
  0
LINE
  5
F631
330
1A
100
AcDbEntity
  8
SUNPOU
100
AcDbLine
 10
350.4999999999999
 20
89.96311614474432
 30
0.0
 11
390.4999999999999
 21
89.96311614474432
 31
0.0
  0
LINE
  5
F632
330
1A
100
AcDbEntity
  8
SUNPOU
100
AcDbLine
 10
350.4999999999999
 20
94.96311614474432
 30
0.0
 11
350.4999999999999
 21
89.96311614474432
 31
0.0
  0
TEXT
  5
F633
330
1A
100
AcDbEntity
  8
SUNPOU
100
AcDbText
 10
372.8814285714284
 20
90.96311614474442
 30
0.0
 40
3.0
  1
3
 72
     1
 11
374.3099999999998
 21
92.46311614474443
 31
0.0
100
AcDbText
 73
     2
  0
TEXT
  5
F634
330
1A
100
AcDbEntity
  8
SUNPOU
100
AcDbText
 10
380.4299999999998
 20
90.96311614474442
 30
0.0
 40
3.0
  1
4
 72
     1
 11
381.9299999999998
 21
92.46311614474443
 31
0.0
100
AcDbText
 73
     2
  0
TEXT
  5
F635
330
1A
100
AcDbEntity
  8
SUNPOU
100
AcDbText
 10
365.2614285714284
 20
90.96311614474432
 30
0.0
 40
3.0
  1
2
 72
     1
 11
366.6899999999998
 21
92.46311614474432
 31
0.0
100
AcDbText
 73
     2
  0
TEXT
  5
F636
330
1A
100
AcDbEntity
  8
SUNPOU
100
AcDbText
 10
357.8557142857141
 20
90.96311614474432
 30
0.0
 40
3.0
  1
1
 72
     1
 11
359.0699999999998
 21
92.46311614474432
 31
0.0
100
AcDbText
 73
     2
  0
CIRCLE
  5
F637
330
1A
100
AcDbEntity
  8
SUNPOU
100
AcDbCircle
 10
359.0699999999998
 20
92.46311614474432
 30
0.0
 40
2.25
  0
CIRCLE
  5
F638
330
1A
100
AcDbEntity
  8
SUNPOU
100
AcDbCircle
 10
366.6899999999998
 20
92.46311614474432
 30
0.0
 40
2.25
  0
CIRCLE
  5
F639
330
1A
100
AcDbEntity
  8
SUNPOU
100
AcDbCircle
 10
381.9299999999998
 20
92.46311614474443
 30
0.0
 40
2.25
  0
CIRCLE
  5
F63A
330
1A
100
AcDbEntity
  8
SUNPOU
100
AcDbCircle
 10
374.3099999999998
 20
92.46311614474443
 30
0.0
 40
2.25
  0
CIRCLE
  5
F63B
330
1A
100
AcDbEntity
  8
SUNPOU
100
AcDbCircle
 10
439.3099999999998
 20
92.4631161447445
 30
0.0
 40
2.25
  0
CIRCLE
  5
F63C
330
1A
100
AcDbEntity
  8
SUNPOU
100
AcDbCircle
 10
446.9299999999998
 20
92.4631161447445
 30
0.0
 40
2.25
  0
CIRCLE
  5
F63D
330
1A
100
AcDbEntity
  8
SUNPOU
100
AcDbCircle
 10
431.6899999999998
 20
92.46311614474439
 30
0.0
 40
2.25
  0
CIRCLE
  5
F63E
330
1A
100
AcDbEntity
  8
SUNPOU
100
AcDbCircle
 10
424.0699999999998
 20
92.46311614474439
 30
0.0
 40
2.25
  0
TEXT
  5
F63F
330
1A
100
AcDbEntity
  8
SUNPOU
100
AcDbText
 10
422.6414285714283
 20
90.96311614474439
 30
0.0
 40
3.0
  1
5
 72
     1
 11
424.0699999999998
 21
92.46311614474439
 31
0.0
100
AcDbText
 73
     2
  0
TEXT
  5
F640
330
1A
100
AcDbEntity
  8
SUNPOU
100
AcDbText
 10
430.1899999999998
 20
90.96311614474439
 30
0.0
 40
3.0
  1
E
 72
     1
 11
431.6899999999998
 21
92.46311614474439
 31
0.0
100
AcDbText
 73
     2
  0
TEXT
  5
F641
330
1A
100
AcDbEntity
  8
SUNPOU
100
AcDbText
 10
445.3585714285712
 20
90.9631161447445
 30
0.0
 40
3.0
  1
N
 72
     1
 11
446.9299999999998
 21
92.4631161447445
 31
0.0
100
AcDbText
 73
     2
  0
TEXT
  5
F642
330
1A
100
AcDbEntity
  8
SUNPOU
100
AcDbText
 10
437.8814285714283
 20
90.9631161447445
 30
0.0
 40
3.0
  1
L
 72
     1
 11
439.3099999999998
 21
92.4631161447445
 31
0.0
100
AcDbText
 73
     2
  0
LWPOLYLINE
  5
F643
330
1A
100
AcDbEntity
  8
SUNPOU
100
AcDbPolyline
 90
        3
 70
     1
 43
0.0
 10
122.4999999999999
 20
196.7664169947441
 10
119.4381378266588
 20
191.4631161447441
 10
125.561862173341
 20
191.4631161447441
  0
TEXT
  5
F644
330
1A
100
AcDbEntity
  8
SUNPOU
100
AcDbText
 10
121.465517238104
 20
192.3469814104667
 30
0.0
 40
2.12132034
  1
1
100
AcDbText
  0
LWPOLYLINE
  5
F645
330
1A
100
AcDbEntity
  8
SUNPOU
100
AcDbPolyline
 90
        3
 70
     1
 43
0.0
 10
582.4999999999999
 20
87.76641699474415
 10
579.4381378266588
 20
82.46311614474416
 10
585.5618621733411
 20
82.46311614474416
  0
TEXT
  5
F646
330
1A
100
AcDbEntity
  8
SUNPOU
100
AcDbText
 10
581.465517238104
 20
83.34698141046672
 30
0.0
 40
2.12132034
  1
1
100
AcDbText
  0
TEXT
  5
F648
330
1A
100
AcDbEntity
  8
0
100
AcDbText
 10
587.0
 20
82.5
 30
0.0
 40
5.65685424
  1
D寸法変更
100
AcDbText
  0
TEXT
  5
F649
330
1A
100
AcDbEntity
  8
0
100
AcDbText
 10
317.7333333333332
 20
246.4131161447447
 30
0.0
 40
8.0
  1
C/L出力
 72
     1
 11
337.9999999999999
 21
254.4131161447447
 31
0.0
100
AcDbText
 73
     3
  0
TEXT
  5
F64B
330
1A
100
AcDbEntity
  8
0
100
AcDbText
 10
382.7333333333332
 20
246.4131161447447
 30
0.0
 40
8.0
  1
C/L入力
 72
     1
 11
402.9999999999999
 21
254.4131161447447
 31
0.0
100
AcDbText
 73
     3
  0
TEXT
  5
F64C
330
1A
100
AcDbEntity
  8
0
100
AcDbText
 10
451.8476190476189
 20
246.4131161447446
 30
0.0
 40
8.0
  1
AC電源
 72
     1
 11
467.9999999999998
 21
254.4131161447446
 31
0.0
100
AcDbText
 73
     3
  0
LINE
  5
F665
330
1A
100
AcDbEntity
  8
0
100
AcDbLine
 10
654.3499999999998
 20
308.1131161447445
 30
0.0
 11
654.35
 21
292.1131161447446
 31
0.0
  0
ARC
  5
F680
330
1A
100
AcDbEntity
  8
0
100
AcDbCircle
 10
499.9999999999999
 20
470.6131161447446
 30
0.0
 40
2.0
100
AcDbArc
 50
89.99999999999937
 51
180.0
  0
ARC
  5
F681
330
1A
100
AcDbEntity
  8
0
100
AcDbCircle
 10
521.0
 20
470.6131161447443
 30
0.0
 40
2.0
100
AcDbArc
 50
0.0
 51
89.99999999999923
  0
ARC
  5
F682
330
1A
100
AcDbEntity
  8
0
100
AcDbCircle
 10
520.9999999999999
 20
278.6131161447445
 30
0.0
 40
2.0
100
AcDbArc
 50
270.0
 51
0.0
  0
ARC
  5
F683
330
1A
100
AcDbEntity
  8
0
100
AcDbCircle
 10
499.9999999999999
 20
278.6131161447445
 30
0.0
 40
2.0
100
AcDbArc
 50
180.0
 51
270.0000000000002
  0
ARC
  5
F684
330
1A
100
AcDbEntity
  8
0
100
AcDbCircle
 10
184.9999999999999
 20
278.6131161447445
 30
0.0
 40
2.0
100
AcDbArc
 50
180.0
 51
270.0
  0
ARC
  5
F685
330
1A
100
AcDbEntity
  8
0
100
AcDbCircle
 10
205.9999999999999
 20
278.6131161447445
 30
0.0
 40
2.0
100
AcDbArc
 50
269.9999999999998
 51
0.0
  0
ARC
  5
F686
330
1A
100
AcDbEntity
  8
0
100
AcDbCircle
 10
184.9999999999999
 20
470.6131161447443
 30
0.0
 40
2.0
100
AcDbArc
 50
90.00000000000062
 51
180.0
  0
ARC
  5
F687
330
1A
100
AcDbEntity
  8
0
100
AcDbCircle
 10
205.9999999999999
 20
470.6131161447444
 30
0.0
 40
2.0
100
AcDbArc
 50
0.0
 51
90.00000000000062
  0
ARC
  5
F688
330
1A
100
AcDbEntity
  8
0
100
AcDbCircle
 10
205.9999999999999
 20
191.9631161447443
 30
0.0
 40
2.0
100
AcDbArc
 50
0.0
 51
90.00000000000019
  0
ARC
  5
F689
330
1A
100
AcDbEntity
  8
0
100
AcDbCircle
 10
499.9999999999999
 20
191.9631161447443
 30
0.0
 40
2.0
100
AcDbArc
 50
89.99999999999976
 51
180.0
  0
VIEWPORT
  5
22
102
{ACAD_XDICTIONARY
360
F69A
102
}
330
17
100
AcDbEntity
 67
     1
  8
0
100
AcDbViewport
 10
261.5176991150442
 20
154.7242978687078
 30
0.0
 40
523.0353982300885
 41
309.4485957374157
 68
     1
 69
     1
 12
261.5176991150442
 22
154.7242978687078
 13
0.0
 23
0.0
 14
1.0
 24
1.0
 15
10.0
 25
10.0
 16
0.0
 26
0.0
 36
1.0
 17
0.0
 27
0.0
 37
0.0
 42
50.0
 43
0.0
 44
0.0
 45
309.4485957374157
 50
0.0
 51
0.0
 72
   100
 90
    32768
  1

281
     0
 71
     1
 74
     0
110
0.0
120
0.0
130
0.0
111
1.0
121
0.0
131
0.0
112
0.0
122
1.0
132
0.0
 79
     0
146
0.0
  0
ENDSEC
  0
SECTION
  2
OBJECTS
  0
DICTIONARY
  5
C
330
0
100
AcDbDictionary
281
     1
  3
ACAD_COLOR
350
B9EA
  3
ACAD_GROUP
350
D
  3
ACAD_LAYOUT
350
B9EB
  3
ACAD_MATERIAL
350
B9E9
  3
ACAD_MLINESTYLE
350
E
  3
ACAD_PLOTSETTINGS
350
B9EC
  3
ACAD_PLOTSTYLENAME
350
B9E7
  3
ACDBHEADERROUNDTRIPXREC
350
F697
  3
ACDBVARIABLEDICTIONARY
350
9540
  0
DICTIONARY
  5
F69A
330
22
100
AcDbDictionary
280
     1
281
     1
  3
ACAD_XREC_ROUNDTRIP
360
F69B
  0
DICTIONARY
  5
B9EA
102
{ACAD_REACTORS
330
C
102
}
330
C
100
AcDbDictionary
281
     1
  0
DICTIONARY
  5
D
102
{ACAD_REACTORS
330
C
102
}
330
C
100
AcDbDictionary
281
     1
  3
*A1
350
8E9D
  3
*A10
350
BC98
  3
*A11
350
C102
  3
*A12
350
C111
  3
*A13
350
C103
  3
*A14
350
C10F
  3
*A15
350
C139
  3
*A16
350
C13A
  3
*A17
350
C110
  3
*A18
350
C0F6
  3
*A19
350
C11F
  3
*A2
350
C138
  3
*A20
350
BC7E
  3
*A21
350
C136
  3
*A22
350
BC99
  3
*A23
350
BCA2
  3
*A24
350
C137
  3
*A25
350
8EAC
  3
*A26
350
C13B
  3
*A27
350
C0AF
  3
*A28
350
C545
  3
*A29
350
BDDA
  3
*A3
350
BE73
  3
*A30
350
BC87
  3
*A31
350
C11D
  3
*A32
350
C01F
  3
*A33
350
C066
  3
*A34
350
A87F
  3
*A35
350
C101
  3
*A36
350
BDC3
  3
*A4
350
BE9B
  3
*A5
350
BE86
  3
*A6
350
BE90
  3
*A7
350
C0A4
  3
*A8
350
C11E
  3
*A9
350
C9ED
  0
DICTIONARY
  5
B9EB
102
{ACAD_REACTORS
330
C
102
}
330
C
100
AcDbDictionary
281
     1
  3
Model
350
B9ED
  3
レイアウト1
350
B9EE
  0
DICTIONARY
  5
B9E9
102
{ACAD_REACTORS
330
C
102
}
330
C
100
AcDbDictionary
281
     1
  0
DICTIONARY
  5
E
102
{ACAD_REACTORS
330
C
102
}
330
C
100
AcDbDictionary
281
     1
  3
STANDARD
350
13
  0
DICTIONARY
  5
B9EC
102
{ACAD_REACTORS
330
C
102
}
330
C
100
AcDbDictionary
281
     1
  0
ACDBDICTIONARYWDFLT
  5
B9E7
102
{ACAD_REACTORS
330
C
102
}
330
C
100
AcDbDictionary
281
     1
  3
Normal
350
B9E8
100
AcDbDictionaryWithDefault
340
B9E8
  0
DICTIONARY
  5
F697
102
{ACAD_REACTORS
330
C
102
}
330
C
100
AcDbDictionary
281
     1
  3
COLORDICT
350
F699
  3
MATERIALDICT
350
F698
  0
DICTIONARY
  5
9540
102
{ACAD_REACTORS
330
C
102
}
330
C
100
AcDbDictionary
281
     1
  3
DIMASSOC
350
F694
  3
PROJECTNAME
350
F695
  3
SORTENTS
350
9541
  0
XRECORD
  5
F69B
102
{ACAD_REACTORS
330
F69A
102
}
330
F69A
100
AcDbXrecord
280
     1
102
SHADEPLOT
 70
     0
  0
GROUP
  5
8E9D
102
{ACAD_REACTORS
330
D
102
}
330
D
100
AcDbGroup
300

 70
     1
 71
     1
  0
GROUP
  5
BC98
102
{ACAD_REACTORS
330
D
102
}
330
D
100
AcDbGroup
300

 70
     1
 71
     1
  0
GROUP
  5
C102
102
{ACAD_REACTORS
330
D
102
}
330
D
100
AcDbGroup
300

 70
     1
 71
     1
  0
GROUP
  5
C111
102
{ACAD_REACTORS
330
D
102
}
330
D
100
AcDbGroup
300

 70
     1
 71
     1
  0
GROUP
  5
C103
102
{ACAD_REACTORS
330
D
102
}
330
D
100
AcDbGroup
300

 70
     1
 71
     1
  0
GROUP
  5
C10F
102
{ACAD_REACTORS
330
D
102
}
330
D
100
AcDbGroup
300

 70
     1
 71
     1
  0
GROUP
  5
C139
102
{ACAD_REACTORS
330
D
102
}
330
D
100
AcDbGroup
300

 70
     1
 71
     1
  0
GROUP
  5
C13A
102
{ACAD_REACTORS
330
D
102
}
330
D
100
AcDbGroup
300

 70
     1
 71
     1
  0
GROUP
  5
C110
102
{ACAD_REACTORS
330
D
102
}
330
D
100
AcDbGroup
300

 70
     1
 71
     1
  0
GROUP
  5
C0F6
102
{ACAD_REACTORS
330
D
102
}
330
D
100
AcDbGroup
300

 70
     1
 71
     1
  0
GROUP
  5
C11F
102
{ACAD_REACTORS
330
D
102
}
330
D
100
AcDbGroup
300

 70
     1
 71
     1
  0
GROUP
  5
C138
102
{ACAD_REACTORS
330
D
102
}
330
D
100
AcDbGroup
300

 70
     1
 71
     1
  0
GROUP
  5
BC7E
102
{ACAD_REACTORS
330
D
102
}
330
D
100
AcDbGroup
300

 70
     1
 71
     1
  0
GROUP
  5
C136
102
{ACAD_REACTORS
330
D
102
}
330
D
100
AcDbGroup
300

 70
     1
 71
     1
  0
GROUP
  5
BC99
102
{ACAD_REACTORS
330
D
102
}
330
D
100
AcDbGroup
300

 70
     1
 71
     1
  0
GROUP
  5
BCA2
102
{ACAD_REACTORS
330
D
102
}
330
D
100
AcDbGroup
300

 70
     1
 71
     1
  0
GROUP
  5
C137
102
{ACAD_REACTORS
330
D
102
}
330
D
100
AcDbGroup
300

 70
     1
 71
     1
  0
GROUP
  5
8EAC
102
{ACAD_REACTORS
330
D
102
}
330
D
100
AcDbGroup
300

 70
     1
 71
     1
  0
GROUP
  5
C13B
102
{ACAD_REACTORS
330
D
102
}
330
D
100
AcDbGroup
300

 70
     1
 71
     1
  0
GROUP
  5
C0AF
102
{ACAD_REACTORS
330
D
102
}
330
D
100
AcDbGroup
300

 70
     1
 71
     1
  0
GROUP
  5
C545
102
{ACAD_REACTORS
330
D
102
}
330
D
100
AcDbGroup
300

 70
     1
 71
     1
  0
GROUP
  5
BDDA
102
{ACAD_REACTORS
330
D
102
}
330
D
100
AcDbGroup
300

 70
     1
 71
     1
  0
GROUP
  5
BE73
102
{ACAD_REACTORS
330
D
102
}
330
D
100
AcDbGroup
300

 70
     1
 71
     1
  0
GROUP
  5
BC87
102
{ACAD_REACTORS
330
D
102
}
330
D
100
AcDbGroup
300

 70
     1
 71
     1
  0
GROUP
  5
C11D
102
{ACAD_REACTORS
330
D
102
}
330
D
100
AcDbGroup
300

 70
     1
 71
     1
  0
GROUP
  5
C01F
102
{ACAD_REACTORS
330
D
102
}
330
D
100
AcDbGroup
300

 70
     1
 71
     1
  0
GROUP
  5
C066
102
{ACAD_REACTORS
330
D
102
}
330
D
100
AcDbGroup
300

 70
     1
 71
     1
  0
GROUP
  5
A87F
102
{ACAD_REACTORS
330
D
102
}
330
D
100
AcDbGroup
300

 70
     1
 71
     1
  0
GROUP
  5
C101
102
{ACAD_REACTORS
330
D
102
}
330
D
100
AcDbGroup
300

 70
     1
 71
     1
  0
GROUP
  5
BDC3
102
{ACAD_REACTORS
330
D
102
}
330
D
100
AcDbGroup
300

 70
     1
 71
     1
  0
GROUP
  5
BE9B
102
{ACAD_REACTORS
330
D
102
}
330
D
100
AcDbGroup
300

 70
     1
 71
     1
  0
GROUP
  5
BE86
102
{ACAD_REACTORS
330
D
102
}
330
D
100
AcDbGroup
300

 70
     1
 71
     1
  0
GROUP
  5
BE90
102
{ACAD_REACTORS
330
D
102
}
330
D
100
AcDbGroup
300

 70
     1
 71
     1
  0
GROUP
  5
C0A4
102
{ACAD_REACTORS
330
D
102
}
330
D
100
AcDbGroup
300

 70
     1
 71
     1
  0
GROUP
  5
C11E
102
{ACAD_REACTORS
330
D
102
}
330
D
100
AcDbGroup
300

 70
     1
 71
     1
  0
GROUP
  5
C9ED
102
{ACAD_REACTORS
330
D
102
}
330
D
100
AcDbGroup
300

 70
     1
 71
     1
  0
LAYOUT
  5
B9ED
102
{ACAD_XDICTIONARY
360
F69C
102
}
102
{ACAD_REACTORS
330
B9EB
102
}
330
B9EB
100
AcDbPlotSettings
  1

  2
Adobe PDF.pc3
  4
A3
  6

 40
3.174999952316284
 41
3.174999952316284
 42
3.17498779296875
 43
3.17498779296875
 44
420.1583251953125
 45
297.0530090332031
 46
0.0
 47
0.0
 48
0.0
 49
0.0
140
0.0
141
0.0
142
1.0
143
2.0
 70
 11952
 72
     1
 73
     0
 74
     2
  7
TMI_pen_style.ctb
 75
    17
147
0.5
148
0.0
149
0.0
100
AcDbLayout
  1
Model
 70
     1
 71
     0
 10
0.0
 20
0.0
 11
12.0
 21
9.0
 12
0.0
 22
0.0
 32
0.0
 14
0.0
 24
0.0
 34
0.0
 15
0.0
 25
0.0
 35
0.0
146
0.0
 13
0.0
 23
0.0
 33
0.0
 16
1.0
 26
0.0
 36
0.0
 17
0.0
 27
1.0
 37
0.0
 76
     0
330
1A
  0
LAYOUT
  5
B9EE
102
{ACAD_XDICTIONARY
360
F69E
102
}
102
{ACAD_REACTORS
330
B9EB
102
}
330
B9EB
100
AcDbPlotSettings
  1

  2
Adobe PDF
  4

  6

 40
0.0
 41
0.0
 42
0.0
 43
0.0
 44
0.0
 45
0.0
 46
0.0
 47
0.0
 48
0.0
 49
0.0
140
0.0
141
0.0
142
1.0
143
1.0
 70
   688
 72
     0
 73
     0
 74
     5
  7
C:\Documents and Settings\MICHIYUKI OHNO\Application Data\Autodesk\AutoCAD LT 2004\R9\jpn\Plot Styles\TMI_pen_style.ctb
 75
    16
147
1.0
148
0.0
149
0.0
100
AcDbLayout
  1
レイアウト1
 70
     1
 71
     1
 10
0.0
 20
0.0
 11
420.0
 21
297.0
 12
0.0
 22
0.0
 32
0.0
 14
1.000000000000000E+20
 24
1.000000000000000E+20
 34
1.000000000000000E+20
 15
-1.000000000000000E+20
 25
-1.000000000000000E+20
 35
-1.000000000000000E+20
146
0.0
 13
0.0
 23
0.0
 33
0.0
 16
1.0
 26
0.0
 36
0.0
 17
0.0
 27
1.0
 37
0.0
 76
     0
330
17
331
22
  0
MLINESTYLE
  5
13
102
{ACAD_REACTORS
330
E
102
}
330
E
100
AcDbMlineStyle
  2
STANDARD
 70
     0
  3

 62
     0
 51
90.0
 52
90.0
 71
     2
 49
0.5
 62
   256
  6
BYLAYER
 49
-0.5
 62
   256
  6
BYLAYER
  0
ACDBPLACEHOLDER
  5
B9E8
102
{ACAD_REACTORS
330
B9E7
102
}
330
B9E7
  0
XRECORD
  5
F699
102
{ACAD_REACTORS
330
F697
102
}
330
F697
100
AcDbXrecord
280
     1
340
B9EA
  0
XRECORD
  5
F698
102
{ACAD_REACTORS
330
F697
102
}
330
F697
100
AcDbXrecord
280
     1
340
B9E9
  0
DICTIONARYVAR
  5
F694
102
{ACAD_REACTORS
330
9540
102
}
330
9540
100
DictionaryVariables
280
     0
  1
1
  0
DICTIONARYVAR
  5
F695
102
{ACAD_REACTORS
330
9540
102
}
330
9540
100
DictionaryVariables
280
     0
  1

  0
DICTIONARYVAR
  5
9541
102
{ACAD_REACTORS
330
9540
102
}
330
9540
100
DictionaryVariables
280
     0
  1
96
  0
DICTIONARY
  5
F69C
330
B9ED
100
AcDbDictionary
280
     1
281
     1
  3
ACAD_XREC_ROUNDTRIP
360
F69D
  0
DICTIONARY
  5
F69E
330
B9EE
100
AcDbDictionary
280
     1
281
     1
  3
ACAD_XREC_ROUNDTRIP
360
F69F
  0
XRECORD
  5
F69D
102
{ACAD_REACTORS
330
F69C
102
}
330
F69C
100
AcDbXrecord
280
     1
102
SHADEPLOT
 70
     0
102
SHADEPLOTRESLEVEL
 70
     2
102
SHADEPLOTCUSTOMDPI
 70
   300
  0
XRECORD
  5
F69F
102
{ACAD_REACTORS
330
F69E
102
}
330
F69E
100
AcDbXrecord
280
     1
102
SHADEPLOT
 70
     0
102
SHADEPLOTRESLEVEL
 70
     2
102
SHADEPLOTCUSTOMDPI
 70
   300
  0
ENDSEC
  0
EOF
