  0
SECTION
  2
HEADER
  9
$ACADVER
  1
AC1015
  9
$ACADMAINTVER
 70
    20
  9
$DWGCODEPAGE
  3
ANSI_932
  9
$INSBASE
 10
425.0
 20
209.4
 30
0.0
  9
$EXTMIN
 10
39.96460161167738
 20
9.997285330199247
 30
-0.000000000000013
  9
$EXTMAX
 10
810.0329609052664
 20
560.0291761481542
 30
0.0000000000000023
  9
$LIMMIN
 10
0.0
 20
0.0
  9
$LIMMAX
 10
840.0
 20
594.0
  9
$ORTHOMODE
 70
     0
  9
$REGENMODE
 70
     1
  9
$FILLMODE
 70
     1
  9
$QTEXTMODE
 70
     0
  9
$MIRRTEXT
 70
     1
  9
$LTSCALE
 40
15.0
  9
$ATTMODE
 70
     1
  9
$TEXTSIZE
 40
5.0
  9
$TRACEWID
 40
1.0
  9
$TEXTSTYLE
  7
STANDARD
  9
$CLAYER
  8
SUNPOU
  9
$CELTYPE
  6
BYLAYER
  9
$CECOLOR
 62
   256
  9
$CELTSCALE
 40
1.0
  9
$DISPSILH
 70
     0
  9
$DIMSCALE
 40
0.0
  9
$DIMASZ
 40
5.0
  9
$DIMEXO
 40
0.5
  9
$DIMDLI
 40
10.0
  9
$DIMRND
 40
0.0
  9
$DIMDLE
 40
0.0
  9
$DIMEXE
 40
0.5
  9
$DIMTP
 40
0.0
  9
$DIMTM
 40
0.0
  9
$DIMTXT
 40
6.0
  9
$DIMCEN
 40
0.0
  9
$DIMTSZ
 40
0.0
  9
$DIMTOL
 70
     0
  9
$DIMLIM
 70
     0
  9
$DIMTIH
 70
     0
  9
$DIMTOH
 70
     0
  9
$DIMSE1
 70
     0
  9
$DIMSE2
 70
     0
  9
$DIMTAD
 70
     1
  9
$DIMZIN
 70
     0
  9
$DIMBLK
  1

  9
$DIMASO
 70
     1
  9
$DIMSHO
 70
     1
  9
$DIMPOST
  1

  9
$DIMAPOST
  1

  9
$DIMALT
 70
     0
  9
$DIMALTD
 70
     2
  9
$DIMALTF
 40
25.4
  9
$DIMLFAC
 40
1.0
  9
$DIMTOFL
 70
     0
  9
$DIMTVP
 40
0.0
  9
$DIMTIX
 70
     0
  9
$DIMSOXD
 70
     0
  9
$DIMSAH
 70
     1
  9
$DIMBLK1
  1
OPEN
  9
$DIMBLK2
  1
OPEN
  9
$DIMSTYLE
  2
STANDARD
  9
$DIMCLRD
 70
     0
  9
$DIMCLRE
 70
     0
  9
$DIMCLRT
 70
     0
  9
$DIMTFAC
 40
1.0
  9
$DIMGAP
 40
1.0
  9
$DIMJUST
 70
     0
  9
$DIMSD1
 70
     0
  9
$DIMSD2
 70
     0
  9
$DIMTOLJ
 70
     1
  9
$DIMTZIN
 70
     0
  9
$DIMALTZ
 70
     0
  9
$DIMALTTZ
 70
     0
  9
$DIMUPT
 70
     0
  9
$DIMDEC
 70
     2
  9
$DIMTDEC
 70
     2
  9
$DIMALTU
 70
     2
  9
$DIMALTTD
 70
     2
  9
$DIMTXSTY
  7
STANDARD
  9
$DIMAUNIT
 70
     0
  9
$DIMADEC
 70
     0
  9
$DIMALTRND
 40
0.0
  9
$DIMAZIN
 70
     0
  9
$DIMDSEP
 70
    46
  9
$DIMATFIT
 70
     3
  9
$DIMFRAC
 70
     0
  9
$DIMLDRBLK
  1

  9
$DIMLUNIT
 70
     2
  9
$DIMLWD
 70
    -2
  9
$DIMLWE
 70
    -2
  9
$DIMTMOVE
 70
     0
  9
$LUNITS
 70
     2
  9
$LUPREC
 70
     4
  9
$SKETCHINC
 40
1.0
  9
$FILLETRAD
 40
2.0
  9
$AUNITS
 70
     0
  9
$AUPREC
 70
     0
  9
$MENU
  1
.
  9
$ELEVATION
 40
0.0
  9
$PELEVATION
 40
0.0
  9
$THICKNESS
 40
0.0
  9
$LIMCHECK
 70
     0
  9
$CHAMFERA
 40
2.0
  9
$CHAMFERB
 40
2.0
  9
$CHAMFERC
 40
20.0
  9
$CHAMFERD
 40
0.0
  9
$SKPOLY
 70
     0
  9
$TDCREATE
 40
2450857.620429745
  9
$TDUCREATE
 40
2450857.245429745
  9
$TDUPDATE
 40
2455394.458657581
  9
$TDUUPDATE
 40
2455394.083657581
  9
$TDINDWG
 40
7.5762135880
  9
$TDUSRTIMER
 40
7.5762135880
  9
$USRTIMER
 70
     1
  9
$ANGBASE
 50
0.0
  9
$ANGDIR
 70
     0
  9
$PDMODE
 70
     0
  9
$PDSIZE
 40
0.0
  9
$PLINEWID
 40
0.0
  9
$SPLFRAME
 70
     0
  9
$SPLINETYPE
 70
     6
  9
$SPLINESEGS
 70
     8
  9
$HANDSEED
  5
DBB4
  9
$SURFTAB1
 70
     6
  9
$SURFTAB2
 70
     6
  9
$SURFTYPE
 70
     6
  9
$SURFU
 70
     6
  9
$SURFV
 70
     6
  9
$UCSBASE
  2

  9
$UCSNAME
  2

  9
$UCSORG
 10
0.0
 20
0.0
 30
0.0
  9
$UCSXDIR
 10
1.0
 20
0.0
 30
0.0
  9
$UCSYDIR
 10
0.0
 20
1.0
 30
0.0
  9
$UCSORTHOREF
  2

  9
$UCSORTHOVIEW
 70
     0
  9
$UCSORGTOP
 10
0.0
 20
0.0
 30
0.0
  9
$UCSORGBOTTOM
 10
0.0
 20
0.0
 30
0.0
  9
$UCSORGLEFT
 10
0.0
 20
0.0
 30
0.0
  9
$UCSORGRIGHT
 10
0.0
 20
0.0
 30
0.0
  9
$UCSORGFRONT
 10
0.0
 20
0.0
 30
0.0
  9
$UCSORGBACK
 10
0.0
 20
0.0
 30
0.0
  9
$PUCSBASE
  2

  9
$PUCSNAME
  2

  9
$PUCSORG
 10
0.0
 20
0.0
 30
0.0
  9
$PUCSXDIR
 10
1.0
 20
0.0
 30
0.0
  9
$PUCSYDIR
 10
0.0
 20
1.0
 30
0.0
  9
$PUCSORTHOREF
  2

  9
$PUCSORTHOVIEW
 70
     0
  9
$PUCSORGTOP
 10
0.0
 20
0.0
 30
0.0
  9
$PUCSORGBOTTOM
 10
0.0
 20
0.0
 30
0.0
  9
$PUCSORGLEFT
 10
0.0
 20
0.0
 30
0.0
  9
$PUCSORGRIGHT
 10
0.0
 20
0.0
 30
0.0
  9
$PUCSORGFRONT
 10
0.0
 20
0.0
 30
0.0
  9
$PUCSORGBACK
 10
0.0
 20
0.0
 30
0.0
  9
$USERI1
 70
     0
  9
$USERI2
 70
     0
  9
$USERI3
 70
     0
  9
$USERI4
 70
     0
  9
$USERI5
 70
     0
  9
$USERR1
 40
0.0
  9
$USERR2
 40
0.0
  9
$USERR3
 40
0.0
  9
$USERR4
 40
0.0
  9
$USERR5
 40
0.0
  9
$WORLDVIEW
 70
     1
  9
$SHADEDGE
 70
     3
  9
$SHADEDIF
 70
    70
  9
$TILEMODE
 70
     1
  9
$MAXACTVP
 70
    16
  9
$PINSBASE
 10
0.0
 20
0.0
 30
0.0
  9
$PLIMCHECK
 70
     0
  9
$PEXTMIN
 10
1.000000000000000E+20
 20
1.000000000000000E+20
 30
1.000000000000000E+20
  9
$PEXTMAX
 10
-1.000000000000000E+20
 20
-1.000000000000000E+20
 30
-1.000000000000000E+20
  9
$PLIMMIN
 10
0.0
 20
0.0
  9
$PLIMMAX
 10
420.0
 20
297.0
  9
$UNITMODE
 70
     0
  9
$VISRETAIN
 70
     0
  9
$PLINEGEN
 70
     0
  9
$PSLTSCALE
 70
     1
  9
$TREEDEPTH
 70
  3020
  9
$CMLSTYLE
  2
STANDARD
  9
$CMLJUST
 70
     0
  9
$CMLSCALE
 40
1.0
  9
$PROXYGRAPHICS
 70
     1
  9
$MEASUREMENT
 70
     1
  9
$CELWEIGHT
370
    -1
  9
$ENDCAPS
280
     0
  9
$JOINSTYLE
280
     0
  9
$LWDISPLAY
290
     0
  9
$INSUNITS
 70
     0
  9
$HYPERLINKBASE
  1

  9
$STYLESHEET
  1
TMI_pen_style.ctb
  9
$XEDIT
290
     1
  9
$CEPSNTYPE
380
     0
  9
$PSTYLEMODE
290
     1
  9
$FINGERPRINTGUID
  2
{E5272755-EC24-4B94-9EE6-F0544381B4F1}
  9
$VERSIONGUID
  2
{AF43C353-9F7C-4BAE-80DC-886C10E41F89}
  9
$EXTNAMES
290
     1
  9
$PSVPSCALE
 40
0.0
  9
$OLESTARTUP
290
     0
  0
ENDSEC
  0
SECTION
  2
CLASSES
  0
CLASS
  1
DICTIONARYVAR
  2
AcDbDictionaryVar
  3
ObjectDBX Classes
 90
        0
280
     0
281
     0
  0
CLASS
  1
ACDBDICTIONARYWDFLT
  2
AcDbDictionaryWithDefault
  3
ObjectDBX Classes
 90
        0
280
     0
281
     0
  0
CLASS
  1
ACDBPLACEHOLDER
  2
AcDbPlaceHolder
  3
ObjectDBX Classes
 90
        0
280
     0
281
     0
  0
CLASS
  1
LAYOUT
  2
AcDbLayout
  3
ObjectDBX Classes
 90
        0
280
     0
281
     0
  0
ENDSEC
  0
SECTION
  2
TABLES
  0
TABLE
  2
VPORT
  5
8
330
0
100
AcDbSymbolTable
 70
     2
  0
VPORT
  5
DBAA
330
8
100
AcDbSymbolTableRecord
100
AcDbViewportTableRecord
  2
*Active
 70
     0
 10
0.0
 20
0.0
 11
1.0
 21
1.0
 12
420.0000000000001
 22
297.0
 13
0.0
 23
0.0
 14
0.5
 24
0.5
 15
5.0
 25
5.0
 16
0.0
 26
0.0
 36
1.0
 17
0.0
 27
0.0
 37
0.0
 40
600.6616822429907
 41
1.632958801498127
 42
50.0
 43
0.0
 44
0.0
 50
0.0
 51
0.0
 71
     0
 72
   100
 73
     1
 74
     0
 75
     0
 76
     1
 77
     0
 78
     0
281
     0
 65
     1
110
0.0
120
0.0
130
0.0
111
1.0
121
0.0
131
0.0
112
0.0
122
1.0
132
0.0
 79
     0
146
0.0
  0
ENDTAB
  0
TABLE
  2
LTYPE
  5
5
330
0
100
AcDbSymbolTable
 70
     3
  0
LTYPE
  5
14
330
5
100
AcDbSymbolTableRecord
100
AcDbLinetypeTableRecord
  2
BYBLOCK
 70
     0
  3

 72
    65
 73
     0
 40
0.0
  0
LTYPE
  5
15
330
5
100
AcDbSymbolTableRecord
100
AcDbLinetypeTableRecord
  2
BYLAYER
 70
     0
  3

 72
    65
 73
     0
 40
0.0
  0
LTYPE
  5
16
330
5
100
AcDbSymbolTableRecord
100
AcDbLinetypeTableRecord
  2
CONTINUOUS
 70
     0
  3
Solid line
 72
    65
 73
     0
 40
0.0
  0
LTYPE
  5
61
330
5
100
AcDbSymbolTableRecord
100
AcDbLinetypeTableRecord
  2
CENTER2
 70
     0
  3
___ _ ___ _ ___ _ ___ _ ___ _ ___ _ ___ _ ___ _
 72
    65
 73
     4
 40
1.125
 49
0.75
 74
     0
 49
-0.125
 74
     0
 49
0.125
 74
     0
 49
-0.125
 74
     0
  0
LTYPE
  5
62
330
5
100
AcDbSymbolTableRecord
100
AcDbLinetypeTableRecord
  2
DASHED2
 70
     0
  3
_ _ _ _ _ _ _ _ _ _ _ _ _ _ _ _ _ _ _ _ _ _ _ _
 72
    65
 73
     2
 40
0.375
 49
0.25
 74
     0
 49
-0.125
 74
     0
  0
ENDTAB
  0
TABLE
  2
LAYER
  5
2
330
0
100
AcDbSymbolTable
 70
     6
  0
LAYER
  5
F
330
2
100
AcDbSymbolTableRecord
100
AcDbLayerTableRecord
  2
0
 70
     0
 62
     7
  6
CONTINUOUS
370
    -3
390
B9E8
  0
LAYER
  5
63
330
2
100
AcDbSymbolTableRecord
100
AcDbLayerTableRecord
  2
WAKU
 70
     0
 62
     7
  6
CONTINUOUS
370
    -3
390
B9E8
  0
LAYER
  5
64
330
2
100
AcDbSymbolTableRecord
100
AcDbLayerTableRecord
  2
SUNPOU
 70
     0
 62
     5
  6
CONTINUOUS
370
    -3
390
B9E8
  0
LAYER
  5
65
330
2
100
AcDbSymbolTableRecord
100
AcDbLayerTableRecord
  2
CENTER
 70
     0
 62
    14
  6
CENTER2
370
    -3
390
B9E8
  0
LAYER
  5
66
330
2
100
AcDbSymbolTableRecord
100
AcDbLayerTableRecord
  2
KAGESEN
 70
     0
 62
     5
  6
DASHED2
370
    -3
390
B9E8
  0
LAYER
  5
7DC
330
2
100
AcDbSymbolTableRecord
100
AcDbLayerTableRecord
  2
DEFPOINTS
 70
     0
 62
     7
  6
CONTINUOUS
290
     0
370
    -3
390
B9E8
  0
ENDTAB
  0
TABLE
  2
STYLE
  5
3
330
0
100
AcDbSymbolTable
 70
     1
  0
STYLE
  5
10
330
3
100
AcDbSymbolTableRecord
100
AcDbTextStyleTableRecord
  2
STANDARD
 70
     0
 40
0.0
 41
1.0
 50
0.0
 71
     0
 42
5.0
  3
C:\Program Files\AutoCAD LT\romans.shx
  4
C:\Program Files\AutoCAD LT\extfont.shx
  0
ENDTAB
  0
TABLE
  2
VIEW
  5
6
330
0
100
AcDbSymbolTable
 70
     0
  0
ENDTAB
  0
TABLE
  2
UCS
  5
7
330
0
100
AcDbSymbolTable
 70
     0
  0
ENDTAB
  0
TABLE
  2
APPID
  5
9
330
0
100
AcDbSymbolTable
 70
     1
  0
APPID
  5
11
330
9
100
AcDbSymbolTableRecord
100
AcDbRegAppTableRecord
  2
ACAD
 70
     0
  0
ENDTAB
  0
TABLE
  2
DIMSTYLE
  5
A
330
0
100
AcDbSymbolTable
 70
     8
100
AcDbDimStyleTable
 71
     1
340
1D
  0
DIMSTYLE
105
1D
102
{ACAD_REACTORS
330
D885
330
D8CE
330
D8BA
330
D8EC
330
D884
330
D883
330
D929
330
D935
330
DB2F
330
DB5A
102
}
330
A
100
AcDbSymbolTableRecord
100
AcDbDimStyleTableRecord
  2
STANDARD
 70
     0
340
10
  0
DIMSTYLE
105
24
330
A
100
AcDbSymbolTableRecord
100
AcDbDimStyleTableRecord
  2
ISO-25
 70
     0
 41
2.5
 42
0.625
 43
3.75
 44
1.25
 74
     0
 77
     1
 78
     8
140
2.5
141
2.5
143
0.0394
145
1.0
147
0.625
172
     1
340
10
  0
DIMSTYLE
105
25
330
A
100
AcDbSymbolTableRecord
100
AcDbDimStyleTableRecord
  2
ISO-35
 70
     0
 41
3.5
 42
0.875
 43
5.25
 44
1.75
 74
     0
 77
     1
 78
     8
140
3.5
141
3.5
143
0.0394
145
1.399999999999999
147
0.875
172
     1
340
10
  0
DIMSTYLE
105
26
330
A
100
AcDbSymbolTableRecord
100
AcDbDimStyleTableRecord
  2
ISO-5
 70
     0
 41
5.0
 42
1.25
 43
7.5
 44
2.5
 74
     0
 77
     1
 78
     8
140
5.0
141
5.0
143
0.0394
145
2.0
147
1.25
172
     1
340
10
  0
DIMSTYLE
105
27
330
A
100
AcDbSymbolTableRecord
100
AcDbDimStyleTableRecord
  2
ISO-7
 70
     0
 41
7.0
 42
1.75
 43
10.5
 44
3.5
 74
     0
 77
     1
 78
     8
140
7.0
141
7.0
143
0.0394
145
2.799999999999999
147
1.75
172
     1
340
10
  0
DIMSTYLE
105
28
330
A
100
AcDbSymbolTableRecord
100
AcDbDimStyleTableRecord
  2
ISO1
 70
     0
 41
10.0
 42
2.5
 43
15.0
 44
5.0
 74
     0
 77
     1
 78
     8
140
10.0
141
10.0
143
0.0394
145
4.0
147
2.5
172
     1
340
10
  0
DIMSTYLE
105
29
330
A
100
AcDbSymbolTableRecord
100
AcDbDimStyleTableRecord
  2
ISO1-4
 70
     0
 41
14.0
 42
3.5
 43
21.0
 44
7.0
 74
     0
 77
     1
 78
     8
140
14.0
141
14.0
143
0.0394
145
5.599999999999999
147
3.5
172
     1
340
10
  0
DIMSTYLE
105
2A
330
A
100
AcDbSymbolTableRecord
100
AcDbDimStyleTableRecord
  2
ISO2
 70
     0
 41
20.0
 42
5.0
 43
30.0
 44
10.0
 74
     0
 77
     1
 78
     8
140
20.0
141
20.0
143
0.0394
145
8.0
147
5.0
172
     1
340
10
  0
ENDTAB
  0
TABLE
  2
BLOCK_RECORD
  5
1
330
0
100
AcDbSymbolTable
 70
    22
  0
BLOCK_RECORD
  5
1A
330
1
100
AcDbSymbolTableRecord
100
AcDbBlockTableRecord
  2
*MODEL_SPACE
340
B9ED
  0
BLOCK_RECORD
  5
17
330
1
100
AcDbSymbolTableRecord
100
AcDbBlockTableRecord
  2
*PAPER_SPACE
340
B9EE
  0
BLOCK_RECORD
  5
BA
330
1
100
AcDbSymbolTableRecord
100
AcDbBlockTableRecord
  2
_OPEN
340
0
102
{BLKREFS
331
DAE9
331
DAEA
331
DAF2
331
DAF3
331
DAFB
331
DAFC
331
DB04
331
DB05
331
DB0D
331
DB0E
331
DB16
331
DB17
331
DB1F
331
DB20
331
DB28
331
DB29
331
DB51
331
DB52
331
DB7C
331
DB7D
102
}
  0
BLOCK_RECORD
  5
BE42
330
1
100
AcDbSymbolTableRecord
100
AcDbBlockTableRecord
  2
M8WS-1
340
0
102
{BLKREFS
331
BE45
331
D3F6
102
}
  0
BLOCK_RECORD
  5
BE46
330
1
100
AcDbSymbolTableRecord
100
AcDbBlockTableRecord
  2
M8-WS-1
340
0
310
2800000020000000200000000100080000000000000400000000000000000000000000000000000000000000000080000080000000808000800000008000800080800000C0C0C000C0DCC000F0CAA6000020400000206000002080000020A0000020C0000020E00000400000004020000040400000406000004080000040A0
310
000040C0000040E00000600000006020000060400000606000006080000060A0000060C0000060E00000800000008020000080400000806000008080000080A0000080C0000080E00000A0000000A0200000A0400000A0600000A0800000A0A00000A0C00000A0E00000C0000000C0200000C0400000C0600000C0800000C0
310
A00000C0C00000C0E00000E0000000E0200000E0400000E0600000E0800000E0A00000E0C00000E0E00040000000400020004000400040006000400080004000A0004000C0004000E00040200000402020004020400040206000402080004020A0004020C0004020E000404000004040200040404000404060004040800040
310
40A0004040C0004040E00040600000406020004060400040606000406080004060A0004060C0004060E00040800000408020004080400040806000408080004080A0004080C0004080E00040A0000040A0200040A0400040A0600040A0800040A0A00040A0C00040A0E00040C0000040C0200040C0400040C0600040C08000
310
40C0A00040C0C00040C0E00040E0000040E0200040E0400040E0600040E0800040E0A00040E0C00040E0E00080000000800020008000400080006000800080008000A0008000C0008000E00080200000802020008020400080206000802080008020A0008020C0008020E00080400000804020008040400080406000804080
310
008040A0008040C0008040E00080600000806020008060400080606000806080008060A0008060C0008060E00080800000808020008080400080806000808080008080A0008080C0008080E00080A0000080A0200080A0400080A0600080A0800080A0A00080A0C00080A0E00080C0000080C0200080C0400080C0600080C0
310
800080C0A00080C0C00080C0E00080E0000080E0200080E0400080E0600080E0800080E0A00080E0C00080E0E000C0000000C0002000C0004000C0006000C0008000C000A000C000C000C000E000C0200000C0202000C0204000C0206000C0208000C020A000C020C000C020E000C0400000C0402000C0404000C0406000C0
310
408000C040A000C040C000C040E000C0600000C0602000C0604000C0606000C0608000C060A000C060C000C060E000C0800000C0802000C0804000C0806000C0808000C080A000C080C000C080E000C0A00000C0A02000C0A04000C0A06000C0A08000C0A0A000C0A0C000C0A0E000C0C00000C0C02000C0C04000C0C06000
310
C0C08000C0C0A000F0FBFF00A4A0A000808080000000FF0000FF000000FFFF00FF000000FF00FF00FFFF0000FFFFFF00FFFFFFFFFFFFFFFFFFFFFFFFFFFFFFFFFFFFFFFFFFFFFFFFFFFFFFFFFFFFFFFFFFFFFFFFFFFFFFFFFFFFFFFFFFFFFFFFFFFFFFFFFFFFFFFFFFFFFFFFFFFFFFFFFFFFFFFFFFFFFFFFFFFFFFFFFFFFFF
310
FFFFFFFFFFFFFFFFFFFFFFFFFFFFFFFFFFFFFFFFFFFFFFFFFFFFFFFFFFFFFFFFFFFFFFFFFFFFFFFFFFFFFFFFFFFFFFFFFFFFFFFFFFFFFFFFFFFFFFFFFFFFFFFFFFFFFFFFFFFFFFFFFFFFFFFFFFFFFFFFFFFFFFFFFFFFFFFFFFFFFFFFFFFFFFFFFFFFFFFFFFFFFFFFFFFFFFFFFFFFFFFFFFFFFFFFFFFFFFFFFFFFFFFFFFFFFF
310
FFFFFFFFFFFFFFFFFFFFFFFFFFFFFFFFFFFFFFFFFFFFFFFFFFFFFFFFFFFFFFFFFFFFFFFFFFFFFFFFFFFFFFFFFFFFFFFFFFFFFF000000000000000000000000000000000000000000000000000000000000FFFF00FFFFFFFFFFFFFFFFFFFFFFFFFFFFFFFFFFFFFFFFFFFFFFFFFFFFFFFF00FFFF000000000000000000000000
310
000000000000000000000000000000000000FFFFFFFFFF00FFFFFFFFFFFFFFFFFFFF0000FFFFFFFFFFFFFFFFFFFF00FFFFFFFFFFFFFFFF00FFFFFFFFFFFFFFFFFFFF0000FFFFFFFFFFFFFFFFFFFF00FFFFFFFFFFFFFFFF00FFFFFFFFFFFFFFFFFFFF0000FFFFFFFFFFFFFFFFFFFF00FFFFFFFFFFFFFF000000000000000000
310
0000000000000000000000000000000000FFFFFFFFFFFF00FFFFFFFFFF00FFFFFFFFFFFFFFFFFFFFFFFF00FFFFFFFFFF00FFFFFFFFFFFF00FFFFFFFFFF00FFFFFFFFFFFFFFFFFFFFFFFF00FFFFFFFFFF00FFFFFFFFFFFF00FFFFFFFFFF00FFFFFFFFFFFFFFFFFFFFFFFF00FFFFFFFFFF00FFFFFFFFFFFF00FFFFFFFFFF00FF
310
FFFFFFFFFFFFFFFFFFFFFF00FFFFFFFFFF00FFFFFFFFFFFF00FFFFFFFFFF00FFFFFFFFFFFFFFFFFFFFFFFF00FFFFFFFFFF00FFFFFFFFFFFF00FFFFFFFFFF00FFFFFFFFFFFFFFFFFFFFFFFF00FFFFFFFFFF00FFFFFFFFFFFF00FFFFFFFFFF00FFFFFFFFFFFFFFFFFFFFFFFF00FFFFFFFFFF00FFFFFFFFFFFF000000FF000000
310
000000FFFFFFFFFFFF000000000000FF000000FFFFFFFFFFFFFFFF00000000000000000000000000000000000000000000FFFFFFFFFFFFFFFFFFFFFFFFFFFFFFFFFFFFFFFFFFFFFFFFFFFFFFFFFFFFFFFFFFFFFFFFFFFFFFFFFFFFFFFFFFFFFFFFFFFFFFFFFFFFFFFFFFFFFFFFFFFFFFFFFFFFFFFFFFFFFFFFFFFFFFFFFFFF
310
FFFFFFFFFFFFFFFFFFFFFFFFFFFFFFFFFFFFFFFFFFFFFFFFFFFFFFFFFFFFFFFFFFFFFFFFFFFFFFFFFFFFFFFFFFFFFFFFFFFFFFFFFFFFFFFFFFFFFFFFFFFFFFFFFFFFFFFFFFFFFFFFFFFFFFFFFFFFFFFFFFFFFFFFFFFFFFFFFFFFFFFFFFFFFFFFFFFFFFFFFFFFFFFFFFFFFFFFFFFFFFFFFFFFFFFFFFFFFFFFFFFFFFFFFFFFFF
310
FFFFFFFFFFFFFFFFFFFFFFFFFFFFFFFFFFFFFFFFFFFFFFFFFFFFFFFFFFFFFFFFFFFFFFFFFFFFFFFFFFFFFFFFFFFFFFFFFFFFFFFFFFFFFFFF
102
{BLKREFS
331
DB89
331
DB9B
102
}
  0
BLOCK_RECORD
  5
BE5C
330
1
100
AcDbSymbolTableRecord
100
AcDbBlockTableRecord
  2
M8-WS-2
340
0
310
2800000020000000200000000100080000000000000400000000000000000000000000000000000000000000000080000080000000808000800000008000800080800000C0C0C000C0DCC000F0CAA6000020400000206000002080000020A0000020C0000020E00000400000004020000040400000406000004080000040A0
310
000040C0000040E00000600000006020000060400000606000006080000060A0000060C0000060E00000800000008020000080400000806000008080000080A0000080C0000080E00000A0000000A0200000A0400000A0600000A0800000A0A00000A0C00000A0E00000C0000000C0200000C0400000C0600000C0800000C0
310
A00000C0C00000C0E00000E0000000E0200000E0400000E0600000E0800000E0A00000E0C00000E0E00040000000400020004000400040006000400080004000A0004000C0004000E00040200000402020004020400040206000402080004020A0004020C0004020E000404000004040200040404000404060004040800040
310
40A0004040C0004040E00040600000406020004060400040606000406080004060A0004060C0004060E00040800000408020004080400040806000408080004080A0004080C0004080E00040A0000040A0200040A0400040A0600040A0800040A0A00040A0C00040A0E00040C0000040C0200040C0400040C0600040C08000
310
40C0A00040C0C00040C0E00040E0000040E0200040E0400040E0600040E0800040E0A00040E0C00040E0E00080000000800020008000400080006000800080008000A0008000C0008000E00080200000802020008020400080206000802080008020A0008020C0008020E00080400000804020008040400080406000804080
310
008040A0008040C0008040E00080600000806020008060400080606000806080008060A0008060C0008060E00080800000808020008080400080806000808080008080A0008080C0008080E00080A0000080A0200080A0400080A0600080A0800080A0A00080A0C00080A0E00080C0000080C0200080C0400080C0600080C0
310
800080C0A00080C0C00080C0E00080E0000080E0200080E0400080E0600080E0800080E0A00080E0C00080E0E000C0000000C0002000C0004000C0006000C0008000C000A000C000C000C000E000C0200000C0202000C0204000C0206000C0208000C020A000C020C000C020E000C0400000C0402000C0404000C0406000C0
310
408000C040A000C040C000C040E000C0600000C0602000C0604000C0606000C0608000C060A000C060C000C060E000C0800000C0802000C0804000C0806000C0808000C080A000C080C000C080E000C0A00000C0A02000C0A04000C0A06000C0A08000C0A0A000C0A0C000C0A0E000C0C00000C0C02000C0C04000C0C06000
310
C0C08000C0C0A000F0FBFF00A4A0A000808080000000FF0000FF000000FFFF00FF000000FF00FF00FFFF0000FFFFFF00FFFFFFFFFFFFFFFFFFFFFFFFFFFFFFFFFFFFFFFFFFFFFFFFFFFFFFFFFFFFFFFFFFFFFFFFFFFFFFFFFFFFFFFFFFFFFFFFFFFFFFFFFF000000FFFFFFFFFFFFFFFFFFFFFFFFFFFFFFFFFFFFFFFFFFFFFF
310
FFFFFFFFFFFF00FF00FFFFFFFFFFFFFFFFFFFFFFFFFFFFFFFFFFFFFFFFFFFFFFFFFFFFFFFFFF00FF00FFFFFFFFFFFFFFFFFFFFFFFFFFFFFFFFFFFFFFFFFFFFFFFFFF0000000000FF00FFFFFFFFFFFFFFFFFFFFFFFFFFFFFFFFFF000000000000000000FFFFFF00FF00FFFFFFFFFFFFFFFFFFFFFFFFFFFFFFFFFF00FFFFFFFF
310
FFFFFF00FFFFFF00FF00FFFFFFFFFFFFFFFFFFFFFFFFFFFFFFFFFF00FFFFFFFFFFFFFF00FFFFFF00FF00FFFFFFFFFFFFFFFFFFFFFFFFFFFFFFFFFF00FFFFFFFFFFFFFF00FFFFFF00FF00FFFFFFFFFFFFFFFFFFFFFFFFFFFFFFFF00FFFFFFFFFFFFFFFF00FFFFFF00FF00FFFFFFFFFFFFFFFFFFFFFFFFFFFFFFFF00FFFFFFFF
310
FFFFFFFF00FFFFFF00FF00FFFFFFFFFFFFFFFFFFFFFFFFFFFFFFFF00FFFFFFFFFFFFFFFF00FFFFFF00FF00FFFFFFFFFFFFFFFFFFFFFFFFFFFFFFFF0000FFFFFFFFFFFFFF00FFFFFF00FF00FFFFFFFFFFFFFFFFFFFFFFFFFFFFFFFF0000FFFFFFFFFFFFFF00FFFFFF00FF00FFFFFFFFFFFFFFFFFFFFFFFFFFFFFFFF0000FFFF
310
FFFFFFFFFF00FFFFFF00FF00FFFFFFFFFFFFFFFFFFFFFFFFFFFFFFFF0000000000000000000000000000FF00FFFFFFFFFFFFFFFFFFFFFFFFFFFFFFFF0000FFFFFFFFFFFFFF0000000000FF00FFFFFFFFFFFFFFFFFFFFFFFFFFFFFFFF0000FFFFFFFFFFFFFF00FFFFFF00FF00FFFFFFFFFFFFFFFFFFFFFFFFFFFFFFFF0000FF
310
FFFFFFFFFFFF00FFFFFF00FF00FFFFFFFFFFFFFFFFFFFFFFFFFFFFFFFF0000FFFFFFFFFFFFFF00FFFFFF00FF00FFFFFFFFFFFFFFFFFFFFFFFFFFFFFFFF00FFFFFFFFFFFFFFFF00FFFFFF00FF00FFFFFFFFFFFFFFFFFFFFFFFFFFFFFFFF00FFFFFFFFFFFFFFFF00FFFFFF00FF00FFFFFFFFFFFFFFFFFFFFFFFFFFFFFFFF00FF
310
FFFFFFFFFFFFFF00FFFFFF00FF00FFFFFFFFFFFFFFFFFFFFFFFFFFFFFFFFFF00FFFFFFFFFFFFFF00FFFFFF00FF00FFFFFFFFFFFFFFFFFFFFFFFFFFFFFFFFFF00FFFFFFFFFFFFFF00FFFFFF00FF00FFFFFFFFFFFFFFFFFFFFFFFFFFFFFFFFFF00FFFFFFFFFFFFFF00FFFFFF00FF00FFFFFFFFFFFFFFFFFFFFFFFFFFFFFFFFFF
310
000000000000000000FFFFFF00FF00FFFFFFFFFFFFFFFFFFFFFFFFFFFFFFFFFFFFFFFFFFFFFFFFFF0000000000FF00FFFFFFFFFFFFFFFFFFFFFFFFFFFFFFFFFFFFFFFFFFFFFFFFFFFFFFFFFF00FF00FFFFFFFFFFFFFFFFFFFFFFFFFFFFFFFFFFFFFFFFFFFFFFFFFFFFFFFFFF00FF00FFFFFFFFFFFFFFFFFFFFFFFFFFFFFFFF
310
FFFFFFFFFFFFFFFFFFFFFFFFFF000000FFFFFFFFFFFFFFFFFFFFFFFFFFFFFFFFFFFFFFFFFFFFFFFFFFFFFFFFFFFFFFFFFFFFFFFFFFFFFFFF
102
{BLKREFS
331
DB8A
331
DB9A
102
}
  0
BLOCK_RECORD
  5
BFC4
330
1
100
AcDbSymbolTableRecord
100
AcDbBlockTableRecord
  2
ST11-1
340
0
310
2800000020000000200000000100080000000000000400000000000000000000000000000000000000000000000080000080000000808000800000008000800080800000C0C0C000C0DCC000F0CAA6000020400000206000002080000020A0000020C0000020E00000400000004020000040400000406000004080000040A0
310
000040C0000040E00000600000006020000060400000606000006080000060A0000060C0000060E00000800000008020000080400000806000008080000080A0000080C0000080E00000A0000000A0200000A0400000A0600000A0800000A0A00000A0C00000A0E00000C0000000C0200000C0400000C0600000C0800000C0
310
A00000C0C00000C0E00000E0000000E0200000E0400000E0600000E0800000E0A00000E0C00000E0E00040000000400020004000400040006000400080004000A0004000C0004000E00040200000402020004020400040206000402080004020A0004020C0004020E000404000004040200040404000404060004040800040
310
40A0004040C0004040E00040600000406020004060400040606000406080004060A0004060C0004060E00040800000408020004080400040806000408080004080A0004080C0004080E00040A0000040A0200040A0400040A0600040A0800040A0A00040A0C00040A0E00040C0000040C0200040C0400040C0600040C08000
310
40C0A00040C0C00040C0E00040E0000040E0200040E0400040E0600040E0800040E0A00040E0C00040E0E00080000000800020008000400080006000800080008000A0008000C0008000E00080200000802020008020400080206000802080008020A0008020C0008020E00080400000804020008040400080406000804080
310
008040A0008040C0008040E00080600000806020008060400080606000806080008060A0008060C0008060E00080800000808020008080400080806000808080008080A0008080C0008080E00080A0000080A0200080A0400080A0600080A0800080A0A00080A0C00080A0E00080C0000080C0200080C0400080C0600080C0
310
800080C0A00080C0C00080C0E00080E0000080E0200080E0400080E0600080E0800080E0A00080E0C00080E0E000C0000000C0002000C0004000C0006000C0008000C000A000C000C000C000E000C0200000C0202000C0204000C0206000C0208000C020A000C020C000C020E000C0400000C0402000C0404000C0406000C0
310
408000C040A000C040C000C040E000C0600000C0602000C0604000C0606000C0608000C060A000C060C000C060E000C0800000C0802000C0804000C0806000C0808000C080A000C080C000C080E000C0A00000C0A02000C0A04000C0A06000C0A08000C0A0A000C0A0C000C0A0E000C0C00000C0C02000C0C04000C0C06000
310
C0C08000C0C0A000F0FBFF00A4A0A000808080000000FF0000FF000000FFFF00FF000000FF00FF00FFFF0000FFFFFF00FFFFFFFFFFFFFFFFFFFFFFFFFFFFFFFFFFFFFFFFFFFFFFFFFFFFFFFFFFFFFFFFFFFFFFFFFFFFFFFFFFFFFFFFFFFFFF0000FFFFFFFFFFFFFFFFFFFFFFFFFFFFFFFFFFFFFFFFFFFFFFFFFFFFFFFF0000
310
FFFF0000FFFFFFFFFFFFFFFFFFFFFFFFFFFFFFFFFFFFFFFFFFFFFFFFFF00FFFF0000000000FFFFFFFFFFFFFFFFFFFFFFFFFFFFFFFFFFFFFFFFFFFF0000000000FFFFFFFF000000FFFFFFFFFFFFFFFFFFFFFFFFFFFFFFFFFFFF000000FFFFFFFFFFFFFFFFFFFFFF0000FFFFFFFFFFFFFFFFFFFFFFFFFFFFFF0000FFFFFFFFFF
310
FFFFFFFFFFFFFFFFFFFF00FFFFFFFFFFFFFFFFFFFFFFFF0000FFFFFFFFFFFFFFFFFFFFFFFFFFFFFFFFFFFF0000FFFFFFFFFFFFFFFFFF0000FFFFFFFFFFFFFFFFFFFFFFFFFFFFFFFFFFFFFF00FF00FFFFFFFFFFFFFF00FF00FFFFFFFFFFFFFFFFFFFFFFFFFFFFFFFFFFFFFFFF00FF00FFFFFFFFFFFF0000FFFFFFFFFFFFFF00
310
0000000000FFFFFFFFFFFFFFFFFF0000FFFFFFFFFFFF0000FFFFFFFFFFFF00FFFFFFFFFFFF0000FFFFFFFFFFFFFF0000FFFFFFFFFFFF00FFFFFFFFFFFFFF00FFFFFFFFFFFFFFFF00FFFFFFFFFFFF0000FFFFFFFFFFFF00FFFFFFFFFFFF00FFFFFFFFFFFFFFFFFFFF00FFFFFFFFFF0000FFFFFFFFFFFF00FFFFFFFFFFFF00FF
310
FFFFFFFFFFFFFFFFFF00FFFFFFFFFFFF00FFFFFFFFFFFF00FFFFFFFFFFFF00FFFFFFFFFFFFFFFFFFFFFF00FFFFFFFFFF00FFFFFFFFFFFF00FFFFFFFFFFFF00FFFFFFFFFFFFFFFFFFFFFF00FFFFFFFFFF00FFFFFFFFFFFF00FFFFFFFFFFFF00FFFFFFFFFFFFFFFFFFFF00FFFFFFFFFFFF00FFFFFFFFFFFF00FFFFFFFFFFFF00
310
FFFFFFFFFFFFFFFFFFFF00FFFFFFFFFFFF00FFFFFFFFFFFF00FFFFFFFFFFFFFF00FFFFFFFFFFFFFFFF00FFFFFFFFFFFF0000FFFFFFFFFFFF0000FFFFFFFFFFFF00FFFFFFFFFFFF0000FFFFFFFFFFFFFF0000FFFFFFFFFFFF0000FFFFFFFFFFFFFF000000000000FFFFFFFFFFFFFFFFFF0000FFFFFFFFFFFF00FF00FFFFFFFF
310
FFFFFFFFFFFFFFFFFFFFFFFFFFFFFFFF00FF00FFFFFFFFFFFFFF0000FFFFFFFFFFFFFFFFFFFFFFFFFFFFFFFFFFFFFF00FF00FFFFFFFFFFFFFFFFFF0000FFFFFFFFFFFFFFFFFFFFFFFFFFFFFFFFFFFF0000FFFFFFFFFFFFFFFFFFFFFFFF0000FFFFFFFFFFFFFFFFFFFFFFFFFFFFFF00FFFFFFFFFFFFFFFFFFFFFFFFFFFFFF00
310
0000FFFFFFFFFFFFFFFFFFFFFF0000FFFFFFFFFFFFFFFFFFFFFFFFFFFFFFFFFFFF00000000FFFFFFFFFF000000FFFFFFFFFFFFFFFFFFFFFFFFFFFFFFFFFFFFFFFFFFFF00FF000000000000FFFFFFFFFFFFFFFFFFFFFFFFFFFFFFFFFFFFFFFFFFFFFFFFFF0000FFFF0000FFFFFFFFFFFFFFFFFFFFFFFFFFFFFFFFFFFFFFFFFF
310
FFFFFFFFFFFFFF0000FFFFFFFFFFFFFFFFFFFFFFFFFFFFFFFFFFFFFFFFFFFFFFFFFFFFFFFFFFFFFFFFFFFFFFFFFFFFFFFFFFFFFFFFFFFFFF
102
{BLKREFS
331
D8A4
331
D8A3
331
D8A2
102
}
  0
BLOCK_RECORD
  5
BFF1
330
1
100
AcDbSymbolTableRecord
100
AcDbBlockTableRecord
  2
ST11-3
340
0
310
2800000020000000200000000100080000000000000400000000000000000000000000000000000000000000000080000080000000808000800000008000800080800000C0C0C000C0DCC000F0CAA6000020400000206000002080000020A0000020C0000020E00000400000004020000040400000406000004080000040A0
310
000040C0000040E00000600000006020000060400000606000006080000060A0000060C0000060E00000800000008020000080400000806000008080000080A0000080C0000080E00000A0000000A0200000A0400000A0600000A0800000A0A00000A0C00000A0E00000C0000000C0200000C0400000C0600000C0800000C0
310
A00000C0C00000C0E00000E0000000E0200000E0400000E0600000E0800000E0A00000E0C00000E0E00040000000400020004000400040006000400080004000A0004000C0004000E00040200000402020004020400040206000402080004020A0004020C0004020E000404000004040200040404000404060004040800040
310
40A0004040C0004040E00040600000406020004060400040606000406080004060A0004060C0004060E00040800000408020004080400040806000408080004080A0004080C0004080E00040A0000040A0200040A0400040A0600040A0800040A0A00040A0C00040A0E00040C0000040C0200040C0400040C0600040C08000
310
40C0A00040C0C00040C0E00040E0000040E0200040E0400040E0600040E0800040E0A00040E0C00040E0E00080000000800020008000400080006000800080008000A0008000C0008000E00080200000802020008020400080206000802080008020A0008020C0008020E00080400000804020008040400080406000804080
310
008040A0008040C0008040E00080600000806020008060400080606000806080008060A0008060C0008060E00080800000808020008080400080806000808080008080A0008080C0008080E00080A0000080A0200080A0400080A0600080A0800080A0A00080A0C00080A0E00080C0000080C0200080C0400080C0600080C0
310
800080C0A00080C0C00080C0E00080E0000080E0200080E0400080E0600080E0800080E0A00080E0C00080E0E000C0000000C0002000C0004000C0006000C0008000C000A000C000C000C000E000C0200000C0202000C0204000C0206000C0208000C020A000C020C000C020E000C0400000C0402000C0404000C0406000C0
310
408000C040A000C040C000C040E000C0600000C0602000C0604000C0606000C0608000C060A000C060C000C060E000C0800000C0802000C0804000C0806000C0808000C080A000C080C000C080E000C0A00000C0A02000C0A04000C0A06000C0A08000C0A0A000C0A0C000C0A0E000C0C00000C0C02000C0C04000C0C06000
310
C0C08000C0C0A000F0FBFF00A4A0A000808080000000FF0000FF000000FFFF00FF000000FF00FF00FFFF0000FFFFFF00FFFFFFFFFFFFFFFFFFFFFFFFFFFFFFFFFFFFFFFFFFFFFFFFFFFFFFFFFFFFFFFFFFFFFFFFFFFFFFFFFFFFFFFFFFFFFFFFFFFFFFFFFFFFFFFFFFFFFFFFFFFFFFFFFFFFFFFFFFFFFFFFFFFFFFFFFFFFFF
310
FFFFFFFFFFFFFFFFFFFFFFFFFFFFFFFFFFFFFFFFFFFFFFFFFFFFFFFFFFFFFFFFFFFFFFFFFFFFFFFFFFFFFFFFFFFFFFFFFFFF000000000000FFFFFFFFFFFFFF00000000000000000000FFFFFFFFFFFFFFFFFF00FFFFFFFF00FFFFFFFFFFFFFF00FFFFFFFFFFFFFFFF000000FFFFFFFFFFFFFF00FFFFFFFF00FFFFFFFFFFFFFF
310
00FFFFFFFFFFFFFFFF00FFFF00FFFFFFFFFFFF00FFFFFFFF000000000000000000FFFFFFFFFFFFFFFF00FFFFFF00FFFFFFFFFF00FFFFFFFF00FFFFFFFFFFFFFF00FFFFFFFFFFFFFFFF00FFFFFFFF00FFFFFFFF000000000000FFFFFFFFFFFFFF00000000000000000000FFFFFFFFFF00FFFFFF000000000000FFFFFFFFFFFF
310
FF00000000000000000000FFFFFFFFFFFF00FFFF00FFFFFFFF00FFFFFFFFFFFFFF00FFFFFFFFFFFFFFFF00FFFFFFFFFFFF00FFFF00FFFFFFFF00FFFFFFFFFFFFFF00FFFFFFFFFFFFFFFF00FFFFFFFFFFFF00FFFF00FFFFFFFF00FFFFFFFFFFFFFF00FFFFFFFFFFFFFFFF00FFFFFFFFFFFF00FFFF00FFFFFFFF00FFFFFFFFFF
310
FFFF00FFFFFFFFFFFFFFFF00FFFFFFFFFFFF00FFFF00FFFFFFFF00FFFFFFFFFFFFFF00FFFFFFFFFFFFFFFF00FFFFFFFFFFFF00FFFF00FFFFFFFF00FFFFFFFFFFFFFF00FFFFFFFFFFFFFFFF00FFFFFFFFFFFF00FFFF00FFFFFFFF00FFFFFFFFFFFFFF00FFFFFFFFFFFFFFFF00FFFFFFFFFFFF00FFFF00FFFFFFFF00FFFFFFFF
310
FFFFFF00FFFFFFFFFFFFFFFF00FFFFFFFFFFFF00FFFF00FFFFFFFF00FFFFFFFFFFFFFF00FFFFFFFFFFFFFFFF00FFFFFFFFFFFF00FFFF00FFFFFFFF00FFFFFFFFFFFFFF00FFFFFFFFFFFFFFFF00FFFFFFFFFFFF00FFFF000000000000FFFFFFFFFFFFFF00000000000000000000FFFFFFFFFFFF00FFFF000000000000FFFFFF
310
FFFFFFFF00000000000000000000FFFFFFFFFF00FFFFFF00FFFFFFFF00FFFFFFFFFFFFFF00FFFFFFFFFFFFFFFF00FFFFFFFF00FFFFFFFF00FFFFFFFF000000000000000000FFFFFFFFFFFFFFFF00FFFFFF00FFFFFFFFFF00FFFFFFFF00FFFFFFFFFFFFFF00FFFFFFFFFFFFFFFF00FFFF00FFFFFFFFFFFF00FFFFFFFF00FFFF
310
FFFFFFFFFF00FFFFFFFFFFFFFFFF000000FFFFFFFFFFFFFF000000000000FFFFFFFFFFFFFF00000000000000000000FFFFFFFFFFFFFFFFFFFFFFFFFFFFFFFFFFFFFFFFFFFFFFFFFFFFFFFFFFFFFFFFFFFFFFFFFFFFFFFFFFFFFFFFFFFFFFFFFFFFFFFFFFFFFFFFFFFFFFFFFFFFFFFFFFFFFFFFFFFFFFFFFFFFFFFFFFFFFFFF
310
FFFFFFFFFFFFFFFFFFFFFFFFFFFFFFFFFFFFFFFFFFFFFFFFFFFFFFFFFFFFFFFFFFFFFFFFFFFFFFFFFFFFFFFFFFFFFFFFFFFFFFFFFFFFFFFF
102
{BLKREFS
331
D8CA
331
D8CF
331
D8D0
102
}
  0
BLOCK_RECORD
  5
C8B8
330
1
100
AcDbSymbolTableRecord
100
AcDbBlockTableRecord
  2
A$C5CC44EE0
340
0
102
{BLKREFS
331
C929
102
}
  0
BLOCK_RECORD
  5
C8F6
330
1
100
AcDbSymbolTableRecord
100
AcDbBlockTableRecord
  2
A$C2086655F
340
0
102
{BLKREFS
331
C915
102
}
  0
BLOCK_RECORD
  5
C913
330
1
100
AcDbSymbolTableRecord
100
AcDbBlockTableRecord
  2
A$C1A9113A3
340
0
102
{BLKREFS
331
D5D0
102
}
  0
BLOCK_RECORD
  5
C926
330
1
100
AcDbSymbolTableRecord
100
AcDbBlockTableRecord
  2
A$C46F07F73
340
0
102
{BLKREFS
331
D5CA
102
}
  0
BLOCK_RECORD
  5
CA33
330
1
100
AcDbSymbolTableRecord
100
AcDbBlockTableRecord
  2
M3-TOP
340
0
310
2800000020000000200000000100080000000000000400000000000000000000000000000000000000000000000080000080000000808000800000008000800080800000C0C0C000C0DCC000F0CAA6000020400000206000002080000020A0000020C0000020E00000400000004020000040400000406000004080000040A0
310
000040C0000040E00000600000006020000060400000606000006080000060A0000060C0000060E00000800000008020000080400000806000008080000080A0000080C0000080E00000A0000000A0200000A0400000A0600000A0800000A0A00000A0C00000A0E00000C0000000C0200000C0400000C0600000C0800000C0
310
A00000C0C00000C0E00000E0000000E0200000E0400000E0600000E0800000E0A00000E0C00000E0E00040000000400020004000400040006000400080004000A0004000C0004000E00040200000402020004020400040206000402080004020A0004020C0004020E000404000004040200040404000404060004040800040
310
40A0004040C0004040E00040600000406020004060400040606000406080004060A0004060C0004060E00040800000408020004080400040806000408080004080A0004080C0004080E00040A0000040A0200040A0400040A0600040A0800040A0A00040A0C00040A0E00040C0000040C0200040C0400040C0600040C08000
310
40C0A00040C0C00040C0E00040E0000040E0200040E0400040E0600040E0800040E0A00040E0C00040E0E00080000000800020008000400080006000800080008000A0008000C0008000E00080200000802020008020400080206000802080008020A0008020C0008020E00080400000804020008040400080406000804080
310
008040A0008040C0008040E00080600000806020008060400080606000806080008060A0008060C0008060E00080800000808020008080400080806000808080008080A0008080C0008080E00080A0000080A0200080A0400080A0600080A0800080A0A00080A0C00080A0E00080C0000080C0200080C0400080C0600080C0
310
800080C0A00080C0C00080C0E00080E0000080E0200080E0400080E0600080E0800080E0A00080E0C00080E0E000C0000000C0002000C0004000C0006000C0008000C000A000C000C000C000E000C0200000C0202000C0204000C0206000C0208000C020A000C020C000C020E000C0400000C0402000C0404000C0406000C0
310
408000C040A000C040C000C040E000C0600000C0602000C0604000C0606000C0608000C060A000C060C000C060E000C0800000C0802000C0804000C0806000C0808000C080A000C080C000C080E000C0A00000C0A02000C0A04000C0A06000C0A08000C0A0A000C0A0C000C0A0E000C0C00000C0C02000C0C04000C0C06000
310
C0C08000C0C0A000F0FBFF00A4A0A000808080000000FF0000FF000000FFFF00FF000000FF00FF00FFFF0000FFFFFF00FFFFFFFFFFFFFFFFFFFFFFFFFFFFFFFFFFFFFFFFFFFFFFFFFFFFFFFFFFFFFFFFFFFFFFFFFFFFFFFFFFFFFFFFFFFFFF000000FFFFFFFFFFFFFFFFFFFFFFFFFFFFFFFFFFFFFFFFFFFFFFFFFF00000000
310
FFFFFF00000000FFFFFFFFFFFFFFFFFFFFFFFFFFFFFFFFFFFF000000FFFFFFFFFFFFFFFFFFFFFF0000FFFFFFFFFFFFFFFFFFFFFFFFFFFFFF00FFFFFFFFFFFFFFFFFFFFFFFFFFFFFFFF00FFFFFFFFFFFFFFFFFFFFFFFFFF00FFFFFFFFFFFFFFFFFFFFFFFFFFFFFFFFFFFF00FFFFFFFFFFFFFFFFFFFFFF00FFFFFFFFFFFF0000
310
000000000000FFFFFFFFFFFF00FFFFFFFFFFFFFFFFFF00FFFFFFFFFFFFFF00FFFFFFFFFFFF00FFFFFFFFFFFFFF00FFFFFFFFFFFFFF00FFFFFFFFFFFFFFFF00FFFFFFFFFFFF00FFFFFFFFFFFFFFFF00FFFFFFFFFFFF00FFFFFFFFFFFFFFFF00FFFFFFFFFFFF00FFFFFFFFFFFFFFFF00FFFFFFFFFFFF00FFFFFFFFFFFFFFFF00
310
FFFFFFFFFFFF00FFFFFFFFFFFFFFFFFF00FFFFFFFF00FFFFFFFFFFFFFFFFFF00FFFFFFFFFFFF00FFFFFFFFFFFFFFFFFF00FFFFFFFF00FFFFFF00000000000000FFFFFFFFFFFF00000000000000FFFFFF00FFFFFFFF00FFFFFF00FFFFFFFFFFFFFFFFFFFFFFFFFFFFFFFFFFFF00FFFFFF00FFFFFFFF00FFFFFF00FFFFFFFFFF
310
FFFFFFFFFFFFFFFFFFFFFFFFFF00FFFFFFFF00FFFF00FFFFFFFF00FFFFFFFFFFFFFFFFFFFFFFFFFFFFFFFFFFFF00FFFFFFFF00FFFF00FFFFFFFF00FFFFFFFFFFFFFFFFFFFFFFFFFFFFFFFFFFFF00FFFFFFFF00FFFF00FFFFFFFF00FFFFFFFFFFFFFFFFFFFFFFFFFFFFFFFFFFFF00FFFFFFFF00FFFFFF00FFFFFF00FFFFFFFF
310
FFFFFFFFFFFFFFFFFFFFFFFFFFFF00FFFFFF00FFFFFFFF00FFFFFF00000000000000FFFFFFFFFFFF00000000000000FFFFFF00FFFFFFFF00FFFFFFFFFFFFFFFFFF00FFFFFFFFFFFF00FFFFFFFFFFFFFFFFFF00FFFFFFFF00FFFFFFFFFFFFFFFFFF00FFFFFFFFFFFF00FFFFFFFFFFFFFFFFFF00FFFFFFFFFF00FFFFFFFFFFFF
310
FFFF00FFFFFFFFFFFF00FFFFFFFFFFFFFFFF00FFFFFFFFFFFF00FFFFFFFFFFFFFFFF00FFFFFFFFFFFF00FFFFFFFFFFFFFFFF00FFFFFFFFFFFFFF00FFFFFFFFFFFFFF00FFFFFFFFFFFF00FFFFFFFFFFFFFF00FFFFFFFFFFFFFFFFFF00FFFFFFFFFFFF0000000000000000FFFFFFFFFFFF00FFFFFFFFFFFFFFFFFFFFFF00FFFF
310
FFFFFFFFFFFFFFFFFFFFFFFFFFFFFFFF00FFFFFFFFFFFFFFFFFFFFFFFFFF00FFFFFFFFFFFFFFFFFFFFFFFFFFFFFFFF00FFFFFFFFFFFFFFFFFFFFFFFFFFFFFF0000FFFFFFFFFFFFFFFFFFFFFFFF0000FFFFFFFFFFFFFFFFFFFFFFFFFFFFFFFFFFFF00000000FFFFFFFF00000000FFFFFFFFFFFFFFFFFFFFFFFFFFFFFFFFFFFF
310
FFFFFFFFFFFF00000000FFFFFFFFFFFFFFFFFFFFFFFFFFFFFFFFFFFFFFFFFFFFFFFFFFFFFFFFFFFFFFFFFFFFFFFFFFFFFFFFFFFFFFFFFFFF
102
{BLKREFS
331
D8CB
331
D89E
331
D89D
331
D8BB
331
D8CC
331
D89F
102
}
  0
BLOCK_RECORD
  5
CCBE
330
1
100
AcDbSymbolTableRecord
100
AcDbBlockTableRecord
  2
F2060B-4P
340
0
310
2800000020000000200000000100080000000000000400000000000000000000000000000000000000000000000080000080000000808000800000008000800080800000C0C0C000C0DCC000F0CAA6000020400000206000002080000020A0000020C0000020E00000400000004020000040400000406000004080000040A0
310
000040C0000040E00000600000006020000060400000606000006080000060A0000060C0000060E00000800000008020000080400000806000008080000080A0000080C0000080E00000A0000000A0200000A0400000A0600000A0800000A0A00000A0C00000A0E00000C0000000C0200000C0400000C0600000C0800000C0
310
A00000C0C00000C0E00000E0000000E0200000E0400000E0600000E0800000E0A00000E0C00000E0E00040000000400020004000400040006000400080004000A0004000C0004000E00040200000402020004020400040206000402080004020A0004020C0004020E000404000004040200040404000404060004040800040
310
40A0004040C0004040E00040600000406020004060400040606000406080004060A0004060C0004060E00040800000408020004080400040806000408080004080A0004080C0004080E00040A0000040A0200040A0400040A0600040A0800040A0A00040A0C00040A0E00040C0000040C0200040C0400040C0600040C08000
310
40C0A00040C0C00040C0E00040E0000040E0200040E0400040E0600040E0800040E0A00040E0C00040E0E00080000000800020008000400080006000800080008000A0008000C0008000E00080200000802020008020400080206000802080008020A0008020C0008020E00080400000804020008040400080406000804080
310
008040A0008040C0008040E00080600000806020008060400080606000806080008060A0008060C0008060E00080800000808020008080400080806000808080008080A0008080C0008080E00080A0000080A0200080A0400080A0600080A0800080A0A00080A0C00080A0E00080C0000080C0200080C0400080C0600080C0
310
800080C0A00080C0C00080C0E00080E0000080E0200080E0400080E0600080E0800080E0A00080E0C00080E0E000C0000000C0002000C0004000C0006000C0008000C000A000C000C000C000E000C0200000C0202000C0204000C0206000C0208000C020A000C020C000C020E000C0400000C0402000C0404000C0406000C0
310
408000C040A000C040C000C040E000C0600000C0602000C0604000C0606000C0608000C060A000C060C000C060E000C0800000C0802000C0804000C0806000C0808000C080A000C080C000C080E000C0A00000C0A02000C0A04000C0A06000C0A08000C0A0A000C0A0C000C0A0E000C0C00000C0C02000C0C04000C0C06000
310
C0C08000C0C0A000F0FBFF00A4A0A000808080000000FF0000FF000000FFFF00FF000000FF00FF00FFFF0000FFFFFF00FFFFFFFFFFFFFFFFFFFFFFFFFFFFFFFFFFFFFFFFFFFFFFFFFFFFFFFFFFFFFFFFFFFFFFFFFFFFFFFFFFFFFFFFFFFFFFFFFFFFFFFFFFFFFFFFFFFFFFFFFFFFFFFFFFFFFFFFFFFFFFFFFFFFFFFFFFFFFF
310
FFFFFFFFFFFFFFFFFFFFFFFFFFFFFFFFFFFFFFFFFFFFFFFFFFFFFFFFFFFFFFFFFFFFFFFFFFFFFFFFFFFFFFFFFFFFFFFFFFFFFFFFFFFFFFFFFFFFFFFFFFFFFFFFFFFFFFFFFFFFFFFFFFFFFFFFFFFFFFFFFFFFFFFFFFFFFFFFFFFFFFFFFFFFFFFFFFFFFFFFFFFFFFFFFFFFFFFFFFFFFFFFFFFFFFFFFFFFFFFFFFFFFFFFFFFFFF
310
FFFFFFFFFFFFFFFFFFFFFFFFFFFFFFFFFFFFFFFFFFFFFFFFFFFFFFFFFFFFFFFFFFFFFFFFFFFFFFFFFFFFFFFFFFFFFFFFFFFFFFFFFFFFFFFFFFFFFFFFFFFFFFFFFFFFFFFFFFFFFFFFFFFFFFFFFFFFFFFFFFFFFFFFFFFFFFFFFFFFFFFFFFFFFFFFFFFFFFFFFFFFFFFFFFFFFFFFFFFFFFFFFFFFFFFFFFFFFFFFFFFFFFFFFFFFFF
310
FFFFFFFFFFFFFFFFFFFFFFFFFFFFFFFFFFFFFFFFFFFFFFFFFFFFFFFFFFFFFFFFFFFFFFFFFFFFFFFFFFFFFFFFFFFFFFFFFFFFFFFF000000000000000000000000000000000000000000000000000000000000FFFF000000000000000000000000000000000000000000000000000000000000FFFF0000000000000000000000
310
00000000000000000000000000000000000000FFFF00FF0000000000FFFC000000FFFCFCFC00FF000000FCFFFC000000FFFF00FFFF00FF00FF000000FCFC000000FCFC00FC00FC000000FCFCFC00000000FF00FFFF000000000000000000000000000000000000000000000000000000000000FFFF00000000000000000000
310
0000000000000000000000000000000000000000FFFF000000000000000000000000000000000000000000000000000000000000FFFFFFFFFFFFFFFFFFFFFFFFFFFFFFFFFFFFFFFFFFFFFFFFFFFFFFFFFFFFFFFFFFFFFFFFFFFFFFFFFFFFFFFFFFFFFFFFFFFFFFFFFFFFFFFFFFFFFFFFFFFFFFFFFFFFFFFFFFFFFFFFFFFFFF
310
FFFFFFFFFFFFFFFFFFFFFFFFFFFFFFFFFFFFFFFFFFFFFFFFFFFFFFFFFFFFFFFFFFFFFFFFFFFFFFFFFFFFFFFFFFFFFFFFFFFFFFFFFFFFFFFFFFFFFFFFFFFFFFFFFFFFFFFFFFFFFFFFFFFFFFFFFFFFFFFFFFFFFFFFFFFFFFFFFFFFFFFFFFFFFFFFFFFFFFFFFFFFFFFFFFFFFFFFFFFFFFFFFFFFFFFFFFFFFFFFFFFFFFFFFFFFFF
310
FFFFFFFFFFFFFFFFFFFFFFFFFFFFFFFFFFFFFFFFFFFFFFFFFFFFFFFFFFFFFFFFFFFFFFFFFFFFFFFFFFFFFFFFFFFFFFFFFFFFFFFFFFFFFFFFFFFFFFFFFFFFFFFFFFFFFFFFFFFFFFFFFFFFFFFFFFFFFFFFFFFFFFFFFFFFFFFFFFFFFFFFFFFFFFFFFFFFFFFFFFFFFFFFFFFFFFFFFFFFFFFFFFFFFFFFFFFFFFFFFFFFFFFFFFFFFF
310
FFFFFFFFFFFFFFFFFFFFFFFFFFFFFFFFFFFFFFFFFFFFFFFFFFFFFFFFFFFFFFFFFFFFFFFFFFFFFFFFFFFFFFFFFFFFFFFFFFFFFFFFFFFFFFFF
102
{BLKREFS
331
D5AC
102
}
  0
BLOCK_RECORD
  5
DA3E
330
1
100
AcDbSymbolTableRecord
100
AcDbBlockTableRecord
  2
*D12
340
0
  0
BLOCK_RECORD
  5
DA4A
330
1
100
AcDbSymbolTableRecord
100
AcDbBlockTableRecord
  2
*D13
340
0
  0
BLOCK_RECORD
  5
DA56
330
1
100
AcDbSymbolTableRecord
100
AcDbBlockTableRecord
  2
*D14
340
0
  0
BLOCK_RECORD
  5
DA62
330
1
100
AcDbSymbolTableRecord
100
AcDbBlockTableRecord
  2
*D15
340
0
  0
BLOCK_RECORD
  5
DA6E
330
1
100
AcDbSymbolTableRecord
100
AcDbBlockTableRecord
  2
*D16
340
0
  0
BLOCK_RECORD
  5
DA7A
330
1
100
AcDbSymbolTableRecord
100
AcDbBlockTableRecord
  2
*D17
340
0
  0
BLOCK_RECORD
  5
DA86
330
1
100
AcDbSymbolTableRecord
100
AcDbBlockTableRecord
  2
*D18
340
0
  0
BLOCK_RECORD
  5
DA92
330
1
100
AcDbSymbolTableRecord
100
AcDbBlockTableRecord
  2
*D19
340
0
  0
BLOCK_RECORD
  5
DB30
330
1
100
AcDbSymbolTableRecord
100
AcDbBlockTableRecord
  2
*D20
340
0
  0
BLOCK_RECORD
  5
DB5B
330
1
100
AcDbSymbolTableRecord
100
AcDbBlockTableRecord
  2
*D21
340
0
  0
ENDTAB
  0
ENDSEC
  0
SECTION
  2
BLOCKS
  0
BLOCK
  5
1B
330
1A
100
AcDbEntity
  8
0
100
AcDbBlockBegin
  2
*MODEL_SPACE
 70
     0
 10
0.0
 20
0.0
 30
0.0
  3
*MODEL_SPACE
  1

  0
ENDBLK
  5
1C
330
1A
100
AcDbEntity
  8
0
100
AcDbBlockEnd
  0
BLOCK
  5
18
330
17
100
AcDbEntity
 67
     1
  8
0
100
AcDbBlockBegin
  2
*PAPER_SPACE
 70
     0
 10
0.0
 20
0.0
 30
0.0
  3
*PAPER_SPACE
  1

  0
ENDBLK
  5
19
330
17
100
AcDbEntity
 67
     1
  8
0
100
AcDbBlockEnd
  0
BLOCK
  5
BB
330
BA
100
AcDbEntity
  8
0
100
AcDbBlockBegin
  2
_OPEN
 70
     0
 10
0.0
 20
0.0
 30
0.0
  3
_OPEN
  1

  0
LINE
  5
BC
330
BA
100
AcDbEntity
  8
0
  6
ByBlock
 62
     0
100
AcDbLine
 10
-1.0
 20
0.1666666666666666
 30
0.0
 11
0.0
 21
0.0
 31
0.0
  0
LINE
  5
BD
330
BA
100
AcDbEntity
  8
0
  6
ByBlock
 62
     0
100
AcDbLine
 10
0.0
 20
0.0
 30
0.0
 11
-1.0
 21
-0.1666666666666666
 31
0.0
  0
LINE
  5
BE
330
BA
100
AcDbEntity
  8
0
  6
ByBlock
 62
     0
100
AcDbLine
 10
0.0
 20
0.0
 30
0.0
 11
-1.0
 21
0.0
 31
0.0
  0
ENDBLK
  5
BF
330
BA
100
AcDbEntity
  8
0
100
AcDbBlockEnd
  0
BLOCK
  5
BE43
330
BE42
100
AcDbEntity
  8
0
100
AcDbBlockBegin
  2
M8WS-1
 70
     0
 10
0.0
 20
0.0
 30
0.0
  3
M8WS-1
  1

  0
ENDBLK
  5
BE44
330
BE42
100
AcDbEntity
  8
0
100
AcDbBlockEnd
  0
BLOCK
  5
BE47
330
BE46
100
AcDbEntity
  8
0
100
AcDbBlockBegin
  2
M8-WS-1
 70
     0
 10
0.0
 20
0.0
 30
0.0
  3
M8-WS-1
  1

  0
LINE
  5
BE49
330
BE46
100
AcDbEntity
  8
0
100
AcDbLine
 10
0.7281220318284909
 20
4.099999999999965
 30
0.0
 11
0.2873045800573095
 21
1.599999999999965
 31
0.0
  0
LINE
  5
BE4A
330
BE46
100
AcDbEntity
  8
0
100
AcDbLine
 10
-0.287304580057139
 20
4.099999999999965
 30
0.0
 11
-0.7281220318282636
 21
1.599999999999965
 31
0.0
  0
LINE
  5
BE4B
330
BE46
100
AcDbEntity
  8
0
100
AcDbLine
 10
-8.750000000000056
 20
4.099999999999965
 30
0.0
 11
-8.749999999999943
 21
1.599999999999994
 31
0.0
  0
LINE
  5
BE4C
330
BE46
100
AcDbEntity
  8
0
100
AcDbLine
 10
8.75
 20
4.099999999999965
 30
0.0
 11
8.75
 21
1.599999999999994
 31
0.0
  0
LINE
  5
BE4D
330
BE46
100
AcDbEntity
  8
0
100
AcDbLine
 10
-10.99999999999994
 20
1.599999999999994
 30
0.0
 11
11.0
 21
1.599999999999994
 31
0.0
  0
LINE
  5
BE4E
330
BE46
100
AcDbEntity
  8
0
100
AcDbLine
 10
-10.99999999999994
 20
0.0000000000000284
 30
0.0
 11
11.0
 21
0.0
 31
0.0
  0
LINE
  5
BE4F
330
BE46
100
AcDbEntity
  8
0
100
AcDbLine
 10
-11.0
 20
1.599999999999994
 30
0.0
 11
-10.99999999999994
 21
0.0
 31
0.0
  0
LINE
  5
BE50
330
BE46
100
AcDbEntity
  8
0
100
AcDbLine
 10
11.00000000000005
 20
1.599999999999994
 30
0.0
 11
11.0
 21
0.0
 31
0.0
  0
LINE
  5
BE51
330
BE46
100
AcDbEntity
  8
0
100
AcDbLine
 10
-8.750000000000056
 20
4.099999999999965
 30
0.0
 11
8.749999999999943
 21
4.099999999999965
 31
0.0
  0
LINE
  5
BE52
330
BE46
100
AcDbEntity
  8
0
100
AcDbLine
 10
-9.814954576223613
 20
4.099999999999965
 30
0.0
 11
9.814954576223669
 21
4.099999999999965
 31
0.0
  0
LINE
  5
BE53
330
BE46
100
AcDbEntity
  8
0
100
AcDbLine
 10
-7.361215932167738
 20
11.09999999999996
 30
0.0
 11
7.361215932167681
 21
11.09999999999996
 31
0.0
  0
ELLIPSE
  5
BE54
330
BE46
100
AcDbEntity
  8
0
100
AcDbEllipse
 10
0.0
 20
10.09999999999996
 30
0.0
 11
-4.907477288111863
 21
0.0
 31
0.0
210
0.0
220
0.0
230
1.0
 40
0.2037706832433955
 41
3.141592653589793
 42
6.283185307179586
  0
LINE
  5
BE55
330
BE46
100
AcDbEntity
  8
0
100
AcDbLine
 10
-9.814954576223613
 20
10.09999999999996
 30
0.0
 11
-9.814954576223613
 21
4.099999999999965
 31
0.0
  0
LINE
  5
BE56
330
BE46
100
AcDbEntity
  8
0
100
AcDbLine
 10
-4.907477288111806
 20
10.09999999999996
 30
0.0
 11
-4.907477288111806
 21
4.099999999999965
 31
0.0
  0
ELLIPSE
  5
BE57
330
BE46
100
AcDbEntity
  8
0
100
AcDbEllipse
 10
-7.361215932167738
 20
10.09999999999996
 30
0.0
 11
-2.453738644055874
 21
0.0
 31
0.0
210
0.0
220
0.0
230
1.0
 40
0.4075413664868004
 41
3.141592653589793
 42
6.283185307179586
  0
LINE
  5
BE58
330
BE46
100
AcDbEntity
  8
0
100
AcDbLine
 10
9.814954576223613
 20
10.09999999999996
 30
0.0
 11
9.814954576223613
 21
4.099999999999965
 31
0.0
  0
LINE
  5
BE59
330
BE46
100
AcDbEntity
  8
0
100
AcDbLine
 10
4.907477288111806
 20
10.09999999999996
 30
0.0
 11
4.907477288111806
 21
4.099999999999965
 31
0.0
  0
ELLIPSE
  5
BE5A
330
BE46
100
AcDbEntity
  8
0
100
AcDbEllipse
 10
7.361215932167681
 20
10.09999999999996
 30
0.0
 11
-2.453738644055874
 21
0.0
 31
0.0
210
0.0
220
0.0
230
1.0
 40
0.4075413664868004
 41
3.141592653589793
 42
6.283185307179586
  0
ENDBLK
  5
BE48
330
BE46
100
AcDbEntity
  8
0
100
AcDbBlockEnd
  0
BLOCK
  5
BE5D
330
BE5C
100
AcDbEntity
  8
0
100
AcDbBlockBegin
  2
M8-WS-2
 70
     0
 10
0.0
 20
0.0
 30
0.0
  3
M8-WS-2
  1

  0
LINE
  5
BE5F
330
BE5C
100
AcDbEntity
  8
0
100
AcDbLine
 10
-10.10000000000002
 20
-0.0000000000000853
 30
0.0
 11
-4.100000000000022
 21
-0.0000000000000853
 31
0.0
  0
LINE
  5
BE60
330
BE5C
100
AcDbEntity
  8
0
100
AcDbLine
 10
-10.10000000000002
 20
8.499999999999943
 30
0.0
 11
-4.100000000000079
 21
8.499999999999886
 31
0.0
  0
LINE
  5
BE61
330
BE5C
100
AcDbEntity
  8
0
100
AcDbLine
 10
-10.09999999999996
 20
-8.500000000000085
 30
0.0
 11
-4.100000000000022
 21
-8.500000000000085
 31
0.0
  0
ELLIPSE
  5
BE62
330
BE5C
100
AcDbEntity
  8
0
100
AcDbEllipse
 10
-10.10000000000002
 20
-4.250000000000085
 30
0.0
 11
0.0
 21
4.25
 31
0.0
210
0.0
220
0.0
230
1.0
 40
0.2352941176470588
 41
0.0
 42
3.141592653589793
  0
LINE
  5
BE63
330
BE5C
100
AcDbEntity
  8
0
100
AcDbLine
 10
-11.10000000000002
 20
4.249999999999914
 30
0.0
 11
-11.10000000000002
 21
-4.250000000000085
 31
0.0
  0
ELLIPSE
  5
BE64
330
BE5C
100
AcDbEntity
  8
0
100
AcDbEllipse
 10
-10.10000000000002
 20
4.249999999999914
 30
0.0
 11
0.0
 21
4.25
 31
0.0
210
0.0
220
0.0
230
1.0
 40
0.2352941176470588
 41
0.0
 42
3.141592653589793
  0
LINE
  5
BE65
330
BE5C
100
AcDbEntity
  8
0
100
AcDbLine
 10
-0.0000000000000568
 20
-10.99999999999997
 30
0.0
 11
0.0
 21
10.99999999999997
 31
0.0
  0
LINE
  5
BE66
330
BE5C
100
AcDbEntity
  8
0
100
AcDbLine
 10
-1.600000000000022
 20
-10.99999999999997
 30
0.0
 11
-1.600000000000022
 21
10.99999999999997
 31
0.0
  0
LINE
  5
BE67
330
BE5C
100
AcDbEntity
  8
0
100
AcDbLine
 10
-4.100000000000022
 20
-8.750000000000085
 30
0.0
 11
-4.100000000000022
 21
8.749999999999914
 31
0.0
  0
LINE
  5
BE68
330
BE5C
100
AcDbEntity
  8
0
100
AcDbLine
 10
-4.100000000000022
 20
8.499999999999886
 30
0.0
 11
-4.100000000000079
 21
-8.500000000000085
 31
0.0
  0
LINE
  5
BE69
330
BE5C
100
AcDbEntity
  8
0
100
AcDbLine
 10
-1.600000000000022
 20
-11.00000000000003
 30
0.0
 11
0.0
 21
-10.99999999999997
 31
0.0
  0
LINE
  5
BE6A
330
BE5C
100
AcDbEntity
  8
0
100
AcDbLine
 10
-4.100000000000022
 20
-8.750000000000085
 30
0.0
 11
-1.600000000000022
 21
-8.749999999999971
 31
0.0
  0
LINE
  5
BE6B
330
BE5C
100
AcDbEntity
  8
0
100
AcDbLine
 10
-1.600000000000022
 20
11.00000000000003
 30
0.0
 11
0.0
 21
10.99999999999997
 31
0.0
  0
LINE
  5
BE6C
330
BE5C
100
AcDbEntity
  8
0
100
AcDbLine
 10
-4.100000000000022
 20
-0.2873045800571674
 30
0.0
 11
-1.600000000000022
 21
-0.728122031828292
 31
0.0
  0
LINE
  5
BE6D
330
BE5C
100
AcDbEntity
  8
0
100
AcDbLine
 10
-4.100000000000022
 20
0.7281220318284625
 30
0.0
 11
-1.600000000000022
 21
0.2873045800572811
 31
0.0
  0
LINE
  5
BE6E
330
BE5C
100
AcDbEntity
  8
0
100
AcDbLine
 10
-4.100000000000022
 20
8.749999999999971
 30
0.0
 11
-1.600000000000022
 21
8.749999999999971
 31
0.0
  0
ENDBLK
  5
BE5E
330
BE5C
100
AcDbEntity
  8
0
100
AcDbBlockEnd
  0
BLOCK
  5
BFC5
330
BFC4
100
AcDbEntity
  8
0
100
AcDbBlockBegin
  2
ST11-1
 70
     0
 10
0.0
 20
0.0
 30
0.0
  3
ST11-1
  1

  0
CIRCLE
  5
BFC7
330
BFC4
100
AcDbEntity
  8
0
100
AcDbCircle
 10
0.0
 20
0.0000000000000853
 30
0.0
 40
11.00000013668327
  0
LWPOLYLINE
  5
BFC8
330
BFC4
100
AcDbEntity
  8
0
100
AcDbPolyline
 90
        2
 70
     0
 43
0.0
 10
11.0000001366833
 20
-5.44744087999993
 10
11.0000001366833
 20
5.447440880000016
  0
LWPOLYLINE
  5
BFC9
330
BFC4
100
AcDbEntity
  8
0
100
AcDbPolyline
 90
        2
 70
     0
 43
0.0
 10
-11.00000013668318
 20
5.447440880000215
 10
-11.00000013668318
 20
-5.447440880000158
  0
CIRCLE
  5
BFCA
330
BFC4
100
AcDbEntity
  8
0
100
AcDbCircle
 10
0.0
 20
0.0
 30
0.0
 40
5.25
  0
LINE
  5
BFCB
330
BFC4
100
AcDbEntity
  8
0
100
AcDbLine
 10
11.0000001366833
 20
-5.44744087999993
 30
0.0
 11
10.21762225603549
 21
-6.802559119999983
 31
0.0
  0
LWPOLYLINE
  5
BFCC
330
BFC4
100
AcDbEntity
  8
0
100
AcDbPolyline
 90
        2
 70
     0
 43
0.0
 10
-10.21762225603572
 20
-6.80255911999987
 10
-0.7823778806479141
 20
-12.24999999999997
  0
LINE
  5
BFCD
330
BFC4
100
AcDbEntity
  8
0
100
AcDbLine
 10
-11.00000013668318
 20
-5.447440880000158
 30
0.0
 11
-10.21762225603572
 21
-6.80255911999987
 31
0.0
  0
LWPOLYLINE
  5
BFCE
330
BFC4
100
AcDbEntity
  8
0
100
AcDbPolyline
 90
        2
 70
     0
 43
0.0
 10
0.7823778806478004
 20
-12.25
 10
10.21762225603549
 20
-6.802559119999983
  0
LINE
  5
BFCF
330
BFC4
100
AcDbEntity
  8
0
100
AcDbLine
 10
-0.7823778806479141
 20
-12.24999999999997
 30
0.0
 11
0.7823778806478004
 21
-12.25
 31
0.0
  0
LINE
  5
BFD0
330
BFC4
100
AcDbEntity
  8
0
100
AcDbLine
 10
10.21762225603538
 20
6.802559120000097
 30
0.0
 11
11.0000001366833
 21
5.447440880000016
 31
0.0
  0
LWPOLYLINE
  5
BFD1
330
BFC4
100
AcDbEntity
  8
0
100
AcDbPolyline
 90
        2
 70
     0
 43
0.0
 10
-0.7823778806479141
 20
12.25000000000008
 10
-10.21762225603561
 20
6.802559119999898
  0
LINE
  5
BFD2
330
BFC4
100
AcDbEntity
  8
0
100
AcDbLine
 10
-10.21762225603549
 20
6.802559120000012
 30
0.0
 11
-11.0000001366833
 21
5.447440880000158
 31
0.0
  0
LWPOLYLINE
  5
BFD3
330
BFC4
100
AcDbEntity
  8
0
100
AcDbPolyline
 90
        2
 70
     0
 43
0.0
 10
10.21762225603538
 20
6.802559120000097
 10
0.7823778806478004
 20
12.25000000000003
  0
LINE
  5
BFD4
330
BFC4
100
AcDbEntity
  8
0
100
AcDbLine
 10
-0.7823778806479141
 20
12.25000000000008
 30
0.0
 11
0.7823778806478004
 21
12.25000000000003
 31
0.0
  0
ENDBLK
  5
BFC6
330
BFC4
100
AcDbEntity
  8
0
100
AcDbBlockEnd
  0
BLOCK
  5
BFF2
330
BFF1
100
AcDbEntity
  8
0
100
AcDbBlockBegin
  2
ST11-3
 70
     0
 10
0.0
 20
0.0
 30
0.0
  3
ST11-3
  1

  0
LINE
  5
BFF4
330
BFF1
100
AcDbEntity
  8
0
100
AcDbLine
 10
29.99999999999977
 20
6.0
 30
0.0
 11
29.99999999999977
 21
-6.0
 31
0.0
  0
LINE
  5
BFF5
330
BFF1
100
AcDbEntity
  8
0
100
AcDbLine
 10
5.0
 20
12.25000000000003
 30
0.0
 11
5.0
 21
-12.25
 31
0.0
  0
LINE
  5
BFF6
330
BFF1
100
AcDbEntity
  8
0
100
AcDbLine
 10
22.99999999999989
 20
12.25000000000003
 30
0.0
 11
22.99999999999989
 21
-12.25
 31
0.0
  0
LINE
  5
BFF7
330
BFF1
100
AcDbEntity
  8
0
100
AcDbLine
 10
13.0
 20
12.25000000000003
 30
0.0
 11
13.0
 21
-12.25
 31
0.0
  0
LINE
  5
BFF8
330
BFF1
100
AcDbEntity
  8
0
100
AcDbLine
 10
0.0
 20
12.25000000000003
 30
0.0
 11
0.0
 21
-12.25
 31
0.0
  0
LINE
  5
BFF9
330
BFF1
100
AcDbEntity
  8
0
100
AcDbLine
 10
5.0
 20
-9.300000000000039
 30
0.0
 11
13.0
 21
-9.300000000000011
 31
0.0
  0
LINE
  5
BFFA
330
BFF1
100
AcDbEntity
  8
0
100
AcDbLine
 10
0.0
 20
-12.25000000000003
 30
0.0
 11
5.000000000000113
 21
-12.25000000000003
 31
0.0
  0
LINE
  5
BFFB
330
BFF1
100
AcDbEntity
  8
0
100
AcDbLine
 10
0.0
 20
-5.44744087999993
 30
0.0
 11
5.0
 21
-5.447440879999959
 31
0.0
  0
LINE
  5
BFFC
330
BFF1
100
AcDbEntity
  8
0
100
AcDbLine
 10
0.0
 20
-6.802559119999983
 30
0.0
 11
5.0
 21
-6.802559120000012
 31
0.0
  0
ARC
  5
BFFD
330
BFF1
100
AcDbEntity
  8
0
100
AcDbCircle
 10
24.99999999999977
 20
-6.0
 30
0.0
 40
5.0
100
AcDbArc
 50
270.0
 51
0.0
  0
LINE
  5
BFFE
330
BFF1
100
AcDbEntity
  8
0
100
AcDbLine
 10
13.0
 20
-12.25000000000003
 30
0.0
 11
22.99999999999989
 21
-12.25000000000003
 31
0.0
  0
LINE
  5
BFFF
330
BFF1
100
AcDbEntity
  8
0
100
AcDbLine
 10
24.99999999999977
 20
-11.0
 30
0.0
 11
22.99999999999989
 21
-11.0
 31
0.0
  0
LINE
  5
C000
330
BFF1
100
AcDbEntity
  8
0
100
AcDbLine
 10
12.99999999999988
 20
-6.802559120000012
 30
0.0
 11
23.0
 21
-6.802559119999983
 31
0.0
  0
LINE
  5
C001
330
BFF1
100
AcDbEntity
  8
0
100
AcDbLine
 10
12.99999999999988
 20
-5.447440879999959
 30
0.0
 11
23.0
 21
-5.44744087999993
 31
0.0
  0
LINE
  5
C002
330
BFF1
100
AcDbEntity
  8
0
100
AcDbLine
 10
5.0
 20
9.299999999999982
 30
0.0
 11
12.99999999999988
 21
9.299999999999982
 31
0.0
  0
LINE
  5
C003
330
BFF1
100
AcDbEntity
  8
0
100
AcDbLine
 10
0.0
 20
12.25000000000003
 30
0.0
 11
5.000000000000113
 21
12.25000000000003
 31
0.0
  0
LINE
  5
C004
330
BFF1
100
AcDbEntity
  8
0
100
AcDbLine
 10
0.0
 20
6.802559120000125
 30
0.0
 11
5.0
 21
6.802559120000125
 31
0.0
  0
LINE
  5
C005
330
BFF1
100
AcDbEntity
  8
0
100
AcDbLine
 10
0.0
 20
5.447440880000073
 30
0.0
 11
5.0
 21
5.447440880000073
 31
0.0
  0
ARC
  5
C006
330
BFF1
100
AcDbEntity
  8
0
100
AcDbCircle
 10
24.99999999999977
 20
6.0
 30
0.0
 40
5.0
100
AcDbArc
 50
0.0
 51
90.0
  0
LINE
  5
C007
330
BFF1
100
AcDbEntity
  8
0
100
AcDbLine
 10
13.0
 20
12.25000000000003
 30
0.0
 11
22.99999999999989
 21
12.25000000000003
 31
0.0
  0
LINE
  5
C008
330
BFF1
100
AcDbEntity
  8
0
100
AcDbLine
 10
12.99999999999988
 20
5.447440880000073
 30
0.0
 11
23.0
 21
5.447440880000044
 31
0.0
  0
LINE
  5
C009
330
BFF1
100
AcDbEntity
  8
0
100
AcDbLine
 10
12.99999999999988
 20
6.802559120000125
 30
0.0
 11
23.0
 21
6.802559120000097
 31
0.0
  0
LINE
  5
C00A
330
BFF1
100
AcDbEntity
  8
0
100
AcDbLine
 10
24.99999999999977
 20
11.0
 30
0.0
 11
22.99999999999989
 21
11.0
 31
0.0
  0
ENDBLK
  5
BFF3
330
BFF1
100
AcDbEntity
  8
0
100
AcDbBlockEnd
  0
BLOCK
  5
C8B9
330
C8B8
100
AcDbEntity
  8
0
100
AcDbBlockBegin
  2
A$C5CC44EE0
 70
     0
 10
0.0
 20
0.0
 30
0.0
  3
A$C5CC44EE0
  1

  0
LINE
  5
C8BA
330
C8B8
100
AcDbEntity
  8
0
100
AcDbLine
 10
6.877046109136699
 20
9.129999933619274
 30
0.0
 11
3.877046109136699
 21
9.129999933619274
 31
0.0
  0
LINE
  5
C8BB
330
C8B8
100
AcDbEntity
  8
0
100
AcDbLine
 10
6.877046109136699
 20
10.62999993361927
 30
0.0
 11
3.877046109136699
 21
10.62999993361927
 31
0.0
  0
LINE
  5
C8BC
330
C8B8
100
AcDbEntity
  8
0
100
AcDbLine
 10
6.877046109136699
 20
8.089999933619282
 30
0.0
 11
3.877046109136699
 21
8.089999933619282
 31
0.0
  0
LINE
  5
C8BD
330
C8B8
100
AcDbEntity
  8
0
100
AcDbLine
 10
7.877046109136699
 20
12.13999993361926
 30
0.0
 11
1.127046109136699
 21
12.13999993361926
 31
0.0
  0
LINE
  5
C8BE
330
C8B8
100
AcDbEntity
  8
0
100
AcDbLine
 10
6.877046109136699
 20
4.049999933619261
 30
0.0
 11
3.877046109136699
 21
4.049999933619261
 31
0.0
  0
LINE
  5
C8BF
330
C8B8
100
AcDbEntity
  8
0
100
AcDbLine
 10
6.877046109136699
 20
6.589999933619282
 30
0.0
 11
3.877046109136699
 21
6.589999933619282
 31
0.0
  0
LINE
  5
C8C0
330
C8B8
100
AcDbEntity
  8
0
100
AcDbLine
 10
6.877046109136699
 20
5.549999933619261
 30
0.0
 11
3.877046109136699
 21
5.549999933619261
 31
0.0
  0
LINE
  5
C8C1
330
C8B8
100
AcDbEntity
  8
0
100
AcDbLine
 10
6.877046109136699
 20
1.509999933619241
 30
0.0
 11
3.877046109136699
 21
1.509999933619241
 31
0.0
  0
LINE
  5
C8C2
330
C8B8
100
AcDbEntity
  8
0
100
AcDbLine
 10
6.877046109136699
 20
3.009999933619241
 30
0.0
 11
3.877046109136699
 21
3.009999933619241
 31
0.0
  0
LINE
  5
C8C3
330
C8B8
100
AcDbEntity
  8
0
100
AcDbLine
 10
7.877046109136699
 20
-0.0000000663807214
 30
0.0
 11
1.127046109136699
 21
-0.0000000663807214
 31
0.0
  0
LINE
  5
C8C4
330
C8B8
100
AcDbEntity
  8
0
100
AcDbLine
 10
0.5770461091366741
 20
8.139999933619293
 30
0.0
 11
0.5770461091366741
 21
6.53999993361927
 31
0.0
  0
LINE
  5
C8C5
330
C8B8
100
AcDbEntity
  8
0
100
AcDbLine
 10
3.877046109136699
 20
8.089999933619282
 30
0.0
 11
3.877046109136699
 21
6.589999933619282
 31
0.0
  0
LINE
  5
C8C6
330
C8B8
100
AcDbEntity
  8
0
100
AcDbLine
 10
1.127046109136699
 20
12.13999993361926
 30
0.0
 11
1.127046109136728
 21
-0.0000000663807214
 31
0.0
  0
LINE
  5
C8C7
330
C8B8
100
AcDbEntity
  8
0
100
AcDbLine
 10
1.127046109136671
 20
5.599999933619301
 30
0.0
 11
0.5770461091367026
 21
5.599999933619301
 31
0.0
  0
LINE
  5
C8C8
330
C8B8
100
AcDbEntity
  8
0
100
AcDbLine
 10
1.127046109136671
 20
3.99999993361925
 30
0.0
 11
0.5770461091367026
 21
3.99999993361925
 31
0.0
  0
LINE
  5
C8C9
330
C8B8
100
AcDbEntity
  8
0
100
AcDbLine
 10
0.5770461091366741
 20
5.599999933619272
 30
0.0
 11
0.5770461091366741
 21
3.99999993361925
 31
0.0
  0
LINE
  5
C8CA
330
C8B8
100
AcDbEntity
  8
0
100
AcDbLine
 10
1.127046109136671
 20
1.459999933619286
 30
0.0
 11
0.5770461091367026
 21
1.459999933619286
 31
0.0
  0
LINE
  5
C8CB
330
C8B8
100
AcDbEntity
  8
0
100
AcDbLine
 10
1.127046109136671
 20
3.059999933619309
 30
0.0
 11
0.5770461091367026
 21
3.059999933619309
 31
0.0
  0
LINE
  5
C8CC
330
C8B8
100
AcDbEntity
  8
0
100
AcDbLine
 10
0.5770461091366741
 20
3.059999933619309
 30
0.0
 11
0.5770461091366741
 21
1.459999933619286
 31
0.0
  0
LINE
  5
C8CD
330
C8B8
100
AcDbEntity
  8
0
100
AcDbLine
 10
3.877046109136699
 20
5.549999933619261
 30
0.0
 11
3.877046109136699
 21
4.049999933619261
 31
0.0
  0
LINE
  5
C8CE
330
C8B8
100
AcDbEntity
  8
0
100
AcDbLine
 10
3.877046109136699
 20
3.009999933619241
 30
0.0
 11
3.877046109136699
 21
1.509999933619241
 31
0.0
  0
LINE
  5
C8CF
330
C8B8
100
AcDbEntity
  8
0
100
AcDbLine
 10
1.127046109136671
 20
6.53999993361927
 30
0.0
 11
0.5770461091367026
 21
6.53999993361927
 31
0.0
  0
LINE
  5
C8D0
330
C8B8
100
AcDbEntity
  8
SUNPOU
100
AcDbLine
 10
1.447037049769278
 20
6.069999933619271
 30
0.0
 11
-0.0000004982639297
 21
6.069999933619271
 31
0.0
  0
LINE
  5
C8D1
330
C8B8
100
AcDbEntity
  8
SUNPOU
100
AcDbLine
 10
0.5770461091366741
 20
6.53999993361927
 30
0.0
 11
0.5770461091366741
 21
5.599999933619301
 31
0.0
  0
LINE
  5
C8D2
330
C8B8
100
AcDbEntity
  8
0
100
AcDbLine
 10
1.127046109136671
 20
8.139999933619321
 30
0.0
 11
0.5770461091367026
 21
8.139999933619321
 31
0.0
  0
LINE
  5
C8D3
330
C8B8
100
AcDbEntity
  8
0
100
AcDbLine
 10
0.5770461091366741
 20
10.67999993361928
 30
0.0
 11
0.5770461091366741
 21
9.079999933619262
 31
0.0
  0
LINE
  5
C8D4
330
C8B8
100
AcDbEntity
  8
0
100
AcDbLine
 10
1.127046109136671
 20
9.079999933619262
 30
0.0
 11
0.5770461091367026
 21
9.079999933619262
 31
0.0
  0
LINE
  5
C8D5
330
C8B8
100
AcDbEntity
  8
0
100
AcDbLine
 10
1.127046109136671
 20
10.67999993361931
 30
0.0
 11
0.5770461091367026
 21
10.67999993361931
 31
0.0
  0
LINE
  5
C8D6
330
C8B8
100
AcDbEntity
  8
0
100
AcDbLine
 10
3.877046109136699
 20
10.62999993361927
 30
0.0
 11
3.877046109136699
 21
9.129999933619274
 31
0.0
  0
LINE
  5
C8D7
330
C8B8
100
AcDbEntity
  8
0
100
AcDbLine
 10
6.877046109136699
 20
8.089999933619282
 30
0.0
 11
6.877046109136699
 21
6.589999933619282
 31
0.0
  0
LINE
  5
C8D8
330
C8B8
100
AcDbEntity
  8
0
100
AcDbLine
 10
7.877046109136699
 20
12.13999993361926
 30
0.0
 11
7.877046109136699
 21
-0.0000000663807214
 31
0.0
  0
LINE
  5
C8D9
330
C8B8
100
AcDbEntity
  8
0
100
AcDbLine
 10
5.877046109136699
 20
8.089999933619282
 30
0.0
 11
5.877046109136699
 21
6.589999933619282
 31
0.0
  0
LINE
  5
C8DA
330
C8B8
100
AcDbEntity
  8
0
100
AcDbLine
 10
6.877046109136699
 20
5.549999933619261
 30
0.0
 11
6.877046109136699
 21
4.049999933619261
 31
0.0
  0
LINE
  5
C8DB
330
C8B8
100
AcDbEntity
  8
0
100
AcDbLine
 10
6.877046109136699
 20
3.009999933619241
 30
0.0
 11
6.877046109136699
 21
1.509999933619241
 31
0.0
  0
LINE
  5
C8DC
330
C8B8
100
AcDbEntity
  8
0
100
AcDbLine
 10
5.877046109136699
 20
5.549999933619261
 30
0.0
 11
5.877046109136699
 21
4.049999933619261
 31
0.0
  0
LINE
  5
C8DD
330
C8B8
100
AcDbEntity
  8
0
100
AcDbLine
 10
5.877046109136699
 20
3.009999933619241
 30
0.0
 11
5.877046109136699
 21
1.509999933619241
 31
0.0
  0
LINE
  5
C8DE
330
C8B8
100
AcDbEntity
  8
0
100
AcDbLine
 10
6.877046109136699
 20
10.62999993361927
 30
0.0
 11
6.877046109136699
 21
9.129999933619274
 31
0.0
  0
LINE
  5
C8DF
330
C8B8
100
AcDbEntity
  8
0
100
AcDbLine
 10
5.877046109136699
 20
10.62999993361927
 30
0.0
 11
5.877046109136699
 21
9.129999933619274
 31
0.0
  0
ENDBLK
  5
C8E0
330
C8B8
100
AcDbEntity
  8
0
100
AcDbBlockEnd
  0
BLOCK
  5
C8F7
330
C8F6
100
AcDbEntity
  8
0
100
AcDbBlockBegin
  2
A$C2086655F
 70
     0
 10
0.0
 20
0.0
 30
0.0
  3
A$C2086655F
  1

  0
TEXT
  5
C8F8
330
C8F6
100
AcDbEntity
  8
SUNPOU
100
AcDbText
 10
4.719687007603707
 20
2.680727273328233
 30
0.0
 40
2.0
  1
D
 50
157.5
 41
0.6
 72
     1
 11
4.138962730025184
 21
2.921271145100575
 31
0.0
100
AcDbText
 73
     1
  0
LINE
  5
C8F9
330
C8F6
100
AcDbEntity
  8
0
100
AcDbLine
 10
3.50000045284662
 20
5.000000093250946
 30
0.0
 11
6.50000045284662
 21
5.000000093250946
 31
0.0
  0
LINE
  5
C8FA
330
C8F6
100
AcDbEntity
  8
0
100
AcDbLine
 10
3.50000045284662
 20
5.000000093250946
 30
0.0
 11
4.50000045284662
 21
4.500000093250946
 31
0.0
  0
LINE
  5
C8FB
330
C8F6
100
AcDbEntity
  8
0
100
AcDbLine
 10
3.50000045284662
 20
5.000000093250946
 30
0.0
 11
4.50000045284662
 21
5.500000093250946
 31
0.0
  0
CIRCLE
  5
C8FC
330
C8F6
100
AcDbEntity
  8
0
100
AcDbCircle
 10
5.00000045284662
 20
5.000000093250946
 30
0.0
 40
2.0
  0
LINE
  5
C8FD
330
C8F6
100
AcDbEntity
  8
0
100
AcDbLine
 10
10.00000045284662
 20
9.500000093250946
 30
0.0
 11
2.50000045284662
 21
9.500000093250946
 31
0.0
  0
LINE
  5
C8FE
330
C8F6
100
AcDbEntity
  8
0
100
AcDbLine
 10
10.00000045284662
 20
10.00000009325094
 30
0.0
 11
0.0000004528466206
 21
10.00000009325094
 31
0.0
  0
LINE
  5
C8FF
330
C8F6
100
AcDbEntity
  8
0
100
AcDbLine
 10
0.0000004528466206
 20
0.0000000932509465
 30
0.0
 11
10.00000045284662
 21
0.0000000932509465
 31
0.0
  0
TEXT
  5
C900
330
C8F6
100
AcDbEntity
  8
SUNPOU
100
AcDbText
 10
2.75000045284662
 20
4.428571521822375
 30
0.0
 40
2.0
  1
0
 50
90.0
 41
0.6
 72
     1
 11
2.75000045284662
 21
5.000000093250946
 31
0.0
100
AcDbText
 73
     1
  0
LINE
  5
C901
330
C8F6
100
AcDbEntity
  8
0
100
AcDbLine
 10
0.0000004528466206
 20
10.00000009325094
 30
0.0
 11
0.0000004528466206
 21
0.0000000932509465
 31
0.0
  0
TEXT
  5
C902
330
C8F6
100
AcDbEntity
  8
SUNPOU
100
AcDbText
 10
3.150881564115275
 20
3.584634650922709
 30
0.0
 40
2.0
  1
F
 50
112.5
 41
0.6
 72
     1
 11
2.921271504696221
 21
4.138962370429482
 31
0.0
100
AcDbText
 73
     1
  0
TEXT
  5
C903
330
C8F6
100
AcDbEntity
  8
SUNPOU
100
AcDbText
 10
3.833274263888832
 20
2.984745766869301
 30
0.0
 40
2.0
  1
E
 50
135.0
 41
0.6
 72
     1
 11
3.409010195176904
 21
3.40900983558123
 31
0.0
100
AcDbText
 73
     1
  0
LINE
  5
C904
330
C8F6
100
AcDbEntity
  8
0
100
AcDbLine
 10
0.0000004528466206
 20
7.000000093250946
 30
0.0
 11
3.00000045284662
 21
10.00000009325094
 31
0.0
  0
TEXT
  5
C905
330
C8F6
100
AcDbEntity
  8
SUNPOU
100
AcDbText
 10
2.735396694690349
 20
5.412296328852629
 30
0.0
 40
2.0
  1
1
 50
67.5
 41
0.6
 72
     1
 11
2.92127150469625
 21
5.861037816072396
 31
0.0
100
AcDbText
 73
     1
  0
TEXT
  5
C906
330
C8F6
100
AcDbEntity
  8
SUNPOU
100
AcDbText
 10
3.004949177356019
 20
6.186929333099793
 30
0.0
 40
2.0
  1
2
 50
45.0
 41
0.6
 72
     1
 11
3.409010195176904
 21
6.590990350920677
 31
0.0
100
AcDbText
 73
     1
  0
TEXT
  5
C907
330
C8F6
100
AcDbEntity
  8
SUNPOU
100
AcDbText
 10
3.611031568590135
 20
6.860052794335565
 30
0.0
 40
2.0
  1
3
 50
22.50000000000001
 41
0.6
 72
     1
 11
4.138962730025156
 21
7.078729041401331
 31
0.0
100
AcDbText
 73
     1
  0
TEXT
  5
C908
330
C8F6
100
AcDbEntity
  8
SUNPOU
100
AcDbText
 10
7.25000045284662
 20
5.571428664679489
 30
0.0
 40
2.0
  1
8
 50
270.0
 41
0.6
 72
     1
 11
7.25000045284662
 21
5.000000093250918
 31
0.0
100
AcDbText
 73
     1
  0
LINE
  5
C909
330
C8F6
100
AcDbEntity
  8
0
100
AcDbLine
 10
10.00000045284662
 20
0.0000000932509465
 30
0.0
 11
10.00000045284662
 21
10.00000009325094
 31
0.0
  0
TEXT
  5
C90A
330
C8F6
100
AcDbEntity
  8
SUNPOU
100
AcDbText
 10
7.28647183570944
 20
4.64049697379278
 30
0.0
 40
2.0
  1
9
 50
247.5
 41
0.6
 72
     1
 11
7.078729400996962
 21
4.13896237042951
 31
0.0
100
AcDbText
 73
     1
  0
TEXT
  5
C90B
330
C8F6
100
AcDbEntity
  8
SUNPOU
100
AcDbText
 10
6.954645626555104
 20
3.772664751620026
 30
0.0
 40
2.0
  1
A
 50
225.0
 41
0.6
 72
     1
 11
6.590990710516308
 21
3.40900983558123
 31
0.0
100
AcDbText
 73
     1
  0
TEXT
  5
C90C
330
C8F6
100
AcDbEntity
  8
SUNPOU
100
AcDbText
 10
6.441762453246579
 20
3.161815016872917
 30
0.0
 40
2.0
  1
B
 50
202.5
 41
0.6
 72
     1
 11
5.861038175668056
 21
2.921271145100575
 31
0.0
100
AcDbText
 73
     1
  0
TEXT
  5
C90D
330
C8F6
100
AcDbEntity
  8
SUNPOU
100
AcDbText
 10
5.60000045284662
 20
2.750000093250946
 30
0.0
 40
2.0
  1
C
 50
180.0
 41
0.6
 72
     1
 11
5.00000045284662
 21
2.750000093250946
 31
0.0
100
AcDbText
 73
     1
  0
TEXT
  5
C90E
330
C8F6
100
AcDbEntity
  8
SUNPOU
100
AcDbText
 10
6.860053153931225
 20
6.388968977507445
 30
0.0
 40
2.0
  1
7
 50
292.5
 41
0.6
 72
     1
 11
7.078729400996991
 21
5.861037816072425
 31
0.0
100
AcDbText
 73
     1
  0
TEXT
  5
C90F
330
C8F6
100
AcDbEntity
  8
SUNPOU
100
AcDbText
 10
4.400000452846621
 20
7.250000093250946
 30
0.0
 40
2.0
  1
4
 41
0.6
 72
     1
 11
5.00000045284662
 21
7.250000093250946
 31
0.0
100
AcDbText
 73
     1
  0
TEXT
  5
C910
330
C8F6
100
AcDbEntity
  8
SUNPOU
100
AcDbText
 10
5.333107014233007
 20
7.297405288467096
 30
0.0
 40
2.0
  1
5
 50
337.5
 41
0.6
 72
     1
 11
5.861038175668028
 21
7.078729041401331
 31
0.0
100
AcDbText
 73
     1
  0
TEXT
  5
C911
330
C8F6
100
AcDbEntity
  8
SUNPOU
100
AcDbText
 10
6.16672664180438
 20
7.015254419632605
 30
0.0
 40
2.0
  1
6
 50
315.0
 41
0.6
 72
     1
 11
6.590990710516308
 21
6.590990350920677
 31
0.0
100
AcDbText
 73
     1
  0
ENDBLK
  5
C912
330
C8F6
100
AcDbEntity
  8
0
100
AcDbBlockEnd
  0
BLOCK
  5
C914
330
C913
100
AcDbEntity
  8
0
100
AcDbBlockBegin
  2
A$C1A9113A3
 70
     0
 10
0.0
 20
0.0
 30
0.0
  3
A$C1A9113A3
  1

  0
INSERT
  5
C915
330
C913
100
AcDbEntity
  8
0
100
AcDbBlockReference
  2
A$C2086655F
 10
-0.000000598731333
 20
0.0000001667667675
 30
0.0
  0
ENDBLK
  5
C916
330
C913
100
AcDbEntity
  8
0
100
AcDbBlockEnd
  0
BLOCK
  5
C927
330
C926
100
AcDbEntity
  8
0
100
AcDbBlockBegin
  2
A$C46F07F73
 70
     0
 10
0.0
 20
0.0
 30
0.0
  3
A$C46F07F73
  1

  0
TEXT
  5
C928
330
C926
100
AcDbEntity
  8
SUNPOU
100
AcDbText
 10
1.385152101518258
 20
11.94994923931111
 30
0.0
 40
0.8
  1
ON
 50
270.0
100
AcDbText
  0
INSERT
  5
C929
330
C926
100
AcDbEntity
  8
0
100
AcDbBlockReference
  2
A$C5CC44EE0
 10
0.0000006344670851
 20
-0.0000000221322978
 30
0.0
  0
TEXT
  5
C92A
330
C926
100
AcDbEntity
  8
SUNPOU
100
AcDbText
 10
1.858048818272436
 20
5.263296371812401
 30
0.0
 40
1.0
  1
3
 50
270.0
100
AcDbText
  0
TEXT
  5
C92B
330
C926
100
AcDbEntity
  8
SUNPOU
100
AcDbText
 10
1.858048818272436
 20
2.723296371812381
 30
0.0
 40
1.0
  1
4
 50
270.0
100
AcDbText
  0
LINE
  5
C92C
330
C926
100
AcDbEntity
  8
SUNPOU
100
AcDbLine
 10
2.47704674360375
 20
11.22999991148697
 30
0.0
 11
3.144287737807758
 21
11.61660901188543
 31
0.0
  0
LINE
  5
C92D
330
C926
100
AcDbEntity
  8
SUNPOU
100
AcDbLine
 10
2.477419241093571
 20
11.1827257516901
 30
0.0
 11
3.15066959356281
 21
10.8066790740591
 31
0.0
  0
LINE
  5
C92E
330
C926
100
AcDbEntity
  8
SUNPOU
100
AcDbLine
 10
4.47704674360375
 20
11.22999991148697
 30
0.0
 11
2.47704674360375
 21
11.22999991148697
 31
0.0
  0
TEXT
  5
C92F
330
C926
100
AcDbEntity
  8
SUNPOU
100
AcDbText
 10
1.858048818272436
 20
10.34329637181238
 30
0.0
 40
1.0
  1
1
 50
270.0
100
AcDbText
  0
TEXT
  5
C930
330
C926
100
AcDbEntity
  8
SUNPOU
100
AcDbText
 10
1.858048818272436
 20
7.803296371812365
 30
0.0
 40
1.0
  1
2
 50
270.0
100
AcDbText
  0
ENDBLK
  5
C931
330
C926
100
AcDbEntity
  8
0
100
AcDbBlockEnd
  0
BLOCK
  5
CA34
330
CA33
100
AcDbEntity
  8
0
100
AcDbBlockBegin
  2
M3-TOP
 70
     0
 10
0.0
 20
0.0
 30
0.0
  3
M3-TOP
  1

  0
CIRCLE
  5
CA36
330
CA33
100
AcDbEntity
  8
0
100
AcDbCircle
 10
0.0
 20
0.0
 30
0.0
 40
2.745
  0
LWPOLYLINE
  5
CA37
330
CA33
100
AcDbEntity
  8
0
100
AcDbPolyline
 90
       13
 70
     0
 43
0.0
 10
0.6100000000000137
 20
-0.6099999999999853
 10
0.6100000000000137
 20
-1.829999999999984
 10
-0.6100000000000137
 20
-1.829999999999984
 10
-0.6100000000000137
 20
-0.6099999999999853
 10
-1.83000000000004
 20
-0.6099999999999853
 10
-1.83000000000004
 20
0.6100000000000137
 10
-0.6100000000000137
 20
0.6100000000000137
 10
-0.6100000000000137
 20
1.830000000000012
 10
0.6100000000000137
 20
1.830000000000012
 10
0.6100000000000137
 20
0.6100000000000137
 10
1.83000000000004
 20
0.6100000000000137
 10
1.829999999999984
 20
-0.6099999999999853
 10
0.6100000000000137
 20
-0.6099999999999853
  0
ENDBLK
  5
CA35
330
CA33
100
AcDbEntity
  8
0
100
AcDbBlockEnd
  0
BLOCK
  5
CCBF
330
CCBE
100
AcDbEntity
  8
0
100
AcDbBlockBegin
  2
F2060B-4P
 70
     0
 10
0.0
 20
0.0
 30
0.0
  3
F2060B-4P
  1

  0
LINE
  5
CCC0
330
CCBE
100
AcDbEntity
  8
0
100
AcDbLine
 10
-22.25
 20
-5.999999999999902
 30
0.0
 11
22.25
 21
-5.999999999999902
 31
0.0
  0
LINE
  5
CCC1
330
CCBE
100
AcDbEntity
  8
0
100
AcDbLine
 10
-22.25
 20
6.000000000000097
 30
0.0
 11
22.25
 21
6.000000000000097
 31
0.0
  0
LINE
  5
CCC2
330
CCBE
100
AcDbEntity
  8
0
100
AcDbLine
 10
-7.00999999999999
 20
4.60000000000012
 30
0.0
 11
-0.6100000000000705
 21
4.60000000000012
 31
0.0
  0
LINE
  5
CCC3
330
CCBE
100
AcDbEntity
  8
0
100
AcDbLine
 10
-5.310000000000059
 20
3.800000000000052
 30
0.0
 11
-2.310000000000002
 21
3.800000000000052
 31
0.0
  0
LINE
  5
CCC4
330
CCBE
100
AcDbEntity
  8
0
100
AcDbLine
 10
-7.00999999999999
 20
3.000000000000098
 30
0.0
 11
-0.6100000000000137
 21
3.000000000000098
 31
0.0
  0
LINE
  5
CCC5
330
CCBE
100
AcDbEntity
  8
0
100
AcDbLine
 10
-7.00999999999999
 20
-2.999999999999901
 30
0.0
 11
-0.6099999999999568
 21
-2.999999999999901
 31
0.0
  0
LINE
  5
CCC6
330
CCBE
100
AcDbEntity
  8
0
100
AcDbLine
 10
-7.00999999999999
 20
-4.599999999999925
 30
0.0
 11
-0.6099999999999568
 21
-4.599999999999925
 31
0.0
  0
LINE
  5
CCC7
330
CCBE
100
AcDbEntity
  8
0
100
AcDbLine
 10
-5.310000000000059
 20
-3.799999999999856
 30
0.0
 11
-2.310000000000002
 21
-3.799999999999856
 31
0.0
  0
LINE
  5
CCC8
330
CCBE
100
AcDbEntity
  8
SUNPOU
100
AcDbLine
 10
-2.310000000000002
 20
-1.499999999999901
 30
0.0
 11
-5.309999999999945
 21
1.500000000000098
 31
0.0
  0
LINE
  5
CCC9
330
CCBE
100
AcDbEntity
  8
SUNPOU
100
AcDbLine
 10
-5.309999999999945
 20
-1.499999999999901
 30
0.0
 11
-2.310000000000002
 21
1.500000000000098
 31
0.0
  0
CIRCLE
  5
CCCA
330
CCBE
100
AcDbEntity
  8
0
100
AcDbCircle
 10
-3.810000000000002
 20
-0.0000000000000155
 30
0.0
 40
2.75
  0
LINE
  5
CCCB
330
CCBE
100
AcDbEntity
  8
0
100
AcDbLine
 10
-22.25
 20
-5.999999999999902
 30
0.0
 11
-22.25
 21
6.000000000000097
 31
0.0
  0
LINE
  5
CCCC
330
CCBE
100
AcDbEntity
  8
0
100
AcDbLine
 10
-7.009999999999934
 20
6.000000000000097
 30
0.0
 11
-7.00999999999999
 21
-5.999999999999902
 31
0.0
  0
LINE
  5
CCCD
330
CCBE
100
AcDbEntity
  8
0
100
AcDbLine
 10
-8.230000000000075
 20
6.000000000000097
 30
0.0
 11
-8.230000000000018
 21
-5.999999999999902
 31
0.0
  0
LINE
  5
CCCE
330
CCBE
100
AcDbEntity
  8
0
100
AcDbLine
 10
-14.62999999999994
 20
6.000000000000097
 30
0.0
 11
-14.62999999999999
 21
-5.999999999999902
 31
0.0
  0
LINE
  5
CCCF
330
CCBE
100
AcDbEntity
  8
0
100
AcDbLine
 10
-15.85000000000008
 20
6.000000000000097
 30
0.0
 11
-15.85000000000002
 21
-5.999999999999902
 31
0.0
  0
CIRCLE
  5
CCD0
330
CCBE
100
AcDbEntity
  8
0
100
AcDbCircle
 10
-19.05000000000001
 20
-0.0000000000000155
 30
0.0
 40
1.25
  0
LINE
  5
CCD1
330
CCBE
100
AcDbEntity
  8
0
100
AcDbLine
 10
-20.55000000000007
 20
3.800000000000052
 30
0.0
 11
-17.55000000000001
 21
3.800000000000052
 31
0.0
  0
LINE
  5
CCD2
330
CCBE
100
AcDbEntity
  8
0
100
AcDbLine
 10
-20.55000000000007
 20
-3.799999999999856
 30
0.0
 11
-17.55000000000001
 21
-3.799999999999856
 31
0.0
  0
LINE
  5
CCD3
330
CCBE
100
AcDbEntity
  8
0
100
AcDbLine
 10
-22.25
 20
-4.599999999999925
 30
0.0
 11
-15.84999999999996
 21
-4.599999999999925
 31
0.0
  0
LINE
  5
CCD4
330
CCBE
100
AcDbEntity
  8
0
100
AcDbLine
 10
-22.25
 20
-2.999999999999901
 30
0.0
 11
-15.84999999999996
 21
-2.999999999999901
 31
0.0
  0
LINE
  5
CCD5
330
CCBE
100
AcDbEntity
  8
0
100
AcDbLine
 10
-22.25
 20
3.000000000000098
 30
0.0
 11
-15.85000000000002
 21
3.000000000000098
 31
0.0
  0
LINE
  5
CCD6
330
CCBE
100
AcDbEntity
  8
0
100
AcDbLine
 10
-22.25
 20
4.60000000000012
 30
0.0
 11
-15.85000000000008
 21
4.60000000000012
 31
0.0
  0
LINE
  5
CCD7
330
CCBE
100
AcDbEntity
  8
0
100
AcDbLine
 10
-20.55000000000001
 20
3.800000000000052
 30
0.0
 11
-20.54999999999996
 21
3.000000000000098
 31
0.0
  0
LINE
  5
CCD8
330
CCBE
100
AcDbEntity
  8
0
100
AcDbLine
 10
-20.55000000000001
 20
-2.999999999999901
 30
0.0
 11
-20.55000000000001
 21
-3.799999999999856
 31
0.0
  0
LINE
  5
CCD9
330
CCBE
100
AcDbEntity
  8
0
100
AcDbLine
 10
-12.93000000000001
 20
3.800000000000052
 30
0.0
 11
-9.930000000000006
 21
3.800000000000052
 31
0.0
  0
LINE
  5
CCDA
330
CCBE
100
AcDbEntity
  8
0
100
AcDbLine
 10
-14.62999999999999
 20
4.60000000000012
 30
0.0
 11
-8.230000000000075
 21
4.60000000000012
 31
0.0
  0
LINE
  5
CCDB
330
CCBE
100
AcDbEntity
  8
0
100
AcDbLine
 10
-14.62999999999999
 20
3.000000000000098
 30
0.0
 11
-8.230000000000075
 21
3.000000000000098
 31
0.0
  0
LINE
  5
CCDC
330
CCBE
100
AcDbEntity
  8
0
100
AcDbLine
 10
-12.93000000000001
 20
-3.799999999999856
 30
0.0
 11
-9.930000000000006
 21
-3.799999999999856
 31
0.0
  0
LINE
  5
CCDD
330
CCBE
100
AcDbEntity
  8
0
100
AcDbLine
 10
-14.63000000000005
 20
-2.999999999999901
 30
0.0
 11
-8.229999999999961
 21
-2.999999999999901
 31
0.0
  0
LINE
  5
CCDE
330
CCBE
100
AcDbEntity
  8
0
100
AcDbLine
 10
-14.63000000000005
 20
-4.599999999999925
 30
0.0
 11
-8.229999999999961
 21
-4.599999999999925
 31
0.0
  0
LINE
  5
CCDF
330
CCBE
100
AcDbEntity
  8
SUNPOU
100
AcDbLine
 10
-9.930000000000006
 20
-1.499999999999901
 30
0.0
 11
-12.93000000000001
 21
1.500000000000098
 31
0.0
  0
LINE
  5
CCE0
330
CCBE
100
AcDbEntity
  8
SUNPOU
100
AcDbLine
 10
-12.93000000000001
 20
-1.499999999999901
 30
0.0
 11
-9.930000000000006
 21
1.500000000000098
 31
0.0
  0
CIRCLE
  5
CCE1
330
CCBE
100
AcDbEntity
  8
0
100
AcDbCircle
 10
-11.43
 20
-0.0000000000000155
 30
0.0
 40
2.75
  0
LINE
  5
CCE2
330
CCBE
100
AcDbEntity
  8
0
100
AcDbLine
 10
-12.93000000000001
 20
3.800000000000052
 30
0.0
 11
-12.93000000000001
 21
3.000000000000098
 31
0.0
  0
LINE
  5
CCE3
330
CCBE
100
AcDbEntity
  8
0
100
AcDbLine
 10
-17.55000000000001
 20
3.800000000000052
 30
0.0
 11
-17.55000000000001
 21
3.000000000000098
 31
0.0
  0
LINE
  5
CCE4
330
CCBE
100
AcDbEntity
  8
0
100
AcDbLine
 10
-12.93000000000001
 20
-2.999999999999901
 30
0.0
 11
-12.93000000000001
 21
-3.799999999999856
 31
0.0
  0
LINE
  5
CCE5
330
CCBE
100
AcDbEntity
  8
0
100
AcDbLine
 10
-17.55000000000001
 20
-2.999999999999901
 30
0.0
 11
-17.55000000000001
 21
-3.799999999999856
 31
0.0
  0
LINE
  5
CCE6
330
CCBE
100
AcDbEntity
  8
0
100
AcDbLine
 10
-5.310000000000002
 20
3.800000000000052
 30
0.0
 11
-5.309999999999945
 21
3.000000000000098
 31
0.0
  0
LINE
  5
CCE7
330
CCBE
100
AcDbEntity
  8
0
100
AcDbLine
 10
-9.930000000000006
 20
3.800000000000052
 30
0.0
 11
-9.930000000000006
 21
3.000000000000098
 31
0.0
  0
LINE
  5
CCE8
330
CCBE
100
AcDbEntity
  8
0
100
AcDbLine
 10
-5.310000000000002
 20
-2.999999999999901
 30
0.0
 11
-5.310000000000002
 21
-3.799999999999856
 31
0.0
  0
LINE
  5
CCE9
330
CCBE
100
AcDbEntity
  8
0
100
AcDbLine
 10
-9.930000000000006
 20
-2.999999999999901
 30
0.0
 11
-9.930000000000006
 21
-3.799999999999856
 31
0.0
  0
LINE
  5
CCEA
330
CCBE
100
AcDbEntity
  8
0
100
AcDbLine
 10
22.25
 20
-5.999999999999902
 30
0.0
 11
22.25000000000003
 21
6.000000000000097
 31
0.0
  0
LINE
  5
CCEB
330
CCBE
100
AcDbEntity
  8
0
100
AcDbLine
 10
7.009999999999934
 20
6.000000000000097
 30
0.0
 11
7.00999999999999
 21
-5.999999999999902
 31
0.0
  0
LINE
  5
CCEC
330
CCBE
100
AcDbEntity
  8
0
100
AcDbLine
 10
14.62999999999994
 20
6.000000000000097
 30
0.0
 11
14.62999999999999
 21
-5.999999999999902
 31
0.0
  0
LINE
  5
CCED
330
CCBE
100
AcDbEntity
  8
0
100
AcDbLine
 10
15.85000000000008
 20
6.000000000000097
 30
0.0
 11
15.85000000000002
 21
-5.999999999999902
 31
0.0
  0
LINE
  5
CCEE
330
CCBE
100
AcDbEntity
  8
0
100
AcDbLine
 10
8.230000000000075
 20
6.000000000000097
 30
0.0
 11
8.230000000000018
 21
-5.999999999999902
 31
0.0
  0
LINE
  5
CCEF
330
CCBE
100
AcDbEntity
  8
0
100
AcDbLine
 10
0.6100000000000705
 20
6.000000000000097
 30
0.0
 11
0.6100000000000137
 21
-5.999999999999902
 31
0.0
  0
LINE
  5
CCF0
330
CCBE
100
AcDbEntity
  8
0
100
AcDbLine
 10
-0.6100000000000705
 20
6.000000000000097
 30
0.0
 11
-0.6100000000000137
 21
-5.999999999999902
 31
0.0
  0
CIRCLE
  5
CCF1
330
CCBE
100
AcDbEntity
  8
0
100
AcDbCircle
 10
11.43
 20
-0.0000000000000155
 30
0.0
 40
2.75
  0
LINE
  5
CCF2
330
CCBE
100
AcDbEntity
  8
0
100
AcDbLine
 10
8.230000000000018
 20
-4.599999999999925
 30
0.0
 11
14.63000000000005
 21
-4.599999999999925
 31
0.0
  0
LINE
  5
CCF3
330
CCBE
100
AcDbEntity
  8
0
100
AcDbLine
 10
8.230000000000018
 20
-2.999999999999901
 30
0.0
 11
14.63000000000005
 21
-2.999999999999901
 31
0.0
  0
LINE
  5
CCF4
330
CCBE
100
AcDbEntity
  8
0
100
AcDbLine
 10
8.230000000000018
 20
3.000000000000098
 30
0.0
 11
14.62999999999999
 21
3.000000000000098
 31
0.0
  0
LINE
  5
CCF5
330
CCBE
100
AcDbEntity
  8
0
100
AcDbLine
 10
8.230000000000018
 20
4.60000000000012
 30
0.0
 11
14.62999999999994
 21
4.60000000000012
 31
0.0
  0
LINE
  5
CCF6
330
CCBE
100
AcDbEntity
  8
0
100
AcDbLine
 10
0.6100000000000137
 20
4.60000000000012
 30
0.0
 11
7.009999999999905
 21
4.60000000000012
 31
0.0
  0
LINE
  5
CCF7
330
CCBE
100
AcDbEntity
  8
0
100
AcDbLine
 10
0.6100000000000137
 20
3.000000000000098
 30
0.0
 11
7.009999999999905
 21
3.000000000000098
 31
0.0
  0
LINE
  5
CCF8
330
CCBE
100
AcDbEntity
  8
0
100
AcDbLine
 10
2.309999999999973
 20
3.800000000000052
 30
0.0
 11
5.309999999999973
 21
3.800000000000052
 31
0.0
  0
LINE
  5
CCF9
330
CCBE
100
AcDbEntity
  8
0
100
AcDbLine
 10
0.6099999999999568
 20
-4.599999999999925
 30
0.0
 11
7.010000000000019
 21
-4.599999999999925
 31
0.0
  0
LINE
  5
CCFA
330
CCBE
100
AcDbEntity
  8
0
100
AcDbLine
 10
0.6099999999999568
 20
-2.999999999999901
 30
0.0
 11
7.010000000000019
 21
-2.999999999999901
 31
0.0
  0
LINE
  5
CCFB
330
CCBE
100
AcDbEntity
  8
0
100
AcDbLine
 10
2.309999999999973
 20
-3.799999999999856
 30
0.0
 11
5.309999999999973
 21
-3.799999999999856
 31
0.0
  0
LINE
  5
CCFC
330
CCBE
100
AcDbEntity
  8
SUNPOU
100
AcDbLine
 10
2.309999999999973
 20
-1.499999999999901
 30
0.0
 11
5.309999999999973
 21
1.500000000000098
 31
0.0
  0
LINE
  5
CCFD
330
CCBE
100
AcDbEntity
  8
SUNPOU
100
AcDbLine
 10
5.309999999999973
 20
-1.499999999999901
 30
0.0
 11
2.309999999999973
 21
1.500000000000098
 31
0.0
  0
CIRCLE
  5
CCFE
330
CCBE
100
AcDbEntity
  8
0
100
AcDbCircle
 10
3.809999999999973
 20
-0.0000000000000155
 30
0.0
 40
2.75
  0
LINE
  5
CCFF
330
CCBE
100
AcDbEntity
  8
SUNPOU
100
AcDbLine
 10
0.0
 20
-0.9999999999999587
 30
0.0
 11
0.0
 21
1.000000000000041
 31
0.0
  0
LINE
  5
CD00
330
CCBE
100
AcDbEntity
  8
SUNPOU
100
AcDbLine
 10
-0.6100000000000421
 20
-0.0000000000000155
 30
0.0
 11
0.6100000000000421
 21
0.0000000000000155
 31
0.0
  0
LINE
  5
CD01
330
CCBE
100
AcDbEntity
  8
0
100
AcDbLine
 10
2.309999999999973
 20
3.800000000000052
 30
0.0
 11
2.309999999999973
 21
3.000000000000098
 31
0.0
  0
LINE
  5
CD02
330
CCBE
100
AcDbEntity
  8
0
100
AcDbLine
 10
-2.310000000000002
 20
3.800000000000052
 30
0.0
 11
-2.310000000000002
 21
3.000000000000098
 31
0.0
  0
LINE
  5
CD03
330
CCBE
100
AcDbEntity
  8
0
100
AcDbLine
 10
2.309999999999973
 20
-2.999999999999901
 30
0.0
 11
2.309999999999973
 21
-3.799999999999856
 31
0.0
  0
LINE
  5
CD04
330
CCBE
100
AcDbEntity
  8
0
100
AcDbLine
 10
-2.310000000000002
 20
-2.999999999999901
 30
0.0
 11
-2.310000000000002
 21
-3.799999999999856
 31
0.0
  0
LINE
  5
CD05
330
CCBE
100
AcDbEntity
  8
0
100
AcDbLine
 10
12.93000000000001
 20
-2.999999999999901
 30
0.0
 11
12.93000000000001
 21
-3.799999999999856
 31
0.0
  0
LINE
  5
CD06
330
CCBE
100
AcDbEntity
  8
0
100
AcDbLine
 10
12.93000000000001
 20
3.800000000000052
 30
0.0
 11
12.93000000000001
 21
3.000000000000098
 31
0.0
  0
LINE
  5
CD07
330
CCBE
100
AcDbEntity
  8
0
100
AcDbLine
 10
9.930000000000006
 20
-2.999999999999901
 30
0.0
 11
9.930000000000006
 21
-3.799999999999856
 31
0.0
  0
LINE
  5
CD08
330
CCBE
100
AcDbEntity
  8
0
100
AcDbLine
 10
9.930000000000006
 20
3.800000000000052
 30
0.0
 11
9.930000000000063
 21
3.000000000000098
 31
0.0
  0
LINE
  5
CD09
330
CCBE
100
AcDbEntity
  8
SUNPOU
100
AcDbLine
 10
9.930000000000063
 20
-1.499999999999901
 30
0.0
 11
12.93000000000001
 21
1.500000000000098
 31
0.0
  0
LINE
  5
CD0A
330
CCBE
100
AcDbEntity
  8
SUNPOU
100
AcDbLine
 10
12.93000000000001
 20
-1.499999999999901
 30
0.0
 11
9.930000000000063
 21
1.500000000000098
 31
0.0
  0
LINE
  5
CD0B
330
CCBE
100
AcDbEntity
  8
0
100
AcDbLine
 10
9.929999999999949
 20
-3.799999999999856
 30
0.0
 11
12.93000000000001
 21
-3.799999999999856
 31
0.0
  0
LINE
  5
CD0C
330
CCBE
100
AcDbEntity
  8
0
100
AcDbLine
 10
9.929999999999949
 20
3.800000000000052
 30
0.0
 11
12.93000000000001
 21
3.800000000000052
 31
0.0
  0
LINE
  5
CD0D
330
CCBE
100
AcDbEntity
  8
0
100
AcDbLine
 10
5.309999999999973
 20
3.800000000000052
 30
0.0
 11
5.309999999999973
 21
3.000000000000098
 31
0.0
  0
LINE
  5
CD0E
330
CCBE
100
AcDbEntity
  8
0
100
AcDbLine
 10
5.309999999999973
 20
-2.999999999999901
 30
0.0
 11
5.309999999999973
 21
-3.799999999999856
 31
0.0
  0
LINE
  5
CD0F
330
CCBE
100
AcDbEntity
  8
0
100
AcDbLine
 10
15.84999999999996
 20
-2.999999999999901
 30
0.0
 11
22.25000000000003
 21
-2.999999999999901
 31
0.0
  0
LINE
  5
CD10
330
CCBE
100
AcDbEntity
  8
0
100
AcDbLine
 10
15.84999999999996
 20
-4.599999999999925
 30
0.0
 11
22.25000000000003
 21
-4.599999999999925
 31
0.0
  0
LINE
  5
CD11
330
CCBE
100
AcDbEntity
  8
0
100
AcDbLine
 10
15.85000000000002
 20
3.000000000000098
 30
0.0
 11
22.24999999999992
 21
3.000000000000098
 31
0.0
  0
LINE
  5
CD12
330
CCBE
100
AcDbEntity
  8
0
100
AcDbLine
 10
15.85000000000002
 20
4.60000000000012
 30
0.0
 11
22.24999999999992
 21
4.60000000000012
 31
0.0
  0
CIRCLE
  5
CD13
330
CCBE
100
AcDbEntity
  8
0
100
AcDbCircle
 10
19.04999999999998
 20
0.0000000000000981
 30
0.0
 40
1.25
  0
LINE
  5
CD14
330
CCBE
100
AcDbEntity
  8
0
100
AcDbLine
 10
20.54999999999998
 20
-2.999999999999901
 30
0.0
 11
20.54999999999998
 21
-3.799999999999856
 31
0.0
  0
LINE
  5
CD15
330
CCBE
100
AcDbEntity
  8
0
100
AcDbLine
 10
20.54999999999998
 20
3.800000000000052
 30
0.0
 11
20.54999999999998
 21
3.000000000000098
 31
0.0
  0
LINE
  5
CD16
330
CCBE
100
AcDbEntity
  8
0
100
AcDbLine
 10
17.54999999999998
 20
-2.999999999999901
 30
0.0
 11
17.54999999999998
 21
-3.799999999999856
 31
0.0
  0
LINE
  5
CD17
330
CCBE
100
AcDbEntity
  8
0
100
AcDbLine
 10
17.54999999999998
 20
3.800000000000052
 30
0.0
 11
17.54999999999998
 21
3.000000000000098
 31
0.0
  0
LINE
  5
CD18
330
CCBE
100
AcDbEntity
  8
0
100
AcDbLine
 10
17.54999999999998
 20
-3.799999999999856
 30
0.0
 11
20.54999999999998
 21
-3.799999999999856
 31
0.0
  0
LINE
  5
CD19
330
CCBE
100
AcDbEntity
  8
0
100
AcDbLine
 10
17.54999999999998
 20
3.800000000000052
 30
0.0
 11
20.54999999999998
 21
3.800000000000052
 31
0.0
  0
ENDBLK
  5
CD1A
330
CCBE
100
AcDbEntity
  8
0
100
AcDbBlockEnd
  0
BLOCK
  5
DA48
330
DA3E
100
AcDbEntity
  8
0
100
AcDbBlockBegin
  2
*D12
 70
     1
 10
0.0
 20
0.0
 30
0.0
  3
*D12
  1

  0
LINE
  5
DAF8
330
DA3E
100
AcDbEntity
  8
SUNPOU
 62
     0
370
    -2
100
AcDbLine
 10
601.9999999999997
 20
504.9999997425027
 30
0.0
 11
660.5000000000001
 21
504.9999997425026
 31
0.0
  0
LINE
  5
DAF9
330
DA3E
100
AcDbEntity
  8
SUNPOU
 62
     0
370
    -2
100
AcDbLine
 10
601.9999999999997
 20
254.9999997425027
 30
0.0
 11
660.5
 21
254.9999997425027
 31
0.0
  0
LINE
  5
DAFA
330
DA3E
100
AcDbEntity
  8
SUNPOU
 62
     0
370
    -2
100
AcDbLine
 10
660.0000000000001
 20
499.9999997425026
 30
0.0
 11
660.0000000000001
 21
259.9999997425026
 31
0.0
  0
INSERT
  5
DAFB
330
DA3E
100
AcDbEntity
  8
SUNPOU
 62
     0
370
    -2
100
AcDbBlockReference
  2
_OPEN
 10
660.0000000000001
 20
504.9999997425026
 30
0.0
 41
5.0
 42
5.0
 43
5.0
 50
90.0
  0
INSERT
  5
DAFC
330
DA3E
100
AcDbEntity
  8
SUNPOU
 62
     0
370
    -2
100
AcDbBlockReference
  2
_OPEN
 10
660.0
 20
254.9999997425027
 30
0.0
 41
5.0
 42
5.0
 43
5.0
 50
270.0
  0
MTEXT
  5
DAFD
330
DA3E
100
AcDbEntity
  8
SUNPOU
 62
     0
100
AcDbMText
 10
656.0
 20
379.9999997425028
 30
0.0
 40
6.0
 41
0.0
 71
     5
 72
     1
  1
\A1;250
 11
0.0000000000000001
 21
1.0
 31
0.0
 73
     1
 44
1.0
1001
ACAD
1000
MTEXTBEGIN
1070
    73
1070
     1
1070
    44
1040
1.0
1070
    74
1070
     0
1000
MTEXTEND
  0
POINT
  5
DAFE
330
DA3E
100
AcDbEntity
  8
DEFPOINTS
 62
     0
100
AcDbPoint
 10
601.4999999999997
 20
504.9999997425027
 30
0.0
  0
POINT
  5
DAFF
330
DA3E
100
AcDbEntity
  8
DEFPOINTS
 62
     0
100
AcDbPoint
 10
601.4999999999997
 20
254.9999997425027
 30
0.0
  0
POINT
  5
DB00
330
DA3E
100
AcDbEntity
  8
DEFPOINTS
 62
     0
100
AcDbPoint
 10
660.0
 20
254.9999997425027
 30
0.0
  0
ENDBLK
  5
DA49
330
DA3E
100
AcDbEntity
  8
0
100
AcDbBlockEnd
  0
BLOCK
  5
DA54
330
DA4A
100
AcDbEntity
  8
0
100
AcDbBlockBegin
  2
*D13
 70
     1
 10
0.0
 20
0.0
 30
0.0
  3
*D13
  1

  0
LINE
  5
DB13
330
DA4A
100
AcDbEntity
  8
SUNPOU
 62
     0
370
    -2
100
AcDbLine
 10
216.0
 20
263.2999997425029
 30
0.0
 11
216.0
 21
229.4999997425029
 31
0.0
  0
LINE
  5
DB14
330
DA4A
100
AcDbEntity
  8
SUNPOU
 62
     0
370
    -2
100
AcDbLine
 10
286.0
 20
263.2999997425029
 30
0.0
 11
286.0
 21
229.4999997425029
 31
0.0
  0
LINE
  5
DB15
330
DA4A
100
AcDbEntity
  8
SUNPOU
 62
     0
370
    -2
100
AcDbLine
 10
221.0
 20
229.9999997425028
 30
0.0
 11
281.0
 21
229.9999997425028
 31
0.0
  0
INSERT
  5
DB16
330
DA4A
100
AcDbEntity
  8
SUNPOU
 62
     0
370
    -2
100
AcDbBlockReference
  2
_OPEN
 10
216.0
 20
229.9999997425028
 30
0.0
 41
5.0
 42
5.0
 43
5.0
 50
180.0
  0
INSERT
  5
DB17
330
DA4A
100
AcDbEntity
  8
SUNPOU
 62
     0
370
    -2
100
AcDbBlockReference
  2
_OPEN
 10
286.0
 20
229.9999997425028
 30
0.0
 41
5.0
 42
5.0
 43
5.0
  0
MTEXT
  5
DB18
330
DA4A
100
AcDbEntity
  8
SUNPOU
 62
     0
100
AcDbMText
 10
251.0
 20
233.9999997425028
 30
0.0
 40
6.0
 41
0.0
 71
     5
 72
     1
  1
\A1;70
 73
     1
 44
1.0
1001
ACAD
1000
MTEXTBEGIN
1070
    73
1070
     1
1070
    44
1040
1.0
1070
    74
1070
     0
1000
MTEXTEND
  0
POINT
  5
DB19
330
DA4A
100
AcDbEntity
  8
DEFPOINTS
 62
     0
100
AcDbPoint
 10
216.0
 20
263.7999997425029
 30
0.0
  0
POINT
  5
DB1A
330
DA4A
100
AcDbEntity
  8
DEFPOINTS
 62
     0
100
AcDbPoint
 10
286.0
 20
263.7999997425029
 30
0.0
  0
POINT
  5
DB1B
330
DA4A
100
AcDbEntity
  8
DEFPOINTS
 62
     0
100
AcDbPoint
 10
286.0
 20
229.9999997425028
 30
0.0
  0
ENDBLK
  5
DA55
330
DA4A
100
AcDbEntity
  8
0
100
AcDbBlockEnd
  0
BLOCK
  5
DA60
330
DA56
100
AcDbEntity
  8
0
100
AcDbBlockBegin
  2
*D14
 70
     1
 10
0.0
 20
0.0
 30
0.0
  3
*D14
  1

  0
LINE
  5
DB1C
330
DA56
100
AcDbEntity
  8
SUNPOU
 62
     0
370
    -2
100
AcDbLine
 10
146.0
 20
263.2999997425029
 30
0.0
 11
146.0
 21
229.4999997425029
 31
0.0
  0
LINE
  5
DB1D
330
DA56
100
AcDbEntity
  8
SUNPOU
 62
     0
370
    -2
100
AcDbLine
 10
216.0
 20
263.2999997425029
 30
0.0
 11
216.0
 21
229.4999997425029
 31
0.0
  0
LINE
  5
DB1E
330
DA56
100
AcDbEntity
  8
SUNPOU
 62
     0
370
    -2
100
AcDbLine
 10
151.0
 20
229.9999997425028
 30
0.0
 11
211.0
 21
229.9999997425028
 31
0.0
  0
INSERT
  5
DB1F
330
DA56
100
AcDbEntity
  8
SUNPOU
 62
     0
370
    -2
100
AcDbBlockReference
  2
_OPEN
 10
146.0
 20
229.9999997425028
 30
0.0
 41
5.0
 42
5.0
 43
5.0
 50
180.0
  0
INSERT
  5
DB20
330
DA56
100
AcDbEntity
  8
SUNPOU
 62
     0
370
    -2
100
AcDbBlockReference
  2
_OPEN
 10
216.0
 20
229.9999997425028
 30
0.0
 41
5.0
 42
5.0
 43
5.0
  0
MTEXT
  5
DB21
330
DA56
100
AcDbEntity
  8
SUNPOU
 62
     0
100
AcDbMText
 10
181.0
 20
233.9999997425028
 30
0.0
 40
6.0
 41
0.0
 71
     5
 72
     1
  1
\A1;70
 73
     1
 44
1.0
1001
ACAD
1000
MTEXTBEGIN
1070
    73
1070
     1
1070
    44
1040
1.0
1070
    74
1070
     0
1000
MTEXTEND
  0
POINT
  5
DB22
330
DA56
100
AcDbEntity
  8
DEFPOINTS
 62
     0
100
AcDbPoint
 10
146.0
 20
263.7999997425029
 30
0.0
  0
POINT
  5
DB23
330
DA56
100
AcDbEntity
  8
DEFPOINTS
 62
     0
100
AcDbPoint
 10
216.0
 20
263.7999997425029
 30
0.0
  0
POINT
  5
DB24
330
DA56
100
AcDbEntity
  8
DEFPOINTS
 62
     0
100
AcDbPoint
 10
216.0
 20
229.9999997425028
 30
0.0
  0
ENDBLK
  5
DA61
330
DA56
100
AcDbEntity
  8
0
100
AcDbBlockEnd
  0
BLOCK
  5
DA6C
330
DA62
100
AcDbEntity
  8
0
100
AcDbBlockBegin
  2
*D15
 70
     1
 10
0.0
 20
0.0
 30
0.0
  3
*D15
  1

  0
LINE
  5
DB25
330
DA62
100
AcDbEntity
  8
SUNPOU
 62
     0
370
    -2
100
AcDbLine
 10
605.8999999999998
 20
210.9999997425028
 30
0.0
 11
640.5
 21
210.9999997425028
 31
0.0
  0
LINE
  5
DB26
330
DA62
100
AcDbEntity
  8
SUNPOU
 62
     0
370
    -2
100
AcDbLine
 10
606.9999999999997
 20
105.9999997425026
 30
0.0
 11
640.5
 21
105.9999997425026
 31
0.0
  0
LINE
  5
DB27
330
DA62
100
AcDbEntity
  8
SUNPOU
 62
     0
370
    -2
100
AcDbLine
 10
640.0
 20
205.9999997425027
 30
0.0
 11
640.0
 21
110.9999997425026
 31
0.0
  0
INSERT
  5
DB28
330
DA62
100
AcDbEntity
  8
SUNPOU
 62
     0
370
    -2
100
AcDbBlockReference
  2
_OPEN
 10
640.0
 20
210.9999997425028
 30
0.0
 41
5.0
 42
5.0
 43
5.0
 50
90.0
  0
INSERT
  5
DB29
330
DA62
100
AcDbEntity
  8
SUNPOU
 62
     0
370
    -2
100
AcDbBlockReference
  2
_OPEN
 10
640.0
 20
105.9999997425026
 30
0.0
 41
5.0
 42
5.0
 43
5.0
 50
270.0
  0
MTEXT
  5
DB2A
330
DA62
100
AcDbEntity
  8
SUNPOU
 62
     0
100
AcDbMText
 10
636.0
 20
158.4999997425028
 30
0.0
 40
6.0
 41
0.0
 71
     5
 72
     1
  1
\A1;105
 11
0.0000000000000001
 21
1.0
 31
0.0
 73
     1
 44
1.0
1001
ACAD
1000
MTEXTBEGIN
1070
    73
1070
     1
1070
    44
1040
1.0
1070
    74
1070
     0
1000
MTEXTEND
  0
POINT
  5
DB2B
330
DA62
100
AcDbEntity
  8
DEFPOINTS
 62
     0
100
AcDbPoint
 10
605.3999999999998
 20
210.9999997425028
 30
0.0
  0
POINT
  5
DB2C
330
DA62
100
AcDbEntity
  8
DEFPOINTS
 62
     0
100
AcDbPoint
 10
606.4999999999997
 20
105.9999997425026
 30
0.0
  0
POINT
  5
DB2D
330
DA62
100
AcDbEntity
  8
DEFPOINTS
 62
     0
100
AcDbPoint
 10
640.0
 20
105.9999997425026
 30
0.0
  0
ENDBLK
  5
DA6D
330
DA62
100
AcDbEntity
  8
0
100
AcDbBlockEnd
  0
BLOCK
  5
DA78
330
DA6E
100
AcDbEntity
  8
0
100
AcDbBlockBegin
  2
*D16
 70
     1
 10
0.0
 20
0.0
 30
0.0
  3
*D16
  1

  0
LINE
  5
DB01
330
DA6E
100
AcDbEntity
  8
SUNPOU
 62
     0
370
    -2
100
AcDbLine
 10
606.9999999999997
 20
292.4999997425027
 30
0.0
 11
630.4999999999999
 21
292.4999997425027
 31
0.0
  0
LINE
  5
DB02
330
DA6E
100
AcDbEntity
  8
SUNPOU
 62
     0
370
    -2
100
AcDbLine
 10
606.9999999999997
 20
467.4999997425027
 30
0.0
 11
630.4999999999999
 21
467.4999997425027
 31
0.0
  0
LINE
  5
DB03
330
DA6E
100
AcDbEntity
  8
SUNPOU
 62
     0
370
    -2
100
AcDbLine
 10
630.0
 20
297.4999997425027
 30
0.0
 11
630.0
 21
462.4999997425027
 31
0.0
  0
INSERT
  5
DB04
330
DA6E
100
AcDbEntity
  8
SUNPOU
 62
     0
370
    -2
100
AcDbBlockReference
  2
_OPEN
 10
630.0
 20
292.4999997425027
 30
0.0
 41
5.0
 42
5.0
 43
5.0
 50
270.0
  0
INSERT
  5
DB05
330
DA6E
100
AcDbEntity
  8
SUNPOU
 62
     0
370
    -2
100
AcDbBlockReference
  2
_OPEN
 10
630.0
 20
467.4999997425027
 30
0.0
 41
5.0
 42
5.0
 43
5.0
 50
90.0
  0
MTEXT
  5
DB06
330
DA6E
100
AcDbEntity
  8
SUNPOU
 62
     0
100
AcDbMText
 10
625.9999999999998
 20
379.9999997425028
 30
0.0
 40
6.0
 41
0.0
 71
     5
 72
     1
  1
\A1;175
 11
0.0000000000000001
 21
1.0
 31
0.0
 73
     1
 44
1.0
1001
ACAD
1000
MTEXTBEGIN
1070
    73
1070
     1
1070
    44
1040
1.0
1070
    74
1070
     0
1000
MTEXTEND
  0
POINT
  5
DB07
330
DA6E
100
AcDbEntity
  8
DEFPOINTS
 62
     0
100
AcDbPoint
 10
606.4999999999997
 20
292.4999997425027
 30
0.0
  0
POINT
  5
DB08
330
DA6E
100
AcDbEntity
  8
DEFPOINTS
 62
     0
100
AcDbPoint
 10
606.4999999999997
 20
467.4999997425027
 30
0.0
  0
POINT
  5
DB09
330
DA6E
100
AcDbEntity
  8
DEFPOINTS
 62
     0
100
AcDbPoint
 10
630.0
 20
467.4999997425027
 30
0.0
  0
ENDBLK
  5
DA79
330
DA6E
100
AcDbEntity
  8
0
100
AcDbBlockEnd
  0
BLOCK
  5
DA84
330
DA7A
100
AcDbEntity
  8
0
100
AcDbBlockBegin
  2
*D17
 70
     1
 10
0.0
 20
0.0
 30
0.0
  3
*D17
  1

  0
LINE
  5
DB0A
330
DA7A
100
AcDbEntity
  8
SUNPOU
 62
     0
370
    -2
100
AcDbLine
 10
583.9999999999998
 20
484.9999997425027
 30
0.0
 11
645.5
 21
484.9999997425026
 31
0.0
  0
LINE
  5
DB0B
330
DA7A
100
AcDbEntity
  8
SUNPOU
 62
     0
370
    -2
100
AcDbLine
 10
578.9999999999998
 20
274.9999997425027
 30
0.0
 11
645.5
 21
274.9999997425027
 31
0.0
  0
LINE
  5
DB0C
330
DA7A
100
AcDbEntity
  8
SUNPOU
 62
     0
370
    -2
100
AcDbLine
 10
645.0
 20
479.9999997425026
 30
0.0
 11
645.0
 21
279.9999997425027
 31
0.0
  0
INSERT
  5
DB0D
330
DA7A
100
AcDbEntity
  8
SUNPOU
 62
     0
370
    -2
100
AcDbBlockReference
  2
_OPEN
 10
645.0
 20
484.9999997425026
 30
0.0
 41
5.0
 42
5.0
 43
5.0
 50
90.0
  0
INSERT
  5
DB0E
330
DA7A
100
AcDbEntity
  8
SUNPOU
 62
     0
370
    -2
100
AcDbBlockReference
  2
_OPEN
 10
645.0
 20
274.9999997425027
 30
0.0
 41
5.0
 42
5.0
 43
5.0
 50
270.0
  0
MTEXT
  5
DB0F
330
DA7A
100
AcDbEntity
  8
SUNPOU
 62
     0
100
AcDbMText
 10
640.9999999999999
 20
379.9999997425028
 30
0.0
 40
6.0
 41
0.0
 71
     5
 72
     1
  1
\A1;210
 11
0.0000000000000001
 21
1.0
 31
0.0
 73
     1
 44
1.0
1001
ACAD
1000
MTEXTBEGIN
1070
    73
1070
     1
1070
    44
1040
1.0
1070
    74
1070
     0
1000
MTEXTEND
  0
POINT
  5
DB10
330
DA7A
100
AcDbEntity
  8
DEFPOINTS
 62
     0
100
AcDbPoint
 10
583.4999999999998
 20
484.9999997425027
 30
0.0
  0
POINT
  5
DB11
330
DA7A
100
AcDbEntity
  8
DEFPOINTS
 62
     0
100
AcDbPoint
 10
578.4999999999997
 20
274.9999997425027
 30
0.0
  0
POINT
  5
DB12
330
DA7A
100
AcDbEntity
  8
DEFPOINTS
 62
     0
100
AcDbPoint
 10
645.0
 20
274.9999997425027
 30
0.0
  0
ENDBLK
  5
DA85
330
DA7A
100
AcDbEntity
  8
0
100
AcDbBlockEnd
  0
BLOCK
  5
DA90
330
DA86
100
AcDbEntity
  8
0
100
AcDbBlockBegin
  2
*D18
 70
     1
 10
0.0
 20
0.0
 30
0.0
  3
*D18
  1

  0
LINE
  5
DAEF
330
DA86
100
AcDbEntity
  8
SUNPOU
 62
     0
370
    -2
100
AcDbLine
 10
63.5
 20
465.9999997425027
 30
0.0
 11
63.50000000000001
 21
540.4818801912061
 31
0.0
  0
LINE
  5
DAF0
330
DA86
100
AcDbEntity
  8
SUNPOU
 62
     0
370
    -2
100
AcDbLine
 10
608.4999999999998
 20
465.9999997425027
 30
0.0
 11
608.4999999999998
 21
540.4818801912061
 31
0.0
  0
LINE
  5
DAF1
330
DA86
100
AcDbEntity
  8
SUNPOU
 62
     0
370
    -2
100
AcDbLine
 10
68.5
 20
539.9818801912061
 30
0.0
 11
603.4999999999997
 21
539.9818801912061
 31
0.0
  0
INSERT
  5
DAF2
330
DA86
100
AcDbEntity
  8
SUNPOU
 62
     0
370
    -2
100
AcDbBlockReference
  2
_OPEN
 10
63.50000000000001
 20
539.9818801912061
 30
0.0
 41
5.0
 42
5.0
 43
5.0
 50
180.0
  0
INSERT
  5
DAF3
330
DA86
100
AcDbEntity
  8
SUNPOU
 62
     0
370
    -2
100
AcDbBlockReference
  2
_OPEN
 10
608.4999999999998
 20
539.9818801912061
 30
0.0
 41
5.0
 42
5.0
 43
5.0
  0
MTEXT
  5
DAF4
330
DA86
100
AcDbEntity
  8
SUNPOU
 62
     0
100
AcDbMText
 10
335.9999999999999
 20
543.9818801912061
 30
0.0
 40
6.0
 41
0.0
 71
     5
 72
     1
  1
\A1;545
 73
     1
 44
1.0
1001
ACAD
1000
MTEXTBEGIN
1070
    73
1070
     1
1070
    44
1040
1.0
1070
    74
1070
     0
1000
MTEXTEND
  0
POINT
  5
DAF5
330
DA86
100
AcDbEntity
  8
DEFPOINTS
 62
     0
100
AcDbPoint
 10
63.5
 20
465.4999997425027
 30
0.0
  0
POINT
  5
DAF6
330
DA86
100
AcDbEntity
  8
DEFPOINTS
 62
     0
100
AcDbPoint
 10
608.4999999999998
 20
465.4999997425027
 30
0.0
  0
POINT
  5
DAF7
330
DA86
100
AcDbEntity
  8
DEFPOINTS
 62
     0
100
AcDbPoint
 10
608.4999999999998
 20
539.9818801912061
 30
0.0
  0
ENDBLK
  5
DA91
330
DA86
100
AcDbEntity
  8
0
100
AcDbBlockEnd
  0
BLOCK
  5
DA9C
330
DA92
100
AcDbEntity
  8
0
100
AcDbBlockBegin
  2
*D19
 70
     1
 10
0.0
 20
0.0
 30
0.0
  3
*D19
  1

  0
LINE
  5
DAE6
330
DA92
100
AcDbEntity
  8
SUNPOU
 62
     0
370
    -2
100
AcDbLine
 10
93.49999999999999
 20
485.4999997425027
 30
0.0
 11
93.49999999999999
 21
520.2637529911124
 31
0.0
  0
LINE
  5
DAE7
330
DA92
100
AcDbEntity
  8
SUNPOU
 62
     0
370
    -2
100
AcDbLine
 10
578.4999999999997
 20
485.4999997425027
 30
0.0
 11
578.4999999999997
 21
520.2637529911124
 31
0.0
  0
LINE
  5
DAE8
330
DA92
100
AcDbEntity
  8
SUNPOU
 62
     0
370
    -2
100
AcDbLine
 10
98.50000000000001
 20
519.7637529911125
 30
0.0
 11
573.4999999999997
 21
519.7637529911125
 31
0.0
  0
INSERT
  5
DAE9
330
DA92
100
AcDbEntity
  8
SUNPOU
 62
     0
370
    -2
100
AcDbBlockReference
  2
_OPEN
 10
93.49999999999999
 20
519.7637529911125
 30
0.0
 41
5.0
 42
5.0
 43
5.0
 50
180.0
  0
INSERT
  5
DAEA
330
DA92
100
AcDbEntity
  8
SUNPOU
 62
     0
370
    -2
100
AcDbBlockReference
  2
_OPEN
 10
578.4999999999997
 20
519.7637529911125
 30
0.0
 41
5.0
 42
5.0
 43
5.0
  0
MTEXT
  5
DAEB
330
DA92
100
AcDbEntity
  8
SUNPOU
 62
     0
100
AcDbMText
 10
335.9999999999999
 20
523.7637529911125
 30
0.0
 40
6.0
 41
0.0
 71
     5
 72
     1
  1
\A1;485
 73
     1
 44
1.0
1001
ACAD
1000
MTEXTBEGIN
1070
    73
1070
     1
1070
    44
1040
1.0
1070
    74
1070
     0
1000
MTEXTEND
  0
POINT
  5
DAEC
330
DA92
100
AcDbEntity
  8
DEFPOINTS
 62
     0
100
AcDbPoint
 10
93.49999999999999
 20
484.9999997425027
 30
0.0
  0
POINT
  5
DAED
330
DA92
100
AcDbEntity
  8
DEFPOINTS
 62
     0
100
AcDbPoint
 10
578.4999999999997
 20
484.9999997425027
 30
0.0
  0
POINT
  5
DAEE
330
DA92
100
AcDbEntity
  8
DEFPOINTS
 62
     0
100
AcDbPoint
 10
578.4999999999997
 20
519.7637529911125
 30
0.0
  0
ENDBLK
  5
DA9D
330
DA92
100
AcDbEntity
  8
0
100
AcDbBlockEnd
  0
BLOCK
  5
DB3A
330
DB30
100
AcDbEntity
  8
0
100
AcDbBlockBegin
  2
*D20
 70
     1
 10
0.0
 20
0.0
 30
0.0
  3
*D20
  1

  0
LINE
  5
DB4E
330
DB30
100
AcDbEntity
  8
SUNPOU
 62
     0
370
    -2
100
AcDbLine
 10
680.0
 20
459.2999997425025
 30
0.0
 11
680.0
 21
540.4818801912061
 31
0.0
  0
LINE
  5
DB4F
330
DB30
100
AcDbEntity
  8
SUNPOU
 62
     0
370
    -2
100
AcDbLine
 10
785.0
 20
505.4999997425027
 30
0.0
 11
785.0
 21
540.4818801912061
 31
0.0
  0
LINE
  5
DB50
330
DB30
100
AcDbEntity
  8
SUNPOU
 62
     0
370
    -2
100
AcDbLine
 10
685.0
 20
539.9818801912061
 30
0.0
 11
780.0
 21
539.9818801912061
 31
0.0
  0
INSERT
  5
DB51
330
DB30
100
AcDbEntity
  8
SUNPOU
 62
     0
370
    -2
100
AcDbBlockReference
  2
_OPEN
 10
680.0
 20
539.9818801912061
 30
0.0
 41
5.0
 42
5.0
 43
5.0
 50
180.0
  0
INSERT
  5
DB52
330
DB30
100
AcDbEntity
  8
SUNPOU
 62
     0
370
    -2
100
AcDbBlockReference
  2
_OPEN
 10
785.0
 20
539.9818801912061
 30
0.0
 41
5.0
 42
5.0
 43
5.0
  0
MTEXT
  5
DB53
330
DB30
100
AcDbEntity
  8
SUNPOU
 62
     0
100
AcDbMText
 10
732.5
 20
543.9818801912061
 30
0.0
 40
6.0
 41
0.0
 71
     5
 72
     1
  1
\A1;105
 73
     1
 44
1.0
1001
ACAD
1000
MTEXTBEGIN
1070
    73
1070
     1
1070
    44
1040
1.0
1070
    74
1070
     0
1000
MTEXTEND
  0
POINT
  5
DB54
330
DB30
100
AcDbEntity
  8
DEFPOINTS
 62
     0
100
AcDbPoint
 10
680.0
 20
458.7999997425026
 30
0.0
  0
POINT
  5
DB55
330
DB30
100
AcDbEntity
  8
DEFPOINTS
 62
     0
100
AcDbPoint
 10
785.0
 20
504.9999997425027
 30
0.0
  0
POINT
  5
DB56
330
DB30
100
AcDbEntity
  8
DEFPOINTS
 62
     0
100
AcDbPoint
 10
785.0
 20
539.9818801912061
 30
0.0
  0
ENDBLK
  5
DB3B
330
DB30
100
AcDbEntity
  8
0
100
AcDbBlockEnd
  0
BLOCK
  5
DB65
330
DB5B
100
AcDbEntity
  8
0
100
AcDbBlockBegin
  2
*D21
 70
     1
 10
0.0
 20
0.0
 30
0.0
  3
*D21
  1

  0
LINE
  5
DB79
330
DB5B
100
AcDbEntity
  8
SUNPOU
 62
     0
370
    -2
100
AcDbLine
 10
63.5
 20
293.9999997425027
 30
0.0
 11
63.49999999999999
 21
229.4999997425029
 31
0.0
  0
LINE
  5
DB7A
330
DB5B
100
AcDbEntity
  8
SUNPOU
 62
     0
370
    -2
100
AcDbLine
 10
146.0
 20
263.2999997425029
 30
0.0
 11
146.0
 21
229.4999997425029
 31
0.0
  0
LINE
  5
DB7B
330
DB5B
100
AcDbEntity
  8
SUNPOU
 62
     0
370
    -2
100
AcDbLine
 10
68.5
 20
229.9999997425028
 30
0.0
 11
141.0
 21
229.9999997425028
 31
0.0
  0
INSERT
  5
DB7C
330
DB5B
100
AcDbEntity
  8
SUNPOU
 62
     0
370
    -2
100
AcDbBlockReference
  2
_OPEN
 10
63.49999999999999
 20
229.9999997425028
 30
0.0
 41
5.0
 42
5.0
 43
5.0
 50
180.0
  0
INSERT
  5
DB7D
330
DB5B
100
AcDbEntity
  8
SUNPOU
 62
     0
370
    -2
100
AcDbBlockReference
  2
_OPEN
 10
146.0
 20
229.9999997425028
 30
0.0
 41
5.0
 42
5.0
 43
5.0
  0
MTEXT
  5
DB7E
330
DB5B
100
AcDbEntity
  8
SUNPOU
 62
     0
100
AcDbMText
 10
104.75
 20
233.9999997425028
 30
0.0
 40
6.0
 41
0.0
 71
     5
 72
     1
  1
\A1;83
 73
     1
 44
1.0
1001
ACAD
1000
MTEXTBEGIN
1070
    73
1070
     1
1070
    44
1040
1.0
1070
    74
1070
     0
1000
MTEXTEND
  0
POINT
  5
DB7F
330
DB5B
100
AcDbEntity
  8
DEFPOINTS
 62
     0
100
AcDbPoint
 10
63.5
 20
294.4999997425027
 30
0.0
  0
POINT
  5
DB80
330
DB5B
100
AcDbEntity
  8
DEFPOINTS
 62
     0
100
AcDbPoint
 10
146.0
 20
263.7999997425029
 30
0.0
  0
POINT
  5
DB81
330
DB5B
100
AcDbEntity
  8
DEFPOINTS
 62
     0
100
AcDbPoint
 10
146.0
 20
229.9999997425028
 30
0.0
  0
ENDBLK
  5
DB66
330
DB5B
100
AcDbEntity
  8
0
100
AcDbBlockEnd
  0
ENDSEC
  0
SECTION
  2
ENTITIES
  0
LINE
  5
C9
330
1A
100
AcDbEntity
  8
WAKU
 62
     7
100
AcDbLine
 10
809.9999972815888
 20
559.9999981206046
 30
0.0
 11
39.99999986575748
 21
559.9999981206046
 31
0.0
  0
LINE
  5
CB
330
1A
100
AcDbEntity
  8
WAKU
 62
     7
100
AcDbLine
 10
39.99999986575748
 20
9.99999996643937
 30
0.0
 11
809.9999972815888
 21
9.99999996643937
 31
0.0
  0
LINE
  5
D4
330
1A
100
AcDbEntity
  8
WAKU
100
AcDbLine
 10
809.9999972815888
 20
9.99999996643937
 30
0.0
 11
809.9999972815888
 21
559.9999981206046
 31
0.0
  0
LINE
  5
D5
330
1A
100
AcDbEntity
  8
WAKU
100
AcDbLine
 10
39.99999986575748
 20
559.9999981206046
 30
0.0
 11
39.99999986575748
 21
9.99999996643937
 31
0.0
  0
LINE
  5
D6
330
1A
100
AcDbEntity
  8
WAKU
 62
     7
100
AcDbLine
 10
555.4415564815889
 20
73.63961016643937
 30
0.0
 11
809.9999972815888
 21
73.63961016643937
 31
0.0
  0
LINE
  5
D7
330
1A
100
AcDbEntity
  8
WAKU
100
AcDbLine
 10
555.4415564815889
 20
9.99999996643937
 30
0.0
 11
555.4415564815889
 21
73.63961016643937
 31
0.0
  0
LINE
  5
D8
330
1A
100
AcDbEntity
  8
WAKU
100
AcDbLine
 10
725.1471836815889
 20
9.99999996643937
 30
0.0
 11
725.1471836815889
 21
73.63961016643937
 31
0.0
  0
LINE
  5
D9
330
1A
100
AcDbEntity
  8
WAKU
 62
     7
100
AcDbLine
 10
725.1471836815889
 20
24.14213556643937
 30
0.0
 11
809.9999972815888
 21
24.14213556643937
 31
0.0
  0
LINE
  5
DA
330
1A
100
AcDbEntity
  8
WAKU
 62
     7
100
AcDbLine
 10
725.1471836815889
 20
34.04163048643937
 30
0.0
 11
809.9999972815888
 21
34.04163048643937
 31
0.0
  0
LINE
  5
DB
330
1A
100
AcDbEntity
  8
WAKU
 62
     7
100
AcDbLine
 10
725.1471836815889
 20
43.94112540643937
 30
0.0
 11
809.9999972815888
 21
43.94112540643937
 31
0.0
  0
LINE
  5
DC
330
1A
100
AcDbEntity
  8
WAKU
 62
     7
100
AcDbLine
 10
725.1471836815889
 20
53.84062032643937
 30
0.0
 11
809.9999972815888
 21
53.84062032643937
 31
0.0
  0
LINE
  5
DD
330
1A
100
AcDbEntity
  8
WAKU
 62
     7
100
AcDbLine
 10
725.1471836815889
 20
63.74011524643937
 30
0.0
 11
809.9999972815888
 21
63.74011524643937
 31
0.0
  0
LINE
  5
DE
330
1A
100
AcDbEntity
  8
WAKU
100
AcDbLine
 10
746.3603870815888
 20
24.14213556643937
 30
0.0
 11
746.3603870815888
 21
73.63961016643937
 31
0.0
  0
LINE
  5
DF
330
1A
100
AcDbEntity
  8
WAKU
100
AcDbLine
 10
735.0466786015889
 20
9.99999996643937
 30
0.0
 11
735.0466786015889
 21
24.14213556643937
 31
0.0
  0
LINE
  5
E0
330
1A
100
AcDbEntity
  8
WAKU
100
AcDbLine
 10
703.9339802815889
 20
21.31370844643937
 30
0.0
 11
703.9339802815889
 21
42.52691184643937
 31
0.0
  0
LINE
  5
E1
330
1A
100
AcDbEntity
  8
WAKU
100
AcDbLine
 10
682.7207768815888
 20
21.31370844643937
 30
0.0
 11
682.7207768815888
 21
51.01219320643937
 31
0.0
  0
LINE
  5
E2
330
1A
100
AcDbEntity
  8
WAKU
100
AcDbLine
 10
661.5075734815889
 20
21.31370844643937
 30
0.0
 11
661.5075734815889
 21
73.63961016643937
 31
0.0
  0
LINE
  5
E3
330
1A
100
AcDbEntity
  8
WAKU
100
AcDbLine
 10
640.2943700815889
 20
21.31370844643937
 30
0.0
 11
640.2943700815889
 21
73.63961016643937
 31
0.0
  0
LINE
  5
E4
330
1A
100
AcDbEntity
  8
WAKU
100
AcDbLine
 10
725.1471836815889
 20
59.49747456643937
 30
0.0
 11
640.2943700815889
 21
59.49747456643937
 31
0.0
  0
LINE
  5
E5
330
1A
100
AcDbEntity
  8
WAKU
100
AcDbLine
 10
725.1471836815889
 20
51.01219320643937
 30
0.0
 11
640.2943700815889
 21
51.01219320643937
 31
0.0
  0
LINE
  5
E6
330
1A
100
AcDbEntity
  8
WAKU
100
AcDbLine
 10
725.1471836815889
 20
42.52691184643937
 30
0.0
 11
640.2943700815889
 21
42.52691184643937
 31
0.0
  0
LINE
  5
E7
330
1A
100
AcDbEntity
  8
WAKU
100
AcDbLine
 10
725.1471836815889
 20
21.31370844643937
 30
0.0
 11
555.4415564815889
 21
21.31370844643937
 31
0.0
  0
MTEXT
  5
E9
330
1A
100
AcDbEntity
  8
WAKU
100
AcDbMText
 10
345.0
 20
43.0
 30
0.0
 40
4.0
 41
15.0
 71
     1
 72
     5
  1

 73
     1
 44
1.0
1001
ACAD
1000
MTEXTBEGIN
1070
    73
1070
     1
1070
    44
1040
1.0
1070
    74
1070
     0
1000
MTEXTEND
  0
MTEXT
  5
EA
330
1A
100
AcDbEntity
  8
WAKU
100
AcDbMText
 10
345.0
 20
49.0
 30
0.0
 40
4.0
 41
14.0
 71
     1
 72
     5
  1

 73
     1
 44
1.0
1001
ACAD
1000
MTEXTBEGIN
1070
    73
1070
     1
1070
    44
1040
1.0
1070
    74
1070
     0
1000
MTEXTEND
  0
MTEXT
  5
ED
330
1A
100
AcDbEntity
  8
WAKU
100
AcDbMText
 10
728.4270717042163
 20
51.6917497839624
 30
0.0
 40
4.24264068
 41
15.55634916
 71
     1
 72
     5
  1
部品表
 73
     1
 44
1.0
1001
ACAD
1000
MTEXTBEGIN
1070
    73
1070
     1
1070
    44
1040
1.0
1070
    74
1070
     0
1000
MTEXTEND
  0
MTEXT
  5
EE
330
1A
100
AcDbEntity
  8
WAKU
100
AcDbMText
 10
327.0
 20
82.0
 30
0.0
 40
3.0
 41
37.0
 71
     1
 72
     5
  1

 73
     1
 44
1.0
1001
ACAD
1000
MTEXTBEGIN
1070
    73
1070
     1
1070
    44
1040
1.0
1070
    74
1070
     0
1000
MTEXTEND
  0
MTEXT
  5
F0
330
1A
100
AcDbEntity
  8
WAKU
100
AcDbMText
 10
728.2584535135889
 20
70.38691897843938
 30
0.0
 40
4.24264068
 41
14.1421356
 71
     1
 72
     5
  1
機種名
 73
     1
 44
1.0
1001
ACAD
1000
MTEXTBEGIN
1070
    73
1070
     1
1070
    44
1040
1.0
1070
    74
1070
     0
1000
MTEXTEND
  0
MTEXT
  5
F1
330
1A
100
AcDbEntity
  8
WAKU
100
AcDbMText
 10
728.3998748695888
 20
60.48742405843936
 30
0.0
 40
4.24264068
 41
14.1421356
 71
     1
 72
     5
  1
部　名
 73
     1
 44
1.0
1001
ACAD
1000
MTEXTBEGIN
1070
    73
1070
     1
1070
    44
1040
1.0
1070
    74
1070
     0
1000
MTEXTEND
  0
MTEXT
  5
F2
330
1A
100
AcDbEntity
  8
WAKU
100
AcDbMText
 10
726.5613972415889
 20
41.11269828643937
 30
0.0
 40
4.24264068
 41
14.1421356
 71
     1
 72
     5
  1
ｽﾄｯｸNo.
 73
     1
 44
1.0
1001
ACAD
1000
MTEXTBEGIN
1070
    73
1070
     1
1070
    44
1040
1.0
1070
    74
1070
     0
1000
MTEXTEND
  0
MTEXT
  5
F3
330
1A
100
AcDbEntity
  8
WAKU
100
AcDbMText
 10
727.9756108015889
 20
31.21320336643937
 30
0.0
 40
4.24264068
 41
16.97056272
 71
     1
 72
     5
  1
適用ﾛｯﾄ
 73
     1
 44
1.0
1001
ACAD
1000
MTEXTBEGIN
1070
    73
1070
     1
1070
    44
1040
1.0
1070
    74
1070
     0
1000
MTEXTEND
  0
MTEXT
  5
F5
330
1A
100
AcDbEntity
  8
WAKU
100
AcDbMText
 10
330.0
 20
85.0
 30
0.0
 40
3.0
 41
12.0
 71
     1
 72
     5
  1

 73
     1
 44
1.0
1001
ACAD
1000
MTEXTBEGIN
1070
    73
1070
     1
1070
    44
1040
1.0
1070
    74
1070
     0
1000
MTEXTEND
  0
MTEXT
  5
FF
330
1A
100
AcDbEntity
  8
WAKU
100
AcDbMText
 10
271.0
 20
82.0
 30
0.0
 40
3.0
 41
74.0
 71
     1
 72
     5
  1

 73
     1
 44
1.0
1001
ACAD
1000
MTEXTBEGIN
1070
    73
1070
     1
1070
    44
1040
1.0
1070
    74
1070
     0
1000
MTEXTEND
  0
MTEXT
  5
102
330
1A
100
AcDbEntity
  8
WAKU
100
AcDbMText
 10
643.1227972015889
 20
48.91842316182867
 30
0.0
 40
4.24264068
 41
18.38477628
 71
     1
 72
     5
  1
設　計
 73
     1
 44
1.0
1001
ACAD
1000
MTEXTBEGIN
1070
    73
1070
     1
1070
    44
1040
1.0
1070
    74
1070
     0
1000
MTEXTEND
  0
MTEXT
  5
103
330
1A
100
AcDbEntity
  8
WAKU
100
AcDbMText
 10
664.3360006015889
 20
49.59797964643937
 30
0.0
 40
4.24264068
 41
18.38477628
 71
     1
 72
     5
  1
検　図
 73
     1
 44
1.0
1001
ACAD
1000
MTEXTBEGIN
1070
    73
1070
     1
1070
    44
1040
1.0
1070
    74
1070
     0
1000
MTEXTEND
  0
MTEXT
  5
104
330
1A
100
AcDbEntity
  8
WAKU
100
AcDbMText
 10
696.862912481589
 20
48.91842316182867
 30
0.0
 40
4.24264068
 41
18.38477628
 71
     1
 72
     5
  1
承　認
 73
     1
 44
1.0
1001
ACAD
1000
MTEXTBEGIN
1070
    73
1070
     1
1070
    44
1040
1.0
1070
    74
1070
     0
1000
MTEXTEND
  0
MTEXT
  5
106
330
1A
100
AcDbEntity
  8
WAKU
100
AcDbMText
 10
682.4261462859031
 20
57.88627682122226
 30
0.0
 40
4.24264068
 41
19.26412843259372
 71
     1
 72
     5
  1
名　　称
 73
     1
 44
1.0
1001
ACAD
1000
MTEXTBEGIN
1070
    73
1070
     1
1070
    44
1040
1.0
1070
    74
1070
     0
1000
MTEXTEND
  0
LINE
  5
78B
330
1A
100
AcDbEntity
  8
WAKU
100
AcDbLine
 10
640.2943700815889
 20
26.97056268643937
 30
0.0
 11
555.4415564815889
 21
26.97056268643937
 31
0.0
  0
LINE
  5
78C
330
1A
100
AcDbEntity
  8
WAKU
100
AcDbLine
 10
640.2943700815889
 20
32.62741692643937
 30
0.0
 11
555.4415564815889
 21
32.62741692643937
 31
0.0
  0
LINE
  5
78D
330
1A
100
AcDbEntity
  8
WAKU
100
AcDbLine
 10
640.2943700815889
 20
38.28427116643938
 30
0.0
 11
555.4415564815889
 21
38.28427116643938
 31
0.0
  0
LINE
  5
78E
330
1A
100
AcDbEntity
  8
WAKU
100
AcDbLine
 10
640.2943700815889
 20
43.94112540643937
 30
0.0
 11
555.4415564815889
 21
43.94112540643937
 31
0.0
  0
LINE
  5
78F
330
1A
100
AcDbEntity
  8
WAKU
100
AcDbLine
 10
640.2943700815889
 20
49.59797964643937
 30
0.0
 11
555.4415564815889
 21
49.59797964643937
 31
0.0
  0
LINE
  5
790
330
1A
100
AcDbEntity
  8
WAKU
100
AcDbLine
 10
640.2943700815889
 20
55.25483388643937
 30
0.0
 11
555.4415564815889
 21
55.25483388643937
 31
0.0
  0
LINE
  5
791
330
1A
100
AcDbEntity
  8
WAKU
100
AcDbLine
 10
640.2943700815889
 20
60.91168812643937
 30
0.0
 11
555.4415564815889
 21
60.91168812643937
 31
0.0
  0
LINE
  5
792
330
1A
100
AcDbEntity
  8
WAKU
100
AcDbLine
 10
640.2943700815889
 20
66.56854236643937
 30
0.0
 11
555.4415564815889
 21
66.56854236643937
 31
0.0
  0
LINE
  5
794
330
1A
100
AcDbEntity
  8
WAKU
100
AcDbLine
 10
566.7552649615888
 20
21.31370844643937
 30
0.0
 11
566.7552649615888
 21
73.63961016643937
 31
0.0
  0
LINE
  5
795
330
1A
100
AcDbEntity
  8
WAKU
100
AcDbLine
 10
585.1400412415889
 20
21.31370844643937
 30
0.0
 11
585.1400412415889
 21
73.63961016643937
 31
0.0
  0
LINE
  5
796
330
1A
100
AcDbEntity
  8
WAKU
100
AcDbLine
 10
599.2821768415889
 20
21.31370844643937
 30
0.0
 11
599.2821768415889
 21
73.63961016643937
 31
0.0
  0
TEXT
  5
797
330
1A
100
AcDbEntity
  8
WAKU
100
AcDbText
 10
556.8557700415889
 20
67.98275592643938
 30
0.0
 40
4.24264068
  1
記号
100
AcDbText
  0
TEXT
  5
798
330
1A
100
AcDbEntity
  8
WAKU
100
AcDbText
 10
568.8765853015889
 20
67.98275592643938
 30
0.0
 40
4.24264068
  1
年月日
100
AcDbText
  0
TEXT
  5
799
330
1A
100
AcDbEntity
  8
WAKU
100
AcDbText
 10
587.9684683615888
 20
67.98275592643938
 30
0.0
 40
4.24264068
  1
担当
100
AcDbText
  0
TEXT
  5
79A
330
1A
100
AcDbEntity
  8
WAKU
100
AcDbText
 10
609.8887785415889
 20
67.98275592643938
 30
0.0
 40
4.24264068
  1
改連No.
100
AcDbText
  0
TEXT
  5
7CC
330
1A
100
AcDbEntity
  8
WAKU
100
AcDbText
 10
556.8557700415889
 20
22.02081522643937
 30
0.0
 40
4.24264068
  1
設置
100
AcDbText
  0
TEXT
  5
7CD
330
1A
100
AcDbEntity
  8
WAKU
100
AcDbText
 10
642.4156904215889
 20
53.13351354643938
 30
0.0
 40
4.24264068
  1
尺　度
100
AcDbText
  0
LINE
  5
7CE
330
1A
100
AcDbEntity
  8
WAKU
100
AcDbLine
 10
658.6791463615888
 20
70.81118304643938
 30
0.0
 11
643.1227972015889
 21
62.32590168643938
 31
0.0
  0
TEXT
  5
7CF
330
1A
100
AcDbEntity
  8
WAKU
100
AcDbText
 10
727.2685040215889
 20
17.77817454643937
 30
0.0
 40
4.24264068
  1
図
100
AcDbText
  0
TEXT
  5
7D0
330
1A
100
AcDbEntity
  8
WAKU
100
AcDbText
 10
727.2685040215889
 20
11.41421352643937
 30
0.0
 40
4.24264068
  1
番
100
AcDbText
  0
TEXT
  5
7D1
330
1A
100
AcDbEntity
  8
WAKU
100
AcDbText
 10
599.9892836215889
 20
11.41421352643937
 30
0.0
 40
8.48528136
  1
東洋測器株式会社
100
AcDbText
  0
TEXT
  5
8C1
330
1A
100
AcDbEntity
  8
0
100
AcDbText
 10
651.608078561589
 20
61.61879490643937
 30
0.0
 40
4.24264068
  1
2
100
AcDbText
  0
TEXT
  5
8C4
330
1A
100
AcDbEntity
  8
0
100
AcDbText
 10
682.0
 20
63.0
 30
0.0
 40
5.65685424
  1
外形図
100
AcDbText
  0
TEXT
  5
8C5
330
1A
100
AcDbEntity
  8
0
100
AcDbText
 10
749.2442701721454
 20
65.86143558643937
 30
0.0
 40
5.65685424
  1
大型表示器(ED-3020)
 41
0.7
100
AcDbText
  0
TEXT
  5
8C6
330
1A
100
AcDbEntity
  8
0
100
AcDbText
 10
643.8299039815889
 20
65.86143558643937
 30
0.0
 40
4.24264068
  1
1
100
AcDbText
  0
TEXT
  5
222A
330
1A
100
AcDbEntity
  8
0
100
AcDbText
 10
743.5319599615889
 20
13.53553386643937
 30
0.0
 40
4.24264068
  1
EA3-00062
100
AcDbText
  0
TEXT
  5
222B
330
1A
100
AcDbEntity
  8
WAKU
100
AcDbText
 10
641.34584946
 20
22.72792200643937
 30
0.0
 40
2.82842712
  1
05.05.18
100
AcDbText
  0
TEXT
  5
2240
330
1A
100
AcDbEntity
  8
WAKU
100
AcDbText
 10
644.5370107615889
 20
29.79898980643937
 30
0.0
 40
5.65685424
  1
大野
100
AcDbText
  0
TEXT
  5
6A21
330
1A
100
AcDbEntity
  8
WAKU
100
AcDbText
 10
568.51385112
 20
22.72792200643937
 30
0.0
 40
2.82842712
  1
05.05.18
 41
0.8
100
AcDbText
  0
TEXT
  5
6A22
330
1A
100
AcDbEntity
  8
WAKU
100
AcDbText
 10
588.31284096
 20
22.62741696
 30
0.0
 40
4.24264068
  1
大野
100
AcDbText
  0
LWPOLYLINE
  5
B19E
330
1A
100
AcDbEntity
  8
0
100
AcDbPolyline
 90
        3
 70
     1
 43
0.0
 10
561.0984107215889
 20
38.28427116643938
 10
558.0365485482478
 20
32.98097031643937
 10
564.16027289493
 20
32.98097031643937
  0
TEXT
  5
B19F
330
1A
100
AcDbEntity
  8
WAKU
100
AcDbText
 10
559.6841971615889
 20
27.67766946643937
 30
0.0
 40
2.82842712
  1
1
100
AcDbText
  0
LWPOLYLINE
  5
B1A0
330
1A
100
AcDbEntity
  8
0
100
AcDbPolyline
 90
        3
 70
     1
 43
0.0
 10
561.0984107215889
 20
32.62741692643937
 10
558.0365485482478
 20
27.32411607643937
 10
564.16027289493
 20
27.32411607643937
  0
TEXT
  5
B1A1
330
1A
100
AcDbEntity
  8
WAKU
100
AcDbText
 10
559.6841971615889
 20
50.30508642643937
 30
0.0
 40
2.82842712
  1
5
100
AcDbText
  0
LWPOLYLINE
  5
B1A2
330
1A
100
AcDbEntity
  8
0
100
AcDbPolyline
 90
        3
 70
     1
 43
0.0
 10
561.0984107215889
 20
55.25483388643937
 10
558.0365485482478
 20
49.95153303643937
 10
564.16027289493
 20
49.95153303643937
  0
TEXT
  5
B1A3
330
1A
100
AcDbEntity
  8
WAKU
100
AcDbText
 10
559.6841971615889
 20
44.64823218643937
 30
0.0
 40
2.82842712
  1
4
100
AcDbText
  0
TEXT
  5
B1A4
330
1A
100
AcDbEntity
  8
WAKU
100
AcDbText
 10
559.6841971615889
 20
33.33452370643937
 30
0.0
 40
2.82842712
  1
2
100
AcDbText
  0
TEXT
  5
B1A5
330
1A
100
AcDbEntity
  8
WAKU
100
AcDbText
 10
559.6841971615889
 20
38.99137794643937
 30
0.0
 40
2.82842712
  1
3
100
AcDbText
  0
LWPOLYLINE
  5
B1A6
330
1A
100
AcDbEntity
  8
0
100
AcDbPolyline
 90
        3
 70
     1
 43
0.0
 10
561.0984107215889
 20
43.94112540643937
 10
558.0365485482478
 20
38.63782455643937
 10
564.16027289493
 20
38.63782455643937
  0
LWPOLYLINE
  5
B1A7
330
1A
100
AcDbEntity
  8
0
100
AcDbPolyline
 90
        3
 70
     1
 43
0.0
 10
561.0984107215889
 20
49.59797964643937
 10
558.0365485482478
 20
44.29467879643937
 10
564.16027289493
 20
44.29467879643937
  0
TEXT
  5
B1A8
330
1A
100
AcDbEntity
  8
WAKU
100
AcDbText
 10
559.6841971615889
 20
61.61879490643937
 30
0.0
 40
2.82842712
  1
7
100
AcDbText
  0
TEXT
  5
B1A9
330
1A
100
AcDbEntity
  8
WAKU
100
AcDbText
 10
559.6841971615889
 20
55.96194066643938
 30
0.0
 40
2.82842712
  1
6
100
AcDbText
  0
LWPOLYLINE
  5
B1AA
330
1A
100
AcDbEntity
  8
0
100
AcDbPolyline
 90
        3
 70
     1
 43
0.0
 10
561.0984107215889
 20
60.91168812643937
 10
558.0365485482478
 20
55.60838727643937
 10
564.16027289493
 20
55.60838727643937
  0
LWPOLYLINE
  5
B1AB
330
1A
100
AcDbEntity
  8
0
100
AcDbPolyline
 90
        3
 70
     1
 43
0.0
 10
561.0984107215889
 20
66.56854236643937
 10
558.0365485482478
 20
61.26524151643938
 10
564.16027289493
 20
61.26524151643938
  0
LWPOLYLINE
  5
B1AC
330
1A
100
AcDbEntity
  8
0
100
AcDbPolyline
 90
        3
 70
     1
 43
0.0
 10
800.1009254853807
 20
22.37440503499423
 10
793.9772011386986
 20
11.76780333499423
 10
806.2246498320629
 20
11.76780333499423
  0
INSERT
  5
BE45
330
1A
100
AcDbEntity
  8
0
100
AcDbBlockReference
  2
M8WS-1
 10
425.0
 20
209.4
 30
0.0
  0
LWPOLYLINE
  5
CA57
330
1A
100
AcDbEntity
  8
SUNPOU
100
AcDbPolyline
 90
        5
 70
     0
 43
0.0
 10
219.9999999999999
 20
93.00000000000009
 10
224.6602540378443
 20
93.00000000000009
 10
216.0
 20
78.0000000000001
 10
207.3397459621555
 20
93.00000000000009
 10
212.0
 20
93.00000000000009
  0
LINE
  5
CA58
330
1A
100
AcDbEntity
  8
SUNPOU
100
AcDbLine
 10
212.0
 20
102.5
 30
0.0
 11
219.9999999999999
 21
102.5
 31
0.0
  0
LINE
  5
CA5B
330
1A
100
AcDbEntity
  8
SUNPOU
100
AcDbLine
 10
211.9999999999999
 20
93.00000000000009
 30
0.0
 11
211.9999999999999
 21
102.5
 31
0.0
  0
LINE
  5
CA5C
330
1A
100
AcDbEntity
  8
SUNPOU
100
AcDbLine
 10
219.9999999999999
 20
93.00000000000009
 30
0.0
 11
219.9999999999999
 21
102.5
 31
0.0
  0
INSERT
  5
D3F6
330
1A
100
AcDbEntity
  8
0
100
AcDbBlockReference
  2
M8WS-1
 10
1311.000000103438
 20
204.3999997425028
 30
0.0
  0
MTEXT
  5
D491
330
1A
100
AcDbEntity
  8
WAKU
100
AcDbMText
 10
1157.000000103439
 20
76.99999974250272
 30
0.0
 40
3.0
 41
74.0
 71
     1
 72
     5
  1

 73
     1
 44
1.0
1001
ACAD
1000
MTEXTBEGIN
1070
    73
1070
     1
1070
    44
1040
1.0
1070
    74
1070
     0
1000
MTEXTEND
  0
MTEXT
  5
D492
330
1A
100
AcDbEntity
  8
WAKU
100
AcDbMText
 10
1216.000000103439
 20
79.99999974250272
 30
0.0
 40
3.0
 41
12.0
 71
     1
 72
     5
  1

 73
     1
 44
1.0
1001
ACAD
1000
MTEXTBEGIN
1070
    73
1070
     1
1070
    44
1040
1.0
1070
    74
1070
     0
1000
MTEXTEND
  0
MTEXT
  5
D497
330
1A
100
AcDbEntity
  8
WAKU
100
AcDbMText
 10
1213.000000103439
 20
76.99999974250272
 30
0.0
 40
3.0
 41
37.0
 71
     1
 72
     5
  1

 73
     1
 44
1.0
1001
ACAD
1000
MTEXTBEGIN
1070
    73
1070
     1
1070
    44
1040
1.0
1070
    74
1070
     0
1000
MTEXTEND
  0
MTEXT
  5
D499
330
1A
100
AcDbEntity
  8
WAKU
100
AcDbMText
 10
1231.000000103439
 20
43.99999974250272
 30
0.0
 40
4.0
 41
14.0
 71
     1
 72
     5
  1

 73
     1
 44
1.0
1001
ACAD
1000
MTEXTBEGIN
1070
    73
1070
     1
1070
    44
1040
1.0
1070
    74
1070
     0
1000
MTEXTEND
  0
MTEXT
  5
D49A
330
1A
100
AcDbEntity
  8
WAKU
100
AcDbMText
 10
1231.000000103439
 20
37.99999974250273
 30
0.0
 40
4.0
 41
15.0
 71
     1
 72
     5
  1

 73
     1
 44
1.0
1001
ACAD
1000
MTEXTBEGIN
1070
    73
1070
     1
1070
    44
1040
1.0
1070
    74
1070
     0
1000
MTEXTEND
  0
LINE
  5
D58B
330
1A
100
AcDbEntity
  8
0
100
AcDbLine
 10
120.9999999999999
 20
27.00000000000009
 30
0.0
 11
120.9999999999999
 21
72.00000000000009
 31
0.0
  0
CIRCLE
  5
D58C
330
1A
100
AcDbEntity
  8
SUNPOU
100
AcDbCircle
 10
125.9999999999999
 20
36.00000000000008
 30
0.0
 40
1.5
  0
LINE
  5
D58D
330
1A
100
AcDbEntity
  8
KAGESEN
100
AcDbLine
 10
118.9999999999999
 20
26.00000000000008
 30
0.0
 11
118.9999999999999
 21
73.00000000000011
 31
0.0
  0
LINE
  5
D58E
330
1A
100
AcDbEntity
  8
0
100
AcDbLine
 10
130.9999999999999
 20
32.00000000000012
 30
0.0
 11
130.9999999999999
 21
67.00000000000009
 31
0.0
  0
LINE
  5
D58F
330
1A
100
AcDbEntity
  8
KAGESEN
100
AcDbLine
 10
311.0
 20
27.00000000000006
 30
0.0
 11
311.0
 21
72.00000000000009
 31
0.0
  0
CIRCLE
  5
D590
330
1A
100
AcDbEntity
  8
SUNPOU
100
AcDbCircle
 10
236.0
 20
36.00000000000008
 30
0.0
 40
1.5
  0
CIRCLE
  5
D591
330
1A
100
AcDbEntity
  8
SUNPOU
100
AcDbCircle
 10
306.0
 20
36.0
 30
0.0
 40
1.5
  0
LINE
  5
D592
330
1A
100
AcDbEntity
  8
0
100
AcDbLine
 10
231.0
 20
32.00000000000006
 30
0.0
 11
231.0
 21
40.00000000000006
 31
0.0
  0
LINE
  5
D593
330
1A
100
AcDbEntity
  8
0
100
AcDbLine
 10
241.0
 20
32.00000000000006
 30
0.0
 11
241.0
 21
40.00000000000006
 31
0.0
  0
LINE
  5
D594
330
1A
100
AcDbEntity
  8
KAGESEN
100
AcDbLine
 10
313.0
 20
26.00000000000012
 30
0.0
 11
313.0
 21
73.00000000000008
 31
0.0
  0
LINE
  5
D595
330
1A
100
AcDbEntity
  8
0
100
AcDbLine
 10
301.0
 20
32.00000000000012
 30
0.0
 11
301.0
 21
67.00000000000009
 31
0.0
  0
TEXT
  5
D597
330
1A
100
AcDbEntity
  8
SUNPOU
100
AcDbText
 10
194.9299999999998
 20
35.39047619047612
 30
0.0
 40
5.0
  1
SHL
 50
90.0
 72
     2
 11
192.4299999999998
 21
49.19999999999993
 31
0.0
100
AcDbText
 73
     2
  0
TEXT
  5
D598
330
1A
100
AcDbEntity
  8
SUNPOU
100
AcDbText
 10
264.9299999999998
 20
35.15238095238088
 30
0.0
 40
5.0
  1
OUT
 50
90.0
 72
     2
 11
262.4299999999998
 21
49.19999999999993
 31
0.0
100
AcDbText
 73
     2
  0
TEXT
  5
D599
330
1A
100
AcDbEntity
  8
SUNPOU
100
AcDbText
 10
257.31
 20
35.15238095238088
 30
0.0
 40
5.0
  1
OUT
 50
90.0
 72
     2
 11
254.8099999999999
 21
49.19999999999993
 31
0.0
100
AcDbText
 73
     2
  0
LINE
  5
D59D
330
1A
100
AcDbEntity
  8
0
100
AcDbLine
 10
120.9999999999999
 20
27.00000000000009
 30
0.0
 11
311.0
 21
27.00000000000006
 31
0.0
  0
LINE
  5
D59E
330
1A
100
AcDbEntity
  8
KAGESEN
100
AcDbLine
 10
120.9999999999999
 20
24.00000000000009
 30
0.0
 11
311.0
 21
24.00000000000011
 31
0.0
  0
LINE
  5
D59F
330
1A
100
AcDbEntity
  8
0
100
AcDbLine
 10
130.9999999999999
 20
32.00000000000012
 30
0.0
 11
231.0
 21
32.00000000000006
 31
0.0
  0
LINE
  5
D5A0
330
1A
100
AcDbEntity
  8
KAGESEN
100
AcDbLine
 10
118.9999999999999
 20
26.00000000000008
 30
0.0
 11
120.9999999999999
 21
24.00000000000009
 31
0.0
  0
CIRCLE
  5
D5A1
330
1A
100
AcDbEntity
  8
SUNPOU
100
AcDbCircle
 10
125.9999999999999
 20
36.00000000000008
 30
0.0
 40
1.0
  0
LINE
  5
D5A2
330
1A
100
AcDbEntity
  8
0
100
AcDbLine
 10
241.0
 20
32.00000000000006
 30
0.0
 11
301.0
 21
32.00000000000012
 31
0.0
  0
CIRCLE
  5
D5A3
330
1A
100
AcDbEntity
  8
SUNPOU
100
AcDbCircle
 10
236.0
 20
36.00000000000008
 30
0.0
 40
1.0
  0
CIRCLE
  5
D5A4
330
1A
100
AcDbEntity
  8
SUNPOU
100
AcDbCircle
 10
306.0
 20
36.0
 30
0.0
 40
1.0
  0
LINE
  5
D5A5
330
1A
100
AcDbEntity
  8
KAGESEN
100
AcDbLine
 10
311.0
 20
24.00000000000011
 30
0.0
 11
313.0
 21
26.00000000000012
 31
0.0
  0
LINE
  5
D5A6
330
1A
100
AcDbEntity
  8
0
100
AcDbLine
 10
120.9999999999999
 20
72.00000000000009
 30
0.0
 11
311.0
 21
72.00000000000009
 31
0.0
  0
LINE
  5
D5AA
330
1A
100
AcDbEntity
  8
KAGESEN
100
AcDbLine
 10
120.9999999999999
 20
75.00000000000011
 30
0.0
 11
311.0
 21
75.00000000000008
 31
0.0
  0
LINE
  5
D5AB
330
1A
100
AcDbEntity
  8
0
100
AcDbLine
 10
130.9999999999999
 20
67.00000000000009
 30
0.0
 11
231.0
 21
67.00000000000009
 31
0.0
  0
INSERT
  5
D5AC
330
1A
100
AcDbEntity
  8
0
100
AcDbBlockReference
  2
F2060B-4P
 10
181.0
 20
56.19999999999993
 30
0.0
  0
CIRCLE
  5
D5B0
330
1A
100
AcDbEntity
  8
SUNPOU
100
AcDbCircle
 10
125.9999999999999
 20
63.00000000000008
 30
0.0
 40
1.5
  0
LINE
  5
D5B1
330
1A
100
AcDbEntity
  8
KAGESEN
100
AcDbLine
 10
118.9999999999999
 20
73.00000000000011
 30
0.0
 11
120.9999999999999
 21
75.00000000000011
 31
0.0
  0
CIRCLE
  5
D5B3
330
1A
100
AcDbEntity
  8
SUNPOU
100
AcDbCircle
 10
125.9999999999999
 20
63.00000000000008
 30
0.0
 40
1.0
  0
TEXT
  5
D5B6
330
1A
100
AcDbEntity
  8
SUNPOU
100
AcDbText
 10
172.0699999999999
 20
40.62857142857136
 30
0.0
 40
5.0
  1
AC
 50
90.0
 72
     2
 11
169.5699999999999
 21
49.19999999999993
 31
0.0
100
AcDbText
 73
     2
  0
TEXT
  5
D5B7
330
1A
100
AcDbEntity
  8
SUNPOU
100
AcDbText
 10
187.3099999999999
 20
45.15238095238088
 30
0.0
 40
5.0
  1
E
 50
90.0
 72
     2
 11
184.8099999999999
 21
49.19999999999993
 31
0.0
100
AcDbText
 73
     2
  0
TEXT
  5
D5B8
330
1A
100
AcDbEntity
  8
SUNPOU
100
AcDbText
 10
179.69
 20
40.62857142857136
 30
0.0
 40
5.0
  1
AC
 50
90.0
 72
     2
 11
177.19
 21
49.19999999999993
 31
0.0
100
AcDbText
 73
     2
  0
LINE
  5
D5B9
330
1A
100
AcDbEntity
  8
0
100
AcDbLine
 10
241.0
 20
67.00000000000009
 30
0.0
 11
301.0
 21
67.00000000000009
 31
0.0
  0
LINE
  5
D5C1
330
1A
100
AcDbEntity
  8
0
100
AcDbLine
 10
231.0
 20
59.00000000000011
 30
0.0
 11
231.0
 21
67.00000000000009
 31
0.0
  0
LINE
  5
D5C2
330
1A
100
AcDbEntity
  8
0
100
AcDbLine
 10
241.0
 20
59.00000000000011
 30
0.0
 11
241.0
 21
67.00000000000009
 31
0.0
  0
LINE
  5
D5C4
330
1A
100
AcDbEntity
  8
0
100
AcDbLine
 10
241.0
 20
40.00000000000006
 30
0.0
 11
231.0
 21
40.00000000000006
 31
0.0
  0
TEXT
  5
D5C5
330
1A
100
AcDbEntity
  8
SUNPOU
100
AcDbText
 10
242.07
 20
43.00952380952374
 30
0.0
 40
5.0
  1
IN
 50
90.0
 72
     2
 11
239.5699999999999
 21
49.19999999999993
 31
0.0
100
AcDbText
 73
     2
  0
LINE
  5
D5C6
330
1A
100
AcDbEntity
  8
0
100
AcDbLine
 10
241.0
 20
59.00000000000009
 30
0.0
 11
231.0
 21
59.00000000000023
 31
0.0
  0
TEXT
  5
D5C7
330
1A
100
AcDbEntity
  8
SUNPOU
100
AcDbText
 10
249.6900000000001
 20
43.00952380952374
 30
0.0
 40
5.0
  1
IN
 50
90.0
 72
     2
 11
247.1900000000001
 21
49.19999999999993
 31
0.0
100
AcDbText
 73
     2
  0
CIRCLE
  5
D5C8
330
1A
100
AcDbEntity
  8
SUNPOU
100
AcDbCircle
 10
236.0
 20
63.00000000000008
 30
0.0
 40
1.0
  0
CIRCLE
  5
D5C9
330
1A
100
AcDbEntity
  8
SUNPOU
100
AcDbCircle
 10
236.0
 20
63.00000000000008
 30
0.0
 40
1.5
  0
INSERT
  5
D5CA
330
1A
100
AcDbEntity
  8
SUNPOU
100
AcDbBlockReference
  2
A$C46F07F73
 10
288.5100000885129
 20
60.77704674360382
 30
0.0
 50
270.0
  0
LINE
  5
D5CB
330
1A
100
AcDbEntity
  8
0
100
AcDbLine
 10
276.5499999999997
 20
49.70000000000005
 30
0.0
 11
301.0
 21
49.70000000000005
 31
0.0
  0
LINE
  5
D5CC
330
1A
100
AcDbEntity
  8
0
100
AcDbLine
 10
276.5499999999997
 20
60.70000000000004
 30
0.0
 11
301.0
 21
60.70000000000004
 31
0.0
  0
LINE
  5
D5CF
330
1A
100
AcDbEntity
  8
0
100
AcDbLine
 10
276.5499999999997
 20
49.70000000000005
 30
0.0
 11
276.5499999999997
 21
60.70000000000004
 31
0.0
  0
INSERT
  5
D5D0
330
1A
100
AcDbEntity
  8
SUNPOU
100
AcDbBlockReference
  2
A$C1A9113A3
 10
276.8799997399822
 20
60.19999985411534
 30
0.0
 50
270.0
  0
LINE
  5
D5D1
330
1A
100
AcDbEntity
  8
0
100
AcDbLine
 10
311.0
 20
60.20000000000004
 30
0.0
 11
311.0
 21
61.80000000000001
 31
0.0
  0
CIRCLE
  5
D5D4
330
1A
100
AcDbEntity
  8
SUNPOU
100
AcDbCircle
 10
306.0
 20
63.00000000000017
 30
0.0
 40
1.0
  0
CIRCLE
  5
D5D5
330
1A
100
AcDbEntity
  8
SUNPOU
100
AcDbCircle
 10
306.0
 20
63.00000000000017
 30
0.0
 40
1.5
  0
LINE
  5
D5D6
330
1A
100
AcDbEntity
  8
KAGESEN
100
AcDbLine
 10
313.0
 20
73.00000000000008
 30
0.0
 11
311.0
 21
75.00000000000008
 31
0.0
  0
LINE
  5
D824
330
1A
100
AcDbEntity
  8
0
100
AcDbLine
 10
228.75
 20
50.20000000000003
 30
0.0
 11
273.25
 21
50.20000000000003
 31
0.0
  0
LINE
  5
D825
330
1A
100
AcDbEntity
  8
0
100
AcDbLine
 10
228.75
 20
62.20000000000003
 30
0.0
 11
231.0
 21
62.20000000000003
 31
0.0
  0
LINE
  5
D826
330
1A
100
AcDbEntity
  8
0
100
AcDbLine
 10
243.99
 20
60.80000000000005
 30
0.0
 11
250.3899999999999
 21
60.80000000000005
 31
0.0
  0
LINE
  5
D827
330
1A
100
AcDbEntity
  8
0
100
AcDbLine
 10
245.69
 20
59.99999999999999
 30
0.0
 11
248.69
 21
59.99999999999999
 31
0.0
  0
LINE
  5
D828
330
1A
100
AcDbEntity
  8
0
100
AcDbLine
 10
243.99
 20
59.20000000000003
 30
0.0
 11
250.39
 21
59.20000000000003
 31
0.0
  0
LINE
  5
D829
330
1A
100
AcDbEntity
  8
0
100
AcDbLine
 10
243.99
 20
53.20000000000003
 30
0.0
 11
250.3900000000001
 21
53.20000000000003
 31
0.0
  0
LINE
  5
D82A
330
1A
100
AcDbEntity
  8
0
100
AcDbLine
 10
243.99
 20
51.60000000000001
 30
0.0
 11
250.3900000000001
 21
51.60000000000001
 31
0.0
  0
LINE
  5
D82B
330
1A
100
AcDbEntity
  8
0
100
AcDbLine
 10
245.69
 20
52.40000000000008
 30
0.0
 11
248.69
 21
52.40000000000008
 31
0.0
  0
LINE
  5
D82C
330
1A
100
AcDbEntity
  8
SUNPOU
100
AcDbLine
 10
248.69
 20
54.70000000000003
 30
0.0
 11
245.69
 21
57.70000000000003
 31
0.0
  0
LINE
  5
D82D
330
1A
100
AcDbEntity
  8
SUNPOU
100
AcDbLine
 10
245.69
 20
54.70000000000003
 30
0.0
 11
248.69
 21
57.70000000000003
 31
0.0
  0
CIRCLE
  5
D82E
330
1A
100
AcDbEntity
  8
0
100
AcDbCircle
 10
247.19
 20
56.19999999999992
 30
0.0
 40
2.75
  0
LINE
  5
D82F
330
1A
100
AcDbEntity
  8
0
100
AcDbLine
 10
228.75
 20
50.20000000000003
 30
0.0
 11
228.75
 21
62.20000000000003
 31
0.0
  0
LINE
  5
D830
330
1A
100
AcDbEntity
  8
0
100
AcDbLine
 10
243.9900000000001
 20
62.20000000000003
 30
0.0
 11
243.99
 21
50.20000000000003
 31
0.0
  0
LINE
  5
D831
330
1A
100
AcDbEntity
  8
0
100
AcDbLine
 10
242.7699999999999
 20
62.20000000000003
 30
0.0
 11
242.77
 21
50.20000000000003
 31
0.0
  0
LINE
  5
D832
330
1A
100
AcDbEntity
  8
0
100
AcDbLine
 10
236.3700000000001
 20
59.00000000000016
 30
0.0
 11
236.37
 21
50.20000000000003
 31
0.0
  0
LINE
  5
D833
330
1A
100
AcDbEntity
  8
0
100
AcDbLine
 10
235.15
 20
59.00000000000017
 30
0.0
 11
235.15
 21
50.20000000000003
 31
0.0
  0
CIRCLE
  5
D834
330
1A
100
AcDbEntity
  8
0
100
AcDbCircle
 10
231.95
 20
56.19999999999992
 30
0.0
 40
1.25
  0
LINE
  5
D835
330
1A
100
AcDbEntity
  8
0
100
AcDbLine
 10
230.4499999999999
 20
59.99999999999999
 30
0.0
 11
231.0
 21
59.99999999999999
 31
0.0
  0
LINE
  5
D836
330
1A
100
AcDbEntity
  8
0
100
AcDbLine
 10
230.4499999999999
 20
52.40000000000008
 30
0.0
 11
233.45
 21
52.40000000000008
 31
0.0
  0
LINE
  5
D837
330
1A
100
AcDbEntity
  8
0
100
AcDbLine
 10
228.75
 20
51.60000000000001
 30
0.0
 11
235.1500000000001
 21
51.60000000000001
 31
0.0
  0
LINE
  5
D838
330
1A
100
AcDbEntity
  8
0
100
AcDbLine
 10
228.75
 20
53.20000000000003
 30
0.0
 11
235.1500000000001
 21
53.20000000000003
 31
0.0
  0
LINE
  5
D839
330
1A
100
AcDbEntity
  8
0
100
AcDbLine
 10
228.75
 20
59.20000000000003
 30
0.0
 11
231.0
 21
59.20000000000003
 31
0.0
  0
LINE
  5
D83A
330
1A
100
AcDbEntity
  8
0
100
AcDbLine
 10
228.75
 20
60.80000000000005
 30
0.0
 11
231.0
 21
60.80000000000005
 31
0.0
  0
LINE
  5
D83B
330
1A
100
AcDbEntity
  8
0
100
AcDbLine
 10
230.45
 20
59.99999999999999
 30
0.0
 11
230.45
 21
59.20000000000003
 31
0.0
  0
LINE
  5
D83C
330
1A
100
AcDbEntity
  8
0
100
AcDbLine
 10
230.45
 20
53.20000000000003
 30
0.0
 11
230.45
 21
52.40000000000008
 31
0.0
  0
LINE
  5
D83D
330
1A
100
AcDbEntity
  8
0
100
AcDbLine
 10
241.0
 20
59.99999999999999
 30
0.0
 11
241.07
 21
59.99999999999999
 31
0.0
  0
LINE
  5
D83E
330
1A
100
AcDbEntity
  8
0
100
AcDbLine
 10
241.0
 20
60.80000000000005
 30
0.0
 11
242.7699999999999
 21
60.80000000000005
 31
0.0
  0
LINE
  5
D83F
330
1A
100
AcDbEntity
  8
0
100
AcDbLine
 10
241.0
 20
59.20000000000003
 30
0.0
 11
242.7699999999999
 21
59.20000000000003
 31
0.0
  0
LINE
  5
D840
330
1A
100
AcDbEntity
  8
0
100
AcDbLine
 10
238.07
 20
52.40000000000008
 30
0.0
 11
241.07
 21
52.40000000000008
 31
0.0
  0
LINE
  5
D841
330
1A
100
AcDbEntity
  8
0
100
AcDbLine
 10
236.37
 20
53.20000000000003
 30
0.0
 11
242.7700000000001
 21
53.20000000000003
 31
0.0
  0
LINE
  5
D842
330
1A
100
AcDbEntity
  8
0
100
AcDbLine
 10
236.37
 20
51.60000000000001
 30
0.0
 11
242.7700000000001
 21
51.60000000000001
 31
0.0
  0
LINE
  5
D843
330
1A
100
AcDbEntity
  8
SUNPOU
100
AcDbLine
 10
241.07
 20
54.70000000000003
 30
0.0
 11
238.07
 21
57.70000000000003
 31
0.0
  0
LINE
  5
D844
330
1A
100
AcDbEntity
  8
SUNPOU
100
AcDbLine
 10
238.07
 20
54.70000000000003
 30
0.0
 11
241.07
 21
57.70000000000003
 31
0.0
  0
CIRCLE
  5
D845
330
1A
100
AcDbEntity
  8
0
100
AcDbCircle
 10
239.57
 20
56.19999999999992
 30
0.0
 40
2.75
  0
LINE
  5
D848
330
1A
100
AcDbEntity
  8
0
100
AcDbLine
 10
238.07
 20
53.20000000000003
 30
0.0
 11
238.07
 21
52.40000000000008
 31
0.0
  0
LINE
  5
D849
330
1A
100
AcDbEntity
  8
0
100
AcDbLine
 10
233.45
 20
53.20000000000003
 30
0.0
 11
233.45
 21
52.40000000000008
 31
0.0
  0
LINE
  5
D84A
330
1A
100
AcDbEntity
  8
0
100
AcDbLine
 10
245.69
 20
59.99999999999999
 30
0.0
 11
245.69
 21
59.20000000000003
 31
0.0
  0
LINE
  5
D84B
330
1A
100
AcDbEntity
  8
0
100
AcDbLine
 10
241.07
 20
59.99999999999999
 30
0.0
 11
241.07
 21
59.20000000000003
 31
0.0
  0
LINE
  5
D84C
330
1A
100
AcDbEntity
  8
0
100
AcDbLine
 10
245.69
 20
53.20000000000003
 30
0.0
 11
245.69
 21
52.40000000000008
 31
0.0
  0
LINE
  5
D84D
330
1A
100
AcDbEntity
  8
0
100
AcDbLine
 10
241.07
 20
53.20000000000003
 30
0.0
 11
241.07
 21
52.40000000000008
 31
0.0
  0
LINE
  5
D84E
330
1A
100
AcDbEntity
  8
0
100
AcDbLine
 10
273.25
 20
50.20000000000003
 30
0.0
 11
273.25
 21
62.20000000000003
 31
0.0
  0
LINE
  5
D84F
330
1A
100
AcDbEntity
  8
0
100
AcDbLine
 10
258.0099999999999
 20
62.20000000000003
 30
0.0
 11
258.01
 21
50.20000000000003
 31
0.0
  0
LINE
  5
D850
330
1A
100
AcDbEntity
  8
0
100
AcDbLine
 10
265.6299999999999
 20
62.20000000000003
 30
0.0
 11
265.63
 21
50.20000000000003
 31
0.0
  0
LINE
  5
D851
330
1A
100
AcDbEntity
  8
0
100
AcDbLine
 10
266.8500000000001
 20
62.20000000000003
 30
0.0
 11
266.85
 21
50.20000000000003
 31
0.0
  0
LINE
  5
D852
330
1A
100
AcDbEntity
  8
0
100
AcDbLine
 10
259.2300000000001
 20
62.20000000000003
 30
0.0
 11
259.23
 21
50.20000000000003
 31
0.0
  0
LINE
  5
D853
330
1A
100
AcDbEntity
  8
0
100
AcDbLine
 10
251.6100000000001
 20
62.20000000000003
 30
0.0
 11
251.61
 21
50.20000000000003
 31
0.0
  0
LINE
  5
D854
330
1A
100
AcDbEntity
  8
0
100
AcDbLine
 10
250.3899999999999
 20
62.20000000000003
 30
0.0
 11
250.39
 21
50.20000000000003
 31
0.0
  0
CIRCLE
  5
D855
330
1A
100
AcDbEntity
  8
0
100
AcDbCircle
 10
262.43
 20
56.19999999999992
 30
0.0
 40
2.75
  0
LINE
  5
D856
330
1A
100
AcDbEntity
  8
0
100
AcDbLine
 10
259.23
 20
51.60000000000001
 30
0.0
 11
265.6300000000001
 21
51.60000000000001
 31
0.0
  0
LINE
  5
D857
330
1A
100
AcDbEntity
  8
0
100
AcDbLine
 10
259.23
 20
53.20000000000003
 30
0.0
 11
265.6300000000001
 21
53.20000000000003
 31
0.0
  0
LINE
  5
D858
330
1A
100
AcDbEntity
  8
0
100
AcDbLine
 10
259.23
 20
59.20000000000003
 30
0.0
 11
265.63
 21
59.20000000000003
 31
0.0
  0
LINE
  5
D859
330
1A
100
AcDbEntity
  8
0
100
AcDbLine
 10
259.23
 20
60.80000000000005
 30
0.0
 11
265.6299999999999
 21
60.80000000000005
 31
0.0
  0
LINE
  5
D85A
330
1A
100
AcDbEntity
  8
0
100
AcDbLine
 10
251.61
 20
60.80000000000005
 30
0.0
 11
258.0099999999999
 21
60.80000000000005
 31
0.0
  0
LINE
  5
D85B
330
1A
100
AcDbEntity
  8
0
100
AcDbLine
 10
251.61
 20
59.20000000000003
 30
0.0
 11
258.0099999999999
 21
59.20000000000003
 31
0.0
  0
LINE
  5
D85C
330
1A
100
AcDbEntity
  8
0
100
AcDbLine
 10
253.31
 20
59.99999999999999
 30
0.0
 11
256.3099999999999
 21
59.99999999999999
 31
0.0
  0
LINE
  5
D85D
330
1A
100
AcDbEntity
  8
0
100
AcDbLine
 10
251.61
 20
51.60000000000001
 30
0.0
 11
258.01
 21
51.60000000000001
 31
0.0
  0
LINE
  5
D85E
330
1A
100
AcDbEntity
  8
0
100
AcDbLine
 10
251.61
 20
53.20000000000003
 30
0.0
 11
258.01
 21
53.20000000000003
 31
0.0
  0
LINE
  5
D85F
330
1A
100
AcDbEntity
  8
0
100
AcDbLine
 10
253.31
 20
52.40000000000008
 30
0.0
 11
256.3099999999999
 21
52.40000000000008
 31
0.0
  0
LINE
  5
D860
330
1A
100
AcDbEntity
  8
SUNPOU
100
AcDbLine
 10
253.31
 20
54.70000000000003
 30
0.0
 11
256.3099999999999
 21
57.70000000000003
 31
0.0
  0
LINE
  5
D861
330
1A
100
AcDbEntity
  8
SUNPOU
100
AcDbLine
 10
256.3099999999999
 20
54.70000000000003
 30
0.0
 11
253.31
 21
57.70000000000003
 31
0.0
  0
CIRCLE
  5
D862
330
1A
100
AcDbEntity
  8
0
100
AcDbCircle
 10
254.81
 20
56.19999999999992
 30
0.0
 40
2.75
  0
LINE
  5
D863
330
1A
100
AcDbEntity
  8
SUNPOU
100
AcDbLine
 10
251.0
 20
55.19999999999997
 30
0.0
 11
251.0
 21
57.19999999999997
 31
0.0
  0
LINE
  5
D864
330
1A
100
AcDbEntity
  8
SUNPOU
100
AcDbLine
 10
250.39
 20
56.19999999999992
 30
0.0
 11
251.6100000000001
 21
56.19999999999994
 31
0.0
  0
LINE
  5
D865
330
1A
100
AcDbEntity
  8
0
100
AcDbLine
 10
253.31
 20
59.99999999999999
 30
0.0
 11
253.31
 21
59.20000000000003
 31
0.0
  0
LINE
  5
D866
330
1A
100
AcDbEntity
  8
0
100
AcDbLine
 10
248.69
 20
59.99999999999999
 30
0.0
 11
248.69
 21
59.20000000000003
 31
0.0
  0
LINE
  5
D867
330
1A
100
AcDbEntity
  8
0
100
AcDbLine
 10
253.31
 20
53.20000000000003
 30
0.0
 11
253.31
 21
52.40000000000008
 31
0.0
  0
LINE
  5
D868
330
1A
100
AcDbEntity
  8
0
100
AcDbLine
 10
248.69
 20
53.20000000000003
 30
0.0
 11
248.69
 21
52.40000000000008
 31
0.0
  0
LINE
  5
D869
330
1A
100
AcDbEntity
  8
0
100
AcDbLine
 10
263.93
 20
53.20000000000003
 30
0.0
 11
263.93
 21
52.40000000000008
 31
0.0
  0
LINE
  5
D86A
330
1A
100
AcDbEntity
  8
0
100
AcDbLine
 10
263.93
 20
59.99999999999999
 30
0.0
 11
263.93
 21
59.20000000000003
 31
0.0
  0
LINE
  5
D86B
330
1A
100
AcDbEntity
  8
0
100
AcDbLine
 10
260.93
 20
53.20000000000003
 30
0.0
 11
260.93
 21
52.40000000000008
 31
0.0
  0
LINE
  5
D86C
330
1A
100
AcDbEntity
  8
0
100
AcDbLine
 10
260.93
 20
59.99999999999999
 30
0.0
 11
260.9300000000001
 21
59.20000000000003
 31
0.0
  0
LINE
  5
D86D
330
1A
100
AcDbEntity
  8
SUNPOU
100
AcDbLine
 10
260.9300000000001
 20
54.70000000000003
 30
0.0
 11
263.93
 21
57.70000000000003
 31
0.0
  0
LINE
  5
D86E
330
1A
100
AcDbEntity
  8
SUNPOU
100
AcDbLine
 10
263.93
 20
54.70000000000003
 30
0.0
 11
260.9300000000001
 21
57.70000000000003
 31
0.0
  0
LINE
  5
D86F
330
1A
100
AcDbEntity
  8
0
100
AcDbLine
 10
260.93
 20
52.40000000000008
 30
0.0
 11
263.93
 21
52.40000000000008
 31
0.0
  0
LINE
  5
D870
330
1A
100
AcDbEntity
  8
0
100
AcDbLine
 10
260.93
 20
59.99999999999999
 30
0.0
 11
263.93
 21
59.99999999999999
 31
0.0
  0
LINE
  5
D871
330
1A
100
AcDbEntity
  8
0
100
AcDbLine
 10
256.3099999999999
 20
59.99999999999999
 30
0.0
 11
256.3099999999999
 21
59.20000000000003
 31
0.0
  0
LINE
  5
D872
330
1A
100
AcDbEntity
  8
0
100
AcDbLine
 10
256.3099999999999
 20
53.20000000000003
 30
0.0
 11
256.3099999999999
 21
52.40000000000008
 31
0.0
  0
LINE
  5
D873
330
1A
100
AcDbEntity
  8
0
100
AcDbLine
 10
266.85
 20
53.20000000000003
 30
0.0
 11
273.25
 21
53.20000000000003
 31
0.0
  0
LINE
  5
D874
330
1A
100
AcDbEntity
  8
0
100
AcDbLine
 10
266.85
 20
51.60000000000001
 30
0.0
 11
273.25
 21
51.60000000000001
 31
0.0
  0
LINE
  5
D875
330
1A
100
AcDbEntity
  8
0
100
AcDbLine
 10
266.85
 20
59.20000000000003
 30
0.0
 11
273.2499999999999
 21
59.20000000000003
 31
0.0
  0
LINE
  5
D876
330
1A
100
AcDbEntity
  8
0
100
AcDbLine
 10
266.85
 20
60.80000000000005
 30
0.0
 11
273.2499999999999
 21
60.80000000000005
 31
0.0
  0
CIRCLE
  5
D877
330
1A
100
AcDbEntity
  8
0
100
AcDbCircle
 10
270.0499999999999
 20
56.20000000000003
 30
0.0
 40
1.25
  0
LINE
  5
D878
330
1A
100
AcDbEntity
  8
0
100
AcDbLine
 10
271.55
 20
53.20000000000003
 30
0.0
 11
271.55
 21
52.40000000000008
 31
0.0
  0
LINE
  5
D879
330
1A
100
AcDbEntity
  8
0
100
AcDbLine
 10
271.55
 20
59.99999999999999
 30
0.0
 11
271.55
 21
59.20000000000003
 31
0.0
  0
LINE
  5
D87A
330
1A
100
AcDbEntity
  8
0
100
AcDbLine
 10
268.55
 20
53.20000000000003
 30
0.0
 11
268.55
 21
52.40000000000008
 31
0.0
  0
LINE
  5
D87B
330
1A
100
AcDbEntity
  8
0
100
AcDbLine
 10
268.55
 20
59.99999999999999
 30
0.0
 11
268.55
 21
59.20000000000003
 31
0.0
  0
LINE
  5
D87C
330
1A
100
AcDbEntity
  8
0
100
AcDbLine
 10
268.55
 20
52.40000000000008
 30
0.0
 11
271.55
 21
52.40000000000008
 31
0.0
  0
LINE
  5
D87D
330
1A
100
AcDbEntity
  8
0
100
AcDbLine
 10
268.55
 20
59.99999999999999
 30
0.0
 11
271.55
 21
59.99999999999999
 31
0.0
  0
LINE
  5
D87E
330
1A
100
AcDbEntity
  8
0
100
AcDbLine
 10
241.0
 20
62.20000000000003
 30
0.0
 11
273.25
 21
62.20000000000003
 31
0.0
  0
LINE
  5
D880
330
1A
100
AcDbEntity
  8
0
100
AcDbLine
 10
785.0
 20
504.9999997425027
 30
0.0
 11
785.0000000000002
 21
254.9999997425027
 31
0.0
  0
LINE
  5
D881
330
1A
100
AcDbEntity
  8
0
100
AcDbLine
 10
783.0
 20
465.4999997425027
 30
0.0
 11
783.0000000000002
 21
294.4999997425027
 31
0.0
  0
LINE
  5
D882
330
1A
100
AcDbEntity
  8
0
100
AcDbLine
 10
720.0
 20
467.4999997425026
 30
0.0
 11
720.0
 21
292.4999997425027
 31
0.0
  0
DIMENSION
  5
D883
330
1A
100
AcDbEntity
  8
SUNPOU
100
AcDbDimension
  2
*D17
 10
645.0
 20
274.9999997425027
 30
0.0
 11
640.9999999999999
 21
379.9999997425028
 31
0.0
 70
    32
 71
     5
 42
210.0
  3
STANDARD
100
AcDbAlignedDimension
 13
583.4999999999998
 23
484.9999997425027
 33
0.0
 14
578.4999999999997
 24
274.9999997425027
 34
0.0
 50
90.0
100
AcDbRotatedDimension
1001
ACAD
1000
DSTYLE
1002
{
1070
    41
1040
5.0
1070
    42
1040
0.5
1070
    43
1040
10.0
1070
    44
1040
0.5
1070
    73
1070
     0
1070
    74
1070
     0
1070
    77
1070
     1
1070
   140
1040
6.0
1070
   141
1040
0.0
1070
   147
1040
1.0
1070
   173
1070
     1
1070
   271
1070
     0
1070
   272
1070
     2
1070
   343
1005
BA
1070
   344
1005
BA
1002
}
  0
DIMENSION
  5
D884
330
1A
100
AcDbEntity
  8
SUNPOU
100
AcDbDimension
  2
*D16
 10
630.0
 20
467.4999997425027
 30
0.0
 11
625.9999999999998
 21
379.9999997425028
 31
0.0
 70
    32
 71
     5
 42
175.0
  3
STANDARD
100
AcDbAlignedDimension
 13
606.4999999999997
 23
292.4999997425027
 33
0.0
 14
606.4999999999997
 24
467.4999997425027
 34
0.0
 50
90.0
100
AcDbRotatedDimension
1001
ACAD
1000
DSTYLE
1002
{
1070
    41
1040
5.0
1070
    42
1040
0.5
1070
    43
1040
10.0
1070
    44
1040
0.5
1070
    73
1070
     0
1070
    74
1070
     0
1070
    77
1070
     1
1070
   140
1040
6.0
1070
   141
1040
0.0
1070
   147
1040
1.0
1070
   173
1070
     1
1070
   271
1070
     0
1070
   272
1070
     2
1070
   343
1005
BA
1070
   344
1005
BA
1002
}
  0
DIMENSION
  5
D885
330
1A
100
AcDbEntity
  8
SUNPOU
100
AcDbDimension
  2
*D12
 10
660.0
 20
254.9999997425027
 30
0.0
 11
656.0
 21
379.9999997425028
 31
0.0
 70
    32
 71
     5
 42
250.0
  3
STANDARD
100
AcDbAlignedDimension
 13
601.4999999999997
 23
504.9999997425027
 33
0.0
 14
601.4999999999997
 24
254.9999997425027
 34
0.0
 50
90.0
100
AcDbRotatedDimension
1001
ACAD
1000
DSTYLE
1002
{
1070
    41
1040
5.0
1070
    42
1040
0.5
1070
    43
1040
10.0
1070
    44
1040
0.5
1070
    73
1070
     0
1070
    74
1070
     0
1070
    77
1070
     1
1070
   140
1040
6.0
1070
   141
1040
0.0
1070
   147
1040
1.0
1070
   173
1070
     1
1070
   271
1070
     0
1070
   272
1070
     2
1070
   343
1005
BA
1070
   344
1005
BA
1002
}
  0
LINE
  5
D886
330
1A
100
AcDbEntity
  8
0
100
AcDbLine
 10
606.0
 20
294.9999997425027
 30
0.0
 11
606.0
 21
464.9999997425027
 31
0.0
  0
LINE
  5
D887
330
1A
100
AcDbEntity
  8
0
100
AcDbLine
 10
66.0
 20
294.9999997425027
 30
0.0
 11
66.0
 21
464.9999997425027
 31
0.0
  0
LINE
  5
D888
330
1A
100
AcDbEntity
  8
0
100
AcDbLine
 10
65.5
 20
294.9999997425027
 30
0.0
 11
65.5
 21
464.9999997425028
 31
0.0
  0
LINE
  5
D889
330
1A
100
AcDbEntity
  8
0
100
AcDbLine
 10
63.5
 20
294.4999997425027
 30
0.0
 11
63.5
 21
465.4999997425027
 31
0.0
  0
LINE
  5
D88A
330
1A
100
AcDbEntity
  8
0
100
AcDbLine
 10
606.4999999999997
 20
294.9999997425027
 30
0.0
 11
606.4999999999997
 21
464.9999997425028
 31
0.0
  0
LINE
  5
D88B
330
1A
100
AcDbEntity
  8
0
100
AcDbLine
 10
608.4999999999998
 20
294.4999997425027
 30
0.0
 11
608.4999999999998
 21
465.4999997425027
 31
0.0
  0
LINE
  5
D88C
330
1A
100
AcDbEntity
  8
0
100
AcDbLine
 10
680.0
 20
458.7999997425026
 30
0.0
 11
680.0
 21
301.1999997425027
 31
0.0
  0
LINE
  5
D88D
330
1A
100
AcDbEntity
  8
0
100
AcDbLine
 10
608.4999999999998
 20
170.9999997425027
 30
0.0
 11
553.4999999999995
 21
170.9999997425027
 31
0.0
  0
LINE
  5
D88E
330
1A
100
AcDbEntity
  8
0
100
AcDbLine
 10
606.4999999999997
 20
105.9999997425026
 30
0.0
 11
553.4999999999995
 21
105.9999997425026
 31
0.0
  0
LINE
  5
D88F
330
1A
100
AcDbEntity
  8
0
100
AcDbLine
 10
608.4999999999998
 20
107.9999997425026
 30
0.0
 11
553.4999999999995
 21
107.9999997425026
 31
0.0
  0
LINE
  5
D890
330
1A
100
AcDbEntity
  8
0
100
AcDbLine
 10
608.4999999999998
 20
108.9999997425027
 30
0.0
 11
553.4999999999995
 21
108.9999997425027
 31
0.0
  0
LINE
  5
D892
330
1A
100
AcDbEntity
  8
0
100
AcDbLine
 10
606.0
 20
294.9999997425027
 30
0.0
 11
66.0
 21
294.9999997425027
 31
0.0
  0
LINE
  5
D893
330
1A
100
AcDbEntity
  8
0
100
AcDbLine
 10
555.4999999999997
 20
254.9999997425027
 30
0.0
 11
601.4999999999997
 21
254.9999997425027
 31
0.0
  0
LINE
  5
D894
330
1A
100
AcDbEntity
  8
0
100
AcDbLine
 10
553.4999999999997
 20
292.4999997425027
 30
0.0
 11
606.4999999999997
 21
292.4999997425027
 31
0.0
  0
LINE
  5
D895
330
1A
100
AcDbEntity
  8
0
100
AcDbLine
 10
553.4999999999997
 20
294.4999997425027
 30
0.0
 11
605.9999999999997
 21
294.4999997425027
 31
0.0
  0
LINE
  5
D896
330
1A
100
AcDbEntity
  8
0
100
AcDbLine
 10
606.0
 20
210.9999997425027
 30
0.0
 11
65.99999999999988
 21
210.9999997425028
 31
0.0
  0
LINE
  5
D898
330
1A
100
AcDbEntity
  8
0
100
AcDbLine
 10
118.4999999999998
 20
113.4999997425027
 30
0.0
 11
553.4999999999993
 21
113.4999997425026
 31
0.0
  0
LINE
  5
D899
330
1A
100
AcDbEntity
  8
0
100
AcDbLine
 10
118.4999999999998
 20
115.4999997425027
 30
0.0
 11
553.4999999999993
 21
115.4999997425026
 31
0.0
  0
LINE
  5
D89A
330
1A
100
AcDbEntity
  8
0
100
AcDbLine
 10
118.4999999999998
 20
116.9999997425027
 30
0.0
 11
553.4999999999993
 21
116.9999997425026
 31
0.0
  0
LINE
  5
D89B
330
1A
100
AcDbEntity
  8
0
100
AcDbLine
 10
118.4999999999998
 20
170.9999997425029
 30
0.0
 11
118.4999999999999
 21
108.9999997425029
 31
0.0
  0
LINE
  5
D89C
330
1A
100
AcDbEntity
  8
0
100
AcDbLine
 10
63.5
 20
170.9999997425029
 30
0.0
 11
63.5
 21
107.9999997425029
 31
0.0
  0
INSERT
  5
D89D
330
1A
100
AcDbEntity
  8
SUNPOU
100
AcDbBlockReference
  2
M3-TOP
 10
125.9999999999999
 20
134.9999997425029
 30
0.0
  0
INSERT
  5
D89E
330
1A
100
AcDbEntity
  8
SUNPOU
100
AcDbBlockReference
  2
M3-TOP
 10
236.0
 20
134.9999997425029
 30
0.0
  0
INSERT
  5
D89F
330
1A
100
AcDbEntity
  8
SUNPOU
100
AcDbBlockReference
  2
M3-TOP
 10
306.0
 20
134.9999997425028
 30
0.0
  0
LINE
  5
D8A0
330
1A
100
AcDbEntity
  8
0
100
AcDbLine
 10
313.0
 20
124.9999997425029
 30
0.0
 11
313.0
 21
171.9999997425029
 31
0.0
  0
LINE
  5
D8A1
330
1A
100
AcDbEntity
  8
0
100
AcDbLine
 10
118.9999999999999
 20
124.9999997425029
 30
0.0
 11
118.9999999999999
 21
171.9999997425029
 31
0.0
  0
INSERT
  5
D8A2
330
1A
100
AcDbEntity
  8
0
100
AcDbBlockReference
  2
ST11-1
 10
146.0
 20
148.4999997425028
 30
0.0
  0
INSERT
  5
D8A3
330
1A
100
AcDbEntity
  8
0
100
AcDbBlockReference
  2
ST11-1
 10
216.0
 20
148.4999997425028
 30
0.0
  0
INSERT
  5
D8A4
330
1A
100
AcDbEntity
  8
0
100
AcDbBlockReference
  2
ST11-1
 10
286.0
 20
148.4999997425028
 30
0.0
  0
LINE
  5
D8A5
330
1A
100
AcDbEntity
  8
0
100
AcDbLine
 10
120.9999999999999
 20
122.9999997425029
 30
0.0
 11
311.0
 21
122.9999997425029
 31
0.0
  0
LINE
  5
D8A6
330
1A
100
AcDbEntity
  8
0
100
AcDbLine
 10
63.5
 20
107.9999997425029
 30
0.0
 11
118.4999999999999
 21
107.9999997425028
 31
0.0
  0
LINE
  5
D8A7
330
1A
100
AcDbEntity
  8
0
100
AcDbLine
 10
63.5
 20
108.9999997425029
 30
0.0
 11
118.4999999999999
 21
108.9999997425029
 31
0.0
  0
LINE
  5
D8A8
330
1A
100
AcDbEntity
  8
0
100
AcDbLine
 10
65.5
 20
105.9999997425029
 30
0.0
 11
118.4999999999999
 21
105.9999997425028
 31
0.0
  0
LINE
  5
D8A9
330
1A
100
AcDbEntity
  8
0
100
AcDbLine
 10
65.5
 20
108.9999997425029
 30
0.0
 11
65.5
 21
107.9999997425029
 31
0.0
  0
ARC
  5
D8AA
330
1A
100
AcDbEntity
  8
0
100
AcDbCircle
 10
65.5
 20
107.9999997425029
 30
0.0
 40
2.0
100
AcDbArc
 50
179.9999999999999
 51
270.0
  0
LINE
  5
D8AB
330
1A
100
AcDbEntity
  8
0
100
AcDbLine
 10
118.4999999999999
 20
107.9999997425028
 30
0.0
 11
118.4999999999999
 21
105.9999997425028
 31
0.0
  0
LINE
  5
D8AC
330
1A
100
AcDbEntity
  8
0
100
AcDbLine
 10
118.9999999999999
 20
124.9999997425029
 30
0.0
 11
120.9999999999999
 21
122.9999997425029
 31
0.0
  0
LINE
  5
D8AD
330
1A
100
AcDbEntity
  8
SUNPOU
100
AcDbLine
 10
218.9000000000001
 20
112.9999997425027
 30
0.0
 11
218.9000000000001
 21
113.4999997425027
 31
0.0
  0
LINE
  5
D8AE
330
1A
100
AcDbEntity
  8
SUNPOU
100
AcDbLine
 10
213.0999999999999
 20
112.9999997425028
 30
0.0
 11
213.0999999999999
 21
113.4999997425026
 31
0.0
  0
ELLIPSE
  5
D8AF
330
1A
100
AcDbEntity
  8
SUNPOU
100
AcDbEllipse
 10
216.0
 20
111.7499998585999
 30
0.0
 11
2.650000000000005
 21
-0.0000000000000005
 31
0.0
210
0.0
220
0.0
230
1.0
 40
0.596226458904585
 41
2.81960193203065
 42
6.605176028738728
  0
LINE
  5
D8B0
330
1A
100
AcDbEntity
  8
SUNPOU
100
AcDbLine
 10
213.0999999999999
 20
112.9999997425028
 30
0.0
 11
218.9000000000001
 21
112.9999997425027
 31
0.0
  0
LINE
  5
D8B1
330
1A
100
AcDbEntity
  8
SUNPOU
100
AcDbLine
 10
213.3499999999999
 20
112.2499997425026
 30
0.0
 11
218.6500000000001
 21
112.2499997425027
 31
0.0
  0
LINE
  5
D8B2
330
1A
100
AcDbEntity
  8
SUNPOU
100
AcDbLine
 10
213.3499999999999
 20
112.2499997425027
 30
0.0
 11
213.3499999999999
 21
112.9999997425028
 31
0.0
  0
LINE
  5
D8B3
330
1A
100
AcDbEntity
  8
SUNPOU
100
AcDbLine
 10
218.6500000000001
 20
112.2499997425027
 30
0.0
 11
218.6500000000001
 21
112.9999997425028
 31
0.0
  0
LINE
  5
D8B4
330
1A
100
AcDbEntity
  8
SUNPOU
100
AcDbLine
 10
215.7787509341467
 20
112.9999997425027
 30
0.0
 11
216.528750934147
 21
112.2499997425027
 31
0.0
  0
LINE
  5
D8B5
330
1A
100
AcDbEntity
  8
SUNPOU
100
AcDbLine
 10
215.4251975435536
 20
112.9999997425027
 30
0.0
 11
216.1751975435536
 21
112.2499997425027
 31
0.0
  0
LINE
  5
D8B6
330
1A
100
AcDbEntity
  8
SUNPOU
100
AcDbLine
 10
213.0999999999999
 20
113.4999997425027
 30
0.0
 11
218.9000000000001
 21
113.4999997425027
 31
0.0
  0
LINE
  5
D8B7
330
1A
100
AcDbEntity
  8
0
100
AcDbLine
 10
311.0
 20
122.9999997425029
 30
0.0
 11
313.0
 21
124.9999997425029
 31
0.0
  0
LINE
  5
D8B8
330
1A
100
AcDbEntity
  8
0
100
AcDbLine
 10
313.0
 20
293.7999997425027
 30
0.0
 11
118.9999999999999
 21
293.7999997425027
 31
0.0
  0
LINE
  5
D8B9
330
1A
100
AcDbEntity
  8
0
100
AcDbLine
 10
120.9999999999999
 20
173.9999997425029
 30
0.0
 11
311.0
 21
173.9999997425029
 31
0.0
  0
DIMENSION
  5
D8BA
330
1A
100
AcDbEntity
  8
SUNPOU
100
AcDbDimension
  2
*D14
 10
216.0
 20
229.9999997425028
 30
0.0
 11
181.0
 21
233.9999997425028
 31
0.0
 70
    32
 71
     5
 42
70.0
  3
STANDARD
100
AcDbAlignedDimension
 13
146.0
 23
263.7999997425029
 33
0.0
 14
216.0
 24
263.7999997425029
 34
0.0
100
AcDbRotatedDimension
1001
ACAD
1000
DSTYLE
1002
{
1070
    41
1040
5.0
1070
    42
1040
0.5
1070
    43
1040
10.0
1070
    44
1040
0.5
1070
    73
1070
     0
1070
    74
1070
     0
1070
    77
1070
     1
1070
   140
1040
6.0
1070
   141
1040
0.0
1070
   147
1040
1.0
1070
   173
1070
     1
1070
   271
1070
     0
1070
   272
1070
     2
1070
   343
1005
BA
1070
   344
1005
BA
1002
}
  0
INSERT
  5
D8BB
330
1A
100
AcDbEntity
  8
SUNPOU
100
AcDbBlockReference
  2
M3-TOP
 10
125.9999999999999
 20
161.9999997425029
 30
0.0
  0
LINE
  5
D8BC
330
1A
100
AcDbEntity
  8
0
100
AcDbLine
 10
65.99999999999988
 20
210.9999997425028
 30
0.0
 11
65.99999999999988
 21
170.9999997425029
 31
0.0
  0
LINE
  5
D8BD
330
1A
100
AcDbEntity
  8
0
100
AcDbLine
 10
63.5
 20
170.9999997425029
 30
0.0
 11
118.4999999999998
 21
170.9999997425029
 31
0.0
  0
LINE
  5
D8BE
330
1A
100
AcDbEntity
  8
0
100
AcDbLine
 10
118.9999999999999
 20
171.9999997425029
 30
0.0
 11
120.9999999999999
 21
173.9999997425029
 31
0.0
  0
LINE
  5
D8BF
330
1A
100
AcDbEntity
  8
0
100
AcDbLine
 10
118.5
 20
256.9999997425027
 30
0.0
 11
118.5
 21
294.9999997425027
 31
0.0
  0
LINE
  5
D8C0
330
1A
100
AcDbEntity
  8
0
100
AcDbLine
 10
68.5
 20
256.9999997425027
 30
0.0
 11
68.5
 21
292.4999997425027
 31
0.0
  0
LINE
  5
D8C1
330
1A
100
AcDbEntity
  8
0
100
AcDbLine
 10
116.5
 20
254.9999997425027
 30
0.0
 11
70.5
 21
254.9999997425027
 31
0.0
  0
LINE
  5
D8C2
330
1A
100
AcDbEntity
  8
0
100
AcDbLine
 10
70.5
 20
254.9999997425027
 30
0.0
 11
68.5
 21
256.9999997425027
 31
0.0
  0
LINE
  5
D8C3
330
1A
100
AcDbEntity
  8
0
100
AcDbLine
 10
116.5
 20
254.9999997425027
 30
0.0
 11
118.5
 21
256.9999997425027
 31
0.0
  0
CIRCLE
  5
D8C4
330
1A
100
AcDbEntity
  8
0
100
AcDbCircle
 10
93.49999999999999
 20
274.9999997425027
 30
0.0
 40
4.5
  0
LINE
  5
D8C5
330
1A
100
AcDbEntity
  8
0
100
AcDbLine
 10
118.4999999999999
 20
294.4999997425027
 30
0.0
 11
66.0
 21
294.4999997425027
 31
0.0
  0
LINE
  5
D8C6
330
1A
100
AcDbEntity
  8
0
100
AcDbLine
 10
118.4999999999999
 20
292.4999997425027
 30
0.0
 11
65.5
 21
292.4999997425027
 31
0.0
  0
ARC
  5
D8C7
330
1A
100
AcDbEntity
  8
0
100
AcDbCircle
 10
66.0
 20
294.9999997425027
 30
0.0
 40
0.5
100
AcDbArc
 50
180.0
 51
270.0
  0
ARC
  5
D8C8
330
1A
100
AcDbEntity
  8
0
100
AcDbCircle
 10
65.5
 20
294.4999997425027
 30
0.0
 40
2.0
100
AcDbArc
 50
180.0
 51
270.0
  0
LINE
  5
D8C9
330
1A
100
AcDbEntity
  8
0
100
AcDbLine
 10
118.9999999999999
 20
293.7999997425027
 30
0.0
 11
119.0
 21
294.9999997425027
 31
0.0
  0
INSERT
  5
D8CA
330
1A
100
AcDbEntity
  8
0
100
AcDbBlockReference
  2
ST11-3
 10
146.0
 20
293.7999997425027
 30
0.0
 50
270.0
  0
INSERT
  5
D8CB
330
1A
100
AcDbEntity
  8
SUNPOU
100
AcDbBlockReference
  2
M3-TOP
 10
236.0
 20
161.9999997425029
 30
0.0
  0
INSERT
  5
D8CC
330
1A
100
AcDbEntity
  8
SUNPOU
100
AcDbBlockReference
  2
M3-TOP
 10
306.0
 20
161.999999742503
 30
0.0
  0
LINE
  5
D8CD
330
1A
100
AcDbEntity
  8
0
100
AcDbLine
 10
313.0
 20
171.9999997425029
 30
0.0
 11
311.0
 21
173.9999997425029
 31
0.0
  0
DIMENSION
  5
D8CE
330
1A
100
AcDbEntity
  8
SUNPOU
100
AcDbDimension
  2
*D13
 10
286.0
 20
229.9999997425028
 30
0.0
 11
251.0
 21
233.9999997425028
 31
0.0
 70
    32
 71
     5
 42
70.0
  3
STANDARD
100
AcDbAlignedDimension
 13
216.0
 23
263.7999997425029
 33
0.0
 14
286.0
 24
263.7999997425029
 34
0.0
100
AcDbRotatedDimension
1001
ACAD
1000
DSTYLE
1002
{
1070
    41
1040
5.0
1070
    42
1040
0.5
1070
    43
1040
10.0
1070
    44
1040
0.5
1070
    73
1070
     0
1070
    74
1070
     0
1070
    77
1070
     1
1070
   140
1040
6.0
1070
   141
1040
0.0
1070
   147
1040
1.0
1070
   173
1070
     1
1070
   271
1070
     0
1070
   272
1070
     2
1070
   279
1070
     1
1070
   343
1005
BA
1070
   344
1005
BA
1002
}
  0
INSERT
  5
D8CF
330
1A
100
AcDbEntity
  8
0
100
AcDbBlockReference
  2
ST11-3
 10
216.0
 20
293.7999997425027
 30
0.0
 50
270.0
  0
INSERT
  5
D8D0
330
1A
100
AcDbEntity
  8
0
100
AcDbBlockReference
  2
ST11-3
 10
286.0
 20
293.7999997425027
 30
0.0
 50
270.0
  0
LINE
  5
D8D1
330
1A
100
AcDbEntity
  8
0
100
AcDbLine
 10
313.0
 20
293.7999997425027
 30
0.0
 11
313.0
 21
294.9999997425027
 31
0.0
  0
LINE
  5
D8D2
330
1A
100
AcDbEntity
  8
0
100
AcDbLine
 10
553.4999999999997
 20
170.9999997425027
 30
0.0
 11
553.4999999999995
 21
108.9999997425027
 31
0.0
  0
LINE
  5
D8D3
330
1A
100
AcDbEntity
  8
SUNPOU
100
AcDbLine
 10
338.8999999999996
 20
112.9999997425026
 30
0.0
 11
338.8999999999999
 21
113.4999997425026
 31
0.0
  0
LINE
  5
D8D4
330
1A
100
AcDbEntity
  8
SUNPOU
100
AcDbLine
 10
333.0999999999997
 20
112.9999997425027
 30
0.0
 11
333.0999999999997
 21
113.4999997425026
 31
0.0
  0
ELLIPSE
  5
D8D5
330
1A
100
AcDbEntity
  8
SUNPOU
100
AcDbEllipse
 10
335.9999999999998
 20
111.7499998585998
 30
0.0
 11
2.650000000000005
 21
-0.0000000000000005
 31
0.0
210
0.0
220
0.0
230
1.0
 40
0.596226458904585
 41
2.81960193203065
 42
6.605176028738728
  0
LINE
  5
D8D6
330
1A
100
AcDbEntity
  8
SUNPOU
100
AcDbLine
 10
333.0999999999997
 20
112.9999997425027
 30
0.0
 11
338.8999999999999
 21
112.9999997425026
 31
0.0
  0
LINE
  5
D8D7
330
1A
100
AcDbEntity
  8
SUNPOU
100
AcDbLine
 10
333.3499999999997
 20
112.2499997425026
 30
0.0
 11
338.6499999999998
 21
112.2499997425026
 31
0.0
  0
LINE
  5
D8D8
330
1A
100
AcDbEntity
  8
SUNPOU
100
AcDbLine
 10
335.7787509341465
 20
112.9999997425026
 30
0.0
 11
336.5287509341467
 21
112.2499997425026
 31
0.0
  0
LINE
  5
D8D9
330
1A
100
AcDbEntity
  8
SUNPOU
100
AcDbLine
 10
335.4251975435534
 20
112.9999997425026
 30
0.0
 11
336.1751975435534
 21
112.2499997425026
 31
0.0
  0
LINE
  5
D8DA
330
1A
100
AcDbEntity
  8
SUNPOU
100
AcDbLine
 10
333.3499999999997
 20
112.2499997425026
 30
0.0
 11
333.3499999999997
 21
112.9999997425027
 31
0.0
  0
LINE
  5
D8DB
330
1A
100
AcDbEntity
  8
SUNPOU
100
AcDbLine
 10
338.6499999999998
 20
112.2499997425026
 30
0.0
 11
338.6499999999998
 21
112.9999997425027
 31
0.0
  0
LINE
  5
D8DC
330
1A
100
AcDbEntity
  8
SUNPOU
100
AcDbLine
 10
333.0999999999997
 20
113.4999997425026
 30
0.0
 11
338.8999999999999
 21
113.4999997425026
 31
0.0
  0
LINE
  5
D8DD
330
1A
100
AcDbEntity
  8
SUNPOU
100
AcDbLine
 10
458.8999999999996
 20
112.9999997425026
 30
0.0
 11
458.8999999999998
 21
113.4999997425026
 31
0.0
  0
LINE
  5
D8DE
330
1A
100
AcDbEntity
  8
SUNPOU
100
AcDbLine
 10
453.0999999999997
 20
112.9999997425027
 30
0.0
 11
453.0999999999997
 21
113.4999997425026
 31
0.0
  0
LINE
  5
D8DF
330
1A
100
AcDbEntity
  8
SUNPOU
100
AcDbLine
 10
458.6499999999999
 20
112.2499997425026
 30
0.0
 11
458.6499999999999
 21
112.9999997425027
 31
0.0
  0
LINE
  5
D8E0
330
1A
100
AcDbEntity
  8
SUNPOU
100
AcDbLine
 10
455.7787509341465
 20
112.9999997425026
 30
0.0
 11
456.5287509341467
 21
112.2499997425026
 31
0.0
  0
LINE
  5
D8E1
330
1A
100
AcDbEntity
  8
SUNPOU
100
AcDbLine
 10
455.4251975435533
 20
112.9999997425026
 30
0.0
 11
456.1751975435534
 21
112.2499997425026
 31
0.0
  0
LINE
  5
D8E2
330
1A
100
AcDbEntity
  8
SUNPOU
100
AcDbLine
 10
453.3499999999996
 20
112.2499997425026
 30
0.0
 11
453.3499999999996
 21
112.9999997425027
 31
0.0
  0
ELLIPSE
  5
D8E3
330
1A
100
AcDbEntity
  8
SUNPOU
100
AcDbEllipse
 10
455.9999999999997
 20
111.7499998585998
 30
0.0
 11
2.650000000000005
 21
-0.0000000000000005
 31
0.0
210
0.0
220
0.0
230
1.0
 40
0.596226458904585
 41
2.81960193203065
 42
6.605176028738728
  0
LINE
  5
D8E4
330
1A
100
AcDbEntity
  8
SUNPOU
100
AcDbLine
 10
453.0999999999997
 20
112.9999997425027
 30
0.0
 11
458.8999999999998
 21
112.9999997425026
 31
0.0
  0
LINE
  5
D8E5
330
1A
100
AcDbEntity
  8
SUNPOU
100
AcDbLine
 10
453.3499999999996
 20
112.2499997425026
 30
0.0
 11
458.6499999999999
 21
112.2499997425026
 31
0.0
  0
LINE
  5
D8E6
330
1A
100
AcDbEntity
  8
SUNPOU
100
AcDbLine
 10
453.0999999999997
 20
113.4999997425026
 30
0.0
 11
458.8999999999998
 21
113.4999997425026
 31
0.0
  0
LINE
  5
D8E7
330
1A
100
AcDbEntity
  8
0
100
AcDbLine
 10
553.4999999999995
 20
107.9999997425026
 30
0.0
 11
553.4999999999995
 21
105.9999997425026
 31
0.0
  0
LINE
  5
D8E8
330
1A
100
AcDbEntity
  8
0
100
AcDbLine
 10
553.4999999999997
 20
256.9999997425027
 30
0.0
 11
553.4999999999997
 21
294.9999997425027
 31
0.0
  0
LINE
  5
D8E9
330
1A
100
AcDbEntity
  8
0
100
AcDbLine
 10
555.4999999999997
 20
254.9999997425027
 30
0.0
 11
553.4999999999997
 21
256.9999997425027
 31
0.0
  0
CIRCLE
  5
D8EA
330
1A
100
AcDbEntity
  8
0
100
AcDbCircle
 10
578.4999999999997
 20
274.9999997425027
 30
0.0
 40
4.5
  0
LINE
  5
D8EB
330
1A
100
AcDbEntity
  8
0
100
AcDbLine
 10
608.4999999999998
 20
170.9999997425027
 30
0.0
 11
608.4999999999998
 21
107.9999997425026
 31
0.0
  0
DIMENSION
  5
D8EC
330
1A
100
AcDbEntity
  8
SUNPOU
100
AcDbDimension
  2
*D15
 10
640.0
 20
105.9999997425026
 30
0.0
 11
636.0
 21
158.4999997425028
 31
0.0
 70
    32
 71
     5
 42
105.0000000000001
  3
STANDARD
100
AcDbAlignedDimension
 13
605.3999999999998
 23
210.9999997425028
 33
0.0
 14
606.4999999999997
 24
105.9999997425026
 34
0.0
 50
90.0
100
AcDbRotatedDimension
1001
ACAD
1000
DSTYLE
1002
{
1070
    41
1040
5.0
1070
    42
1040
0.5
1070
    43
1040
10.0
1070
    44
1040
0.5
1070
    73
1070
     0
1070
    74
1070
     0
1070
    77
1070
     1
1070
   140
1040
6.0
1070
   141
1040
0.0
1070
   147
1040
1.0
1070
   173
1070
     1
1070
   271
1070
     0
1070
   272
1070
     2
1070
   343
1005
BA
1070
   344
1005
BA
1002
}
  0
MTEXT
  5
D8ED
330
1A
100
AcDbEntity
  8
0
100
AcDbMText
 10
681.0
 20
129.9999997425028
 30
0.0
 40
26.0
 41
35.0
 71
     1
 72
     5
  1
{\fMS PGothic|b0|i0|c128|p50;kg}
 73
     1
 44
1.0
1001
ACAD
1000
MTEXTBEGIN
1070
    73
1070
     1
1070
    44
1040
1.0
1070
    74
1070
     0
1000
MTEXTEND
  0
LINE
  5
D8EE
330
1A
100
AcDbEntity
  8
0
100
AcDbLine
 10
677.5
 20
132.4999997425028
 30
0.0
 11
677.5
 21
96.49999974250285
 31
0.0
  0
MTEXT
  5
D8EF
330
1A
100
AcDbEntity
  8
0
100
AcDbMText
 10
743.0
 20
133.4999997425028
 30
0.0
 40
32.0
 41
35.0
 71
     1
 72
     5
  1
{\fArial|b0|i0|c0|p32;\H0.875x;t}
 73
     1
 44
1.0
1001
ACAD
1000
MTEXTBEGIN
1070
    73
1070
     1
1070
    44
1040
1.0
1070
    74
1070
     0
1000
MTEXTEND
  0
LINE
  5
D8F0
330
1A
100
AcDbEntity
  8
0
100
AcDbLine
 10
717.5000000000002
 20
96.49999974250285
 30
0.0
 11
717.4999999999999
 21
132.4999997425028
 31
0.0
  0
LINE
  5
D8F1
330
1A
100
AcDbEntity
  8
0
100
AcDbLine
 10
768.0000000000002
 20
96.49999974250285
 30
0.0
 11
768.0
 21
132.4999997425028
 31
0.0
  0
LINE
  5
D8F2
330
1A
100
AcDbEntity
  8
0
100
AcDbLine
 10
728.0
 20
132.4999997425028
 30
0.0
 11
728.0
 21
96.49999974250285
 31
0.0
  0
LINE
  5
D8F3
330
1A
100
AcDbEntity
  8
0
100
AcDbLine
 10
679.4999999999999
 20
94.49999974250284
 30
0.0
 11
715.5000000000002
 21
94.49999974250284
 31
0.0
  0
ARC
  5
D8F4
330
1A
100
AcDbEntity
  8
0
100
AcDbCircle
 10
606.4999999999997
 20
107.9999997425026
 30
0.0
 40
2.0
100
AcDbArc
 50
270.0
 51
0.0
  0
LINE
  5
D8F5
330
1A
100
AcDbEntity
  8
0
100
AcDbLine
 10
606.4999999999997
 20
108.9999997425027
 30
0.0
 11
606.4999999999997
 21
107.9999997425026
 31
0.0
  0
ARC
  5
D8F6
330
1A
100
AcDbEntity
  8
0
100
AcDbCircle
 10
679.4999999999999
 20
96.49999974250285
 30
0.0
 40
2.0
100
AcDbArc
 50
180.0
 51
270.0
  0
LINE
  5
D8F7
330
1A
100
AcDbEntity
  8
0
100
AcDbLine
 10
730.0
 20
94.49999974250284
 30
0.0
 11
766.0000000000002
 21
94.49999974250284
 31
0.0
  0
ARC
  5
D8F8
330
1A
100
AcDbEntity
  8
0
100
AcDbCircle
 10
715.5000000000002
 20
96.49999974250285
 30
0.0
 40
2.0
100
AcDbArc
 50
270.0
 51
0.0000000000002036
  0
ARC
  5
D8F9
330
1A
100
AcDbEntity
  8
0
100
AcDbCircle
 10
730.0
 20
96.49999974250285
 30
0.0
 40
2.0
100
AcDbArc
 50
180.0
 51
270.0
  0
ARC
  5
D8FA
330
1A
100
AcDbEntity
  8
0
100
AcDbCircle
 10
766.0000000000002
 20
96.49999974250285
 30
0.0
 40
2.0
100
AcDbArc
 50
270.0
 51
0.0000000000002036
  0
LINE
  5
D8FB
330
1A
100
AcDbEntity
  8
0
100
AcDbLine
 10
686.1999999999998
 20
294.9999997425027
 30
0.0
 11
720.0
 21
294.9999997425027
 31
0.0
  0
LINE
  5
D8FC
330
1A
100
AcDbEntity
  8
0
100
AcDbLine
 10
715.5
 20
134.4999997425028
 30
0.0
 11
679.4999999999999
 21
134.4999997425028
 31
0.0
  0
LINE
  5
D8FD
330
1A
100
AcDbEntity
  8
0
100
AcDbLine
 10
606.0
 20
210.9999997425027
 30
0.0
 11
606.0
 21
170.9999997425027
 31
0.0
  0
LEADER
  5
D8FE
330
1A
100
AcDbEntity
  8
SUNPOU
100
AcDbLeader
  3
STANDARD
 73
     0
 74
     0
 75
     1
 40
8.000000000000001
 41
61.71428571428572
 76
     3
 10
616.2022580473701
 20
160.0999999862668
 30
0.0
 10
643.7022580473701
 20
198.5999999862666
 30
0.0
 10
648.7022580473701
 20
198.5999999862666
 30
0.0
340
D901
213
0.0
223
-3.0
233
0.0
1001
ACAD
1000
DSTYLE
1002
{
1070
    41
1040
5.0
1070
    42
1040
0.5
1070
    43
1040
10.0
1070
    44
1040
0.5
1070
    73
1070
     0
1070
    74
1070
     0
1070
   140
1040
6.0
1070
   141
1040
0.0
1070
   147
1040
1.0
1070
   173
1070
     1
1070
   271
1070
     2
1070
   272
1070
     2
1070
   343
1005
BA
1070
   344
1005
BA
1002
}
  0
ARC
  5
D900
330
1A
100
AcDbEntity
  8
0
100
AcDbCircle
 10
679.4999999999999
 20
132.4999997425028
 30
0.0
 40
2.0
100
AcDbArc
 50
90.0
 51
180.0
  0
MTEXT
  5
D901
102
{ACAD_REACTORS
330
D8FE
102
}
330
1A
100
AcDbEntity
  8
SUNPOU
100
AcDbMText
 10
649.7022580473701
 20
201.5999999862666
 30
0.0
 40
8.0
 41
0.0
 71
     1
 72
     1
  1
M8固定ボルト
 73
     1
 44
1.0
1001
ACAD
1000
MTEXTBEGIN
1070
    73
1070
     1
1070
    44
1040
1.0
1070
    74
1070
     0
1000
MTEXTEND
  0
LINE
  5
D903
330
1A
100
AcDbEntity
  8
0
100
AcDbLine
 10
603.4999999999997
 20
256.9999997425027
 30
0.0
 11
603.4999999999997
 21
292.4999997425027
 31
0.0
  0
LINE
  5
D904
330
1A
100
AcDbEntity
  8
0
100
AcDbLine
 10
601.4999999999997
 20
254.9999997425027
 30
0.0
 11
603.4999999999997
 21
256.9999997425027
 31
0.0
  0
ARC
  5
D905
330
1A
100
AcDbEntity
  8
0
100
AcDbCircle
 10
606.4999999999997
 20
294.4999997425027
 30
0.0
 40
2.0
100
AcDbArc
 50
270.0
 51
0.0
  0
ARC
  5
D906
330
1A
100
AcDbEntity
  8
0
100
AcDbCircle
 10
605.9999999999997
 20
294.9999997425027
 30
0.0
 40
0.5
100
AcDbArc
 50
270.0
 51
0.0
  0
ARC
  5
D907
330
1A
100
AcDbEntity
  8
0
100
AcDbCircle
 10
686.1999999999998
 20
301.1999997425027
 30
0.0
 40
6.2
100
AcDbArc
 50
180.0
 51
270.0
  0
LINE
  5
D908
330
1A
100
AcDbEntity
  8
0
100
AcDbLine
 10
766.0
 20
134.4999997425028
 30
0.0
 11
730.0
 21
134.4999997425028
 31
0.0
  0
ARC
  5
D909
330
1A
100
AcDbEntity
  8
0
100
AcDbCircle
 10
715.5
 20
132.4999997425028
 30
0.0
 40
2.0
100
AcDbArc
 50
0.0
 51
90.0
  0
ARC
  5
D90A
330
1A
100
AcDbEntity
  8
0
100
AcDbCircle
 10
730.0
 20
132.4999997425028
 30
0.0
 40
2.0
100
AcDbArc
 50
90.0
 51
180.0
  0
ARC
  5
D90B
330
1A
100
AcDbEntity
  8
0
100
AcDbCircle
 10
766.0
 20
132.4999997425028
 30
0.0
 40
2.0
100
AcDbArc
 50
0.0
 51
90.0
  0
LINE
  5
D90C
330
1A
100
AcDbEntity
  8
0
100
AcDbLine
 10
720.0
 20
292.4999997425027
 30
0.0
 11
782.0
 21
292.4999997425027
 31
0.0
  0
LINE
  5
D90D
330
1A
100
AcDbEntity
  8
0
100
AcDbLine
 10
753.5000001366833
 20
288.7999997425027
 30
0.0
 11
731.4999998633168
 21
288.7999997425027
 31
0.0
  0
LINE
  5
D90E
330
1A
100
AcDbEntity
  8
0
100
AcDbLine
 10
753.5000001366833
 20
280.7999997425027
 30
0.0
 11
731.4999998633168
 21
280.7999997425027
 31
0.0
  0
LINE
  5
D90F
330
1A
100
AcDbEntity
  8
0
100
AcDbLine
 10
748.5000001366834
 20
263.7999997425029
 30
0.0
 11
736.4999998633168
 21
263.7999997425029
 31
0.0
  0
LINE
  5
D910
330
1A
100
AcDbEntity
  8
0
100
AcDbLine
 10
753.5000001366833
 20
270.7999997425028
 30
0.0
 11
731.4999998633168
 21
270.7999997425028
 31
0.0
  0
LINE
  5
D911
330
1A
100
AcDbEntity
  8
0
100
AcDbLine
 10
733.1999999999998
 20
288.7999997425027
 30
0.0
 11
733.1999999999998
 21
280.7999997425027
 31
0.0
  0
ARC
  5
D912
330
1A
100
AcDbEntity
  8
0
100
AcDbCircle
 10
736.4999998633168
 20
268.7999997425029
 30
0.0
 40
5.0
100
AcDbArc
 50
180.0
 51
270.0
  0
LINE
  5
D913
330
1A
100
AcDbEntity
  8
0
100
AcDbLine
 10
731.4999998633168
 20
280.7999997425027
 30
0.0
 11
731.4999998633168
 21
270.7999997425028
 31
0.0
  0
LINE
  5
D914
330
1A
100
AcDbEntity
  8
0
100
AcDbLine
 10
731.4999998633168
 20
268.7999997425029
 30
0.0
 11
731.4999998633168
 21
270.7999997425028
 31
0.0
  0
LINE
  5
D915
330
1A
100
AcDbEntity
  8
0
100
AcDbLine
 10
732.2823777439643
 20
280.7999997425027
 30
0.0
 11
732.2823777439643
 21
270.7999997425028
 31
0.0
  0
LINE
  5
D916
330
1A
100
AcDbEntity
  8
0
100
AcDbLine
 10
741.7176221193521
 20
280.7999997425027
 30
0.0
 11
741.7176221193521
 21
270.7999997425028
 31
0.0
  0
LINE
  5
D917
330
1A
100
AcDbEntity
  8
0
100
AcDbLine
 10
743.2823778806477
 20
280.7999997425027
 30
0.0
 11
743.2823778806477
 21
270.7999997425028
 31
0.0
  0
LINE
  5
D918
330
1A
100
AcDbEntity
  8
SUNPOU
100
AcDbLine
 10
717.0
 20
293.7999997425028
 30
0.0
 11
720.0
 21
293.7999997425028
 31
0.0
  0
LINE
  5
D919
330
1A
100
AcDbEntity
  8
SUNPOU
100
AcDbLine
 10
717.0
 20
294.9999997425027
 30
0.0
 11
717.0
 21
293.7999997425028
 31
0.0
  0
LINE
  5
D91A
330
1A
100
AcDbEntity
  8
0
100
AcDbLine
 10
731.4999998633165
 20
292.4999997425028
 30
0.0
 11
731.4999998633168
 21
288.7999997425027
 31
0.0
  0
LINE
  5
D91B
330
1A
100
AcDbEntity
  8
0
100
AcDbLine
 10
732.2823777439643
 20
292.4999997425028
 30
0.0
 11
732.2823777439643
 21
288.7999997425027
 31
0.0
  0
LINE
  5
D91C
330
1A
100
AcDbEntity
  8
0
100
AcDbLine
 10
743.2823778806477
 20
292.4999997425028
 30
0.0
 11
743.2823778806477
 21
288.7999997425027
 31
0.0
  0
LINE
  5
D91D
330
1A
100
AcDbEntity
  8
0
100
AcDbLine
 10
741.7176221193521
 20
292.4999997425028
 30
0.0
 11
741.7176221193521
 21
288.7999997425027
 31
0.0
  0
LINE
  5
D91E
330
1A
100
AcDbEntity
  8
0
100
AcDbLine
 10
751.7999999999999
 20
288.7999997425027
 30
0.0
 11
751.7999999999999
 21
280.7999997425028
 31
0.0
  0
LINE
  5
D91F
330
1A
100
AcDbEntity
  8
0
100
AcDbLine
 10
753.5000001366833
 20
280.7999997425027
 30
0.0
 11
753.5000001366833
 21
270.7999997425028
 31
0.0
  0
LINE
  5
D920
330
1A
100
AcDbEntity
  8
0
100
AcDbLine
 10
752.7176222560356
 20
280.7999997425027
 30
0.0
 11
752.7176222560356
 21
270.7999997425028
 31
0.0
  0
LINE
  5
D921
330
1A
100
AcDbEntity
  8
0
100
AcDbLine
 10
753.5000001366833
 20
268.7999997425028
 30
0.0
 11
753.5000001366833
 21
270.7999997425027
 31
0.0
  0
ARC
  5
D922
330
1A
100
AcDbEntity
  8
0
100
AcDbCircle
 10
748.5000001366834
 20
268.7999997425028
 30
0.0
 40
5.0
100
AcDbArc
 50
270.0
 51
0.0
  0
LINE
  5
D923
330
1A
100
AcDbEntity
  8
0
100
AcDbLine
 10
753.5000001366832
 20
292.4999997425028
 30
0.0
 11
753.5000001366833
 21
288.7999997425027
 31
0.0
  0
LINE
  5
D924
330
1A
100
AcDbEntity
  8
0
100
AcDbLine
 10
752.7176222560356
 20
292.4999997425028
 30
0.0
 11
752.7176222560356
 21
288.7999997425027
 31
0.0
  0
LINE
  5
D925
330
1A
100
AcDbEntity
  8
0
100
AcDbLine
 10
783.0000000000002
 20
294.4999997425027
 30
0.0
 11
783.0000000000002
 21
254.9999997425027
 31
0.0
  0
LINE
  5
D926
330
1A
100
AcDbEntity
  8
0
100
AcDbLine
 10
783.0
 20
254.9999997425027
 30
0.0
 11
785.0
 21
254.9999997425027
 31
0.0
  0
LINE
  5
D927
330
1A
100
AcDbEntity
  8
0
100
AcDbLine
 10
781.9999999999997
 20
294.4999997425027
 30
0.0
 11
783.0000000000002
 21
294.4999997425027
 31
0.0
  0
LINE
  5
D928
330
1A
100
AcDbEntity
  8
0
100
AcDbLine
 10
782.0
 20
294.4999997425027
 30
0.0
 11
782.0
 21
292.4999997425027
 31
0.0
  0
DIMENSION
  5
D929
330
1A
100
AcDbEntity
  8
SUNPOU
100
AcDbDimension
  2
*D18
 10
608.4999999999998
 20
539.9818801912061
 30
0.0
 11
335.9999999999999
 21
543.9818801912061
 31
0.0
 70
    32
 71
     5
 42
544.9999999999997
  3
STANDARD
100
AcDbAlignedDimension
 13
63.5
 23
465.4999997425027
 33
0.0
 14
608.4999999999998
 24
465.4999997425027
 34
0.0
100
AcDbRotatedDimension
1001
ACAD
1000
DSTYLE
1002
{
1070
    41
1040
5.0
1070
    42
1040
0.5
1070
    43
1040
10.0
1070
    44
1040
0.5
1070
    73
1070
     0
1070
    74
1070
     0
1070
    77
1070
     1
1070
   140
1040
6.0
1070
   141
1040
0.0
1070
   147
1040
1.0
1070
   173
1070
     1
1070
   271
1070
     0
1070
   272
1070
     2
1070
   343
1005
BA
1070
   344
1005
BA
1002
}
  0
LINE
  5
D92A
330
1A
100
AcDbEntity
  8
0
100
AcDbLine
 10
606.0
 20
464.9999997425027
 30
0.0
 11
66.0
 21
464.9999997425028
 31
0.0
  0
LINE
  5
D92B
330
1A
100
AcDbEntity
  8
0
100
AcDbLine
 10
555.4999999999997
 20
504.9999997425028
 30
0.0
 11
601.4999999999997
 21
504.9999997425027
 31
0.0
  0
LINE
  5
D92C
330
1A
100
AcDbEntity
  8
0
100
AcDbLine
 10
553.4999999999995
 20
465.4999997425028
 30
0.0
 11
605.9999999999997
 21
465.4999997425028
 31
0.0
  0
LINE
  5
D92D
330
1A
100
AcDbEntity
  8
0
100
AcDbLine
 10
553.4999999999995
 20
467.4999997425027
 30
0.0
 11
606.4999999999997
 21
467.4999997425027
 31
0.0
  0
LINE
  5
D92F
330
1A
100
AcDbEntity
  8
0
100
AcDbLine
 10
305.9011145096431
 20
430.5999997425028
 30
0.0
 11
346.4166363238844
 21
430.5999997425028
 31
0.0
  0
LINE
  5
D930
330
1A
100
AcDbEntity
  8
0
100
AcDbLine
 10
291.5833636761158
 20
329.3999997425028
 30
0.0
 11
332.0988854903571
 21
329.3999997425028
 31
0.0
  0
LINE
  5
D931
330
1A
100
AcDbEntity
  8
0
100
AcDbLine
 10
292.5167979722321
 20
339.3999997425028
 30
0.0
 11
331.3156411167577
 21
339.3999997425028
 31
0.0
  0
LINE
  5
D932
330
1A
100
AcDbEntity
  8
0
100
AcDbLine
 10
306.6843588832423
 20
420.5999997425028
 30
0.0
 11
345.4832020277681
 21
420.5999997425029
 31
0.0
  0
LINE
  5
D933
330
1A
100
AcDbEntity
  8
0
100
AcDbLine
 10
298.6438485629364
 20
374.9999997425029
 30
0.0
 11
337.442691707462
 21
374.9999997425029
 31
0.0
  0
LINE
  5
D934
330
1A
100
AcDbEntity
  8
0
100
AcDbLine
 10
300.5573082925378
 20
384.9999997425029
 30
0.0
 11
339.3561514370635
 21
384.9999997425028
 31
0.0
  0
DIMENSION
  5
D935
330
1A
100
AcDbEntity
  8
SUNPOU
100
AcDbDimension
  2
*D19
 10
578.4999999999997
 20
519.7637529911125
 30
0.0
 11
335.9999999999999
 21
523.7637529911125
 31
0.0
 70
    32
 71
     5
 42
484.9999999999997
  3
STANDARD
100
AcDbAlignedDimension
 13
93.49999999999999
 23
484.9999997425027
 33
0.0
 14
578.4999999999997
 24
484.9999997425027
 34
0.0
100
AcDbRotatedDimension
1001
ACAD
1000
DSTYLE
1002
{
1070
    41
1040
5.0
1070
    42
1040
0.5
1070
    43
1040
10.0
1070
    44
1040
0.5
1070
    73
1070
     0
1070
    74
1070
     0
1070
    77
1070
     1
1070
   140
1040
6.0
1070
   141
1040
0.0
1070
   147
1040
1.0
1070
   173
1070
     1
1070
   271
1070
     0
1070
   272
1070
     2
1070
   343
1005
BA
1070
   344
1005
BA
1002
}
  0
LINE
  5
D936
330
1A
100
AcDbEntity
  8
0
100
AcDbLine
 10
583.4999999999999
 20
440.9999997425027
 30
0.0
 11
88.49999999999988
 21
440.9999997425027
 31
0.0
  0
LINE
  5
D937
330
1A
100
AcDbEntity
  8
0
100
AcDbLine
 10
583.4999999999999
 20
318.9999997425027
 30
0.0
 11
88.49999999999999
 21
318.9999997425028
 31
0.0
  0
LINE
  5
D938
330
1A
100
AcDbEntity
  8
0
100
AcDbLine
 10
68.5
 20
467.4999997425027
 30
0.0
 11
68.5
 21
502.9999997425027
 31
0.0
  0
LINE
  5
D939
330
1A
100
AcDbEntity
  8
0
100
AcDbLine
 10
118.5
 20
464.9999997425028
 30
0.0
 11
118.5
 21
502.9999997425028
 31
0.0
  0
ARC
  5
D93A
330
1A
100
AcDbEntity
  8
0
100
AcDbCircle
 10
200.5833636761158
 20
339.3999997425028
 30
0.0
 40
10.0
100
AcDbArc
 50
170.0000000000025
 51
216.5601872324866
  0
LINE
  5
D93B
330
1A
100
AcDbEntity
  8
0
100
AcDbLine
 10
174.2647138540064
 20
418.8635179658334
 30
0.0
 11
168.4557510940128
 21
385.9192530742457
 31
0.0
  0
LINE
  5
D93C
330
1A
100
AcDbEntity
  8
0
100
AcDbLine
 10
164.2545471593919
 20
419.6807464107601
 30
0.0
 11
158.2754047688063
 21
385.7713448741269
 31
0.0
  0
LINE
  5
D93D
330
1A
100
AcDbEntity
  8
0
100
AcDbLine
 10
114.053036979521
 20
422.3364815191721
 30
0.0
 11
107.6056168357078
 21
385.7713448741265
 31
0.0
  0
LINE
  5
D93E
330
1A
100
AcDbEntity
  8
0
100
AcDbLine
 10
123.7651055514997
 20
419.8286546108787
 30
0.0
 11
117.7859631609142
 21
385.9192530742459
 31
0.0
  0
LINE
  5
D93F
330
1A
100
AcDbEntity
  8
0
100
AcDbLine
 10
88.49999999999999
 20
318.9999997425028
 30
0.0
 11
88.49999999999988
 21
440.9999997425027
 31
0.0
  0
LINE
  5
D940
330
1A
100
AcDbEntity
  8
0
100
AcDbLine
 10
109.5833636761158
 20
329.3999997425028
 30
0.0
 11
150.0988854903571
 21
329.3999997425028
 31
0.0
  0
LINE
  5
D941
330
1A
100
AcDbEntity
  8
0
100
AcDbLine
 10
110.5167979722321
 20
339.3999997425028
 30
0.0
 11
149.3156411167576
 21
339.3999997425028
 31
0.0
  0
LINE
  5
D942
330
1A
100
AcDbEntity
  8
0
100
AcDbLine
 10
116.6438485629365
 20
374.9999997425029
 30
0.0
 11
155.442691707462
 21
374.9999997425029
 31
0.0
  0
LINE
  5
D943
330
1A
100
AcDbEntity
  8
0
100
AcDbLine
 10
118.5573082925377
 20
384.9999997425029
 30
0.0
 11
157.3561514370635
 21
384.9999997425028
 31
0.0
  0
LINE
  5
D944
330
1A
100
AcDbEntity
  8
0
100
AcDbLine
 10
115.7245952311938
 20
374.228654610879
 30
0.0
 11
109.7454528406082
 21
340.3192530742456
 31
0.0
  0
LINE
  5
D945
330
1A
100
AcDbEntity
  8
0
100
AcDbLine
 10
105.5442489059874
 20
374.0807464107604
 30
0.0
 11
99.73528614599377
 21
341.1364815191721
 31
0.0
  0
ARC
  5
D946
330
1A
100
AcDbEntity
  8
0
100
AcDbCircle
 10
109.5833636761158
 20
339.3999997425028
 30
0.0
 40
10.0
100
AcDbArc
 50
223.4398127675148
 51
270.0
  0
LINE
  5
D947
330
1A
100
AcDbEntity
  8
0
100
AcDbLine
 10
101.5510479113984
 20
333.4433309204284
 30
0.0
 11
109.7454528406082
 21
340.3192530742456
 31
0.0
  0
LINE
  5
D948
330
1A
100
AcDbEntity
  8
0
100
AcDbLine
 10
102.3223930430223
 20
332.5240775886856
 30
0.0
 11
110.516797972232
 21
339.3999997425028
 31
0.0
  0
ARC
  5
D949
330
1A
100
AcDbEntity
  8
0
100
AcDbCircle
 10
109.5833636761158
 20
339.3999997425028
 30
0.0
 40
10.0
100
AcDbArc
 50
170.0000000000014
 51
216.5601872324866
  0
LINE
  5
D94A
330
1A
100
AcDbEntity
  8
0
100
AcDbLine
 10
105.5442489059874
 20
374.0807464107604
 30
0.0
 11
111.5911519333912
 21
379.1547005108196
 31
0.0
  0
LINE
  5
D94B
330
1A
100
AcDbEntity
  8
0
100
AcDbLine
 10
116.6438485629365
 20
374.9999997425028
 30
0.0
 11
112.510405265134
 21
379.9260456424436
 31
0.0
  0
LINE
  5
D94C
330
1A
100
AcDbEntity
  8
0
100
AcDbLine
 10
115.7245952311938
 20
374.228654610879
 30
0.0
 11
111.5911519333913
 21
379.1547005108196
 31
0.0
  0
LINE
  5
D94D
330
1A
100
AcDbEntity
  8
0
100
AcDbLine
 10
111.73906013351
 20
380.8452989741862
 30
0.0
 11
107.6056168357078
 21
385.7713448741267
 31
0.0
  0
LINE
  5
D94E
330
1A
100
AcDbEntity
  8
0
100
AcDbLine
 10
112.5104052651338
 20
379.9260456424435
 30
0.0
 11
118.5573082925379
 21
384.9999997425029
 31
0.0
  0
LINE
  5
D94F
330
1A
100
AcDbEntity
  8
0
100
AcDbLine
 10
111.73906013351
 20
380.8452989741862
 30
0.0
 11
117.7859631609142
 21
385.9192530742459
 31
0.0
  0
LINE
  5
D950
330
1A
100
AcDbEntity
  8
0
100
AcDbLine
 10
166.3943831642923
 20
374.2286546108791
 30
0.0
 11
159.9469630204789
 21
337.6635179658336
 31
0.0
  0
LINE
  5
D951
330
1A
100
AcDbEntity
  8
0
100
AcDbLine
 10
156.214036839086
 20
374.0807464107601
 30
0.0
 11
150.2348944485004
 21
340.1713448741268
 31
0.0
  0
ARC
  5
D952
330
1A
100
AcDbEntity
  8
0
100
AcDbCircle
 10
150.0988854903571
 20
339.3999997425028
 30
0.0
 40
10.0
100
AcDbArc
 50
313.4398127675172
 51
350.0000000000014
  0
ARC
  5
D953
330
1A
100
AcDbEntity
  8
0
100
AcDbCircle
 10
150.0988854903571
 20
339.3999997425028
 30
0.0
 40
10.0
100
AcDbArc
 50
270.0
 51
306.560187232484
  0
LINE
  5
D954
330
1A
100
AcDbEntity
  8
0
100
AcDbLine
 10
156.0555543124315
 20
331.3676839777855
 30
0.0
 11
149.3156411167576
 21
339.3999997425028
 31
0.0
  0
LINE
  5
D955
330
1A
100
AcDbEntity
  8
0
100
AcDbLine
 10
156.9748076441742
 20
332.1390291094093
 30
0.0
 11
150.2348944485002
 21
340.1713448741268
 31
0.0
  0
CIRCLE
  5
D956
330
1A
100
AcDbEntity
  8
0
100
AcDbCircle
 10
169.9000000000001
 20
334.0999997425029
 30
0.0
 40
5.5
  0
LINE
  5
D957
330
1A
100
AcDbEntity
  8
0
100
AcDbLine
 10
155.442691707462
 20
374.9999997425029
 30
0.0
 11
161.4895947348661
 21
380.0739538425625
 31
0.0
  0
LINE
  5
D958
330
1A
100
AcDbEntity
  8
0
100
AcDbLine
 10
156.214036839086
 20
374.08074641076
 30
0.0
 11
162.2609398664899
 21
379.1547005108196
 31
0.0
  0
LINE
  5
D959
330
1A
100
AcDbEntity
  8
0
100
AcDbLine
 10
161.4895947348661
 20
380.0739538425625
 30
0.0
 11
157.3561514370638
 21
384.9999997425028
 31
0.0
  0
LINE
  5
D95A
330
1A
100
AcDbEntity
  8
SUNPOU
100
AcDbLine
 10
137.0
 20
380.4999997425028
 30
0.0
 11
137.0
 21
379.4999997425029
 31
0.0
  0
LINE
  5
D95B
330
1A
100
AcDbEntity
  8
SUNPOU
100
AcDbLine
 10
137.5
 20
379.9999997425028
 30
0.0
 11
136.5
 21
379.9999997425027
 31
0.0
  0
LINE
  5
D95C
330
1A
100
AcDbEntity
  8
0
100
AcDbLine
 10
166.3943831642923
 20
374.2286546108793
 30
0.0
 11
162.2609398664899
 21
379.1547005108196
 31
0.0
  0
LINE
  5
D95D
330
1A
100
AcDbEntity
  8
0
100
AcDbLine
 10
162.4088480666089
 20
380.8452989741864
 30
0.0
 11
168.4557510940128
 21
385.9192530742457
 31
0.0
  0
LINE
  5
D95E
330
1A
100
AcDbEntity
  8
0
100
AcDbLine
 10
162.4088480666089
 20
380.8452989741864
 30
0.0
 11
158.2754047688063
 21
385.7713448741268
 31
0.0
  0
LINE
  5
D95F
330
1A
100
AcDbEntity
  8
0
100
AcDbLine
 10
124.6843588832423
 20
420.5999997425028
 30
0.0
 11
117.9444456875685
 21
428.63231550722
 31
0.0
  0
LINE
  5
D960
330
1A
100
AcDbEntity
  8
0
100
AcDbLine
 10
123.9011145096431
 20
430.5999997425028
 30
0.0
 11
164.4166363238844
 21
430.5999997425028
 31
0.0
  0
LINE
  5
D961
330
1A
100
AcDbEntity
  8
0
100
AcDbLine
 10
123.7651055514998
 20
419.8286546108787
 30
0.0
 11
117.025192355826
 21
427.8609703755963
 31
0.0
  0
ARC
  5
D962
330
1A
100
AcDbEntity
  8
0
100
AcDbCircle
 10
123.9011145096431
 20
420.5999997425029
 30
0.0
 40
10.0
100
AcDbArc
 50
133.4398127675171
 51
170.0000000000014
  0
ARC
  5
D963
330
1A
100
AcDbEntity
  8
0
100
AcDbCircle
 10
123.9011145096431
 20
420.5999997425029
 30
0.0
 40
10.0
100
AcDbArc
 50
90.0
 51
126.560187232484
  0
CIRCLE
  5
D964
330
1A
100
AcDbEntity
  8
0
100
AcDbCircle
 10
93.49999999999999
 20
484.9999997425027
 30
0.0
 40
4.5
  0
LINE
  5
D965
330
1A
100
AcDbEntity
  8
0
100
AcDbLine
 10
118.5
 20
465.4999997425028
 30
0.0
 11
66.0
 21
465.4999997425028
 31
0.0
  0
LINE
  5
D966
330
1A
100
AcDbEntity
  8
0
100
AcDbLine
 10
118.5
 20
467.4999997425027
 30
0.0
 11
65.5
 21
467.4999997425027
 31
0.0
  0
ARC
  5
D967
330
1A
100
AcDbEntity
  8
0
100
AcDbCircle
 10
66.0
 20
464.9999997425028
 30
0.0
 40
0.5
100
AcDbArc
 50
90.0
 51
180.0
  0
ARC
  5
D968
330
1A
100
AcDbEntity
  8
0
100
AcDbCircle
 10
65.5
 20
465.4999997425027
 30
0.0
 40
2.0
100
AcDbArc
 50
90.0
 51
180.0
  0
LINE
  5
D969
330
1A
100
AcDbEntity
  8
0
100
AcDbLine
 10
124.6843588832423
 20
420.5999997425028
 30
0.0
 11
163.4832020277681
 21
420.5999997425029
 31
0.0
  0
ARC
  5
D96A
330
1A
100
AcDbEntity
  8
0
100
AcDbCircle
 10
164.4166363238844
 20
420.5999997425029
 30
0.0
 40
10.0
100
AcDbArc
 50
350.0000000000014
 51
36.56018723248664
  0
LINE
  5
D96B
330
1A
100
AcDbEntity
  8
0
100
AcDbLine
 10
164.2545471593919
 20
419.68074641076
 30
0.0
 11
172.4489520886018
 21
426.5566685645772
 31
0.0
  0
LINE
  5
D96C
330
1A
100
AcDbEntity
  8
0
100
AcDbLine
 10
163.4832020277681
 20
420.5999997425029
 30
0.0
 11
171.6776069569778
 21
427.4759218963201
 31
0.0
  0
ARC
  5
D96D
330
1A
100
AcDbEntity
  8
0
100
AcDbCircle
 10
164.4166363238844
 20
420.5999997425029
 30
0.0
 40
10.0
100
AcDbArc
 50
43.43981276751479
 51
90.0
  0
LINE
  5
D96E
330
1A
100
AcDbEntity
  8
0
100
AcDbLine
 10
265.2647138540065
 20
418.8635179658334
 30
0.0
 11
259.4557510940128
 21
385.9192530742457
 31
0.0
  0
LINE
  5
D96F
330
1A
100
AcDbEntity
  8
0
100
AcDbLine
 10
255.2545471593919
 20
419.6807464107601
 30
0.0
 11
249.2754047688063
 21
385.7713448741269
 31
0.0
  0
LINE
  5
D970
330
1A
100
AcDbEntity
  8
0
100
AcDbLine
 10
205.0530369795211
 20
422.3364815191721
 30
0.0
 11
198.6056168357077
 21
385.7713448741265
 31
0.0
  0
LINE
  5
D971
330
1A
100
AcDbEntity
  8
0
100
AcDbLine
 10
214.7651055514998
 20
419.8286546108787
 30
0.0
 11
208.7859631609142
 21
385.9192530742459
 31
0.0
  0
LINE
  5
D972
330
1A
100
AcDbEntity
  8
0
100
AcDbLine
 10
296.053036979521
 20
422.3364815191721
 30
0.0
 11
289.6056168357077
 21
385.7713448741265
 31
0.0
  0
LINE
  5
D973
330
1A
100
AcDbEntity
  8
0
100
AcDbLine
 10
305.7651055514998
 20
419.8286546108787
 30
0.0
 11
299.7859631609142
 21
385.9192530742459
 31
0.0
  0
LINE
  5
D974
330
1A
100
AcDbEntity
  8
0
100
AcDbLine
 10
257.3943831642923
 20
374.2286546108793
 30
0.0
 11
253.2609398664899
 21
379.1547005108196
 31
0.0
  0
LINE
  5
D975
330
1A
100
AcDbEntity
  8
0
100
AcDbLine
 10
253.4088480666089
 20
380.8452989741864
 30
0.0
 11
259.4557510940128
 21
385.9192530742457
 31
0.0
  0
CIRCLE
  5
D976
330
1A
100
AcDbEntity
  8
0
100
AcDbCircle
 10
260.9000000000001
 20
334.0999997425029
 30
0.0
 40
5.5
  0
LINE
  5
D977
330
1A
100
AcDbEntity
  8
0
100
AcDbLine
 10
257.3943831642923
 20
374.2286546108791
 30
0.0
 11
250.946963020479
 21
337.6635179658336
 31
0.0
  0
LINE
  5
D978
330
1A
100
AcDbEntity
  8
0
100
AcDbLine
 10
247.214036839086
 20
374.0807464107601
 30
0.0
 11
241.2348944485004
 21
340.1713448741268
 31
0.0
  0
LINE
  5
D979
330
1A
100
AcDbEntity
  8
0
100
AcDbLine
 10
206.7245952311937
 20
374.228654610879
 30
0.0
 11
200.7454528406083
 21
340.3192530742456
 31
0.0
  0
LINE
  5
D97A
330
1A
100
AcDbEntity
  8
0
100
AcDbLine
 10
196.5442489059874
 20
374.0807464107604
 30
0.0
 11
190.7352861459937
 21
341.1364815191721
 31
0.0
  0
LINE
  5
D97B
330
1A
100
AcDbEntity
  8
0
100
AcDbLine
 10
200.5833636761158
 20
329.3999997425028
 30
0.0
 11
241.0988854903571
 21
329.3999997425028
 31
0.0
  0
LINE
  5
D97C
330
1A
100
AcDbEntity
  8
0
100
AcDbLine
 10
201.5167979722321
 20
339.3999997425028
 30
0.0
 11
240.3156411167576
 21
339.3999997425028
 31
0.0
  0
ARC
  5
D97D
330
1A
100
AcDbEntity
  8
0
100
AcDbCircle
 10
200.5833636761158
 20
339.3999997425028
 30
0.0
 40
10.0
100
AcDbArc
 50
223.4398127675103
 51
270.0
  0
LINE
  5
D97E
330
1A
100
AcDbEntity
  8
0
100
AcDbLine
 10
192.5510479113984
 20
333.4433309204284
 30
0.0
 11
200.7454528406083
 21
340.3192530742456
 31
0.0
  0
LINE
  5
D97F
330
1A
100
AcDbEntity
  8
0
100
AcDbLine
 10
193.3223930430222
 20
332.5240775886856
 30
0.0
 11
201.5167979722319
 21
339.3999997425028
 31
0.0
  0
ARC
  5
D980
330
1A
100
AcDbEntity
  8
0
100
AcDbCircle
 10
241.0988854903571
 20
339.3999997425028
 30
0.0
 40
10.0
100
AcDbArc
 50
270.0
 51
306.5601872324892
  0
LINE
  5
D981
330
1A
100
AcDbEntity
  8
0
100
AcDbLine
 10
247.9748076441742
 20
332.1390291094093
 30
0.0
 11
241.2348944485002
 21
340.1713448741268
 31
0.0
  0
LINE
  5
D982
330
1A
100
AcDbEntity
  8
0
100
AcDbLine
 10
247.0555543124315
 20
331.3676839777855
 30
0.0
 11
240.3156411167576
 21
339.3999997425028
 31
0.0
  0
ARC
  5
D983
330
1A
100
AcDbEntity
  8
0
100
AcDbCircle
 10
241.0988854903571
 20
339.3999997425028
 30
0.0
 40
10.0
100
AcDbArc
 50
313.4398127675172
 51
350.0000000000025
  0
LINE
  5
D984
330
1A
100
AcDbEntity
  8
0
100
AcDbLine
 10
207.6438485629365
 20
374.9999997425029
 30
0.0
 11
246.442691707462
 21
374.9999997425029
 31
0.0
  0
LINE
  5
D985
330
1A
100
AcDbEntity
  8
0
100
AcDbLine
 10
209.5573082925378
 20
384.9999997425029
 30
0.0
 11
248.3561514370635
 21
384.9999997425028
 31
0.0
  0
LINE
  5
D986
330
1A
100
AcDbEntity
  8
0
100
AcDbLine
 10
196.5442489059874
 20
374.0807464107604
 30
0.0
 11
202.5911519333913
 21
379.1547005108196
 31
0.0
  0
LINE
  5
D987
330
1A
100
AcDbEntity
  8
0
100
AcDbLine
 10
207.6438485629365
 20
374.9999997425028
 30
0.0
 11
203.5104052651341
 21
379.9260456424436
 31
0.0
  0
LINE
  5
D988
330
1A
100
AcDbEntity
  8
0
100
AcDbLine
 10
206.7245952311937
 20
374.228654610879
 30
0.0
 11
202.5911519333913
 21
379.1547005108196
 31
0.0
  0
LINE
  5
D989
330
1A
100
AcDbEntity
  8
0
100
AcDbLine
 10
203.5104052651338
 20
379.9260456424435
 30
0.0
 11
209.557308292538
 21
384.9999997425029
 31
0.0
  0
LINE
  5
D98A
330
1A
100
AcDbEntity
  8
0
100
AcDbLine
 10
202.7390601335101
 20
380.8452989741862
 30
0.0
 11
208.7859631609142
 21
385.9192530742459
 31
0.0
  0
LINE
  5
D98B
330
1A
100
AcDbEntity
  8
0
100
AcDbLine
 10
202.7390601335101
 20
380.8452989741862
 30
0.0
 11
198.6056168357077
 21
385.7713448741267
 31
0.0
  0
LINE
  5
D98C
330
1A
100
AcDbEntity
  8
0
100
AcDbLine
 10
246.442691707462
 20
374.9999997425029
 30
0.0
 11
252.4895947348662
 21
380.0739538425625
 31
0.0
  0
LINE
  5
D98D
330
1A
100
AcDbEntity
  8
0
100
AcDbLine
 10
247.214036839086
 20
374.08074641076
 30
0.0
 11
253.2609398664899
 21
379.1547005108196
 31
0.0
  0
LINE
  5
D98E
330
1A
100
AcDbEntity
  8
SUNPOU
100
AcDbLine
 10
228.0
 20
380.4999997425028
 30
0.0
 11
228.0
 21
379.4999997425029
 31
0.0
  0
LINE
  5
D98F
330
1A
100
AcDbEntity
  8
SUNPOU
100
AcDbLine
 10
228.5
 20
379.9999997425028
 30
0.0
 11
227.5
 21
379.9999997425027
 31
0.0
  0
LINE
  5
D990
330
1A
100
AcDbEntity
  8
0
100
AcDbLine
 10
252.4895947348662
 20
380.0739538425625
 30
0.0
 11
248.3561514370638
 21
384.9999997425028
 31
0.0
  0
LINE
  5
D991
330
1A
100
AcDbEntity
  8
0
100
AcDbLine
 10
253.4088480666089
 20
380.8452989741864
 30
0.0
 11
249.2754047688063
 21
385.7713448741268
 31
0.0
  0
LINE
  5
D992
330
1A
100
AcDbEntity
  8
0
100
AcDbLine
 10
297.7245952311937
 20
374.228654610879
 30
0.0
 11
291.7454528406083
 21
340.3192530742456
 31
0.0
  0
LINE
  5
D993
330
1A
100
AcDbEntity
  8
0
100
AcDbLine
 10
287.5442489059874
 20
374.0807464107604
 30
0.0
 11
281.7352861459938
 21
341.1364815191721
 31
0.0
  0
ARC
  5
D994
330
1A
100
AcDbEntity
  8
0
100
AcDbCircle
 10
291.5833636761158
 20
339.3999997425028
 30
0.0
 40
10.0
100
AcDbArc
 50
223.4398127675103
 51
270.0
  0
LINE
  5
D995
330
1A
100
AcDbEntity
  8
0
100
AcDbLine
 10
283.5510479113984
 20
333.4433309204284
 30
0.0
 11
291.7454528406083
 21
340.3192530742456
 31
0.0
  0
LINE
  5
D996
330
1A
100
AcDbEntity
  8
0
100
AcDbLine
 10
284.3223930430222
 20
332.5240775886856
 30
0.0
 11
292.5167979722319
 21
339.3999997425028
 31
0.0
  0
ARC
  5
D997
330
1A
100
AcDbEntity
  8
0
100
AcDbCircle
 10
291.5833636761158
 20
339.3999997425028
 30
0.0
 40
10.0
100
AcDbArc
 50
170.0000000000025
 51
216.5601872324866
  0
LINE
  5
D998
330
1A
100
AcDbEntity
  8
0
100
AcDbLine
 10
287.5442489059874
 20
374.0807464107604
 30
0.0
 11
293.5911519333913
 21
379.1547005108196
 31
0.0
  0
LINE
  5
D999
330
1A
100
AcDbEntity
  8
0
100
AcDbLine
 10
298.6438485629364
 20
374.9999997425028
 30
0.0
 11
294.5104052651341
 21
379.9260456424436
 31
0.0
  0
LINE
  5
D99A
330
1A
100
AcDbEntity
  8
0
100
AcDbLine
 10
297.7245952311937
 20
374.228654610879
 30
0.0
 11
293.5911519333913
 21
379.1547005108196
 31
0.0
  0
LINE
  5
D99B
330
1A
100
AcDbEntity
  8
0
100
AcDbLine
 10
294.5104052651339
 20
379.9260456424435
 30
0.0
 11
300.557308292538
 21
384.9999997425029
 31
0.0
  0
LINE
  5
D99C
330
1A
100
AcDbEntity
  8
0
100
AcDbLine
 10
293.7390601335101
 20
380.8452989741862
 30
0.0
 11
299.7859631609142
 21
385.9192530742459
 31
0.0
  0
LINE
  5
D99D
330
1A
100
AcDbEntity
  8
0
100
AcDbLine
 10
293.7390601335101
 20
380.8452989741862
 30
0.0
 11
289.6056168357077
 21
385.7713448741267
 31
0.0
  0
LINE
  5
D99E
330
1A
100
AcDbEntity
  8
SUNPOU
100
AcDbLine
 10
319.0
 20
380.4999997425028
 30
0.0
 11
319.0
 21
379.4999997425029
 31
0.0
  0
LINE
  5
D99F
330
1A
100
AcDbEntity
  8
SUNPOU
100
AcDbLine
 10
319.5
 20
379.9999997425028
 30
0.0
 11
318.5
 21
379.9999997425027
 31
0.0
  0
ARC
  5
D9A0
330
1A
100
AcDbEntity
  8
0
100
AcDbCircle
 10
255.4166363238844
 20
420.5999997425029
 30
0.0
 40
10.0
100
AcDbArc
 50
43.43981276751031
 51
90.0
  0
LINE
  5
D9A1
330
1A
100
AcDbEntity
  8
0
100
AcDbLine
 10
255.2545471593919
 20
419.68074641076
 30
0.0
 11
263.4489520886018
 21
426.5566685645772
 31
0.0
  0
LINE
  5
D9A2
330
1A
100
AcDbEntity
  8
0
100
AcDbLine
 10
254.4832020277681
 20
420.5999997425029
 30
0.0
 11
262.6776069569778
 21
427.4759218963201
 31
0.0
  0
LINE
  5
D9A3
330
1A
100
AcDbEntity
  8
0
100
AcDbLine
 10
214.9011145096431
 20
430.5999997425028
 30
0.0
 11
255.4166363238844
 21
430.5999997425028
 31
0.0
  0
LINE
  5
D9A4
330
1A
100
AcDbEntity
  8
0
100
AcDbLine
 10
215.6843588832423
 20
420.5999997425028
 30
0.0
 11
254.4832020277681
 21
420.5999997425029
 31
0.0
  0
LINE
  5
D9A5
330
1A
100
AcDbEntity
  8
0
100
AcDbLine
 10
214.7651055514998
 20
419.8286546108787
 30
0.0
 11
208.025192355826
 21
427.8609703755963
 31
0.0
  0
LINE
  5
D9A6
330
1A
100
AcDbEntity
  8
0
100
AcDbLine
 10
215.6843588832423
 20
420.5999997425028
 30
0.0
 11
208.9444456875685
 21
428.63231550722
 31
0.0
  0
ARC
  5
D9A7
330
1A
100
AcDbEntity
  8
0
100
AcDbCircle
 10
214.9011145096431
 20
420.5999997425029
 30
0.0
 40
10.0
100
AcDbArc
 50
133.4398127675171
 51
170.0000000000025
  0
ARC
  5
D9A8
330
1A
100
AcDbEntity
  8
0
100
AcDbCircle
 10
214.9011145096431
 20
420.5999997425029
 30
0.0
 40
10.0
100
AcDbArc
 50
90.0
 51
126.5601872324892
  0
ARC
  5
D9A9
330
1A
100
AcDbEntity
  8
0
100
AcDbCircle
 10
255.4166363238844
 20
420.5999997425029
 30
0.0
 40
10.0
100
AcDbArc
 50
350.0000000000025
 51
36.56018723248664
  0
LINE
  5
D9AA
330
1A
100
AcDbEntity
  8
0
100
AcDbLine
 10
305.7651055514998
 20
419.8286546108787
 30
0.0
 11
299.025192355826
 21
427.8609703755963
 31
0.0
  0
LINE
  5
D9AB
330
1A
100
AcDbEntity
  8
0
100
AcDbLine
 10
306.6843588832423
 20
420.5999997425028
 30
0.0
 11
299.9444456875685
 21
428.63231550722
 31
0.0
  0
ARC
  5
D9AC
330
1A
100
AcDbEntity
  8
0
100
AcDbCircle
 10
305.9011145096431
 20
420.5999997425029
 30
0.0
 40
10.0
100
AcDbArc
 50
133.4398127675171
 51
170.0000000000025
  0
ARC
  5
D9AD
330
1A
100
AcDbEntity
  8
0
100
AcDbCircle
 10
305.9011145096431
 20
420.5999997425029
 30
0.0
 40
10.0
100
AcDbArc
 50
90.0
 51
126.5601872324892
  0
LINE
  5
D9AE
330
1A
100
AcDbEntity
  8
0
100
AcDbLine
 10
116.5
 20
504.9999997425028
 30
0.0
 11
70.5
 21
504.9999997425027
 31
0.0
  0
LINE
  5
D9AF
330
1A
100
AcDbEntity
  8
0
100
AcDbLine
 10
68.5
 20
502.9999997425027
 30
0.0
 11
70.5
 21
504.9999997425027
 31
0.0
  0
LINE
  5
D9B0
330
1A
100
AcDbEntity
  8
0
100
AcDbLine
 10
116.5
 20
504.9999997425028
 30
0.0
 11
118.5
 21
502.9999997425028
 31
0.0
  0
LINE
  5
D9B1
330
1A
100
AcDbEntity
  8
0
100
AcDbLine
 10
553.4999999999997
 20
464.9999997425028
 30
0.0
 11
553.4999999999997
 21
502.9999997425028
 31
0.0
  0
LINE
  5
D9B3
330
1A
100
AcDbEntity
  8
0
100
AcDbLine
 10
447.2647138540065
 20
418.8635179658334
 30
0.0
 11
441.4557510940128
 21
385.9192530742457
 31
0.0
  0
LINE
  5
D9B4
330
1A
100
AcDbEntity
  8
0
100
AcDbLine
 10
437.2545471593919
 20
419.6807464107601
 30
0.0
 11
431.2754047688063
 21
385.7713448741269
 31
0.0
  0
LINE
  5
D9B5
330
1A
100
AcDbEntity
  8
0
100
AcDbLine
 10
387.053036979521
 20
422.3364815191721
 30
0.0
 11
380.6056168357077
 21
385.7713448741265
 31
0.0
  0
LINE
  5
D9B6
330
1A
100
AcDbEntity
  8
0
100
AcDbLine
 10
396.7651055514998
 20
419.8286546108787
 30
0.0
 11
390.7859631609142
 21
385.9192530742459
 31
0.0
  0
LINE
  5
D9B7
330
1A
100
AcDbEntity
  8
0
100
AcDbLine
 10
356.2647138540065
 20
418.8635179658334
 30
0.0
 11
350.4557510940129
 21
385.9192530742457
 31
0.0
  0
LINE
  5
D9B8
330
1A
100
AcDbEntity
  8
0
100
AcDbLine
 10
346.2545471593919
 20
419.6807464107601
 30
0.0
 11
340.2754047688063
 21
385.7713448741269
 31
0.0
  0
LINE
  5
D9B9
330
1A
100
AcDbEntity
  8
0
100
AcDbLine
 10
389.6438485629365
 20
374.9999997425028
 30
0.0
 11
385.5104052651341
 21
379.9260456424436
 31
0.0
  0
LINE
  5
D9BA
330
1A
100
AcDbEntity
  8
0
100
AcDbLine
 10
385.5104052651339
 20
379.9260456424435
 30
0.0
 11
391.557308292538
 21
384.9999997425029
 31
0.0
  0
LINE
  5
D9BB
330
1A
100
AcDbEntity
  8
0
100
AcDbLine
 10
388.7245952311937
 20
374.228654610879
 30
0.0
 11
384.5911519333913
 21
379.1547005108196
 31
0.0
  0
LINE
  5
D9BC
330
1A
100
AcDbEntity
  8
0
100
AcDbLine
 10
384.7390601335101
 20
380.8452989741862
 30
0.0
 11
390.7859631609142
 21
385.9192530742459
 31
0.0
  0
LINE
  5
D9BD
330
1A
100
AcDbEntity
  8
0
100
AcDbLine
 10
388.7245952311937
 20
374.228654610879
 30
0.0
 11
382.7454528406083
 21
340.3192530742456
 31
0.0
  0
LINE
  5
D9BE
330
1A
100
AcDbEntity
  8
0
100
AcDbLine
 10
382.5833636761158
 20
329.3999997425028
 30
0.0
 11
423.0988854903571
 21
329.3999997425028
 31
0.0
  0
LINE
  5
D9BF
330
1A
100
AcDbEntity
  8
0
100
AcDbLine
 10
383.5167979722321
 20
339.3999997425028
 30
0.0
 11
422.3156411167576
 21
339.3999997425028
 31
0.0
  0
LINE
  5
D9C0
330
1A
100
AcDbEntity
  8
0
100
AcDbLine
 10
378.5442489059874
 20
374.0807464107604
 30
0.0
 11
372.7352861459938
 21
341.1364815191721
 31
0.0
  0
LINE
  5
D9C1
330
1A
100
AcDbEntity
  8
0
100
AcDbLine
 10
348.3943831642923
 20
374.2286546108791
 30
0.0
 11
341.946963020479
 21
337.6635179658336
 31
0.0
  0
LINE
  5
D9C2
330
1A
100
AcDbEntity
  8
0
100
AcDbLine
 10
338.214036839086
 20
374.0807464107601
 30
0.0
 11
332.2348944485004
 21
340.1713448741268
 31
0.0
  0
CIRCLE
  5
D9C3
330
1A
100
AcDbEntity
  8
0
100
AcDbCircle
 10
351.9000000000001
 20
334.0999997425029
 30
0.0
 40
5.5
  0
ARC
  5
D9C4
330
1A
100
AcDbEntity
  8
0
100
AcDbCircle
 10
332.0988854903571
 20
339.3999997425028
 30
0.0
 40
10.0
100
AcDbArc
 50
270.0
 51
306.5601872324892
  0
LINE
  5
D9C5
330
1A
100
AcDbEntity
  8
0
100
AcDbLine
 10
338.0555543124315
 20
331.3676839777855
 30
0.0
 11
331.3156411167577
 21
339.3999997425028
 31
0.0
  0
LINE
  5
D9C6
330
1A
100
AcDbEntity
  8
0
100
AcDbLine
 10
338.9748076441742
 20
332.1390291094093
 30
0.0
 11
332.2348944485002
 21
340.1713448741268
 31
0.0
  0
ARC
  5
D9C7
330
1A
100
AcDbEntity
  8
0
100
AcDbCircle
 10
332.0988854903571
 20
339.3999997425028
 30
0.0
 40
10.0
100
AcDbArc
 50
313.4398127675172
 51
350.0000000000025
  0
ARC
  5
D9C8
330
1A
100
AcDbEntity
  8
0
100
AcDbCircle
 10
382.5833636761158
 20
339.3999997425028
 30
0.0
 40
10.0
100
AcDbArc
 50
223.4398127675103
 51
270.0
  0
LINE
  5
D9C9
330
1A
100
AcDbEntity
  8
0
100
AcDbLine
 10
374.5510479113984
 20
333.4433309204284
 30
0.0
 11
382.7454528406083
 21
340.3192530742456
 31
0.0
  0
LINE
  5
D9CA
330
1A
100
AcDbEntity
  8
0
100
AcDbLine
 10
375.3223930430222
 20
332.5240775886856
 30
0.0
 11
383.5167979722319
 21
339.3999997425028
 31
0.0
  0
ARC
  5
D9CB
330
1A
100
AcDbEntity
  8
0
100
AcDbCircle
 10
382.5833636761158
 20
339.3999997425028
 30
0.0
 40
10.0
100
AcDbArc
 50
170.0000000000025
 51
216.5601872324866
  0
LINE
  5
D9CC
330
1A
100
AcDbEntity
  8
0
100
AcDbLine
 10
337.442691707462
 20
374.9999997425029
 30
0.0
 11
343.4895947348662
 21
380.0739538425625
 31
0.0
  0
LINE
  5
D9CD
330
1A
100
AcDbEntity
  8
0
100
AcDbLine
 10
338.214036839086
 20
374.08074641076
 30
0.0
 11
344.2609398664899
 21
379.1547005108196
 31
0.0
  0
LINE
  5
D9CE
330
1A
100
AcDbEntity
  8
0
100
AcDbLine
 10
348.3943831642923
 20
374.2286546108793
 30
0.0
 11
344.2609398664899
 21
379.1547005108196
 31
0.0
  0
LINE
  5
D9CF
330
1A
100
AcDbEntity
  8
0
100
AcDbLine
 10
344.4088480666089
 20
380.8452989741864
 30
0.0
 11
350.4557510940129
 21
385.9192530742457
 31
0.0
  0
LINE
  5
D9D0
330
1A
100
AcDbEntity
  8
0
100
AcDbLine
 10
343.4895947348662
 20
380.0739538425625
 30
0.0
 11
339.3561514370638
 21
384.9999997425028
 31
0.0
  0
LINE
  5
D9D1
330
1A
100
AcDbEntity
  8
0
100
AcDbLine
 10
344.4088480666089
 20
380.8452989741864
 30
0.0
 11
340.2754047688063
 21
385.7713448741268
 31
0.0
  0
LINE
  5
D9D2
330
1A
100
AcDbEntity
  8
0
100
AcDbLine
 10
378.5442489059874
 20
374.0807464107604
 30
0.0
 11
384.5911519333913
 21
379.1547005108196
 31
0.0
  0
LINE
  5
D9D3
330
1A
100
AcDbEntity
  8
0
100
AcDbLine
 10
384.7390601335101
 20
380.8452989741862
 30
0.0
 11
380.6056168357077
 21
385.7713448741267
 31
0.0
  0
LINE
  5
D9D4
330
1A
100
AcDbEntity
  8
0
100
AcDbLine
 10
439.3943831642923
 20
374.2286546108791
 30
0.0
 11
432.946963020479
 21
337.6635179658336
 31
0.0
  0
LINE
  5
D9D5
330
1A
100
AcDbEntity
  8
0
100
AcDbLine
 10
429.2140368390859
 20
374.0807464107601
 30
0.0
 11
423.2348944485003
 21
340.1713448741268
 31
0.0
  0
CIRCLE
  5
D9D6
330
1A
100
AcDbEntity
  8
0
100
AcDbCircle
 10
442.9000000000001
 20
334.0999997425029
 30
0.0
 40
5.5
  0
ARC
  5
D9D7
330
1A
100
AcDbEntity
  8
0
100
AcDbCircle
 10
423.0988854903571
 20
339.3999997425028
 30
0.0
 40
10.0
100
AcDbArc
 50
270.0
 51
306.5601872324892
  0
LINE
  5
D9D8
330
1A
100
AcDbEntity
  8
0
100
AcDbLine
 10
429.0555543124314
 20
331.3676839777855
 30
0.0
 11
422.3156411167576
 21
339.3999997425028
 31
0.0
  0
LINE
  5
D9D9
330
1A
100
AcDbEntity
  8
0
100
AcDbLine
 10
429.9748076441742
 20
332.1390291094093
 30
0.0
 11
423.2348944485002
 21
340.1713448741268
 31
0.0
  0
ARC
  5
D9DA
330
1A
100
AcDbEntity
  8
0
100
AcDbCircle
 10
423.0988854903571
 20
339.3999997425028
 30
0.0
 40
10.0
100
AcDbArc
 50
313.4398127675172
 51
350.0000000000025
  0
LINE
  5
D9DB
330
1A
100
AcDbEntity
  8
0
100
AcDbLine
 10
389.6438485629365
 20
374.9999997425029
 30
0.0
 11
428.442691707462
 21
374.9999997425029
 31
0.0
  0
LINE
  5
D9DC
330
1A
100
AcDbEntity
  8
0
100
AcDbLine
 10
391.5573082925377
 20
384.9999997425029
 30
0.0
 11
430.3561514370635
 21
384.9999997425028
 31
0.0
  0
LINE
  5
D9DD
330
1A
100
AcDbEntity
  8
SUNPOU
100
AcDbLine
 10
410.0
 20
380.4999997425028
 30
0.0
 11
410.0
 21
379.4999997425029
 31
0.0
  0
LINE
  5
D9DE
330
1A
100
AcDbEntity
  8
SUNPOU
100
AcDbLine
 10
410.5
 20
379.9999997425028
 30
0.0
 11
409.4999999999999
 21
379.9999997425027
 31
0.0
  0
LINE
  5
D9DF
330
1A
100
AcDbEntity
  8
0
100
AcDbLine
 10
428.442691707462
 20
374.9999997425029
 30
0.0
 11
434.4895947348661
 21
380.0739538425625
 31
0.0
  0
LINE
  5
D9E0
330
1A
100
AcDbEntity
  8
0
100
AcDbLine
 10
429.2140368390859
 20
374.08074641076
 30
0.0
 11
435.2609398664899
 21
379.1547005108196
 31
0.0
  0
LINE
  5
D9E1
330
1A
100
AcDbEntity
  8
0
100
AcDbLine
 10
439.3943831642923
 20
374.2286546108793
 30
0.0
 11
435.2609398664899
 21
379.1547005108196
 31
0.0
  0
LINE
  5
D9E2
330
1A
100
AcDbEntity
  8
0
100
AcDbLine
 10
435.4088480666089
 20
380.8452989741864
 30
0.0
 11
441.4557510940128
 21
385.9192530742457
 31
0.0
  0
LINE
  5
D9E3
330
1A
100
AcDbEntity
  8
0
100
AcDbLine
 10
434.4895947348661
 20
380.0739538425625
 30
0.0
 11
430.3561514370637
 21
384.9999997425028
 31
0.0
  0
LINE
  5
D9E4
330
1A
100
AcDbEntity
  8
0
100
AcDbLine
 10
435.4088480666089
 20
380.8452989741864
 30
0.0
 11
431.2754047688063
 21
385.7713448741268
 31
0.0
  0
ARC
  5
D9E5
330
1A
100
AcDbEntity
  8
0
100
AcDbCircle
 10
396.9011145096431
 20
420.5999997425029
 30
0.0
 40
10.0
100
AcDbArc
 50
133.4398127675171
 51
170.0000000000025
  0
LINE
  5
D9E6
330
1A
100
AcDbEntity
  8
0
100
AcDbLine
 10
346.2545471593919
 20
419.68074641076
 30
0.0
 11
354.4489520886018
 21
426.5566685645772
 31
0.0
  0
LINE
  5
D9E7
330
1A
100
AcDbEntity
  8
0
100
AcDbLine
 10
345.4832020277681
 20
420.5999997425029
 30
0.0
 11
353.6776069569778
 21
427.4759218963201
 31
0.0
  0
ARC
  5
D9E8
330
1A
100
AcDbEntity
  8
0
100
AcDbCircle
 10
346.4166363238844
 20
420.5999997425029
 30
0.0
 40
10.0
100
AcDbArc
 50
43.43981276751031
 51
90.0
  0
ARC
  5
D9E9
330
1A
100
AcDbEntity
  8
0
100
AcDbCircle
 10
346.4166363238844
 20
420.5999997425029
 30
0.0
 40
10.0
100
AcDbArc
 50
350.0000000000025
 51
36.56018723248664
  0
LINE
  5
D9EA
330
1A
100
AcDbEntity
  8
0
100
AcDbLine
 10
396.9011145096431
 20
430.5999997425028
 30
0.0
 11
437.4166363238844
 21
430.5999997425028
 31
0.0
  0
LINE
  5
D9EB
330
1A
100
AcDbEntity
  8
0
100
AcDbLine
 10
397.6843588832423
 20
420.5999997425028
 30
0.0
 11
436.4832020277681
 21
420.5999997425029
 31
0.0
  0
LINE
  5
D9EC
330
1A
100
AcDbEntity
  8
0
100
AcDbLine
 10
396.7651055514998
 20
419.8286546108787
 30
0.0
 11
390.025192355826
 21
427.8609703755963
 31
0.0
  0
LINE
  5
D9ED
330
1A
100
AcDbEntity
  8
0
100
AcDbLine
 10
397.6843588832423
 20
420.5999997425028
 30
0.0
 11
390.9444456875685
 21
428.63231550722
 31
0.0
  0
ARC
  5
D9EE
330
1A
100
AcDbEntity
  8
0
100
AcDbCircle
 10
396.9011145096431
 20
420.5999997425029
 30
0.0
 40
10.0
100
AcDbArc
 50
90.0
 51
126.5601872324892
  0
ARC
  5
D9EF
330
1A
100
AcDbEntity
  8
0
100
AcDbCircle
 10
437.4166363238844
 20
420.5999997425029
 30
0.0
 40
10.0
100
AcDbArc
 50
350.0000000000025
 51
36.56018723248664
  0
LINE
  5
D9F0
330
1A
100
AcDbEntity
  8
0
100
AcDbLine
 10
437.2545471593919
 20
419.68074641076
 30
0.0
 11
445.4489520886018
 21
426.5566685645772
 31
0.0
  0
LINE
  5
D9F1
330
1A
100
AcDbEntity
  8
0
100
AcDbLine
 10
436.4832020277681
 20
420.5999997425029
 30
0.0
 11
444.6776069569778
 21
427.4759218963201
 31
0.0
  0
ARC
  5
D9F2
330
1A
100
AcDbEntity
  8
0
100
AcDbCircle
 10
437.4166363238844
 20
420.5999997425029
 30
0.0
 40
10.0
100
AcDbArc
 50
43.43981276751031
 51
90.0
  0
LINE
  5
D9F4
330
1A
100
AcDbEntity
  8
0
100
AcDbLine
 10
538.2647138540064
 20
418.8635179658334
 30
0.0
 11
532.4557510940128
 21
385.9192530742457
 31
0.0
  0
LINE
  5
D9F5
330
1A
100
AcDbEntity
  8
0
100
AcDbLine
 10
528.2545471593919
 20
419.6807464107601
 30
0.0
 11
522.2754047688063
 21
385.7713448741269
 31
0.0
  0
LINE
  5
D9F6
330
1A
100
AcDbEntity
  8
0
100
AcDbLine
 10
478.053036979521
 20
422.3364815191721
 30
0.0
 11
471.6056168357076
 21
385.7713448741265
 31
0.0
  0
LINE
  5
D9F7
330
1A
100
AcDbEntity
  8
0
100
AcDbLine
 10
487.7651055514998
 20
419.8286546108787
 30
0.0
 11
481.7859631609142
 21
385.9192530742459
 31
0.0
  0
LINE
  5
D9F8
330
1A
100
AcDbEntity
  8
0
100
AcDbLine
 10
583.4999999999999
 20
318.9999997425027
 30
0.0
 11
583.4999999999999
 21
440.9999997425027
 31
0.0
  0
ARC
  5
D9F9
330
1A
100
AcDbEntity
  8
0
100
AcDbCircle
 10
514.0988854903571
 20
339.3999997425028
 30
0.0
 40
10.0
100
AcDbArc
 50
270.0
 51
306.5601872324892
  0
LINE
  5
D9FA
330
1A
100
AcDbEntity
  8
0
100
AcDbLine
 10
520.0555543124314
 20
331.3676839777855
 30
0.0
 11
513.3156411167576
 21
339.3999997425028
 31
0.0
  0
LINE
  5
D9FB
330
1A
100
AcDbEntity
  8
0
100
AcDbLine
 10
520.9748076441742
 20
332.1390291094093
 30
0.0
 11
514.2348944485002
 21
340.1713448741268
 31
0.0
  0
LINE
  5
D9FC
330
1A
100
AcDbEntity
  8
0
100
AcDbLine
 10
520.214036839086
 20
374.0807464107601
 30
0.0
 11
514.2348944485004
 21
340.1713448741268
 31
0.0
  0
LINE
  5
D9FD
330
1A
100
AcDbEntity
  8
0
100
AcDbLine
 10
480.6438485629364
 20
374.9999997425029
 30
0.0
 11
519.442691707462
 21
374.9999997425029
 31
0.0
  0
LINE
  5
D9FE
330
1A
100
AcDbEntity
  8
0
100
AcDbLine
 10
482.5573082925378
 20
384.9999997425029
 30
0.0
 11
521.3561514370635
 21
384.9999997425028
 31
0.0
  0
LINE
  5
D9FF
330
1A
100
AcDbEntity
  8
0
100
AcDbLine
 10
479.7245952311937
 20
374.228654610879
 30
0.0
 11
473.7454528406082
 21
340.3192530742456
 31
0.0
  0
LINE
  5
DA00
330
1A
100
AcDbEntity
  8
0
100
AcDbLine
 10
469.5442489059874
 20
374.0807464107604
 30
0.0
 11
463.7352861459937
 21
341.1364815191721
 31
0.0
  0
LINE
  5
DA01
330
1A
100
AcDbEntity
  8
0
100
AcDbLine
 10
473.5833636761157
 20
329.3999997425028
 30
0.0
 11
514.0988854903571
 21
329.3999997425028
 31
0.0
  0
LINE
  5
DA02
330
1A
100
AcDbEntity
  8
0
100
AcDbLine
 10
474.5167979722321
 20
339.3999997425028
 30
0.0
 11
513.3156411167576
 21
339.3999997425028
 31
0.0
  0
ARC
  5
DA03
330
1A
100
AcDbEntity
  8
0
100
AcDbCircle
 10
473.5833636761157
 20
339.3999997425028
 30
0.0
 40
10.0
100
AcDbArc
 50
223.4398127675103
 51
270.0
  0
LINE
  5
DA04
330
1A
100
AcDbEntity
  8
0
100
AcDbLine
 10
465.5510479113984
 20
333.4433309204284
 30
0.0
 11
473.7454528406082
 21
340.3192530742456
 31
0.0
  0
LINE
  5
DA05
330
1A
100
AcDbEntity
  8
0
100
AcDbLine
 10
466.3223930430222
 20
332.5240775886856
 30
0.0
 11
474.5167979722318
 21
339.3999997425028
 31
0.0
  0
ARC
  5
DA06
330
1A
100
AcDbEntity
  8
0
100
AcDbCircle
 10
473.5833636761157
 20
339.3999997425028
 30
0.0
 40
10.0
100
AcDbArc
 50
170.0000000000025
 51
216.5601872324866
  0
LINE
  5
DA07
330
1A
100
AcDbEntity
  8
0
100
AcDbLine
 10
469.5442489059874
 20
374.0807464107604
 30
0.0
 11
475.5911519333912
 21
379.1547005108196
 31
0.0
  0
LINE
  5
DA08
330
1A
100
AcDbEntity
  8
0
100
AcDbLine
 10
480.6438485629364
 20
374.9999997425028
 30
0.0
 11
476.5104052651341
 21
379.9260456424436
 31
0.0
  0
LINE
  5
DA09
330
1A
100
AcDbEntity
  8
0
100
AcDbLine
 10
479.7245952311937
 20
374.228654610879
 30
0.0
 11
475.5911519333912
 21
379.1547005108196
 31
0.0
  0
LINE
  5
DA0A
330
1A
100
AcDbEntity
  8
0
100
AcDbLine
 10
476.5104052651338
 20
379.9260456424435
 30
0.0
 11
482.5573082925379
 21
384.9999997425029
 31
0.0
  0
LINE
  5
DA0B
330
1A
100
AcDbEntity
  8
0
100
AcDbLine
 10
475.73906013351
 20
380.8452989741862
 30
0.0
 11
481.7859631609142
 21
385.9192530742459
 31
0.0
  0
LINE
  5
DA0C
330
1A
100
AcDbEntity
  8
0
100
AcDbLine
 10
475.73906013351
 20
380.8452989741862
 30
0.0
 11
471.6056168357076
 21
385.7713448741267
 31
0.0
  0
LINE
  5
DA0D
330
1A
100
AcDbEntity
  8
SUNPOU
100
AcDbLine
 10
501.0
 20
380.4999997425028
 30
0.0
 11
501.0
 21
379.4999997425029
 31
0.0
  0
LINE
  5
DA0E
330
1A
100
AcDbEntity
  8
SUNPOU
100
AcDbLine
 10
501.4999999999999
 20
379.9999997425028
 30
0.0
 11
500.4999999999999
 21
379.9999997425027
 31
0.0
  0
LINE
  5
DA0F
330
1A
100
AcDbEntity
  8
0
100
AcDbLine
 10
530.3943831642923
 20
374.2286546108791
 30
0.0
 11
523.9469630204789
 21
337.6635179658336
 31
0.0
  0
LINE
  5
DA10
330
1A
100
AcDbEntity
  8
0
100
AcDbLine
 10
542.4999999999998
 20
357.9999997425027
 30
0.0
 11
542.4999999999998
 21
321.9999997425027
 31
0.0
  0
MTEXT
  5
DA11
330
1A
100
AcDbEntity
  8
0
100
AcDbMText
 10
545.9999999999998
 20
355.4999997425027
 30
0.0
 40
26.0
 41
35.0
 71
     1
 72
     5
  1
{\fMS PGothic|b0|i0|c128|p50;kg}
 73
     1
 44
1.0
1001
ACAD
1000
MTEXTBEGIN
1070
    73
1070
     1
1070
    44
1040
1.0
1070
    74
1070
     0
1000
MTEXTEND
  0
LINE
  5
DA12
330
1A
100
AcDbEntity
  8
0
100
AcDbLine
 10
582.5
 20
321.9999997425027
 30
0.0
 11
582.4999999999995
 21
357.9999997425027
 31
0.0
  0
LINE
  5
DA13
330
1A
100
AcDbEntity
  8
0
100
AcDbLine
 10
544.4999999999997
 20
319.9999997425027
 30
0.0
 11
580.4999999999999
 21
319.9999997425027
 31
0.0
  0
CIRCLE
  5
DA14
330
1A
100
AcDbEntity
  8
0
100
AcDbCircle
 10
533.9000000000001
 20
334.0999997425029
 30
0.0
 40
5.5
  0
ARC
  5
DA15
330
1A
100
AcDbEntity
  8
0
100
AcDbCircle
 10
544.4999999999997
 20
321.9999997425027
 30
0.0
 40
2.0
100
AcDbArc
 50
180.0
 51
270.0
  0
ARC
  5
DA16
330
1A
100
AcDbEntity
  8
0
100
AcDbCircle
 10
514.0988854903571
 20
339.3999997425028
 30
0.0
 40
10.0
100
AcDbArc
 50
313.4398127675172
 51
350.0000000000025
  0
ARC
  5
DA17
330
1A
100
AcDbEntity
  8
0
100
AcDbCircle
 10
580.4999999999999
 20
321.9999997425027
 30
0.0
 40
2.0
100
AcDbArc
 50
270.0
 51
0.0000000000002036
  0
LINE
  5
DA18
330
1A
100
AcDbEntity
  8
0
100
AcDbLine
 10
580.4999999999995
 20
359.9999997425027
 30
0.0
 11
544.4999999999997
 21
359.9999997425027
 31
0.0
  0
LINE
  5
DA19
330
1A
100
AcDbEntity
  8
0
100
AcDbLine
 10
519.442691707462
 20
374.9999997425029
 30
0.0
 11
525.4895947348662
 21
380.0739538425625
 31
0.0
  0
LINE
  5
DA1A
330
1A
100
AcDbEntity
  8
0
100
AcDbLine
 10
520.214036839086
 20
374.08074641076
 30
0.0
 11
526.2609398664899
 21
379.1547005108196
 31
0.0
  0
LINE
  5
DA1B
330
1A
100
AcDbEntity
  8
0
100
AcDbLine
 10
530.3943831642923
 20
374.2286546108793
 30
0.0
 11
526.2609398664899
 21
379.1547005108196
 31
0.0
  0
ARC
  5
DA1C
330
1A
100
AcDbEntity
  8
0
100
AcDbCircle
 10
544.4999999999997
 20
357.9999997425027
 30
0.0
 40
2.0
100
AcDbArc
 50
90.0
 51
180.0
  0
LINE
  5
DA1D
330
1A
100
AcDbEntity
  8
0
100
AcDbLine
 10
526.4088480666089
 20
380.8452989741864
 30
0.0
 11
532.4557510940128
 21
385.9192530742457
 31
0.0
  0
LINE
  5
DA1E
330
1A
100
AcDbEntity
  8
0
100
AcDbLine
 10
525.4895947348662
 20
380.0739538425625
 30
0.0
 11
521.3561514370637
 21
384.9999997425028
 31
0.0
  0
LINE
  5
DA1F
330
1A
100
AcDbEntity
  8
0
100
AcDbLine
 10
526.4088480666089
 20
380.8452989741864
 30
0.0
 11
522.2754047688063
 21
385.7713448741268
 31
0.0
  0
ARC
  5
DA20
330
1A
100
AcDbEntity
  8
0
100
AcDbCircle
 10
580.4999999999995
 20
357.9999997425027
 30
0.0
 40
2.0
100
AcDbArc
 50
0.0
 51
90.0
  0
LINE
  5
DA21
330
1A
100
AcDbEntity
  8
0
100
AcDbLine
 10
487.9011145096431
 20
430.5999997425028
 30
0.0
 11
528.4166363238844
 21
430.5999997425028
 31
0.0
  0
LINE
  5
DA22
330
1A
100
AcDbEntity
  8
0
100
AcDbLine
 10
488.6843588832423
 20
420.5999997425028
 30
0.0
 11
527.4832020277681
 21
420.5999997425029
 31
0.0
  0
ARC
  5
DA23
330
1A
100
AcDbEntity
  8
0
100
AcDbCircle
 10
487.9011145096431
 20
420.5999997425029
 30
0.0
 40
10.0
100
AcDbArc
 50
90.0
 51
126.5601872324892
  0
LINE
  5
DA24
330
1A
100
AcDbEntity
  8
0
100
AcDbLine
 10
487.7651055514998
 20
419.8286546108787
 30
0.0
 11
481.025192355826
 21
427.8609703755963
 31
0.0
  0
LINE
  5
DA25
330
1A
100
AcDbEntity
  8
0
100
AcDbLine
 10
488.6843588832423
 20
420.5999997425028
 30
0.0
 11
481.9444456875685
 21
428.63231550722
 31
0.0
  0
ARC
  5
DA26
330
1A
100
AcDbEntity
  8
0
100
AcDbCircle
 10
487.9011145096431
 20
420.5999997425029
 30
0.0
 40
10.0
100
AcDbArc
 50
133.4398127675171
 51
170.0000000000025
  0
ARC
  5
DA27
330
1A
100
AcDbEntity
  8
0
100
AcDbCircle
 10
528.4166363238844
 20
420.5999997425029
 30
0.0
 40
10.0
100
AcDbArc
 50
350.0000000000025
 51
36.56018723248664
  0
LINE
  5
DA28
330
1A
100
AcDbEntity
  8
0
100
AcDbLine
 10
528.2545471593919
 20
419.68074641076
 30
0.0
 11
536.4489520886017
 21
426.5566685645772
 31
0.0
  0
LINE
  5
DA29
330
1A
100
AcDbEntity
  8
0
100
AcDbLine
 10
527.4832020277681
 20
420.5999997425029
 30
0.0
 11
535.6776069569778
 21
427.4759218963201
 31
0.0
  0
ARC
  5
DA2A
330
1A
100
AcDbEntity
  8
0
100
AcDbCircle
 10
528.4166363238844
 20
420.5999997425029
 30
0.0
 40
10.0
100
AcDbArc
 50
43.43981276751031
 51
90.0
  0
CIRCLE
  5
DA2B
330
1A
100
AcDbEntity
  8
0
100
AcDbCircle
 10
578.4999999999997
 20
484.9999997425027
 30
0.0
 40
4.5
  0
LINE
  5
DA2C
330
1A
100
AcDbEntity
  8
0
100
AcDbLine
 10
555.4999999999997
 20
504.9999997425028
 30
0.0
 11
553.4999999999997
 21
502.9999997425028
 31
0.0
  0
LINE
  5
DA2D
330
1A
100
AcDbEntity
  8
0
100
AcDbLine
 10
783.0
 20
504.9999997425027
 30
0.0
 11
783.0
 21
465.4999997425027
 31
0.0
  0
LINE
  5
DA2E
330
1A
100
AcDbEntity
  8
0
100
AcDbLine
 10
603.4999999999997
 20
467.4999997425027
 30
0.0
 11
603.4999999999997
 21
502.9999997425027
 31
0.0
  0
LINE
  5
DA2F
330
1A
100
AcDbEntity
  8
0
100
AcDbLine
 10
686.2
 20
464.9999997425025
 30
0.0
 11
720.0
 21
464.9999997425025
 31
0.0
  0
ARC
  5
DA31
330
1A
100
AcDbEntity
  8
0
100
AcDbCircle
 10
606.4999999999997
 20
465.4999997425027
 30
0.0
 40
2.0
100
AcDbArc
 50
0.0
 51
90.0
  0
ARC
  5
DA32
330
1A
100
AcDbEntity
  8
0
100
AcDbCircle
 10
605.9999999999997
 20
464.9999997425028
 30
0.0
 40
0.5
100
AcDbArc
 50
0.0
 51
90.0
  0
ARC
  5
DA33
330
1A
100
AcDbEntity
  8
0
100
AcDbCircle
 10
686.2
 20
458.7999997425026
 30
0.0
 40
6.2
100
AcDbArc
 50
90.0
 51
179.9999999999999
  0
LWPOLYLINE
  5
DA34
330
1A
100
AcDbEntity
  8
0
100
AcDbPolyline
 90
        6
 70
     1
 43
0.0
 10
732.9166666949999
 20
375.9104353521012
 10
740.0
 20
371.8208709616996
 10
747.0833333049999
 20
375.9104353521012
 10
747.0833333049999
 20
384.0895641329043
 10
740.0
 20
388.1791285233059
 10
732.9166666949999
 20
384.0895641329043
  0
CIRCLE
  5
DA35
330
1A
100
AcDbEntity
  8
0
100
AcDbCircle
 10
740.0
 20
379.9999997425027
 30
0.0
 40
9.166666629999999
  0
CIRCLE
  5
DA36
330
1A
100
AcDbEntity
  8
KAGESEN
100
AcDbCircle
 10
740.0
 20
379.9999997425027
 30
0.0
 40
4.99999998
  0
LINE
  5
DA37
330
1A
100
AcDbEntity
  8
0
100
AcDbLine
 10
720.0
 20
467.4999997425026
 30
0.0
 11
782.0
 21
467.4999997425027
 31
0.0
  0
LINE
  5
DA38
330
1A
100
AcDbEntity
  8
0
100
AcDbLine
 10
781.9999999999997
 20
465.4999997425027
 30
0.0
 11
783.0
 21
465.4999997425027
 31
0.0
  0
LINE
  5
DA39
330
1A
100
AcDbEntity
  8
0
100
AcDbLine
 10
782.0
 20
467.4999997425027
 30
0.0
 11
782.0
 21
465.4999997425027
 31
0.0
  0
MTEXT
  5
DA3A
102
{ACAD_REACTORS
330
DA3B
102
}
330
1A
100
AcDbEntity
  8
SUNPOU
100
AcDbMText
 10
616.2022580473699
 20
531.5999999862665
 30
0.0
 40
8.0
 41
0.0
 71
     1
 72
     1
  1
４－φ９取り付け穴
 73
     1
 44
1.0
1001
ACAD
1000
MTEXTBEGIN
1070
    73
1070
     1
1070
    44
1040
1.0
1070
    74
1070
     0
1000
MTEXTEND
  0
LEADER
  5
DA3B
330
1A
100
AcDbEntity
  8
SUNPOU
100
AcDbLeader
  3
STANDARD
 73
     0
 74
     0
 75
     1
 40
8.0
 41
85.33333333333329
 76
     3
 10
582.7022580473699
 20
490.0999999862666
 30
0.0
 10
610.2022580473699
 20
528.5999999862665
 30
0.0
 10
615.2022580473698
 20
528.5999999862665
 30
0.0
340
DA3A
213
0.0
223
-3.0
233
0.0
1001
ACAD
1000
DSTYLE
1002
{
1070
    41
1040
5.0
1070
    42
1040
0.5
1070
    43
1040
10.0
1070
    44
1040
0.5
1070
    73
1070
     0
1070
    74
1070
     0
1070
   140
1040
6.0
1070
   141
1040
0.0
1070
   147
1040
1.0
1070
   173
1070
     1
1070
   271
1070
     2
1070
   272
1070
     2
1070
   343
1005
BA
1070
   344
1005
BA
1002
}
  0
LINE
  5
DA3C
330
1A
100
AcDbEntity
  8
0
100
AcDbLine
 10
603.4999999999997
 20
502.9999997425027
 30
0.0
 11
601.4999999999997
 21
504.9999997425027
 31
0.0
  0
LINE
  5
DA3D
330
1A
100
AcDbEntity
  8
0
100
AcDbLine
 10
783.0
 20
504.9999997425027
 30
0.0
 11
785.0
 21
504.9999997425027
 31
0.0
  0
DIMENSION
  5
DB2F
330
1A
100
AcDbEntity
  8
SUNPOU
100
AcDbDimension
  2
*D20
 10
785.0
 20
539.9818801912061
 30
0.0
 11
732.5
 21
543.9818801912061
 31
0.0
 70
    32
 71
     5
 42
105.0
  3
STANDARD
100
AcDbAlignedDimension
 13
680.0
 23
458.7999997425026
 33
0.0
 14
785.0
 24
504.9999997425027
 34
0.0
100
AcDbRotatedDimension
1001
ACAD
1000
DSTYLE
1002
{
1070
    41
1040
5.0
1070
    42
1040
0.5
1070
    43
1040
10.0
1070
    44
1040
0.5
1070
    73
1070
     0
1070
    74
1070
     0
1070
    77
1070
     1
1070
   140
1040
6.0
1070
   141
1040
0.0
1070
   147
1040
1.0
1070
   173
1070
     1
1070
   271
1070
     0
1070
   272
1070
     2
1070
   343
1005
BA
1070
   344
1005
BA
1002
}
  0
DIMENSION
  5
DB5A
330
1A
100
AcDbEntity
  8
SUNPOU
100
AcDbDimension
  2
*D21
 10
146.0
 20
229.9999997425028
 30
0.0
 11
104.75
 21
233.9999997425028
 31
0.0
 70
    32
 71
     5
 42
82.5
  3
STANDARD
100
AcDbAlignedDimension
 13
63.5
 23
294.4999997425027
 33
0.0
 14
146.0
 24
263.7999997425029
 34
0.0
100
AcDbRotatedDimension
1001
ACAD
1000
DSTYLE
1002
{
1070
    41
1040
5.0
1070
    42
1040
0.5
1070
    43
1040
10.0
1070
    44
1040
0.5
1070
    73
1070
     0
1070
    74
1070
     0
1070
    77
1070
     1
1070
   140
1040
6.0
1070
   141
1040
0.0
1070
   147
1040
1.0
1070
   173
1070
     1
1070
   271
1070
     0
1070
   272
1070
     2
1070
   343
1005
BA
1070
   344
1005
BA
1002
}
  0
INSERT
  5
DB89
330
1A
100
AcDbEntity
  8
0
100
AcDbBlockReference
  2
M8-WS-1
 10
608.4999999999998
 20
379.9999997425027
 30
0.0
 41
0.8333333333
 42
0.8333333333
 43
0.8333333333
 50
270.0
  0
INSERT
  5
DB8A
330
1A
100
AcDbEntity
  8
0
100
AcDbBlockReference
  2
M8-WS-2
 10
608.4999999999998
 20
150.9999997425026
 30
0.0
 41
0.8333333299999999
 42
0.8333333299999999
 43
0.8333333299999999
 50
180.0
  0
INSERT
  5
DB9A
330
1A
100
AcDbEntity
  8
0
100
AcDbBlockReference
  2
M8-WS-2
 10
63.5
 20
150.9999997425027
 30
0.0
 41
-0.8333333299999999
 42
0.8333333299999999
 43
0.8333333299999999
 50
180.0
  0
INSERT
  5
DB9B
330
1A
100
AcDbEntity
  8
0
100
AcDbBlockReference
  2
M8-WS-1
 10
63.50000000000012
 20
379.9999997425028
 30
0.0
 41
-0.8333333333
 42
0.8333333333
 43
0.8333333333
 50
90.0
  0
VIEWPORT
  5
22
102
{ACAD_XDICTIONARY
360
DBAE
102
}
330
17
100
AcDbEntity
 67
     1
  8
0
100
AcDbViewport
 10
261.5176991150442
 20
154.7242978687078
 30
0.0
 40
523.0353982300885
 41
309.4485957374157
 68
     1
 69
     1
 12
261.5176991150442
 22
154.7242978687078
 13
0.0
 23
0.0
 14
1.0
 24
1.0
 15
10.0
 25
10.0
 16
0.0
 26
0.0
 36
1.0
 17
0.0
 27
0.0
 37
0.0
 42
50.0
 43
0.0
 44
0.0
 45
309.4485957374157
 50
0.0
 51
0.0
 72
   100
 90
    32768
  1

281
     0
 71
     1
 74
     0
110
0.0
120
0.0
130
0.0
111
1.0
121
0.0
131
0.0
112
0.0
122
1.0
132
0.0
 79
     0
146
0.0
  0
ENDSEC
  0
SECTION
  2
OBJECTS
  0
DICTIONARY
  5
C
330
0
100
AcDbDictionary
281
     1
  3
ACAD_COLOR
350
B9EA
  3
ACAD_GROUP
350
D
  3
ACAD_LAYOUT
350
B9EB
  3
ACAD_MATERIAL
350
B9E9
  3
ACAD_MLINESTYLE
350
E
  3
ACAD_PLOTSETTINGS
350
B9EC
  3
ACAD_PLOTSTYLENAME
350
B9E7
  3
ACDBHEADERROUNDTRIPXREC
350
DBAB
  3
ACDBVARIABLEDICTIONARY
350
9540
  0
DICTIONARY
  5
DBAE
330
22
100
AcDbDictionary
280
     1
281
     1
  3
ACAD_XREC_ROUNDTRIP
360
DBAF
  0
DICTIONARY
  5
B9EA
102
{ACAD_REACTORS
330
C
102
}
330
C
100
AcDbDictionary
281
     1
  0
DICTIONARY
  5
D
102
{ACAD_REACTORS
330
C
102
}
330
C
100
AcDbDictionary
281
     1
  3
*A1
350
8E9D
  3
*A10
350
C0F6
  3
*A11
350
BDDA
  3
*A12
350
C138
  3
*A13
350
BE73
  3
*A14
350
BE86
  3
*A15
350
BE90
  3
*A16
350
C0A4
  3
*A17
350
C9ED
  3
*A18
350
8EAC
  3
*A19
350
C101
  3
*A2
350
BC98
  3
*A20
350
C102
  3
*A21
350
C103
  3
*A22
350
C10F
  3
*A23
350
C139
  3
*A24
350
C110
  3
*A25
350
C11D
  3
*A26
350
C11E
  3
*A27
350
C11F
  3
*A28
350
BC7E
  3
*A29
350
C136
  3
*A3
350
BC99
  3
*A30
350
C137
  3
*A31
350
BE9B
  3
*A32
350
C13A
  3
*A33
350
C13B
  3
*A34
350
C0AF
  3
*A35
350
C545
  3
*A36
350
BC87
  3
*A4
350
C111
  3
*A5
350
BCA2
  3
*A6
350
C01F
  3
*A7
350
C066
  3
*A8
350
A87F
  3
*A9
350
BDC3
  0
DICTIONARY
  5
B9EB
102
{ACAD_REACTORS
330
C
102
}
330
C
100
AcDbDictionary
281
     1
  3
Model
350
B9ED
  3
レイアウト1
350
B9EE
  0
DICTIONARY
  5
B9E9
102
{ACAD_REACTORS
330
C
102
}
330
C
100
AcDbDictionary
281
     1
  0
DICTIONARY
  5
E
102
{ACAD_REACTORS
330
C
102
}
330
C
100
AcDbDictionary
281
     1
  3
STANDARD
350
13
  0
DICTIONARY
  5
B9EC
102
{ACAD_REACTORS
330
C
102
}
330
C
100
AcDbDictionary
281
     1
  0
ACDBDICTIONARYWDFLT
  5
B9E7
102
{ACAD_REACTORS
330
C
102
}
330
C
100
AcDbDictionary
281
     1
  3
Normal
350
B9E8
100
AcDbDictionaryWithDefault
340
B9E8
  0
DICTIONARY
  5
DBAB
102
{ACAD_REACTORS
330
C
102
}
330
C
100
AcDbDictionary
281
     1
  3
COLORDICT
350
DBAD
  3
MATERIALDICT
350
DBAC
  0
DICTIONARY
  5
9540
102
{ACAD_REACTORS
330
C
102
}
330
C
100
AcDbDictionary
281
     1
  3
DIMASSOC
350
DBA8
  3
PROJECTNAME
350
DBA9
  3
SORTENTS
350
9541
  0
XRECORD
  5
DBAF
102
{ACAD_REACTORS
330
DBAE
102
}
330
DBAE
100
AcDbXrecord
280
     1
102
SHADEPLOT
 70
     0
  0
GROUP
  5
8E9D
102
{ACAD_REACTORS
330
D
102
}
330
D
100
AcDbGroup
300

 70
     1
 71
     1
  0
GROUP
  5
C0F6
102
{ACAD_REACTORS
330
D
102
}
330
D
100
AcDbGroup
300

 70
     1
 71
     1
  0
GROUP
  5
BDDA
102
{ACAD_REACTORS
330
D
102
}
330
D
100
AcDbGroup
300

 70
     1
 71
     1
  0
GROUP
  5
C138
102
{ACAD_REACTORS
330
D
102
}
330
D
100
AcDbGroup
300

 70
     1
 71
     1
  0
GROUP
  5
BE73
102
{ACAD_REACTORS
330
D
102
}
330
D
100
AcDbGroup
300

 70
     1
 71
     1
  0
GROUP
  5
BE86
102
{ACAD_REACTORS
330
D
102
}
330
D
100
AcDbGroup
300

 70
     1
 71
     1
  0
GROUP
  5
BE90
102
{ACAD_REACTORS
330
D
102
}
330
D
100
AcDbGroup
300

 70
     1
 71
     1
  0
GROUP
  5
C0A4
102
{ACAD_REACTORS
330
D
102
}
330
D
100
AcDbGroup
300

 70
     1
 71
     1
  0
GROUP
  5
C9ED
102
{ACAD_REACTORS
330
D
102
}
330
D
100
AcDbGroup
300

 70
     1
 71
     1
  0
GROUP
  5
8EAC
102
{ACAD_REACTORS
330
D
102
}
330
D
100
AcDbGroup
300

 70
     1
 71
     1
  0
GROUP
  5
C101
102
{ACAD_REACTORS
330
D
102
}
330
D
100
AcDbGroup
300

 70
     1
 71
     1
  0
GROUP
  5
BC98
102
{ACAD_REACTORS
330
D
102
}
330
D
100
AcDbGroup
300

 70
     1
 71
     1
  0
GROUP
  5
C102
102
{ACAD_REACTORS
330
D
102
}
330
D
100
AcDbGroup
300

 70
     1
 71
     1
  0
GROUP
  5
C103
102
{ACAD_REACTORS
330
D
102
}
330
D
100
AcDbGroup
300

 70
     1
 71
     1
  0
GROUP
  5
C10F
102
{ACAD_REACTORS
330
D
102
}
330
D
100
AcDbGroup
300

 70
     1
 71
     1
  0
GROUP
  5
C139
102
{ACAD_REACTORS
330
D
102
}
330
D
100
AcDbGroup
300

 70
     1
 71
     1
  0
GROUP
  5
C110
102
{ACAD_REACTORS
330
D
102
}
330
D
100
AcDbGroup
300

 70
     1
 71
     1
  0
GROUP
  5
C11D
102
{ACAD_REACTORS
330
D
102
}
330
D
100
AcDbGroup
300

 70
     1
 71
     1
  0
GROUP
  5
C11E
102
{ACAD_REACTORS
330
D
102
}
330
D
100
AcDbGroup
300

 70
     1
 71
     1
  0
GROUP
  5
C11F
102
{ACAD_REACTORS
330
D
102
}
330
D
100
AcDbGroup
300

 70
     1
 71
     1
  0
GROUP
  5
BC7E
102
{ACAD_REACTORS
330
D
102
}
330
D
100
AcDbGroup
300

 70
     1
 71
     1
  0
GROUP
  5
C136
102
{ACAD_REACTORS
330
D
102
}
330
D
100
AcDbGroup
300

 70
     1
 71
     1
  0
GROUP
  5
BC99
102
{ACAD_REACTORS
330
D
102
}
330
D
100
AcDbGroup
300

 70
     1
 71
     1
  0
GROUP
  5
C137
102
{ACAD_REACTORS
330
D
102
}
330
D
100
AcDbGroup
300

 70
     1
 71
     1
  0
GROUP
  5
BE9B
102
{ACAD_REACTORS
330
D
102
}
330
D
100
AcDbGroup
300

 70
     1
 71
     1
  0
GROUP
  5
C13A
102
{ACAD_REACTORS
330
D
102
}
330
D
100
AcDbGroup
300

 70
     1
 71
     1
  0
GROUP
  5
C13B
102
{ACAD_REACTORS
330
D
102
}
330
D
100
AcDbGroup
300

 70
     1
 71
     1
  0
GROUP
  5
C0AF
102
{ACAD_REACTORS
330
D
102
}
330
D
100
AcDbGroup
300

 70
     1
 71
     1
  0
GROUP
  5
C545
102
{ACAD_REACTORS
330
D
102
}
330
D
100
AcDbGroup
300

 70
     1
 71
     1
  0
GROUP
  5
BC87
102
{ACAD_REACTORS
330
D
102
}
330
D
100
AcDbGroup
300

 70
     1
 71
     1
  0
GROUP
  5
C111
102
{ACAD_REACTORS
330
D
102
}
330
D
100
AcDbGroup
300

 70
     1
 71
     1
  0
GROUP
  5
BCA2
102
{ACAD_REACTORS
330
D
102
}
330
D
100
AcDbGroup
300

 70
     1
 71
     1
  0
GROUP
  5
C01F
102
{ACAD_REACTORS
330
D
102
}
330
D
100
AcDbGroup
300

 70
     1
 71
     1
  0
GROUP
  5
C066
102
{ACAD_REACTORS
330
D
102
}
330
D
100
AcDbGroup
300

 70
     1
 71
     1
  0
GROUP
  5
A87F
102
{ACAD_REACTORS
330
D
102
}
330
D
100
AcDbGroup
300

 70
     1
 71
     1
  0
GROUP
  5
BDC3
102
{ACAD_REACTORS
330
D
102
}
330
D
100
AcDbGroup
300

 70
     1
 71
     1
  0
LAYOUT
  5
B9ED
102
{ACAD_XDICTIONARY
360
DBB0
102
}
102
{ACAD_REACTORS
330
B9EB
102
}
330
B9EB
100
AcDbPlotSettings
  1

  2
IO-139021.pc3
  4
A3
  6

 40
5.873749732971191
 41
5.873747825622558
 42
5.873748779296875
 43
5.873748779296875
 44
419.9466552734374
 45
297.0106506347656
 46
0.0
 47
0.0
 48
0.0
 49
0.0
140
0.0
141
0.0
142
1.0
143
2.0
 70
 11952
 72
     1
 73
     0
 74
     2
  7
TMI_pen_style.ctb
 75
    17
147
0.5
148
0.0
149
0.0
100
AcDbLayout
  1
Model
 70
     1
 71
     0
 10
0.0
 20
0.0
 11
12.0
 21
9.0
 12
0.0
 22
0.0
 32
0.0
 14
0.0
 24
0.0
 34
0.0
 15
0.0
 25
0.0
 35
0.0
146
0.0
 13
0.0
 23
0.0
 33
0.0
 16
1.0
 26
0.0
 36
0.0
 17
0.0
 27
1.0
 37
0.0
 76
     0
330
1A
  0
LAYOUT
  5
B9EE
102
{ACAD_XDICTIONARY
360
DBB2
102
}
102
{ACAD_REACTORS
330
B9EB
102
}
330
B9EB
100
AcDbPlotSettings
  1

  2
Adobe PDF
  4

  6

 40
0.0
 41
0.0
 42
0.0
 43
0.0
 44
0.0
 45
0.0
 46
0.0
 47
0.0
 48
0.0
 49
0.0
140
0.0
141
0.0
142
1.0
143
1.0
 70
   688
 72
     0
 73
     0
 74
     5
  7
C:\Documents and Settings\MICHIYUKI OHNO\Application Data\Autodesk\AutoCAD LT 2004\R9\jpn\Plot Styles\TMI_pen_style.ctb
 75
    16
147
1.0
148
0.0
149
0.0
100
AcDbLayout
  1
レイアウト1
 70
     1
 71
     1
 10
0.0
 20
0.0
 11
420.0
 21
297.0
 12
0.0
 22
0.0
 32
0.0
 14
1.000000000000000E+20
 24
1.000000000000000E+20
 34
1.000000000000000E+20
 15
-1.000000000000000E+20
 25
-1.000000000000000E+20
 35
-1.000000000000000E+20
146
0.0
 13
0.0
 23
0.0
 33
0.0
 16
1.0
 26
0.0
 36
0.0
 17
0.0
 27
1.0
 37
0.0
 76
     0
330
17
331
22
  0
MLINESTYLE
  5
13
102
{ACAD_REACTORS
330
E
102
}
330
E
100
AcDbMlineStyle
  2
STANDARD
 70
     0
  3

 62
     0
 51
90.0
 52
90.0
 71
     2
 49
0.5
 62
   256
  6
BYLAYER
 49
-0.5
 62
   256
  6
BYLAYER
  0
ACDBPLACEHOLDER
  5
B9E8
102
{ACAD_REACTORS
330
B9E7
102
}
330
B9E7
  0
XRECORD
  5
DBAD
102
{ACAD_REACTORS
330
DBAB
102
}
330
DBAB
100
AcDbXrecord
280
     1
340
B9EA
  0
XRECORD
  5
DBAC
102
{ACAD_REACTORS
330
DBAB
102
}
330
DBAB
100
AcDbXrecord
280
     1
340
B9E9
  0
DICTIONARYVAR
  5
DBA8
102
{ACAD_REACTORS
330
9540
102
}
330
9540
100
DictionaryVariables
280
     0
  1
1
  0
DICTIONARYVAR
  5
DBA9
102
{ACAD_REACTORS
330
9540
102
}
330
9540
100
DictionaryVariables
280
     0
  1

  0
DICTIONARYVAR
  5
9541
102
{ACAD_REACTORS
330
9540
102
}
330
9540
100
DictionaryVariables
280
     0
  1
96
  0
DICTIONARY
  5
DBB0
330
B9ED
100
AcDbDictionary
280
     1
281
     1
  3
ACAD_XREC_ROUNDTRIP
360
DBB1
  0
DICTIONARY
  5
DBB2
330
B9EE
100
AcDbDictionary
280
     1
281
     1
  3
ACAD_XREC_ROUNDTRIP
360
DBB3
  0
XRECORD
  5
DBB1
102
{ACAD_REACTORS
330
DBB0
102
}
330
DBB0
100
AcDbXrecord
280
     1
102
SHADEPLOT
 70
     0
102
SHADEPLOTRESLEVEL
 70
     2
102
SHADEPLOTCUSTOMDPI
 70
   150
  0
XRECORD
  5
DBB3
102
{ACAD_REACTORS
330
DBB2
102
}
330
DBB2
100
AcDbXrecord
280
     1
102
SHADEPLOT
 70
     0
102
SHADEPLOTRESLEVEL
 70
     2
102
SHADEPLOTCUSTOMDPI
 70
   300
  0
ENDSEC
  0
EOF
