  0
SECTION
  2
HEADER
  9
$ACADVER
  1
AC1015
  9
$ACADMAINTVER
 70
    20
  9
$DWGCODEPAGE
  3
ANSI_932
  9
$INSBASE
 10
0.0
 20
0.0
 30
0.0
  9
$EXTMIN
 10
20.0
 20
5.0
 30
0.0
  9
$EXTMAX
 10
405.0
 20
280.0
 30
0.0
  9
$LIMMIN
 10
0.0
 20
0.0
  9
$LIMMAX
 10
420.0
 20
297.0
  9
$ORTHOMODE
 70
     0
  9
$REGENMODE
 70
     1
  9
$FILLMODE
 70
     1
  9
$QTEXTMODE
 70
     0
  9
$MIRRTEXT
 70
     1
  9
$LTSCALE
 40
15.0
  9
$ATTMODE
 70
     1
  9
$TEXTSIZE
 40
3.5
  9
$TRACEWID
 40
1.0
  9
$TEXTSTYLE
  7
STANDARD
  9
$CLAYER
  8
0
  9
$CELTYPE
  6
BYLAYER
  9
$CECOLOR
 62
   256
  9
$CELTSCALE
 40
1.0
  9
$DISPSILH
 70
     0
  9
$DIMSCALE
 40
1.0
  9
$DIMASZ
 40
2.5
  9
$DIMEXO
 40
0.5
  9
$DIMDLI
 40
10.0
  9
$DIMRND
 40
0.0
  9
$DIMDLE
 40
0.0
  9
$DIMEXE
 40
0.5
  9
$DIMTP
 40
0.0
  9
$DIMTM
 40
0.0
  9
$DIMTXT
 40
2.0
  9
$DIMCEN
 40
0.0
  9
$DIMTSZ
 40
0.0
  9
$DIMTOL
 70
     0
  9
$DIMLIM
 70
     0
  9
$DIMTIH
 70
     0
  9
$DIMTOH
 70
     0
  9
$DIMSE1
 70
     0
  9
$DIMSE2
 70
     0
  9
$DIMTAD
 70
     1
  9
$DIMZIN
 70
     0
  9
$DIMBLK
  1

  9
$DIMASO
 70
     1
  9
$DIMSHO
 70
     1
  9
$DIMPOST
  1

  9
$DIMAPOST
  1

  9
$DIMALT
 70
     0
  9
$DIMALTD
 70
     2
  9
$DIMALTF
 40
25.4
  9
$DIMLFAC
 40
1.0
  9
$DIMTOFL
 70
     0
  9
$DIMTVP
 40
0.0
  9
$DIMTIX
 70
     0
  9
$DIMSOXD
 70
     0
  9
$DIMSAH
 70
     1
  9
$DIMBLK1
  1
OPEN
  9
$DIMBLK2
  1
OPEN
  9
$DIMSTYLE
  2
STANDARD
  9
$DIMCLRD
 70
     0
  9
$DIMCLRE
 70
     0
  9
$DIMCLRT
 70
     0
  9
$DIMTFAC
 40
1.0
  9
$DIMGAP
 40
0.5
  9
$DIMJUST
 70
     0
  9
$DIMSD1
 70
     0
  9
$DIMSD2
 70
     0
  9
$DIMTOLJ
 70
     1
  9
$DIMTZIN
 70
     0
  9
$DIMALTZ
 70
     0
  9
$DIMALTTZ
 70
     0
  9
$DIMUPT
 70
     0
  9
$DIMDEC
 70
     2
  9
$DIMTDEC
 70
     0
  9
$DIMALTU
 70
     2
  9
$DIMALTTD
 70
     2
  9
$DIMTXSTY
  7
STANDARD
  9
$DIMAUNIT
 70
     0
  9
$DIMADEC
 70
     0
  9
$DIMALTRND
 40
0.0
  9
$DIMAZIN
 70
     0
  9
$DIMDSEP
 70
    46
  9
$DIMATFIT
 70
     3
  9
$DIMFRAC
 70
     0
  9
$DIMLDRBLK
  1

  9
$DIMLUNIT
 70
     2
  9
$DIMLWD
 70
    -2
  9
$DIMLWE
 70
    -2
  9
$DIMTMOVE
 70
     0
  9
$LUNITS
 70
     2
  9
$LUPREC
 70
     4
  9
$SKETCHINC
 40
1.0
  9
$FILLETRAD
 40
1.0
  9
$AUNITS
 70
     0
  9
$AUPREC
 70
     0
  9
$MENU
  1
.
  9
$ELEVATION
 40
0.0
  9
$PELEVATION
 40
0.0
  9
$THICKNESS
 40
0.0
  9
$LIMCHECK
 70
     0
  9
$CHAMFERA
 40
1.0
  9
$CHAMFERB
 40
1.0
  9
$CHAMFERC
 40
20.0
  9
$CHAMFERD
 40
0.0
  9
$SKPOLY
 70
     0
  9
$TDCREATE
 40
2450857.620429745
  9
$TDUCREATE
 40
2450857.245429745
  9
$TDUPDATE
 40
2455394.449198310
  9
$TDUUPDATE
 40
2455394.074198310
  9
$TDINDWG
 40
2.9130933449
  9
$TDUSRTIMER
 40
2.9130933449
  9
$USRTIMER
 70
     1
  9
$ANGBASE
 50
0.0
  9
$ANGDIR
 70
     0
  9
$PDMODE
 70
     0
  9
$PDSIZE
 40
0.0
  9
$PLINEWID
 40
0.0
  9
$SPLFRAME
 70
     0
  9
$SPLINETYPE
 70
     6
  9
$SPLINESEGS
 70
     8
  9
$HANDSEED
  5
6A80
  9
$SURFTAB1
 70
     6
  9
$SURFTAB2
 70
     6
  9
$SURFTYPE
 70
     6
  9
$SURFU
 70
     6
  9
$SURFV
 70
     6
  9
$UCSBASE
  2

  9
$UCSNAME
  2

  9
$UCSORG
 10
0.0
 20
0.0
 30
0.0
  9
$UCSXDIR
 10
1.0
 20
0.0
 30
0.0
  9
$UCSYDIR
 10
0.0
 20
1.0
 30
0.0
  9
$UCSORTHOREF
  2

  9
$UCSORTHOVIEW
 70
     0
  9
$UCSORGTOP
 10
0.0
 20
0.0
 30
0.0
  9
$UCSORGBOTTOM
 10
0.0
 20
0.0
 30
0.0
  9
$UCSORGLEFT
 10
0.0
 20
0.0
 30
0.0
  9
$UCSORGRIGHT
 10
0.0
 20
0.0
 30
0.0
  9
$UCSORGFRONT
 10
0.0
 20
0.0
 30
0.0
  9
$UCSORGBACK
 10
0.0
 20
0.0
 30
0.0
  9
$PUCSBASE
  2

  9
$PUCSNAME
  2

  9
$PUCSORG
 10
0.0
 20
0.0
 30
0.0
  9
$PUCSXDIR
 10
1.0
 20
0.0
 30
0.0
  9
$PUCSYDIR
 10
0.0
 20
1.0
 30
0.0
  9
$PUCSORTHOREF
  2

  9
$PUCSORTHOVIEW
 70
     0
  9
$PUCSORGTOP
 10
0.0
 20
0.0
 30
0.0
  9
$PUCSORGBOTTOM
 10
0.0
 20
0.0
 30
0.0
  9
$PUCSORGLEFT
 10
0.0
 20
0.0
 30
0.0
  9
$PUCSORGRIGHT
 10
0.0
 20
0.0
 30
0.0
  9
$PUCSORGFRONT
 10
0.0
 20
0.0
 30
0.0
  9
$PUCSORGBACK
 10
0.0
 20
0.0
 30
0.0
  9
$USERI1
 70
     0
  9
$USERI2
 70
     0
  9
$USERI3
 70
     0
  9
$USERI4
 70
     0
  9
$USERI5
 70
     0
  9
$USERR1
 40
0.0
  9
$USERR2
 40
0.0
  9
$USERR3
 40
0.0
  9
$USERR4
 40
0.0
  9
$USERR5
 40
0.0
  9
$WORLDVIEW
 70
     1
  9
$SHADEDGE
 70
     3
  9
$SHADEDIF
 70
    70
  9
$TILEMODE
 70
     1
  9
$MAXACTVP
 70
    16
  9
$PINSBASE
 10
0.0
 20
0.0
 30
0.0
  9
$PLIMCHECK
 70
     0
  9
$PEXTMIN
 10
1.000000000000000E+20
 20
1.000000000000000E+20
 30
1.000000000000000E+20
  9
$PEXTMAX
 10
-1.000000000000000E+20
 20
-1.000000000000000E+20
 30
-1.000000000000000E+20
  9
$PLIMMIN
 10
0.0
 20
0.0
  9
$PLIMMAX
 10
420.0
 20
297.0
  9
$UNITMODE
 70
     0
  9
$VISRETAIN
 70
     0
  9
$PLINEGEN
 70
     0
  9
$PSLTSCALE
 70
     1
  9
$TREEDEPTH
 70
  3020
  9
$CMLSTYLE
  2
STANDARD
  9
$CMLJUST
 70
     0
  9
$CMLSCALE
 40
1.0
  9
$PROXYGRAPHICS
 70
     1
  9
$MEASUREMENT
 70
     1
  9
$CELWEIGHT
370
    -1
  9
$ENDCAPS
280
     0
  9
$JOINSTYLE
280
     0
  9
$LWDISPLAY
290
     0
  9
$INSUNITS
 70
     0
  9
$HYPERLINKBASE
  1

  9
$STYLESHEET
  1
tmi_penstyle.ctb
  9
$XEDIT
290
     1
  9
$CEPSNTYPE
380
     0
  9
$PSTYLEMODE
290
     1
  9
$FINGERPRINTGUID
  2
{C8F1277E-07AF-42F4-A302-548F234E2F37}
  9
$VERSIONGUID
  2
{2C9C1495-90DF-489C-AF42-A605ECA279BA}
  9
$EXTNAMES
290
     1
  9
$PSVPSCALE
 40
0.0
  9
$OLESTARTUP
290
     0
  0
ENDSEC
  0
SECTION
  2
CLASSES
  0
CLASS
  1
ACDBDICTIONARYWDFLT
  2
AcDbDictionaryWithDefault
  3
ObjectDBX Classes
 90
        0
280
     0
281
     0
  0
CLASS
  1
DICTIONARYVAR
  2
AcDbDictionaryVar
  3
ObjectDBX Classes
 90
        0
280
     0
281
     0
  0
CLASS
  1
ACDBPLACEHOLDER
  2
AcDbPlaceHolder
  3
ObjectDBX Classes
 90
        0
280
     0
281
     0
  0
CLASS
  1
LAYOUT
  2
AcDbLayout
  3
ObjectDBX Classes
 90
        0
280
     0
281
     0
  0
ENDSEC
  0
SECTION
  2
TABLES
  0
TABLE
  2
VPORT
  5
8
330
0
100
AcDbSymbolTable
 70
     2
  0
VPORT
  5
6A76
330
8
100
AcDbSymbolTableRecord
100
AcDbViewportTableRecord
  2
*Active
 70
     0
 10
0.0
 20
0.0
 11
1.0
 21
1.0
 12
233.6973350621257
 22
142.5066153695884
 13
0.0
 23
0.0
 14
0.5
 24
0.5
 15
5.0
 25
5.0
 16
0.0
 26
0.0
 36
1.0
 17
0.0
 27
0.0
 37
0.0
 40
277.0811465009098
 41
1.632958801498127
 42
50.0
 43
0.0
 44
0.0
 50
0.0
 51
0.0
 71
     0
 72
   100
 73
     1
 74
     0
 75
     1
 76
     1
 77
     0
 78
     0
281
     0
 65
     1
110
0.0
120
0.0
130
0.0
111
1.0
121
0.0
131
0.0
112
0.0
122
1.0
132
0.0
 79
     0
146
0.0
  0
ENDTAB
  0
TABLE
  2
LTYPE
  5
5
330
0
100
AcDbSymbolTable
 70
     3
  0
LTYPE
  5
14
330
5
100
AcDbSymbolTableRecord
100
AcDbLinetypeTableRecord
  2
BYBLOCK
 70
     0
  3

 72
    65
 73
     0
 40
0.0
  0
LTYPE
  5
15
330
5
100
AcDbSymbolTableRecord
100
AcDbLinetypeTableRecord
  2
BYLAYER
 70
     0
  3

 72
    65
 73
     0
 40
0.0
  0
LTYPE
  5
16
330
5
100
AcDbSymbolTableRecord
100
AcDbLinetypeTableRecord
  2
CONTINUOUS
 70
     0
  3
Solid line
 72
    65
 73
     0
 40
0.0
  0
LTYPE
  5
61
330
5
100
AcDbSymbolTableRecord
100
AcDbLinetypeTableRecord
  2
CENTER2
 70
     0
  3
___ _ ___ _ ___ _ ___ _ ___ _ ___ _ ___ _ ___ _
 72
    65
 73
     4
 40
1.125
 49
0.75
 74
     0
 49
-0.125
 74
     0
 49
0.125
 74
     0
 49
-0.125
 74
     0
  0
LTYPE
  5
62
330
5
100
AcDbSymbolTableRecord
100
AcDbLinetypeTableRecord
  2
DASHED2
 70
     0
  3
_ _ _ _ _ _ _ _ _ _ _ _ _ _ _ _ _ _ _ _ _ _ _ _
 72
    65
 73
     2
 40
0.375
 49
0.25
 74
     0
 49
-0.125
 74
     0
  0
ENDTAB
  0
TABLE
  2
LAYER
  5
2
330
0
100
AcDbSymbolTable
 70
     6
  0
LAYER
  5
F
330
2
100
AcDbSymbolTableRecord
100
AcDbLayerTableRecord
  2
0
 70
     0
 62
     7
  6
CONTINUOUS
370
    -3
390
2BAE
  0
LAYER
  5
63
330
2
100
AcDbSymbolTableRecord
100
AcDbLayerTableRecord
  2
WAKU
 70
     0
 62
     7
  6
CONTINUOUS
370
    -3
390
2BAE
  0
LAYER
  5
64
330
2
100
AcDbSymbolTableRecord
100
AcDbLayerTableRecord
  2
SUNPOU
 70
     0
 62
     5
  6
CONTINUOUS
370
    -3
390
2BAE
  0
LAYER
  5
65
330
2
100
AcDbSymbolTableRecord
100
AcDbLayerTableRecord
  2
CENTER
 70
     0
 62
    14
  6
CENTER2
370
    -3
390
2BAE
  0
LAYER
  5
66
330
2
100
AcDbSymbolTableRecord
100
AcDbLayerTableRecord
  2
KAGESEN
 70
     0
 62
     5
  6
DASHED2
370
    -3
390
2BAE
  0
LAYER
  5
7DC
330
2
100
AcDbSymbolTableRecord
100
AcDbLayerTableRecord
  2
DEFPOINTS
 70
     0
 62
     7
  6
CONTINUOUS
290
     0
370
    -3
390
2BAE
  0
ENDTAB
  0
TABLE
  2
STYLE
  5
3
330
0
100
AcDbSymbolTable
 70
     1
  0
STYLE
  5
10
330
3
100
AcDbSymbolTableRecord
100
AcDbTextStyleTableRecord
  2
STANDARD
 70
     0
 40
0.0
 41
1.0
 50
0.0
 71
     0
 42
3.5
  3
C:\Program Files\AutoCAD LT\romans.shx
  4
C:\Program Files\AutoCAD LT\extfont.shx
  0
ENDTAB
  0
TABLE
  2
VIEW
  5
6
330
0
100
AcDbSymbolTable
 70
     0
  0
ENDTAB
  0
TABLE
  2
UCS
  5
7
330
0
100
AcDbSymbolTable
 70
     0
  0
ENDTAB
  0
TABLE
  2
APPID
  5
9
330
0
100
AcDbSymbolTable
 70
     3
  0
APPID
  5
11
330
9
100
AcDbSymbolTableRecord
100
AcDbRegAppTableRecord
  2
ACAD
 70
     0
  0
APPID
  5
2406
330
9
100
AcDbSymbolTableRecord
100
AcDbRegAppTableRecord
  2
CONTENTTABDATA
 70
     0
  0
APPID
  5
2407
330
9
100
AcDbSymbolTableRecord
100
AcDbRegAppTableRecord
  2
CONTENTCURRENTTAB
 70
     0
  0
ENDTAB
  0
TABLE
  2
DIMSTYLE
  5
A
330
0
100
AcDbSymbolTable
 70
     8
100
AcDbDimStyleTable
 71
     1
340
1D
  0
DIMSTYLE
105
1D
102
{ACAD_REACTORS
330
5B19
330
5B18
330
5AA2
330
5AA1
330
5AA0
102
}
330
A
100
AcDbSymbolTableRecord
100
AcDbDimStyleTableRecord
  2
STANDARD
 70
     0
340
10
  0
DIMSTYLE
105
24
330
A
100
AcDbSymbolTableRecord
100
AcDbDimStyleTableRecord
  2
ISO-25
 70
     0
 41
2.5
 42
0.625
 43
3.75
 44
1.25
 74
     0
 77
     1
 78
     8
140
2.5
141
2.5
143
0.0394
145
1.0
147
0.625
172
     1
340
10
  0
DIMSTYLE
105
25
330
A
100
AcDbSymbolTableRecord
100
AcDbDimStyleTableRecord
  2
ISO-35
 70
     0
 41
3.5
 42
0.875
 43
5.25
 44
1.75
 74
     0
 77
     1
 78
     8
140
3.5
141
3.5
143
0.0394
145
1.399999999999999
147
0.875
172
     1
340
10
  0
DIMSTYLE
105
26
330
A
100
AcDbSymbolTableRecord
100
AcDbDimStyleTableRecord
  2
ISO-5
 70
     0
 41
5.0
 42
1.25
 43
7.5
 44
2.5
 74
     0
 77
     1
 78
     8
140
5.0
141
5.0
143
0.0394
145
2.0
147
1.25
172
     1
340
10
  0
DIMSTYLE
105
27
330
A
100
AcDbSymbolTableRecord
100
AcDbDimStyleTableRecord
  2
ISO-7
 70
     0
 41
7.0
 42
1.75
 43
10.5
 44
3.5
 74
     0
 77
     1
 78
     8
140
7.0
141
7.0
143
0.0394
145
2.799999999999999
147
1.75
172
     1
340
10
  0
DIMSTYLE
105
28
330
A
100
AcDbSymbolTableRecord
100
AcDbDimStyleTableRecord
  2
ISO1
 70
     0
 41
10.0
 42
2.5
 43
15.0
 44
5.0
 74
     0
 77
     1
 78
     8
140
10.0
141
10.0
143
0.0394
145
4.0
147
2.5
172
     1
340
10
  0
DIMSTYLE
105
29
330
A
100
AcDbSymbolTableRecord
100
AcDbDimStyleTableRecord
  2
ISO1-4
 70
     0
 41
14.0
 42
3.5
 43
21.0
 44
7.0
 74
     0
 77
     1
 78
     8
140
14.0
141
14.0
143
0.0394
145
5.599999999999999
147
3.5
172
     1
340
10
  0
DIMSTYLE
105
2A
330
A
100
AcDbSymbolTableRecord
100
AcDbDimStyleTableRecord
  2
ISO2
 70
     0
 41
20.0
 42
5.0
 43
30.0
 44
10.0
 74
     0
 77
     1
 78
     8
140
20.0
141
20.0
143
0.0394
145
8.0
147
5.0
172
     1
340
10
  0
ENDTAB
  0
TABLE
  2
BLOCK_RECORD
  5
1
330
0
100
AcDbSymbolTable
 70
    12
  0
BLOCK_RECORD
  5
1A
330
1
100
AcDbSymbolTableRecord
100
AcDbBlockTableRecord
  2
*MODEL_SPACE
340
2BB3
  0
BLOCK_RECORD
  5
17
330
1
100
AcDbSymbolTableRecord
100
AcDbBlockTableRecord
  2
*PAPER_SPACE
340
2BB4
  0
BLOCK_RECORD
  5
BA
330
1
100
AcDbSymbolTableRecord
100
AcDbBlockTableRecord
  2
_OPEN
340
0
102
{BLKREFS
331
6688
331
6689
331
6691
331
6692
331
66F7
331
66F8
331
6700
331
6701
331
6709
331
670A
102
}
  0
BLOCK_RECORD
  5
2CA9
330
1
100
AcDbSymbolTableRecord
100
AcDbBlockTableRecord
  2
M3-1
340
0
310
28000000200000002000000001000800000000000004000000000000000000000000000000000000000000004000000080000000FF000000002000004020000080200000FF200000004000004040000080400000FF400000006000004060000080600000FF600000008000004080000080800000FF80000000A0000040A000
310
0080A00000FFA0000000C0000040C0000080C00000FFC0000000FF000040FF000080FF0000FFFF0000000020004000200080002000FF002000002020004020200080202000FF202000004020004040200080402000FF402000006020004060200080602000FF602000008020004080200080802000FF80200000A0200040A0
310
200080A02000FFA0200000C0200040C0200080C02000FFC0200000FF200040FF200080FF2000FFFF2000000040004000400080004000FF004000002040004020400080204000FF204000004040004040400080404000FF404000006040004060400080604000FF604000008040004080400080804000FF80400000A0400040
310
A0400080A04000FFA0400000C0400040C0400080C04000FFC0400000FF400040FF400080FF4000FFFF4000000060004000600080006000FF006000002060004020600080206000FF206000004060004040600080406000FF406000006060004060600080606000FF606000008060004080600080806000FF80600000A06000
310
40A0600080A06000FFA0600000C0600040C0600080C06000FFC0600000FF600040FF600080FF6000FFFF6000000080004000800080008000FF008000002080004020800080208000FF208000004080004040800080408000FF408000006080004060800080608000FF608000008080004080800080808000FF80800000A080
310
0040A0800080A08000FFA0800000C0800040C0800080C08000FFC0800000FF800040FF800080FF8000FFFF80000000A0004000A0008000A000FF00A0000020A0004020A0008020A000FF20A0000040A0004040A0008040A000FF40A0000060A0004060A0008060A000FF60A0000080A0004080A0008080A000FF80A00000A0
310
A00040A0A00080A0A000FFA0A00000C0A00040C0A00080C0A000FFC0A00000FFA00040FFA00080FFA000FFFFA0000000C0004000C0008000C000FF00C0000020C0004020C0008020C000FF20C0000040C0004040C0008040C000FF40C0000060C0004060C0008060C000FF60C0000080C0004080C0008080C000FF80C00000
310
A0C00040A0C00080A0C000FFA0C00000C0C00040C0C00080C0C000FFC0C00000FFC00040FFC00080FFC000FFFFC0000000FF004000FF008000FF00FF00FF000020FF004020FF008020FF00FF20FF000040FF004040FF008040FF00FF40FF000060FF004060FF008060FF00FF60FF000080FF004080FF008080FF00FF80FF00
310
00A0FF0040A0FF0080A0FF00FFA0FF0000C0FF0040C0FF0080C0FF00FFC0FF0000FFFF0040FFFF0080FFFF00FFFFFF00FFFFFFFFFFFFFFFFFFFFFFFFFFFFFFFFFFFFFFFFFFFFFFFFFFFFFFFFFFFFFFFFFFFFFFFFFFFFFFFFFFFFFFFFFFFFFFFFFFFFFFFFFFFFFFFFFFFFFFFFFFFFFFFFFFFFFFFFFFFFFFFFFFFFFFFFFFFFFF
310
FFFFFFFFFFFFFFFFFFFFFFFFFFFFFFFFFFFFFFFFFFFFFFFFFFFFFFFFFFFFFFFFFFFFFFFFFFFFFFFFFFFFFFFFFFFFFFFFFFFFFFFFFFFFFFFFFFFFFFFFFFFFFFFFFFFFFFFFFFFFFFFFFFFFFFFFFFFFFFFFFFFFFFFFFFFFFFFFFFFFFFFFFFFFFFFFFFFFFFFFFFFFFFFFFFFFFFFFFFFFFFFFFFFFFFFFFFFFFFFFFFFFFFFFFFFFFF
310
FFFFFFFFFFFFFFFFFFFFFFFFFFFFFFFFFFFFFFFFFFFFFFFFFFFFFFFFFFFFFFFFFFFFFFFFFFFFFFFFFFFFFFFFFFFFFFFFFFFFFF000000000000000000000000000000000000000000000000000000000000FFFF00FFFFFFFFFFFFFFFFFFFFFFFFFFFFFFFFFFFFFFFFFFFFFFFFFFFFFFFF00FFFF000000000000000000000000
310
000000000000000000000000000000000000FFFFFFFF00FFFFFFFFFFFFFFFFFFFFFF00FF00FFFFFFFFFFFFFFFFFFFF00FFFFFFFFFFFF00FFFFFFFFFFFFFFFFFFFF00FF00FFFFFFFFFFFFFFFFFFFFFF00FFFFFFFFFFFF0000000000000000000000000000000000000000000000000000FFFFFFFFFFFF00FFFFFFFFFFFFFFFF
310
FFFFFFFFFFFFFFFFFFFFFFFFFFFFFFFF00FFFFFFFFFFFF00FFFFFFFFFFFFFFFFFFFFFFFFFFFFFFFFFFFFFFFFFFFFFFFF00FFFFFFFFFFFF00FFFFFFFFFFFFFFFFFFFFFFFFFFFFFFFFFFFFFFFFFFFFFFFF00FFFFFFFFFFFF00FFFFFFFFFFFFFFFFFFFFFFFFFFFFFFFFFFFFFFFFFFFFFFFF00FFFFFFFFFFFFFF00FFFFFFFFFFFF
310
FFFFFFFFFFFFFFFFFFFFFFFFFFFFFFFFFF00FFFFFFFFFFFFFF00FFFFFFFFFFFFFFFFFFFFFFFFFFFFFFFFFFFFFFFFFFFF00FFFFFFFFFFFFFFFFFF00FFFFFFFFFFFFFFFFFFFFFFFFFFFFFFFFFFFFFFFF00FFFFFFFFFFFFFFFFFFFFFF00FFFFFFFFFFFFFFFFFFFFFFFFFFFFFFFFFFFF00FFFFFFFFFFFFFFFFFFFFFFFFFF0000FF
310
FFFFFFFFFFFFFFFFFFFFFFFFFF0000FFFFFFFFFFFFFFFFFFFFFFFFFFFFFFFF0000000000000000000000000000FFFFFFFFFFFFFFFFFFFFFFFFFFFFFFFFFFFFFFFFFFFFFFFFFFFFFFFFFFFFFFFFFFFFFFFFFFFFFFFFFFFFFFFFFFFFFFFFFFFFFFFFFFFFFFFFFFFFFFFFFFFFFFFFFFFFFFFFFFFFFFFFFFFFFFFFFFFFFFFFFFFF
310
FFFFFFFFFFFFFFFFFFFFFFFFFFFFFFFFFFFFFFFFFFFFFFFFFFFFFFFFFFFFFFFFFFFFFFFFFFFFFFFFFFFFFFFFFFFFFFFFFFFFFFFFFFFFFFFFFFFFFFFFFFFFFFFFFFFFFFFFFFFFFFFFFFFFFFFFFFFFFFFFFFFFFFFFFFFFFFFFFFFFFFFFFFFFFFFFFFFFFFFFFFFFFFFFFFFFFFFFFFFFFFFFFFFFFFFFFFFFFFFFFFFFFFFFFFFFFF
310
FFFFFFFFFFFFFFFFFFFFFFFFFFFFFFFFFFFFFFFFFFFFFFFFFFFFFFFFFFFFFFFFFFFFFFFFFFFFFFFFFFFFFFFFFFFFFFFFFFFFFFFFFFFFFFFF
102
{BLKREFS
331
65C6
331
65CF
331
6850
331
684F
331
6A39
331
6A3A
102
}
  0
BLOCK_RECORD
  5
3D09
330
1
100
AcDbSymbolTableRecord
100
AcDbBlockTableRecord
  2
A$C24A81A80
340
0
102
{BLKREFS
331
4484
331
4480
331
447F
331
44C5
331
44C3
331
44C2
331
44B4
331
44B3
331
44B0
331
44AC
331
44A7
331
44A2
331
449F
331
448F
331
448C
331
4489
102
}
  0
BLOCK_RECORD
  5
4473
330
1
100
AcDbSymbolTableRecord
100
AcDbBlockTableRecord
  2
F2069A-16P-1
340
0
310
2800000020000000200000000100080000000000000400000000000000000000000000000000000000000000000080000080000000808000800000008000800080800000C0C0C000C0DCC000F0CAA6000020400000206000002080000020A0000020C0000020E00000400000004020000040400000406000004080000040A0
310
000040C0000040E00000600000006020000060400000606000006080000060A0000060C0000060E00000800000008020000080400000806000008080000080A0000080C0000080E00000A0000000A0200000A0400000A0600000A0800000A0A00000A0C00000A0E00000C0000000C0200000C0400000C0600000C0800000C0
310
A00000C0C00000C0E00000E0000000E0200000E0400000E0600000E0800000E0A00000E0C00000E0E00040000000400020004000400040006000400080004000A0004000C0004000E00040200000402020004020400040206000402080004020A0004020C0004020E000404000004040200040404000404060004040800040
310
40A0004040C0004040E00040600000406020004060400040606000406080004060A0004060C0004060E00040800000408020004080400040806000408080004080A0004080C0004080E00040A0000040A0200040A0400040A0600040A0800040A0A00040A0C00040A0E00040C0000040C0200040C0400040C0600040C08000
310
40C0A00040C0C00040C0E00040E0000040E0200040E0400040E0600040E0800040E0A00040E0C00040E0E00080000000800020008000400080006000800080008000A0008000C0008000E00080200000802020008020400080206000802080008020A0008020C0008020E00080400000804020008040400080406000804080
310
008040A0008040C0008040E00080600000806020008060400080606000806080008060A0008060C0008060E00080800000808020008080400080806000808080008080A0008080C0008080E00080A0000080A0200080A0400080A0600080A0800080A0A00080A0C00080A0E00080C0000080C0200080C0400080C0600080C0
310
800080C0A00080C0C00080C0E00080E0000080E0200080E0400080E0600080E0800080E0A00080E0C00080E0E000C0000000C0002000C0004000C0006000C0008000C000A000C000C000C000E000C0200000C0202000C0204000C0206000C0208000C020A000C020C000C020E000C0400000C0402000C0404000C0406000C0
310
408000C040A000C040C000C040E000C0600000C0602000C0604000C0606000C0608000C060A000C060C000C060E000C0800000C0802000C0804000C0806000C0808000C080A000C080C000C080E000C0A00000C0A02000C0A04000C0A06000C0A08000C0A0A000C0A0C000C0A0E000C0C00000C0C02000C0C04000C0C06000
310
C0C08000C0C0A000F0FBFF00A4A0A000808080000000FF0000FF000000FFFF00FF000000FF00FF00FFFF0000FFFFFF00FFFFFFFFFFFFFFFFFFFFFFFFFFFFFFFFFFFFFFFFFFFFFFFFFFFFFFFFFFFFFFFFFFFFFFFFFFFFFFFFFFFFFFFFFFFFFFFFFFFFFFFFFFFFFFFFFFFFFFFFFFFFFFFFFFFFFFFFFFFFFFFFFFFFFFFFFFFFFF
310
FFFFFFFFFFFFFFFFFFFFFFFFFFFFFFFFFFFFFFFFFFFFFFFFFFFFFFFFFFFFFFFFFFFFFFFFFFFFFFFFFFFFFFFFFFFFFFFFFFFFFFFFFFFFFFFFFFFFFFFFFFFFFFFFFFFFFFFFFFFFFFFFFFFFFFFFFFFFFFFFFFFFFFFFFFFFFFFFFFFFFFFFFFFFFFFFFFFFFFFFFFFFFFFFFFFFFFFFFFFFFFFFFFFFFFFFFFFFFFFFFFFFFFFFFFFFFF
310
FFFFFFFFFFFFFFFFFFFFFFFFFFFFFFFFFFFFFFFFFFFFFFFFFFFFFFFFFFFFFFFFFFFFFFFFFFFFFFFFFFFFFFFFFFFFFFFFFFFFFFFFFFFFFFFFFFFFFFFFFFFFFFFFFFFFFFFFFFFFFFFFFFFFFFFFFFFFFFFFFFFFFFFFFFFFFFFFFFFFFFFFFFFFFFFFFFFFFFFFFFFFFFFFFFFFFFFFFFFFFFFFFFFFFFFFFFFFFFFFFFFFFFFFFFFFFF
310
FFFFFFFFFFFFFFFFFFFFFFFFFFFFFFFFFFFFFFFF000000000000000000000000000000000000000000000000000000000000FFFF0000000000000000FF000000000000000000000000000000000000000000FFFF000000000000000000000000000000000000000000000000000000000000FFFF0000000000000000000000
310
FF000000000000000000000000000000000000FFFF000000000000000000000000000000000000000000000000000000000000FFFF000000000000000000000000000000000000000000000000000000000000FFFF000000000000000000000000000000000000000000000000000000000000FFFF00000000000000000000
310
0000000000000000000000000000000000000000FFFF000000000000000000000000000000000000000000000000000000000000FFFF000000000000000000000000000000000000000000000000000000000000FFFFFFFFFFFFFFFFFFFFFFFFFFFFFFFFFFFFFFFFFFFFFFFFFFFFFFFFFFFFFFFFFFFFFFFFFFFFFFFFFFFFFF
310
FFFFFFFFFFFFFFFFFFFFFFFFFFFFFFFFFFFFFFFFFFFFFFFFFFFFFFFFFFFFFFFFFFFFFFFFFFFFFFFFFFFFFFFFFFFFFFFFFFFFFFFFFFFFFFFFFFFFFFFFFFFFFFFFFFFFFFFFFFFFFFFFFFFFFFFFFFFFFFFFFFFFFFFFFFFFFFFFFFFFFFFFFFFFFFFFFFFFFFFFFFFFFFFFFFFFFFFFFFFFFFFFFFFFFFFFFFFFFFFFFFFFFFFFFFFFFF
310
FFFFFFFFFFFFFFFFFFFFFFFFFFFFFFFFFFFFFFFFFFFFFFFFFFFFFFFFFFFFFFFFFFFFFFFFFFFFFFFFFFFFFFFFFFFFFFFFFFFFFFFFFFFFFFFFFFFFFFFFFFFFFFFFFFFFFFFFFFFFFFFFFFFFFFFFFFFFFFFFFFFFFFFFFFFFFFFFFFFFFFFFFFFFFFFFFFFFFFFFFFFFFFFFFFFFFFFFFFFFFFFFFFFFFFFFFFFFFFFFFFFFFFFFFFFFFF
310
FFFFFFFFFFFFFFFFFFFFFFFFFFFFFFFFFFFFFFFFFFFFFFFFFFFFFFFFFFFFFFFFFFFFFFFFFFFFFFFFFFFFFFFFFFFFFFFFFFFFFFFFFFFFFFFF
102
{BLKREFS
331
63E0
102
}
  0
BLOCK_RECORD
  5
5B23
330
1
100
AcDbSymbolTableRecord
100
AcDbBlockTableRecord
  2
*D4
340
0
  0
BLOCK_RECORD
  5
5B30
330
1
100
AcDbSymbolTableRecord
100
AcDbBlockTableRecord
  2
*D5
340
0
  0
BLOCK_RECORD
  5
5B3C
330
1
100
AcDbSymbolTableRecord
100
AcDbBlockTableRecord
  2
*D6
340
0
  0
BLOCK_RECORD
  5
5B48
330
1
100
AcDbSymbolTableRecord
100
AcDbBlockTableRecord
  2
*D7
340
0
  0
BLOCK_RECORD
  5
5B54
330
1
100
AcDbSymbolTableRecord
100
AcDbBlockTableRecord
  2
*D8
340
0
  0
BLOCK_RECORD
  5
5DE9
330
1
100
AcDbSymbolTableRecord
100
AcDbBlockTableRecord
  2
TB16P-1
340
0
310
2800000020000000200000000100080000000000000400000000000000000000000000000000000000000000000080000080000000808000800000008000800080800000C0C0C000C0DCC000F0CAA6000020400000206000002080000020A0000020C0000020E00000400000004020000040400000406000004080000040A0
310
000040C0000040E00000600000006020000060400000606000006080000060A0000060C0000060E00000800000008020000080400000806000008080000080A0000080C0000080E00000A0000000A0200000A0400000A0600000A0800000A0A00000A0C00000A0E00000C0000000C0200000C0400000C0600000C0800000C0
310
A00000C0C00000C0E00000E0000000E0200000E0400000E0600000E0800000E0A00000E0C00000E0E00040000000400020004000400040006000400080004000A0004000C0004000E00040200000402020004020400040206000402080004020A0004020C0004020E000404000004040200040404000404060004040800040
310
40A0004040C0004040E00040600000406020004060400040606000406080004060A0004060C0004060E00040800000408020004080400040806000408080004080A0004080C0004080E00040A0000040A0200040A0400040A0600040A0800040A0A00040A0C00040A0E00040C0000040C0200040C0400040C0600040C08000
310
40C0A00040C0C00040C0E00040E0000040E0200040E0400040E0600040E0800040E0A00040E0C00040E0E00080000000800020008000400080006000800080008000A0008000C0008000E00080200000802020008020400080206000802080008020A0008020C0008020E00080400000804020008040400080406000804080
310
008040A0008040C0008040E00080600000806020008060400080606000806080008060A0008060C0008060E00080800000808020008080400080806000808080008080A0008080C0008080E00080A0000080A0200080A0400080A0600080A0800080A0A00080A0C00080A0E00080C0000080C0200080C0400080C0600080C0
310
800080C0A00080C0C00080C0E00080E0000080E0200080E0400080E0600080E0800080E0A00080E0C00080E0E000C0000000C0002000C0004000C0006000C0008000C000A000C000C000C000E000C0200000C0202000C0204000C0206000C0208000C020A000C020C000C020E000C0400000C0402000C0404000C0406000C0
310
408000C040A000C040C000C040E000C0600000C0602000C0604000C0606000C0608000C060A000C060C000C060E000C0800000C0802000C0804000C0806000C0808000C080A000C080C000C080E000C0A00000C0A02000C0A04000C0A06000C0A08000C0A0A000C0A0C000C0A0E000C0C00000C0C02000C0C04000C0C06000
310
C0C08000C0C0A000F0FBFF00A4A0A000808080000000FF0000FF000000FFFF00FF000000FF00FF00FFFF0000FFFFFF00FFFFFFFFFFFFFFFFFFFFFFFFFFFFFFFFFFFFFFFFFFFFFFFFFFFFFFFFFFFFFFFFFFFFFFFFFFFFFFFFFFFFFF00000000000000000000FFFFFFFFFFFFFFFFFFFFFFFFFFFFFFFFFFFFFFFFFFFF00000000
310
000000000000FFFFFFFFFFFFFFFFFFFFFFFFFFFFFFFFFFFFFFFFFFFF0000000000FFFFFF0000FFFFFFFFFFFFFFFFFFFFFFFFFFFFFFFFFFFFFFFFFFFF00000000000000000000FFFFFFFFFFFFFFFFFFFFFFFFFFFFFFFFFFFFFFFFFFFF00000000000000000000FFFFFFFFFFFFFFFFFFFFFFFFFFFFFFFFFFFFFFFFFFFF000000
310
00000000000000FFFFFFFFFFFFFFFFFFFFFFFFFFFFFFFFFFFFFFFFFFFF00000000000000000000FFFFFFFFFFFFFFFFFFFFFFFFFFFFFFFFFFFFFFFFFFFF00000000000000000000FFFFFFFFFFFFFFFFFFFFFFFFFFFFFFFFFFFFFFFFFFFF00000000000000000000FFFFFFFFFFFFFFFFFFFFFFFFFFFFFFFFFFFFFFFFFFFF0000
310
0000000000000000FFFFFFFFFFFFFFFFFFFFFFFFFFFFFFFFFFFFFFFFFFFF00000000000000000000FFFFFFFFFFFFFFFFFFFFFFFFFFFFFFFFFFFFFFFFFFFF00000000000000000000FFFFFFFFFFFFFFFFFFFFFFFFFFFFFFFFFFFFFFFFFFFF00000000000000000000FFFFFFFFFFFFFFFFFFFFFFFFFFFFFFFFFFFFFFFFFFFF00
310
000000000000000000FFFFFFFFFFFFFFFFFFFFFFFFFFFFFFFFFFFFFFFFFFFF00000000000000000000FFFFFFFFFFFFFFFFFFFFFFFFFFFFFFFFFFFFFFFFFFFF00000000000000000000FFFFFFFFFFFFFFFFFFFFFFFFFFFFFFFFFFFFFFFFFFFF00000000000000000000FFFFFFFFFFFFFFFFFFFFFFFFFFFFFFFFFFFFFFFFFFFF
310
00000000000000000000FFFFFFFFFFFFFFFFFFFFFFFFFFFFFFFFFFFFFFFFFFFF00000000000000000000FFFFFFFFFFFFFFFFFFFFFFFFFFFFFFFFFFFFFFFFFFFF00000000000000000000FFFFFFFFFFFFFFFFFFFFFFFFFFFFFFFFFFFFFFFFFFFF00000000000000000000FFFFFFFFFFFFFFFFFFFFFFFFFFFFFFFFFFFFFFFFFF
310
FF00000000000000000000FFFFFFFFFFFFFFFFFFFFFFFFFFFFFFFFFFFFFFFFFFFF00000000000000000000FFFFFFFFFFFFFFFFFFFFFFFFFFFFFFFFFFFFFFFFFFFF00000000000000000000FFFFFFFFFFFFFFFFFFFFFFFFFFFFFFFFFFFFFFFFFFFF00000000000000000000FFFFFFFFFFFFFFFFFFFFFFFFFFFFFFFFFFFFFFFF
310
FFFF00000000000000000000FFFFFFFFFFFFFFFFFFFFFFFFFFFFFFFFFFFFFFFFFFFF00000000000000000000FFFFFFFFFFFFFFFFFFFFFFFFFFFFFFFFFFFFFFFFFFFF00FFFFFF000000000000FFFFFFFFFFFFFFFFFFFFFFFFFFFFFFFFFFFFFFFFFFFF00FFFFFF000000000000FFFFFFFFFFFFFFFFFFFFFFFFFFFFFFFFFFFFFF
310
FFFFFF00000000000000000000FFFFFFFFFFFFFFFFFFFFFFFFFFFFFFFFFFFFFFFFFFFFFFFFFFFFFFFFFFFFFFFFFFFFFFFFFFFFFFFFFFFFFF
102
{BLKREFS
331
65BD
331
6851
102
}
  0
BLOCK_RECORD
  5
60D9
330
1
100
AcDbSymbolTableRecord
100
AcDbBlockTableRecord
  2
UB-TOP
340
0
310
2800000020000000200000000100080000000000000400000000000000000000000000000000000000000000000080000080000000808000800000008000800080800000C0C0C000C0DCC000F0CAA6000020400000206000002080000020A0000020C0000020E00000400000004020000040400000406000004080000040A0
310
000040C0000040E00000600000006020000060400000606000006080000060A0000060C0000060E00000800000008020000080400000806000008080000080A0000080C0000080E00000A0000000A0200000A0400000A0600000A0800000A0A00000A0C00000A0E00000C0000000C0200000C0400000C0600000C0800000C0
310
A00000C0C00000C0E00000E0000000E0200000E0400000E0600000E0800000E0A00000E0C00000E0E00040000000400020004000400040006000400080004000A0004000C0004000E00040200000402020004020400040206000402080004020A0004020C0004020E000404000004040200040404000404060004040800040
310
40A0004040C0004040E00040600000406020004060400040606000406080004060A0004060C0004060E00040800000408020004080400040806000408080004080A0004080C0004080E00040A0000040A0200040A0400040A0600040A0800040A0A00040A0C00040A0E00040C0000040C0200040C0400040C0600040C08000
310
40C0A00040C0C00040C0E00040E0000040E0200040E0400040E0600040E0800040E0A00040E0C00040E0E00080000000800020008000400080006000800080008000A0008000C0008000E00080200000802020008020400080206000802080008020A0008020C0008020E00080400000804020008040400080406000804080
310
008040A0008040C0008040E00080600000806020008060400080606000806080008060A0008060C0008060E00080800000808020008080400080806000808080008080A0008080C0008080E00080A0000080A0200080A0400080A0600080A0800080A0A00080A0C00080A0E00080C0000080C0200080C0400080C0600080C0
310
800080C0A00080C0C00080C0E00080E0000080E0200080E0400080E0600080E0800080E0A00080E0C00080E0E000C0000000C0002000C0004000C0006000C0008000C000A000C000C000C000E000C0200000C0202000C0204000C0206000C0208000C020A000C020C000C020E000C0400000C0402000C0404000C0406000C0
310
408000C040A000C040C000C040E000C0600000C0602000C0604000C0606000C0608000C060A000C060C000C060E000C0800000C0802000C0804000C0806000C0808000C080A000C080C000C080E000C0A00000C0A02000C0A04000C0A06000C0A08000C0A0A000C0A0C000C0A0E000C0C00000C0C02000C0C04000C0C06000
310
C0C08000C0C0A000F0FBFF00A4A0A000808080000000FF0000FF000000FFFF00FF000000FF00FF00FFFF0000FFFFFF00FFFFFFFFFFFFFFFFFFFFFFFFFFFFFFFFFFFFFFFFFFFFFFFFFFFFFFFFFFFFFFFFFFFFFFFFFFFFFFFFFFFFFFFFFFFFFF000000FFFFFFFFFFFFFFFFFFFFFFFFFFFFFFFFFFFFFFFFFFFFFFFFFF00000000
310
FFFFFF00000000FFFFFFFFFFFFFFFFFFFFFFFFFFFFFFFFFFFF000000FFFFFFFFFFFFFFFFFFFFFF0000FFFFFFFFFFFFFFFFFFFFFFFFFFFFFF00FFFFFFFFFFFFFFFFFFFFFFFFFFFFFFFF00FFFFFFFFFFFFFFFFFFFFFFFFFF00FFFFFFFFFFFF0000000000000000FFFFFFFF00FFFFFFFFFFFFFFFFFFFFFF00FFFFFFFF000000FF
310
FFFFFFFFFFFFFF00FFFFFFFF00FFFFFFFFFFFFFFFFFF00FFFFFF0000FFFFFFFFFFFFFFFFFFFFFFFF00FFFFFFFF00FFFFFFFFFFFFFF00FFFFFF00FFFFFFFFFFFF00000000FFFFFFFFFF00FFFFFFFF00FFFFFFFFFFFF00FFFFFF00FFFFFFFFFFFF00FFFF00FFFFFFFFFFFF00FFFFFF00FFFFFFFFFF00FFFFFF00FFFFFFFFFFFF
310
FF00FFFF00FFFFFFFFFFFFFF00FFFFFF00FFFFFFFF00FFFFFF00FFFFFFFFFFFFFF00FFFF00FFFFFFFFFFFFFF00FFFFFF00FFFFFFFF00FFFF00FFFFFFFFFFFFFFFF00FFFF00FFFFFFFFFFFFFFFF00FFFF00FFFFFFFF00FFFF00FFFFFFFFFFFFFFFF00FFFF00FFFFFFFFFFFFFFFF00FFFF00FFFFFF00FFFFFF00FFFF00000000
310
000000FFFF00000000000000FFFFFF00FFFF00FFFF00FFFFFF00FFFF00FFFFFFFFFFFFFFFFFFFFFFFFFFFF00FFFFFF00FFFF00FFFF00FFFFFF00FFFF00FFFFFFFFFFFFFFFFFFFFFFFFFFFF00FFFFFF00FFFF00FFFFFF00FFFF00FFFF00000000000000FFFF00000000000000FFFF00FFFFFF00FFFFFF00FFFF00FFFFFFFFFF
310
FFFFFF00FFFF00FFFFFFFFFFFFFFFF00FFFF00FFFFFFFF00FFFF00FFFFFFFFFFFFFFFF00FFFF00FFFFFFFFFFFFFFFF00FFFF00FFFFFFFF00FFFFFF00FFFFFFFFFFFFFF00FFFF00FFFFFFFFFFFFFF00FFFFFF00FFFFFFFFFF00FFFF00FFFFFFFFFFFFFF00FFFF00FFFFFFFFFFFFFF00FFFFFF00FFFFFFFFFF00FFFFFF00FFFF
310
FFFFFFFF00FFFF00FFFFFFFFFFFF00FFFFFF00FFFFFFFFFFFF00FFFFFF00FFFFFFFFFFFF00000000FFFFFFFFFF00FFFFFFFF00FFFFFFFFFFFFFF00FFFFFF0000FFFFFFFFFFFFFFFFFFFFFFFF00FFFFFFFF00FFFFFFFFFFFFFFFFFF00FFFFFFFF000000FFFFFFFFFFFFFFFF00FFFFFFFF00FFFFFFFFFFFFFFFFFFFFFF00FFFF
310
FFFFFFFF0000000000000000FFFFFFFF00FFFFFFFFFFFFFFFFFFFFFFFFFF00FFFFFFFFFFFFFFFFFFFFFFFFFFFFFFFF00FFFFFFFFFFFFFFFFFFFFFFFFFFFFFF0000FFFFFFFFFFFFFFFFFFFFFFFF0000FFFFFFFFFFFFFFFFFFFFFFFFFFFFFFFFFFFF00000000FFFFFFFF00000000FFFFFFFFFFFFFFFFFFFFFFFFFFFFFFFFFFFF
310
FFFFFFFFFFFF00000000FFFFFFFFFFFFFFFFFFFFFFFFFFFFFFFFFFFFFFFFFFFFFFFFFFFFFFFFFFFFFFFFFFFFFFFFFFFFFFFFFFFFFFFFFFFF
102
{BLKREFS
331
665B
331
665A
102
}
  0
BLOCK_RECORD
  5
60DF
330
1
100
AcDbSymbolTableRecord
100
AcDbBlockTableRecord
  2
UB-SIDE
340
0
310
2800000020000000200000000100080000000000000400000000000000000000000000000000000000000000000080000080000000808000800000008000800080800000C0C0C000C0DCC000F0CAA6000020400000206000002080000020A0000020C0000020E00000400000004020000040400000406000004080000040A0
310
000040C0000040E00000600000006020000060400000606000006080000060A0000060C0000060E00000800000008020000080400000806000008080000080A0000080C0000080E00000A0000000A0200000A0400000A0600000A0800000A0A00000A0C00000A0E00000C0000000C0200000C0400000C0600000C0800000C0
310
A00000C0C00000C0E00000E0000000E0200000E0400000E0600000E0800000E0A00000E0C00000E0E00040000000400020004000400040006000400080004000A0004000C0004000E00040200000402020004020400040206000402080004020A0004020C0004020E000404000004040200040404000404060004040800040
310
40A0004040C0004040E00040600000406020004060400040606000406080004060A0004060C0004060E00040800000408020004080400040806000408080004080A0004080C0004080E00040A0000040A0200040A0400040A0600040A0800040A0A00040A0C00040A0E00040C0000040C0200040C0400040C0600040C08000
310
40C0A00040C0C00040C0E00040E0000040E0200040E0400040E0600040E0800040E0A00040E0C00040E0E00080000000800020008000400080006000800080008000A0008000C0008000E00080200000802020008020400080206000802080008020A0008020C0008020E00080400000804020008040400080406000804080
310
008040A0008040C0008040E00080600000806020008060400080606000806080008060A0008060C0008060E00080800000808020008080400080806000808080008080A0008080C0008080E00080A0000080A0200080A0400080A0600080A0800080A0A00080A0C00080A0E00080C0000080C0200080C0400080C0600080C0
310
800080C0A00080C0C00080C0E00080E0000080E0200080E0400080E0600080E0800080E0A00080E0C00080E0E000C0000000C0002000C0004000C0006000C0008000C000A000C000C000C000E000C0200000C0202000C0204000C0206000C0208000C020A000C020C000C020E000C0400000C0402000C0404000C0406000C0
310
408000C040A000C040C000C040E000C0600000C0602000C0604000C0606000C0608000C060A000C060C000C060E000C0800000C0802000C0804000C0806000C0808000C080A000C080C000C080E000C0A00000C0A02000C0A04000C0A06000C0A08000C0A0A000C0A0C000C0A0E000C0C00000C0C02000C0C04000C0C06000
310
C0C08000C0C0A000F0FBFF00A4A0A000808080000000FF0000FF000000FFFF00FF000000FF00FF00FFFF0000FFFFFF00FFFFFFFFFFFFFFFFFFFFFFFFFFFFFFFFFFFFFFFFFFFFFFFFFFFFFFFFFFFFFFFFFFFFFFFFFFFFFFFFFFFFFFFFFFFFFFFFFFFFFFFFFFFFFFFFFFFFFFFFFFFFFFFFFFFFFFFFFFFFFFFFFFFFFFFFFFFFFF
310
FFFFFFFFFFFFFFFFFFFFFFFFFFFFFFFFFFFFFFFFFFFFFFFFFFFFFFFFFFFFFFFFFFFFFFFFFFFFFFFFFFFFFFFFFFFFFFFFFFFFFFFFFFFFFFFFFFFFFFFFFFFFFFFFFFFFFFFFFFFFFFFFFFFFFFFFFFFFFFFFFFFFFFFFFFFFFFFFFFFFFFFFFFFFFFFFFFFFFFFFFFFFFFFFFFFFFFFFFFFFFFFFFFFFFFFFFFFFFFFFFFFFFFFFFFFFFF
310
FFFFFFFFFFFFFFFFFFFFFFFFFFFFFFFFFFFFFFFFFFFFFFFFFFFFFFFFFFFFFFFFFFFFFFFFFFFFFFFFFFFFFFFFFFFFFFFFFFFFFFFFFFFFFFFFFFFFFFFFFFFFFFFFFFFFFFFFFFFFFFFFFFFFFFFFFFFFFFFFFFFFFFFFFFFFFFFFFFFFFFFFFFFFFFFFFFFFFFFFFFFFFFFFFFFFFFFFFFFFFFFFFFFFFFFFFFFFFFFFFFFFFFFFFFFFFF
310
FFFFFFFFFFFFFFFFFFFFFFFFFFFFFFFFFFFFFFFF000000000000000000000000000000000000000000000000000000000000FFFF00FFFFFFFFFFFFFFFFFFFFFFFFFFFFFFFFFFFFFFFFFFFFFFFFFFFFFFFF00FFFF000000000000000000000000000000000000000000000000000000000000FFFFFFFFFF00FFFFFFFFFFFFFF
310
FFFFFFFFFFFFFFFFFFFFFFFFFFFFFF00FFFFFFFFFFFFFFFF00FFFFFFFFFFFFFFFFFFFFFFFFFFFFFFFFFFFFFFFFFFFF00FFFFFFFFFFFFFFFFFF00FFFFFFFFFFFFFFFFFFFFFFFFFFFFFFFFFFFFFFFF00FFFFFFFFFFFFFFFFFFFF00FFFFFFFFFFFFFFFFFFFFFFFFFFFFFFFFFFFFFFFF00FFFFFFFFFFFFFFFFFFFF000000000000
310
00000000000000000000000000000000FFFFFFFFFFFFFFFFFFFFFFFFFFFFFFFFFFFFFFFFFFFFFFFFFFFFFFFFFFFFFFFFFFFFFFFFFFFFFFFFFFFFFFFFFFFFFFFFFFFFFFFFFFFFFFFFFFFFFFFFFFFFFFFFFFFFFFFFFFFFFFFFFFFFFFFFFFFFFFFFFFFFFFFFFFFFFFFFFFFFFFFFFFFFFFFFFFFFFFFFFFFFFFFFFFFFFFFFFFFFFF
310
FFFFFFFFFFFFFFFFFFFFFFFFFFFFFFFFFFFFFFFFFFFFFFFFFFFFFFFFFFFFFFFFFFFFFFFFFFFFFFFFFFFFFFFFFFFFFFFFFFFFFFFFFFFFFFFFFFFFFFFFFFFFFFFFFFFFFFFFFFFFFFFFFFFFFFFFFFFFFFFFFFFFFFFFFFFFFFFFFFFFFFFFFFFFFFFFFFFFFFFFFFFFFFFFFFFFFFFFFFFFFFFFFFFFFFFFFFFFFFFFFFFFFFFFFFFFFF
310
FFFFFFFFFFFFFFFFFFFFFFFFFFFFFFFFFFFFFFFFFFFFFFFFFFFFFFFFFFFFFFFFFFFFFFFFFFFFFFFFFFFFFFFFFFFFFFFFFFFFFFFFFFFFFFFFFFFFFFFFFFFFFFFFFFFFFFFFFFFFFFFFFFFFFFFFFFFFFFFFFFFFFFFFFFFFFFFFFFFFFFFFFFFFFFFFFFFFFFFFFFFFFFFFFFFFFFFFFFFFFFFFFFFFFFFFFFFFFFFFFFFFFFFFFFFFFF
310
FFFFFFFFFFFFFFFFFFFFFFFFFFFFFFFFFFFFFFFFFFFFFFFFFFFFFFFFFFFFFFFFFFFFFFFFFFFFFFFFFFFFFFFFFFFFFFFFFFFFFFFFFFFFFFFF
102
{BLKREFS
331
6487
331
6486
331
6485
331
6484
102
}
  0
ENDTAB
  0
ENDSEC
  0
SECTION
  2
BLOCKS
  0
BLOCK
  5
1B
330
1A
100
AcDbEntity
  8
0
100
AcDbBlockBegin
  2
*MODEL_SPACE
 70
     0
 10
0.0
 20
0.0
 30
0.0
  3
*MODEL_SPACE
  1

  0
ENDBLK
  5
1C
330
1A
100
AcDbEntity
  8
0
100
AcDbBlockEnd
  0
BLOCK
  5
18
330
17
100
AcDbEntity
 67
     1
  8
0
100
AcDbBlockBegin
  2
*PAPER_SPACE
 70
     0
 10
0.0
 20
0.0
 30
0.0
  3
*PAPER_SPACE
  1

  0
ENDBLK
  5
19
330
17
100
AcDbEntity
 67
     1
  8
0
100
AcDbBlockEnd
  0
BLOCK
  5
BB
330
BA
100
AcDbEntity
  8
0
100
AcDbBlockBegin
  2
_OPEN
 70
     0
 10
0.0
 20
0.0
 30
0.0
  3
_OPEN
  1

  0
LINE
  5
BC
330
BA
100
AcDbEntity
  8
0
  6
ByBlock
 62
     0
100
AcDbLine
 10
-1.0
 20
0.1666666666666666
 30
0.0
 11
0.0
 21
0.0
 31
0.0
  0
LINE
  5
BD
330
BA
100
AcDbEntity
  8
0
  6
ByBlock
 62
     0
100
AcDbLine
 10
0.0
 20
0.0
 30
0.0
 11
-1.0
 21
-0.1666666666666666
 31
0.0
  0
LINE
  5
BE
330
BA
100
AcDbEntity
  8
0
  6
ByBlock
 62
     0
100
AcDbLine
 10
0.0
 20
0.0
 30
0.0
 11
-1.0
 21
0.0
 31
0.0
  0
ENDBLK
  5
BF
330
BA
100
AcDbEntity
  8
0
100
AcDbBlockEnd
  0
BLOCK
  5
2CAA
330
2CA9
100
AcDbEntity
  8
0
100
AcDbBlockBegin
  2
M3-1
 70
     0
 10
0.0
 20
0.0
 30
0.0
  3
M3-1
  1

  0
LINE
  5
2CAB
330
2CA9
100
AcDbEntity
  8
0
100
AcDbLine
 10
2.650000000000005
 20
1.200000000000059
 30
0.0
 11
-2.649999999999977
 21
1.200000000000002
 31
0.0
  0
LINE
  5
2CAC
330
2CA9
100
AcDbEntity
  8
0
100
AcDbLine
 10
2.900000000000034
 20
0.4999999999999432
 30
0.0
 11
-2.899999999999977
 21
0.5
 31
0.0
  0
LINE
  5
2CAD
330
2CA9
100
AcDbEntity
  8
0
100
AcDbLine
 10
2.900000000000005
 20
0.0
 30
0.0
 11
-2.900000000000005
 21
0.0
 31
0.0
  0
ELLIPSE
  5
2CAE
330
2CA9
100
AcDbEntity
  8
0
100
AcDbEllipse
 10
0.0
 20
1.699999883902833
 30
0.0
 11
-2.650000000000005
 21
0.0000000000000002
 31
0.0
210
0.0
220
0.0
230
1.0
 40
0.596226458904585
 41
2.81960193203065
 42
6.605176028738728
  0
LINE
  5
2CAF
330
2CA9
100
AcDbEntity
  8
0
100
AcDbLine
 10
-2.649999999999977
 20
1.200000000000002
 30
0.0
 11
-2.649999999999948
 21
0.5
 31
0.0
  0
LINE
  5
2CB0
330
2CA9
100
AcDbEntity
  8
0
100
AcDbLine
 10
-2.899999999999977
 20
0.5
 30
0.0
 11
-2.900000000000005
 21
0.0
 31
0.0
  0
LINE
  5
2CB1
330
2CA9
100
AcDbEntity
  8
0
100
AcDbLine
 10
0.5248024564464516
 20
0.4999999999999858
 30
0.0
 11
-0.1751975435536792
 21
1.200000000000002
 31
0.0
  0
LINE
  5
2CB2
330
2CA9
100
AcDbEntity
  8
0
100
AcDbLine
 10
0.1712490658532033
 20
0.4999999999999858
 30
0.0
 11
-0.5287509341469275
 21
1.200000000000002
 31
0.0
  0
LINE
  5
2CB3
330
2CA9
100
AcDbEntity
  8
0
100
AcDbLine
 10
2.650000000000005
 20
1.200000000000002
 30
0.0
 11
2.650000000000005
 21
0.4999999999999432
 31
0.0
  0
LINE
  5
2CB4
330
2CA9
100
AcDbEntity
  8
0
100
AcDbLine
 10
2.900000000000034
 20
0.4999999999999432
 30
0.0
 11
2.900000000000034
 21
0.0000000000000568
 31
0.0
  0
ENDBLK
  5
2CB5
330
2CA9
100
AcDbEntity
  8
0
100
AcDbBlockEnd
  0
BLOCK
  5
3D0A
330
3D09
100
AcDbEntity
  8
0
100
AcDbBlockBegin
  2
A$C24A81A80
 70
     0
 10
0.0
 20
0.0
 30
0.0
  3
A$C24A81A80
  1

  0
LINE
  5
3D0B
330
3D09
100
AcDbEntity
  8
0
100
AcDbLine
 10
2.499999651518606
 20
2.50000022700658
 30
0.0
 11
2.499999651518578
 21
0.0419603354567642
 31
0.0
  0
LINE
  5
3D0C
330
3D09
100
AcDbEntity
  8
0
100
AcDbLine
 10
3.499999651518578
 20
2.50000022700658
 30
0.0
 11
3.499999651518578
 21
0.0419603354567642
 31
0.0
  0
CIRCLE
  5
3D0D
330
3D09
100
AcDbEntity
  8
0
100
AcDbCircle
 10
2.999999651518578
 20
3.00000022700658
 30
0.0
 40
3.0
  0
LINE
  5
3D0E
330
3D09
100
AcDbEntity
  8
0
100
AcDbLine
 10
4.749999651518578
 20
3.50000022700658
 30
0.0
 11
4.749999651518578
 21
2.50000022700658
 31
0.0
  0
LINE
  5
3D0F
330
3D09
100
AcDbEntity
  8
0
100
AcDbLine
 10
4.749999651518578
 20
2.50000022700658
 30
0.0
 11
3.499999651518578
 21
2.50000022700658
 31
0.0
  0
LINE
  5
3D10
330
3D09
100
AcDbEntity
  8
0
100
AcDbLine
 10
4.749999651518578
 20
3.50000022700658
 30
0.0
 11
3.499999651518578
 21
3.50000022700658
 31
0.0
  0
LINE
  5
3D11
330
3D09
100
AcDbEntity
  8
0
100
AcDbLine
 10
3.499999651518578
 20
5.958040118556397
 30
0.0
 11
3.499999651518578
 21
3.50000022700658
 31
0.0
  0
LINE
  5
3D12
330
3D09
100
AcDbEntity
  8
0
100
AcDbLine
 10
2.499999651518578
 20
2.50000022700658
 30
0.0
 11
1.249999651518578
 21
2.50000022700658
 31
0.0
  0
LINE
  5
3D13
330
3D09
100
AcDbEntity
  8
0
100
AcDbLine
 10
2.499999651518578
 20
3.50000022700658
 30
0.0
 11
1.249999651518578
 21
3.50000022700658
 31
0.0
  0
LINE
  5
3D14
330
3D09
100
AcDbEntity
  8
0
100
AcDbLine
 10
1.249999651518578
 20
3.50000022700658
 30
0.0
 11
1.249999651518578
 21
2.50000022700658
 31
0.0
  0
LINE
  5
3D15
330
3D09
100
AcDbEntity
  8
0
100
AcDbLine
 10
2.499999651518578
 20
5.958040118556397
 30
0.0
 11
2.499999651518606
 21
3.50000022700658
 31
0.0
  0
ENDBLK
  5
3D16
330
3D09
100
AcDbEntity
  8
0
100
AcDbBlockEnd
  0
BLOCK
  5
4474
330
4473
100
AcDbEntity
  8
0
100
AcDbBlockBegin
  2
F2069A-16P-1
 70
     0
 10
0.0
 20
0.0
 30
0.0
  3
F2069A-16P-1
  1

  0
LINE
  5
4476
330
4473
100
AcDbEntity
  8
0
100
AcDbLine
 10
-29.28499999999998
 20
8.999999999999985
 30
0.0
 11
-31.675
 21
8.999999999999985
 31
0.0
  0
LINE
  5
4477
330
4473
100
AcDbEntity
  8
0
100
AcDbLine
 10
-31.675
 20
1.300000000000054
 30
0.0
 11
-29.28499999999998
 21
1.300000000000025
 31
0.0
  0
LINE
  5
4478
330
4473
100
AcDbEntity
  8
0
100
AcDbLine
 10
-29.28499999999998
 20
8.999999999999985
 30
0.0
 11
-29.28499999999998
 21
1.300000000000025
 31
0.0
  0
LINE
  5
4479
330
4473
100
AcDbEntity
  8
0
100
AcDbLine
 10
-24.05499999999999
 20
18.19999999999997
 30
0.0
 11
-17.855
 21
18.19999999999997
 31
0.0
  0
LINE
  5
447A
330
4473
100
AcDbEntity
  8
0
100
AcDbLine
 10
-8.814999999999997
 20
18.19999999999997
 30
0.0
 11
-2.615000000000009
 21
18.19999999999997
 31
0.0
  0
LINE
  5
447B
330
4473
100
AcDbEntity
  8
0
100
AcDbLine
 10
-16.43499999999999
 20
18.19999999999997
 30
0.0
 11
-10.235
 21
18.19999999999997
 31
0.0
  0
LINE
  5
447C
330
4473
100
AcDbEntity
  8
0
100
AcDbLine
 10
-24.05499999999999
 20
9.749999999999985
 30
0.0
 11
-17.855
 21
9.749999999999985
 31
0.0
  0
LINE
  5
447D
330
4473
100
AcDbEntity
  8
0
100
AcDbLine
 10
-12.625
 20
8.999999999999985
 30
0.0
 11
-6.425000000000011
 21
8.999999999999985
 31
0.0
  0
LINE
  5
447E
330
4473
100
AcDbEntity
  8
0
100
AcDbLine
 10
-8.814999999999997
 20
9.749999999999985
 30
0.0
 11
-2.615000000000009
 21
9.749999999999985
 31
0.0
  0
INSERT
  5
447F
330
4473
100
AcDbEntity
  8
0
100
AcDbBlockReference
  2
A$C24A81A80
 10
-5.282359398776407
 20
5.000000406931448
 30
0.0
 50
134.9999999999997
  0
INSERT
  5
4480
330
4473
100
AcDbEntity
  8
0
100
AcDbBlockReference
  2
A$C24A81A80
 10
-12.90235939877639
 20
5.000000406931448
 30
0.0
 50
134.9999999999997
  0
LINE
  5
4481
330
4473
100
AcDbEntity
  8
0
100
AcDbLine
 10
-20.24499999999999
 20
8.999999999999985
 30
0.0
 11
-14.045
 21
8.999999999999985
 31
0.0
  0
LINE
  5
4482
330
4473
100
AcDbEntity
  8
0
100
AcDbLine
 10
-16.43500000000002
 20
9.749999999999985
 30
0.0
 11
-10.23500000000002
 21
9.749999999999985
 31
0.0
  0
LINE
  5
4483
330
4473
100
AcDbEntity
  8
0
100
AcDbLine
 10
-25.47500000000001
 20
18.19999999999997
 30
0.0
 11
-25.47500000000001
 21
8.999999999999985
 31
0.0
  0
INSERT
  5
4484
330
4473
100
AcDbEntity
  8
0
100
AcDbBlockReference
  2
A$C24A81A80
 10
-16.7123593987764
 20
14.20000040693144
 30
0.0
 50
134.9999999999997
  0
LINE
  5
4485
330
4473
100
AcDbEntity
  8
0
100
AcDbLine
 10
-17.855
 20
18.19999999999997
 30
0.0
 11
-17.855
 21
8.999999999999985
 31
0.0
  0
LINE
  5
4486
330
4473
100
AcDbEntity
  8
0
100
AcDbLine
 10
-24.05499999999999
 20
18.19999999999997
 30
0.0
 11
-24.05499999999999
 21
8.999999999999985
 31
0.0
  0
LINE
  5
4487
330
4473
100
AcDbEntity
  8
0
100
AcDbLine
 10
-16.43499999999999
 20
18.19999999999997
 30
0.0
 11
-16.43499999999999
 21
8.999999999999985
 31
0.0
  0
LINE
  5
4488
330
4473
100
AcDbEntity
  8
0
100
AcDbLine
 10
-10.235
 20
18.19999999999997
 30
0.0
 11
-10.235
 21
8.999999999999985
 31
0.0
  0
INSERT
  5
4489
330
4473
100
AcDbEntity
  8
0
100
AcDbBlockReference
  2
A$C24A81A80
 10
-9.092359398776395
 20
14.20000040693144
 30
0.0
 50
134.9999999999997
  0
LINE
  5
448A
330
4473
100
AcDbEntity
  8
0
100
AcDbLine
 10
-2.615000000000009
 20
18.19999999999997
 30
0.0
 11
-2.615000000000009
 21
8.999999999999985
 31
0.0
  0
LINE
  5
448B
330
4473
100
AcDbEntity
  8
0
100
AcDbLine
 10
-8.814999999999997
 20
18.19999999999997
 30
0.0
 11
-8.814999999999997
 21
8.999999999999985
 31
0.0
  0
INSERT
  5
448C
330
4473
100
AcDbEntity
  8
0
100
AcDbBlockReference
  2
A$C24A81A80
 10
-24.3323593987764
 20
14.20000040693144
 30
0.0
 50
134.9999999999997
  0
LINE
  5
448D
330
4473
100
AcDbEntity
  8
0
100
AcDbLine
 10
-31.675
 20
18.19999999999997
 30
0.0
 11
-25.47500000000001
 21
18.19999999999997
 31
0.0
  0
LINE
  5
448E
330
4473
100
AcDbEntity
  8
0
100
AcDbLine
 10
-27.865
 20
8.999999999999985
 30
0.0
 11
-21.665
 21
8.999999999999985
 31
0.0
  0
INSERT
  5
448F
330
4473
100
AcDbEntity
  8
0
100
AcDbBlockReference
  2
A$C24A81A80
 10
-20.5223593987764
 20
5.000000406931448
 30
0.0
 50
134.9999999999997
  0
LINE
  5
4490
330
4473
100
AcDbEntity
  8
0
100
AcDbLine
 10
-25.47500000000001
 20
9.749999999999985
 30
0.0
 11
-31.675
 21
9.749999999999985
 31
0.0
  0
LINE
  5
4491
330
4473
100
AcDbEntity
  8
0
100
AcDbLine
 10
-21.665
 20
8.999999999999985
 30
0.0
 11
-21.665
 21
-0.0000000000000142
 31
0.0
  0
LINE
  5
4492
330
4473
100
AcDbEntity
  8
0
100
AcDbLine
 10
-27.865
 20
8.999999999999985
 30
0.0
 11
-27.865
 21
-0.0000000000000142
 31
0.0
  0
LINE
  5
4493
330
4473
100
AcDbEntity
  8
0
100
AcDbLine
 10
-33.27499999999999
 20
19.49999999999998
 30
0.0
 11
-33.27499999999999
 21
0.0000000000000142
 31
0.0
  0
LINE
  5
4494
330
4473
100
AcDbEntity
  8
0
100
AcDbLine
 10
-14.045
 20
8.999999999999985
 30
0.0
 11
-14.045
 21
-0.0000000000000142
 31
0.0
  0
LINE
  5
4495
330
4473
100
AcDbEntity
  8
0
100
AcDbLine
 10
-20.24499999999999
 20
8.999999999999985
 30
0.0
 11
-20.24499999999999
 21
-0.0000000000000142
 31
0.0
  0
LINE
  5
4496
330
4473
100
AcDbEntity
  8
0
100
AcDbLine
 10
-31.675
 20
18.19999999999997
 30
0.0
 11
-31.675
 21
0.0000000000000142
 31
0.0
  0
LINE
  5
4497
330
4473
100
AcDbEntity
  8
0
100
AcDbLine
 10
-5.004999999999995
 20
8.999999999999985
 30
0.0
 11
-5.004999999999995
 21
-0.0000000000000142
 31
0.0
  0
LINE
  5
4498
330
4473
100
AcDbEntity
  8
0
100
AcDbLine
 10
-6.425000000000011
 20
8.999999999999985
 30
0.0
 11
-6.425000000000011
 21
-0.0000000000000142
 31
0.0
  0
LINE
  5
4499
330
4473
100
AcDbEntity
  8
0
100
AcDbLine
 10
-12.625
 20
8.999999999999985
 30
0.0
 11
-12.625
 21
-0.0000000000000142
 31
0.0
  0
LINE
  5
449A
330
4473
100
AcDbEntity
  8
0
100
AcDbLine
 10
-1.194999999999993
 20
18.19999999999997
 30
0.0
 11
5.004999999999995
 21
18.19999999999997
 31
0.0
  0
LINE
  5
449B
330
4473
100
AcDbEntity
  8
0
100
AcDbLine
 10
14.04500000000001
 20
18.19999999999997
 30
0.0
 11
20.24500000000001
 21
18.19999999999997
 31
0.0
  0
LINE
  5
449C
330
4473
100
AcDbEntity
  8
0
100
AcDbLine
 10
6.425000000000011
 20
18.19999999999997
 30
0.0
 11
12.625
 21
18.19999999999997
 31
0.0
  0
LINE
  5
449D
330
4473
100
AcDbEntity
  8
0
100
AcDbLine
 10
-1.195000000000021
 20
9.749999999999985
 30
0.0
 11
5.004999999999967
 21
9.749999999999985
 31
0.0
  0
LINE
  5
449E
330
4473
100
AcDbEntity
  8
0
100
AcDbLine
 10
2.615000000000009
 20
8.999999999999985
 30
0.0
 11
8.814999999999997
 21
8.999999999999985
 31
0.0
  0
INSERT
  5
449F
330
4473
100
AcDbEntity
  8
0
100
AcDbBlockReference
  2
A$C24A81A80
 10
9.957640601223602
 20
5.000000406931448
 30
0.0
 50
134.9999999999997
  0
LINE
  5
44A0
330
4473
100
AcDbEntity
  8
0
100
AcDbLine
 10
14.04499999999998
 20
9.749999999999985
 30
0.0
 11
20.24499999999997
 21
9.749999999999985
 31
0.0
  0
LINE
  5
44A1
330
4473
100
AcDbEntity
  8
0
100
AcDbLine
 10
10.23500000000001
 20
8.999999999999985
 30
0.0
 11
16.435
 21
8.999999999999985
 31
0.0
  0
INSERT
  5
44A2
330
4473
100
AcDbEntity
  8
0
100
AcDbBlockReference
  2
A$C24A81A80
 10
17.57764060122361
 20
5.000000406931448
 30
0.0
 50
134.9999999999997
  0
LINE
  5
44A3
330
4473
100
AcDbEntity
  8
0
100
AcDbLine
 10
6.425000000000011
 20
9.749999999999985
 30
0.0
 11
12.625
 21
9.749999999999985
 31
0.0
  0
LINE
  5
44A4
330
4473
100
AcDbEntity
  8
0
100
AcDbLine
 10
5.004999999999995
 20
18.19999999999997
 30
0.0
 11
5.004999999999995
 21
8.999999999999985
 31
0.0
  0
LINE
  5
44A5
330
4473
100
AcDbEntity
  8
0
100
AcDbLine
 10
-1.194999999999993
 20
18.19999999999997
 30
0.0
 11
-1.194999999999993
 21
8.999999999999985
 31
0.0
  0
LINE
  5
44A6
330
4473
100
AcDbEntity
  8
0
100
AcDbLine
 10
21.665
 20
18.19999999999997
 30
0.0
 11
21.665
 21
8.999999999999985
 31
0.0
  0
INSERT
  5
44A7
330
4473
100
AcDbEntity
  8
0
100
AcDbBlockReference
  2
A$C24A81A80
 10
21.38764060122361
 20
14.20000040693144
 30
0.0
 50
134.9999999999997
  0
LINE
  5
44A8
330
4473
100
AcDbEntity
  8
0
100
AcDbLine
 10
20.24500000000001
 20
18.19999999999997
 30
0.0
 11
20.24500000000001
 21
8.999999999999985
 31
0.0
  0
LINE
  5
44A9
330
4473
100
AcDbEntity
  8
0
100
AcDbLine
 10
14.04500000000001
 20
18.19999999999997
 30
0.0
 11
14.04500000000001
 21
8.999999999999985
 31
0.0
  0
LINE
  5
44AA
330
4473
100
AcDbEntity
  8
0
100
AcDbLine
 10
6.425000000000011
 20
18.19999999999997
 30
0.0
 11
6.425000000000011
 21
8.999999999999985
 31
0.0
  0
LINE
  5
44AB
330
4473
100
AcDbEntity
  8
0
100
AcDbLine
 10
12.625
 20
18.19999999999997
 30
0.0
 11
12.625
 21
8.999999999999985
 31
0.0
  0
INSERT
  5
44AC
330
4473
100
AcDbEntity
  8
0
100
AcDbBlockReference
  2
A$C24A81A80
 10
13.7676406012236
 20
14.20000040693144
 30
0.0
 50
134.9999999999997
  0
LINE
  5
44AD
330
4473
100
AcDbEntity
  8
0
100
AcDbLine
 10
29.28500000000001
 20
18.19999999999997
 30
0.0
 11
31.675
 21
18.19999999999997
 31
0.0
  0
LINE
  5
44AE
330
4473
100
AcDbEntity
  8
0
100
AcDbLine
 10
29.28500000000001
 20
10.49999999999998
 30
0.0
 11
31.675
 21
10.49999999999998
 31
0.0
  0
LINE
  5
44AF
330
4473
100
AcDbEntity
  8
0
100
AcDbLine
 10
25.47500000000001
 20
8.999999999999985
 30
0.0
 11
33.27500000000001
 21
8.999999999999985
 31
0.0
  0
INSERT
  5
44B0
330
4473
100
AcDbEntity
  8
0
100
AcDbBlockReference
  2
A$C24A81A80
 10
32.8176406012236
 20
5.000000406931448
 30
0.0
 50
134.9999999999997
  0
LINE
  5
44B1
330
4473
100
AcDbEntity
  8
0
100
AcDbLine
 10
27.865
 20
18.19999999999997
 30
0.0
 11
27.865
 21
8.999999999999985
 31
0.0
  0
LINE
  5
44B2
330
4473
100
AcDbEntity
  8
0
100
AcDbLine
 10
29.28500000000001
 20
18.19999999999997
 30
0.0
 11
29.285
 21
10.49999999999998
 31
0.0
  0
INSERT
  5
44B3
330
4473
100
AcDbEntity
  8
0
100
AcDbBlockReference
  2
A$C24A81A80
 10
29.0076406012236
 20
14.20000040693144
 30
0.0
 50
134.9999999999997
  0
INSERT
  5
44B4
330
4473
100
AcDbEntity
  8
0
100
AcDbBlockReference
  2
A$C24A81A80
 10
25.1976406012236
 20
5.000000406931448
 30
0.0
 50
134.9999999999997
  0
LINE
  5
44B5
330
4473
100
AcDbEntity
  8
0
100
AcDbLine
 10
21.665
 20
9.749999999999985
 30
0.0
 11
27.865
 21
9.749999999999985
 31
0.0
  0
LINE
  5
44B6
330
4473
100
AcDbEntity
  8
0
100
AcDbLine
 10
17.855
 20
8.999999999999985
 30
0.0
 11
24.05499999999999
 21
8.999999999999985
 31
0.0
  0
LINE
  5
44B7
330
4473
100
AcDbEntity
  8
0
100
AcDbLine
 10
21.665
 20
18.19999999999997
 30
0.0
 11
27.865
 21
18.19999999999997
 31
0.0
  0
LINE
  5
44B8
330
4473
100
AcDbEntity
  8
0
100
AcDbLine
 10
1.194999999999993
 20
8.999999999999985
 30
0.0
 11
1.194999999999993
 21
-0.0000000000000142
 31
0.0
  0
LINE
  5
44B9
330
4473
100
AcDbEntity
  8
0
100
AcDbLine
 10
17.855
 20
8.999999999999985
 30
0.0
 11
17.855
 21
-0.0000000000000142
 31
0.0
  0
LINE
  5
44BA
330
4473
100
AcDbEntity
  8
0
100
AcDbLine
 10
24.05499999999999
 20
8.999999999999985
 30
0.0
 11
24.05499999999999
 21
-0.0000000000000142
 31
0.0
  0
LINE
  5
44BB
330
4473
100
AcDbEntity
  8
0
100
AcDbLine
 10
25.47500000000001
 20
8.999999999999985
 30
0.0
 11
25.47500000000001
 21
-0.0000000000000142
 31
0.0
  0
LINE
  5
44BC
330
4473
100
AcDbEntity
  8
0
100
AcDbLine
 10
10.23500000000001
 20
8.999999999999985
 30
0.0
 11
10.23500000000001
 21
-0.0000000000000142
 31
0.0
  0
LINE
  5
44BD
330
4473
100
AcDbEntity
  8
0
100
AcDbLine
 10
16.435
 20
8.999999999999985
 30
0.0
 11
16.435
 21
-0.0000000000000142
 31
0.0
  0
LINE
  5
44BE
330
4473
100
AcDbEntity
  8
0
100
AcDbLine
 10
8.814999999999997
 20
8.999999999999985
 30
0.0
 11
8.814999999999997
 21
-0.0000000000000142
 31
0.0
  0
LINE
  5
44BF
330
4473
100
AcDbEntity
  8
0
100
AcDbLine
 10
2.615000000000009
 20
8.999999999999985
 30
0.0
 11
2.615000000000009
 21
-0.0000000000000142
 31
0.0
  0
LINE
  5
44C0
330
4473
100
AcDbEntity
  8
0
100
AcDbLine
 10
33.27500000000001
 20
19.49999999999998
 30
0.0
 11
33.27500000000001
 21
0.0000000000000142
 31
0.0
  0
LINE
  5
44C1
330
4473
100
AcDbEntity
  8
0
100
AcDbLine
 10
31.675
 20
19.49999999999998
 30
0.0
 11
31.675
 21
-0.0000000000000142
 31
0.0
  0
INSERT
  5
44C2
330
4473
100
AcDbEntity
  8
0
100
AcDbBlockReference
  2
A$C24A81A80
 10
6.147640601223599
 20
14.20000040693144
 30
0.0
 50
134.9999999999997
  0
INSERT
  5
44C3
330
4473
100
AcDbEntity
  8
0
100
AcDbBlockReference
  2
A$C24A81A80
 10
-1.472359398776404
 20
14.20000040693144
 30
0.0
 50
134.9999999999997
  0
LINE
  5
44C4
330
4473
100
AcDbEntity
  8
0
100
AcDbLine
 10
-5.004999999999995
 20
8.999999999999985
 30
0.0
 11
1.194999999999993
 21
8.999999999999985
 31
0.0
  0
INSERT
  5
44C5
330
4473
100
AcDbEntity
  8
0
100
AcDbBlockReference
  2
A$C24A81A80
 10
2.337640601223597
 20
5.000000406931448
 30
0.0
 50
134.9999999999997
  0
LINE
  5
44C6
330
4473
100
AcDbEntity
  8
0
100
AcDbLine
 10
-33.27499999999999
 20
19.49999999999998
 30
0.0
 11
33.27499999999999
 21
19.49999999999998
 31
0.0
  0
LINE
  5
44C7
330
4473
100
AcDbEntity
  8
0
100
AcDbLine
 10
-33.27499999999999
 20
0.0000000000000142
 30
0.0
 11
33.27499999999999
 21
-0.0000000000000142
 31
0.0
  0
ENDBLK
  5
4475
330
4473
100
AcDbEntity
  8
0
100
AcDbBlockEnd
  0
BLOCK
  5
5B2E
330
5B23
100
AcDbEntity
  8
0
100
AcDbBlockBegin
  2
*D4
 70
     1
 10
0.0
 20
0.0
 30
0.0
  3
*D4
  1

  0
LINE
  5
6684
330
5B23
100
AcDbEntity
  8
SUNPOU
 62
     0
370
    -2
100
AcDbLine
 10
83.6999999999999
 20
121.54
 30
0.0
 11
83.6999999999999
 21
84.50000000000001
 31
0.0
  0
LINE
  5
6685
330
5B23
100
AcDbEntity
  8
SUNPOU
 62
     0
370
    -2
100
AcDbLine
 10
79.39999999999992
 20
110.3000000000001
 30
0.0
 11
79.39999999999992
 21
84.50000000000001
 31
0.0
  0
LINE
  5
6686
330
5B23
100
AcDbEntity
  8
SUNPOU
 62
     0
370
    -2
100
AcDbLine
 10
76.39999999999992
 20
85.0
 30
0.0
 11
73.39999999999992
 21
85.0
 31
0.0
  0
LINE
  5
6687
330
5B23
100
AcDbEntity
  8
SUNPOU
 62
     0
370
    -2
100
AcDbLine
 10
86.69999999999991
 20
85.0
 30
0.0
 11
101.1761904761904
 21
85.0
 31
0.0
  0
INSERT
  5
6688
330
5B23
100
AcDbEntity
  8
SUNPOU
 62
     0
370
    -2
100
AcDbBlockReference
  2
_OPEN
 10
79.39999999999992
 20
85.0
 30
0.0
 41
3.0
 42
3.0
 43
3.0
  0
INSERT
  5
6689
330
5B23
100
AcDbEntity
  8
SUNPOU
 62
     0
370
    -2
100
AcDbBlockReference
  2
_OPEN
 10
83.6999999999999
 20
85.0
 30
0.0
 41
3.0
 42
3.0
 43
3.0
 50
180.0
  0
MTEXT
  5
668A
330
5B23
100
AcDbEntity
  8
SUNPOU
 62
     0
100
AcDbMText
 10
95.43809523809514
 20
88.0
 30
0.0
 40
5.0
 41
0.0
 71
     5
 72
     1
  1
\A1;4.3
 73
     1
 44
1.0
1001
ACAD
1000
MTEXTBEGIN
1070
    73
1070
     1
1070
    44
1040
1.0
1070
    74
1070
     0
1000
MTEXTEND
  0
POINT
  5
668B
330
5B23
100
AcDbEntity
  8
DEFPOINTS
 62
     0
100
AcDbPoint
 10
83.6999999999999
 20
122.0399999999999
 30
0.0
  0
POINT
  5
668C
330
5B23
100
AcDbEntity
  8
DEFPOINTS
 62
     0
100
AcDbPoint
 10
79.39999999999992
 20
110.8000000000002
 30
0.0
  0
POINT
  5
668D
330
5B23
100
AcDbEntity
  8
DEFPOINTS
 62
     0
100
AcDbPoint
 10
79.39999999999992
 20
85.0
 30
0.0
  0
ENDBLK
  5
5B2F
330
5B23
100
AcDbEntity
  8
0
100
AcDbBlockEnd
  0
BLOCK
  5
5B3A
330
5B30
100
AcDbEntity
  8
0
100
AcDbBlockBegin
  2
*D5
 70
     1
 10
0.0
 20
0.0
 30
0.0
  3
*D5
  1

  0
LINE
  5
668E
330
5B30
100
AcDbEntity
  8
SUNPOU
 62
     0
370
    -2
100
AcDbLine
 10
79.39999999999992
 20
110.3000000000001
 30
0.0
 11
79.39999999999992
 21
84.50000000000001
 31
0.0
  0
LINE
  5
668F
330
5B30
100
AcDbEntity
  8
SUNPOU
 62
     0
370
    -2
100
AcDbLine
 10
39.40000000000005
 20
99.50000000000011
 30
0.0
 11
39.40000000000005
 21
84.50000000000001
 31
0.0
  0
LINE
  5
6690
330
5B30
100
AcDbEntity
  8
SUNPOU
 62
     0
370
    -2
100
AcDbLine
 10
76.39999999999992
 20
85.0
 30
0.0
 11
42.40000000000004
 21
85.0
 31
0.0
  0
INSERT
  5
6691
330
5B30
100
AcDbEntity
  8
SUNPOU
 62
     0
370
    -2
100
AcDbBlockReference
  2
_OPEN
 10
79.39999999999992
 20
85.0
 30
0.0
 41
3.0
 42
3.0
 43
3.0
  0
INSERT
  5
6692
330
5B30
100
AcDbEntity
  8
SUNPOU
 62
     0
370
    -2
100
AcDbBlockReference
  2
_OPEN
 10
39.40000000000005
 20
85.0
 30
0.0
 41
3.0
 42
3.0
 43
3.0
 50
180.0
  0
MTEXT
  5
6693
330
5B30
100
AcDbEntity
  8
SUNPOU
 62
     0
100
AcDbMText
 10
59.39999999999998
 20
88.0
 30
0.0
 40
5.0
 41
0.0
 71
     5
 72
     1
  1
\A1;40
 73
     1
 44
1.0
1001
ACAD
1000
MTEXTBEGIN
1070
    73
1070
     1
1070
    44
1040
1.0
1070
    74
1070
     0
1000
MTEXTEND
  0
POINT
  5
6694
330
5B30
100
AcDbEntity
  8
DEFPOINTS
 62
     0
100
AcDbPoint
 10
79.39999999999992
 20
110.8000000000002
 30
0.0
  0
POINT
  5
6695
330
5B30
100
AcDbEntity
  8
DEFPOINTS
 62
     0
100
AcDbPoint
 10
39.40000000000005
 20
100.0000000000001
 30
0.0
  0
POINT
  5
6696
330
5B30
100
AcDbEntity
  8
DEFPOINTS
 62
     0
100
AcDbPoint
 10
39.40000000000005
 20
85.0
 30
0.0
  0
ENDBLK
  5
5B3B
330
5B30
100
AcDbEntity
  8
0
100
AcDbBlockEnd
  0
BLOCK
  5
5B46
330
5B3C
100
AcDbEntity
  8
0
100
AcDbBlockBegin
  2
*D6
 70
     1
 10
0.0
 20
0.0
 30
0.0
  3
*D6
  1

  0
LINE
  5
66F4
330
5B3C
100
AcDbEntity
  8
SUNPOU
 62
     0
370
    -2
100
AcDbLine
 10
191.0
 20
250.0
 30
0.0
 11
215.5
 21
250.0
 31
0.0
  0
LINE
  5
66F5
330
5B3C
100
AcDbEntity
  8
SUNPOU
 62
     0
370
    -2
100
AcDbLine
 10
191.0
 20
100.0
 30
0.0
 11
215.5
 21
100.0
 31
0.0
  0
LINE
  5
66F6
330
5B3C
100
AcDbEntity
  8
SUNPOU
 62
     0
370
    -2
100
AcDbLine
 10
215.0
 20
247.0
 30
0.0
 11
215.0
 21
103.0
 31
0.0
  0
INSERT
  5
66F7
330
5B3C
100
AcDbEntity
  8
SUNPOU
 62
     0
370
    -2
100
AcDbBlockReference
  2
_OPEN
 10
215.0
 20
250.0
 30
0.0
 41
3.0
 42
3.0
 43
3.0
 50
90.0
  0
INSERT
  5
66F8
330
5B3C
100
AcDbEntity
  8
SUNPOU
 62
     0
370
    -2
100
AcDbBlockReference
  2
_OPEN
 10
215.0
 20
100.0
 30
0.0
 41
3.0
 42
3.0
 43
3.0
 50
270.0
  0
MTEXT
  5
66F9
330
5B3C
100
AcDbEntity
  8
SUNPOU
 62
     0
100
AcDbMText
 10
212.0
 20
175.0
 30
0.0
 40
5.0
 41
0.0
 71
     5
 72
     1
  1
\A1;150
 11
0.0000000000000001
 21
1.0
 31
0.0
 73
     1
 44
1.0
1001
ACAD
1000
MTEXTBEGIN
1070
    73
1070
     1
1070
    44
1040
1.0
1070
    74
1070
     0
1000
MTEXTEND
  0
POINT
  5
66FA
330
5B3C
100
AcDbEntity
  8
DEFPOINTS
 62
     0
100
AcDbPoint
 10
190.5
 20
250.0
 30
0.0
  0
POINT
  5
66FB
330
5B3C
100
AcDbEntity
  8
DEFPOINTS
 62
     0
100
AcDbPoint
 10
190.5
 20
100.0
 30
0.0
  0
POINT
  5
66FC
330
5B3C
100
AcDbEntity
  8
DEFPOINTS
 62
     0
100
AcDbPoint
 10
215.0
 20
100.0
 30
0.0
  0
ENDBLK
  5
5B47
330
5B3C
100
AcDbEntity
  8
0
100
AcDbBlockEnd
  0
BLOCK
  5
5B52
330
5B48
100
AcDbEntity
  8
0
100
AcDbBlockBegin
  2
*D7
 70
     1
 10
0.0
 20
0.0
 30
0.0
  3
*D7
  1

  0
LINE
  5
66FD
330
5B48
100
AcDbEntity
  8
SUNPOU
 62
     0
370
    -2
100
AcDbLine
 10
165.5
 20
245.0
 30
0.0
 11
205.5
 21
245.0
 31
0.0
  0
LINE
  5
66FE
330
5B48
100
AcDbEntity
  8
SUNPOU
 62
     0
370
    -2
100
AcDbLine
 10
165.5
 20
105.0
 30
0.0
 11
205.5
 21
105.0
 31
0.0
  0
LINE
  5
66FF
330
5B48
100
AcDbEntity
  8
SUNPOU
 62
     0
370
    -2
100
AcDbLine
 10
205.0
 20
242.0
 30
0.0
 11
205.0
 21
108.0
 31
0.0
  0
INSERT
  5
6700
330
5B48
100
AcDbEntity
  8
SUNPOU
 62
     0
370
    -2
100
AcDbBlockReference
  2
_OPEN
 10
205.0
 20
245.0
 30
0.0
 41
3.0
 42
3.0
 43
3.0
 50
90.0
  0
INSERT
  5
6701
330
5B48
100
AcDbEntity
  8
SUNPOU
 62
     0
370
    -2
100
AcDbBlockReference
  2
_OPEN
 10
205.0
 20
105.0
 30
0.0
 41
3.0
 42
3.0
 43
3.0
 50
270.0
  0
MTEXT
  5
6702
330
5B48
100
AcDbEntity
  8
SUNPOU
 62
     0
100
AcDbMText
 10
202.0
 20
175.0
 30
0.0
 40
5.0
 41
0.0
 71
     5
 72
     1
  1
\A1;140
 11
0.0000000000000001
 21
1.0
 31
0.0
 73
     1
 44
1.0
1001
ACAD
1000
MTEXTBEGIN
1070
    73
1070
     1
1070
    44
1040
1.0
1070
    74
1070
     0
1000
MTEXTEND
  0
POINT
  5
6703
330
5B48
100
AcDbEntity
  8
DEFPOINTS
 62
     0
100
AcDbPoint
 10
165.0
 20
245.0
 30
0.0
  0
POINT
  5
6704
330
5B48
100
AcDbEntity
  8
DEFPOINTS
 62
     0
100
AcDbPoint
 10
165.0
 20
105.0
 30
0.0
  0
POINT
  5
6705
330
5B48
100
AcDbEntity
  8
DEFPOINTS
 62
     0
100
AcDbPoint
 10
205.0
 20
105.0
 30
0.0
  0
ENDBLK
  5
5B53
330
5B48
100
AcDbEntity
  8
0
100
AcDbBlockEnd
  0
BLOCK
  5
5B5E
330
5B54
100
AcDbEntity
  8
0
100
AcDbBlockBegin
  2
*D8
 70
     1
 10
0.0
 20
0.0
 30
0.0
  3
*D8
  1

  0
LINE
  5
6706
330
5B54
100
AcDbEntity
  8
SUNPOU
 62
     0
370
    -2
100
AcDbLine
 10
195.0
 20
101.5
 30
0.0
 11
195.0
 21
84.50000000000001
 31
0.0
  0
LINE
  5
6707
330
5B54
100
AcDbEntity
  8
SUNPOU
 62
     0
370
    -2
100
AcDbLine
 10
135.0
 20
101.5
 30
0.0
 11
135.0
 21
84.50000000000001
 31
0.0
  0
LINE
  5
6708
330
5B54
100
AcDbEntity
  8
SUNPOU
 62
     0
370
    -2
100
AcDbLine
 10
192.0
 20
85.0
 30
0.0
 11
138.0
 21
85.0
 31
0.0
  0
INSERT
  5
6709
330
5B54
100
AcDbEntity
  8
SUNPOU
 62
     0
370
    -2
100
AcDbBlockReference
  2
_OPEN
 10
195.0
 20
85.0
 30
0.0
 41
3.0
 42
3.0
 43
3.0
  0
INSERT
  5
670A
330
5B54
100
AcDbEntity
  8
SUNPOU
 62
     0
370
    -2
100
AcDbBlockReference
  2
_OPEN
 10
135.0
 20
85.0
 30
0.0
 41
3.0
 42
3.0
 43
3.0
 50
180.0
  0
MTEXT
  5
670B
330
5B54
100
AcDbEntity
  8
SUNPOU
 62
     0
100
AcDbMText
 10
165.0
 20
88.0
 30
0.0
 40
5.0
 41
0.0
 71
     5
 72
     1
  1
\A1;60
 73
     1
 44
1.0
1001
ACAD
1000
MTEXTBEGIN
1070
    73
1070
     1
1070
    44
1040
1.0
1070
    74
1070
     0
1000
MTEXTEND
  0
POINT
  5
670C
330
5B54
100
AcDbEntity
  8
DEFPOINTS
 62
     0
100
AcDbPoint
 10
195.0
 20
102.0
 30
0.0
  0
POINT
  5
670D
330
5B54
100
AcDbEntity
  8
DEFPOINTS
 62
     0
100
AcDbPoint
 10
135.0
 20
102.0
 30
0.0
  0
POINT
  5
670E
330
5B54
100
AcDbEntity
  8
DEFPOINTS
 62
     0
100
AcDbPoint
 10
135.0
 20
85.0
 30
0.0
  0
ENDBLK
  5
5B5F
330
5B54
100
AcDbEntity
  8
0
100
AcDbBlockEnd
  0
BLOCK
  5
5DEA
330
5DE9
100
AcDbEntity
  8
0
100
AcDbBlockBegin
  2
TB16P-1
 70
     0
 10
0.0
 20
0.0
 30
0.0
  3
TB16P-1
  1

  0
LINE
  5
5DEC
330
5DE9
100
AcDbEntity
  8
0
100
AcDbLine
 10
22.69999999999999
 20
0.0
 30
0.0
 11
0.0
 21
0.0
 31
0.0
  0
LINE
  5
5DED
330
5DE9
100
AcDbEntity
  8
0
100
AcDbLine
 10
0.0
 20
0.0
 30
0.0
 11
0.0000000000000142
 21
66.55000000000001
 31
0.0
  0
LINE
  5
5DEE
330
5DE9
100
AcDbEntity
  8
0
100
AcDbLine
 10
22.70000000000002
 20
66.54999999999998
 30
0.0
 11
0.0000000000000142
 21
66.55000000000001
 31
0.0
  0
LINE
  5
5DEF
330
5DE9
100
AcDbEntity
  8
0
100
AcDbLine
 10
3.200000000000017
 20
54.93999999999999
 30
0.0
 11
3.200000000000017
 21
61.14000000000001
 31
0.0
  0
LINE
  5
5DF0
330
5DE9
100
AcDbEntity
  8
0
100
AcDbLine
 10
5.200000000000002
 20
54.93999999999999
 30
0.0
 11
5.200000000000017
 21
61.14000000000001
 31
0.0
  0
LINE
  5
5DF1
330
5DE9
100
AcDbEntity
  8
0
100
AcDbLine
 10
20.20000000000002
 20
64.95000000000001
 30
0.0
 11
11.20000000000001
 21
64.95000000000001
 31
0.0
  0
LINE
  5
5DF2
330
5DE9
100
AcDbEntity
  8
0
100
AcDbLine
 10
20.19999999999999
 20
1.600000000000008
 30
0.0
 11
3.200000000000002
 21
1.600000000000008
 31
0.0
  0
LINE
  5
5DF3
330
5DE9
100
AcDbEntity
  8
0
100
AcDbLine
 10
11.20000000000001
 20
58.75
 30
0.0
 11
11.20000000000001
 21
64.95000000000001
 31
0.0
  0
LINE
  5
5DF4
330
5DE9
100
AcDbEntity
  8
0
100
AcDbLine
 10
13.2
 20
58.75
 30
0.0
 11
13.20000000000002
 21
64.95000000000001
 31
0.0
  0
LINE
  5
5DF5
330
5DE9
100
AcDbEntity
  8
0
100
AcDbLine
 10
20.19999999999999
 20
1.099999999999994
 30
0.0
 11
20.20000000000002
 21
65.44999999999999
 31
0.0
  0
LINE
  5
5DF6
330
5DE9
100
AcDbEntity
  8
0
100
AcDbLine
 10
11.20000000000001
 20
61.14000000000001
 30
0.0
 11
3.200000000000017
 21
61.14000000000001
 31
0.0
  0
LINE
  5
5DF7
330
5DE9
100
AcDbEntity
  8
0
100
AcDbLine
 10
11.20000000000001
 20
54.93999999999999
 30
0.0
 11
3.200000000000017
 21
54.93999999999999
 31
0.0
  0
LINE
  5
5DF8
330
5DE9
100
AcDbEntity
  8
0
100
AcDbLine
 10
20.20000000000002
 20
58.75
 30
0.0
 11
11.20000000000001
 21
58.75
 31
0.0
  0
LINE
  5
5DF9
330
5DE9
100
AcDbEntity
  8
0
100
AcDbLine
 10
5.700000000000002
 20
54.93999999999999
 30
0.0
 11
5.700000000000017
 21
61.14000000000001
 31
0.0
  0
LINE
  5
5DFA
330
5DE9
100
AcDbEntity
  8
0
100
AcDbLine
 10
7.200000000000102
 20
55.39000000000001
 30
0.0
 11
5.700000000000045
 21
55.39000000000001
 31
0.0
  0
LINE
  5
5DFB
330
5DE9
100
AcDbEntity
  8
0
100
AcDbLine
 10
5.699999999999988
 20
60.69000000000002
 30
0.0
 11
7.200000000000045
 21
60.69000000000002
 31
0.0
  0
ELLIPSE
  5
5DFC
330
5DE9
100
AcDbEntity
  8
0
100
AcDbEllipse
 10
8.0
 20
58.09000000000006
 30
0.0
 11
-0.0000000000000049
 21
-2.399999999999972
 31
0.0
210
0.0
220
0.0
230
1.0
 40
0.541666666666654
 41
-0.6628738236501154
 42
3.804466477240025
  0
LINE
  5
5DFD
330
5DE9
100
AcDbEntity
  8
0
100
AcDbLine
 10
7.200000000000045
 20
55.39000000000001
 30
0.0
 11
7.200000000000045
 21
60.69000000000002
 31
0.0
  0
LINE
  5
5DFE
330
5DE9
100
AcDbEntity
  8
0
100
AcDbLine
 10
15.20000000000004
 20
59.20000000000001
 30
0.0
 11
15.20000000000004
 21
64.50000000000002
 31
0.0
  0
ELLIPSE
  5
5DFF
330
5DE9
100
AcDbEntity
  8
0
100
AcDbEllipse
 10
16.0
 20
61.90000000000006
 30
0.0
 11
-0.0000000000000049
 21
-2.399999999999972
 31
0.0
210
0.0
220
0.0
230
1.0
 40
0.541666666666654
 41
-0.6628738236501154
 42
3.804466477240025
  0
LINE
  5
5E00
330
5DE9
100
AcDbEntity
  8
0
100
AcDbLine
 10
15.2000000000001
 20
59.20000000000001
 30
0.0
 11
13.70000000000004
 21
59.20000000000001
 31
0.0
  0
LINE
  5
5E01
330
5DE9
100
AcDbEntity
  8
0
100
AcDbLine
 10
13.7
 20
58.75
 30
0.0
 11
13.70000000000002
 21
64.95000000000001
 31
0.0
  0
LINE
  5
5E02
330
5DE9
100
AcDbEntity
  8
0
100
AcDbLine
 10
13.69999999999999
 20
64.50000000000002
 30
0.0
 11
15.20000000000004
 21
64.50000000000002
 31
0.0
  0
LINE
  5
5E03
330
5DE9
100
AcDbEntity
  8
0
100
AcDbLine
 10
13.69999999999999
 20
56.88000000000002
 30
0.0
 11
15.20000000000004
 21
56.88000000000002
 31
0.0
  0
LINE
  5
5E04
330
5DE9
100
AcDbEntity
  8
0
100
AcDbLine
 10
13.7
 20
51.12999999999999
 30
0.0
 11
13.70000000000002
 21
57.33000000000001
 31
0.0
  0
LINE
  5
5E05
330
5DE9
100
AcDbEntity
  8
0
100
AcDbLine
 10
15.2000000000001
 20
51.58000000000001
 30
0.0
 11
13.70000000000004
 21
51.58000000000001
 31
0.0
  0
ELLIPSE
  5
5E06
330
5DE9
100
AcDbEntity
  8
0
100
AcDbEllipse
 10
16.0
 20
54.28000000000006
 30
0.0
 11
-0.0000000000000049
 21
-2.399999999999972
 31
0.0
210
0.0
220
0.0
230
1.0
 40
0.541666666666654
 41
-0.6628738236501154
 42
3.804466477240025
  0
LINE
  5
5E07
330
5DE9
100
AcDbEntity
  8
0
100
AcDbLine
 10
15.20000000000004
 20
51.58000000000001
 30
0.0
 11
15.20000000000004
 21
56.88000000000002
 31
0.0
  0
LINE
  5
5E08
330
5DE9
100
AcDbEntity
  8
0
100
AcDbLine
 10
7.200000000000045
 20
47.77000000000001
 30
0.0
 11
7.200000000000045
 21
53.07000000000002
 31
0.0
  0
ELLIPSE
  5
5E09
330
5DE9
100
AcDbEntity
  8
0
100
AcDbEllipse
 10
8.0
 20
50.47000000000005
 30
0.0
 11
-0.0000000000000049
 21
-2.399999999999972
 31
0.0
210
0.0
220
0.0
230
1.0
 40
0.541666666666654
 41
-0.6628738236501154
 42
3.804466477240025
  0
LINE
  5
5E0A
330
5DE9
100
AcDbEntity
  8
0
100
AcDbLine
 10
5.699999999999988
 20
53.07000000000002
 30
0.0
 11
7.200000000000045
 21
53.07000000000002
 31
0.0
  0
LINE
  5
5E0B
330
5DE9
100
AcDbEntity
  8
0
100
AcDbLine
 10
7.200000000000102
 20
47.77000000000001
 30
0.0
 11
5.700000000000045
 21
47.77000000000001
 31
0.0
  0
LINE
  5
5E0C
330
5DE9
100
AcDbEntity
  8
0
100
AcDbLine
 10
5.700000000000002
 20
47.31999999999999
 30
0.0
 11
5.700000000000017
 21
53.52000000000001
 31
0.0
  0
LINE
  5
5E0D
330
5DE9
100
AcDbEntity
  8
0
100
AcDbLine
 10
20.20000000000002
 20
51.12999999999999
 30
0.0
 11
11.20000000000001
 21
51.12999999999999
 31
0.0
  0
LINE
  5
5E0E
330
5DE9
100
AcDbEntity
  8
0
100
AcDbLine
 10
11.20000000000001
 20
47.31999999999999
 30
0.0
 11
3.200000000000017
 21
47.31999999999999
 31
0.0
  0
LINE
  5
5E0F
330
5DE9
100
AcDbEntity
  8
0
100
AcDbLine
 10
11.20000000000001
 20
53.52000000000001
 30
0.0
 11
3.200000000000017
 21
53.52000000000001
 31
0.0
  0
LINE
  5
5E10
330
5DE9
100
AcDbEntity
  8
0
100
AcDbLine
 10
13.2
 20
51.12999999999999
 30
0.0
 11
13.20000000000002
 21
57.33000000000001
 31
0.0
  0
LINE
  5
5E11
330
5DE9
100
AcDbEntity
  8
0
100
AcDbLine
 10
11.20000000000001
 20
51.12999999999999
 30
0.0
 11
11.20000000000001
 21
57.33000000000001
 31
0.0
  0
LINE
  5
5E12
330
5DE9
100
AcDbEntity
  8
0
100
AcDbLine
 10
20.20000000000002
 20
57.33000000000001
 30
0.0
 11
11.20000000000001
 21
57.33000000000001
 31
0.0
  0
LINE
  5
5E13
330
5DE9
100
AcDbEntity
  8
0
100
AcDbLine
 10
5.200000000000002
 20
47.31999999999999
 30
0.0
 11
5.200000000000017
 21
53.52000000000001
 31
0.0
  0
LINE
  5
5E14
330
5DE9
100
AcDbEntity
  8
0
100
AcDbLine
 10
3.200000000000017
 20
47.31999999999999
 30
0.0
 11
3.200000000000017
 21
53.52000000000001
 31
0.0
  0
LINE
  5
5E15
330
5DE9
100
AcDbEntity
  8
0
100
AcDbLine
 10
3.200000000000017
 20
32.08000000000001
 30
0.0
 11
3.200000000000017
 21
38.28
 31
0.0
  0
LINE
  5
5E16
330
5DE9
100
AcDbEntity
  8
0
100
AcDbLine
 10
5.200000000000002
 20
32.08000000000001
 30
0.0
 11
5.200000000000017
 21
38.28
 31
0.0
  0
LINE
  5
5E17
330
5DE9
100
AcDbEntity
  8
0
100
AcDbLine
 10
20.20000000000002
 20
42.09
 30
0.0
 11
11.20000000000001
 21
42.09
 31
0.0
  0
LINE
  5
5E18
330
5DE9
100
AcDbEntity
  8
0
100
AcDbLine
 10
11.20000000000001
 20
35.89000000000002
 30
0.0
 11
11.20000000000001
 21
42.09
 31
0.0
  0
LINE
  5
5E19
330
5DE9
100
AcDbEntity
  8
0
100
AcDbLine
 10
13.2
 20
35.89000000000002
 30
0.0
 11
13.20000000000002
 21
42.09
 31
0.0
  0
LINE
  5
5E1A
330
5DE9
100
AcDbEntity
  8
0
100
AcDbLine
 10
11.20000000000001
 20
38.28
 30
0.0
 11
3.200000000000017
 21
38.28
 31
0.0
  0
LINE
  5
5E1B
330
5DE9
100
AcDbEntity
  8
0
100
AcDbLine
 10
11.20000000000001
 20
32.08000000000001
 30
0.0
 11
3.200000000000017
 21
32.08000000000001
 31
0.0
  0
LINE
  5
5E1C
330
5DE9
100
AcDbEntity
  8
0
100
AcDbLine
 10
20.20000000000002
 20
35.89000000000002
 30
0.0
 11
11.20000000000001
 21
35.89000000000002
 31
0.0
  0
LINE
  5
5E1D
330
5DE9
100
AcDbEntity
  8
0
100
AcDbLine
 10
5.700000000000002
 20
32.08000000000001
 30
0.0
 11
5.700000000000017
 21
38.28
 31
0.0
  0
LINE
  5
5E1E
330
5DE9
100
AcDbEntity
  8
0
100
AcDbLine
 10
7.200000000000102
 20
32.53
 30
0.0
 11
5.700000000000045
 21
32.53
 31
0.0
  0
LINE
  5
5E1F
330
5DE9
100
AcDbEntity
  8
0
100
AcDbLine
 10
5.699999999999988
 20
37.83000000000001
 30
0.0
 11
7.200000000000045
 21
37.83000000000001
 31
0.0
  0
ELLIPSE
  5
5E20
330
5DE9
100
AcDbEntity
  8
0
100
AcDbEllipse
 10
8.0
 20
35.23000000000005
 30
0.0
 11
-0.0000000000000049
 21
-2.399999999999972
 31
0.0
210
0.0
220
0.0
230
1.0
 40
0.541666666666654
 41
-0.6628738236501154
 42
3.804466477240025
  0
LINE
  5
5E21
330
5DE9
100
AcDbEntity
  8
0
100
AcDbLine
 10
7.200000000000045
 20
32.53
 30
0.0
 11
7.200000000000045
 21
37.83000000000001
 31
0.0
  0
LINE
  5
5E22
330
5DE9
100
AcDbEntity
  8
0
100
AcDbLine
 10
15.20000000000004
 20
36.34
 30
0.0
 11
15.20000000000004
 21
41.64000000000001
 31
0.0
  0
ELLIPSE
  5
5E23
330
5DE9
100
AcDbEntity
  8
0
100
AcDbEllipse
 10
16.0
 20
39.04000000000005
 30
0.0
 11
-0.0000000000000049
 21
-2.399999999999972
 31
0.0
210
0.0
220
0.0
230
1.0
 40
0.541666666666654
 41
-0.6628738236501154
 42
3.804466477240025
  0
LINE
  5
5E24
330
5DE9
100
AcDbEntity
  8
0
100
AcDbLine
 10
15.2000000000001
 20
36.34
 30
0.0
 11
13.70000000000004
 21
36.34
 31
0.0
  0
LINE
  5
5E25
330
5DE9
100
AcDbEntity
  8
0
100
AcDbLine
 10
13.7
 20
35.89000000000002
 30
0.0
 11
13.70000000000002
 21
42.09
 31
0.0
  0
LINE
  5
5E26
330
5DE9
100
AcDbEntity
  8
0
100
AcDbLine
 10
13.69999999999999
 20
41.64000000000001
 30
0.0
 11
15.20000000000004
 21
41.64000000000001
 31
0.0
  0
LINE
  5
5E27
330
5DE9
100
AcDbEntity
  8
0
100
AcDbLine
 10
13.69999999999999
 20
49.26000000000001
 30
0.0
 11
15.20000000000004
 21
49.26000000000001
 31
0.0
  0
LINE
  5
5E28
330
5DE9
100
AcDbEntity
  8
0
100
AcDbLine
 10
13.7
 20
43.51000000000001
 30
0.0
 11
13.70000000000002
 21
49.71
 31
0.0
  0
LINE
  5
5E29
330
5DE9
100
AcDbEntity
  8
0
100
AcDbLine
 10
15.2000000000001
 20
43.96
 30
0.0
 11
13.70000000000004
 21
43.96
 31
0.0
  0
ELLIPSE
  5
5E2A
330
5DE9
100
AcDbEntity
  8
0
100
AcDbEllipse
 10
16.0
 20
46.66000000000005
 30
0.0
 11
-0.0000000000000049
 21
-2.399999999999972
 31
0.0
210
0.0
220
0.0
230
1.0
 40
0.541666666666654
 41
-0.6628738236501154
 42
3.804466477240025
  0
LINE
  5
5E2B
330
5DE9
100
AcDbEntity
  8
0
100
AcDbLine
 10
15.20000000000004
 20
43.96
 30
0.0
 11
15.20000000000004
 21
49.26000000000001
 31
0.0
  0
LINE
  5
5E2C
330
5DE9
100
AcDbEntity
  8
0
100
AcDbLine
 10
7.200000000000045
 20
40.15
 30
0.0
 11
7.200000000000045
 21
45.45000000000001
 31
0.0
  0
ELLIPSE
  5
5E2D
330
5DE9
100
AcDbEntity
  8
0
100
AcDbEllipse
 10
8.0
 20
42.85000000000005
 30
0.0
 11
-0.0000000000000049
 21
-2.399999999999972
 31
0.0
210
0.0
220
0.0
230
1.0
 40
0.541666666666654
 41
-0.6628738236501154
 42
3.804466477240025
  0
LINE
  5
5E2E
330
5DE9
100
AcDbEntity
  8
0
100
AcDbLine
 10
5.699999999999988
 20
45.45000000000001
 30
0.0
 11
7.200000000000045
 21
45.45000000000001
 31
0.0
  0
LINE
  5
5E2F
330
5DE9
100
AcDbEntity
  8
0
100
AcDbLine
 10
7.200000000000102
 20
40.15
 30
0.0
 11
5.700000000000045
 21
40.15
 31
0.0
  0
LINE
  5
5E30
330
5DE9
100
AcDbEntity
  8
0
100
AcDbLine
 10
5.700000000000002
 20
39.70000000000002
 30
0.0
 11
5.700000000000017
 21
45.9
 31
0.0
  0
LINE
  5
5E31
330
5DE9
100
AcDbEntity
  8
0
100
AcDbLine
 10
20.20000000000002
 20
43.51000000000001
 30
0.0
 11
11.20000000000001
 21
43.51000000000001
 31
0.0
  0
LINE
  5
5E32
330
5DE9
100
AcDbEntity
  8
0
100
AcDbLine
 10
11.20000000000001
 20
39.70000000000002
 30
0.0
 11
3.200000000000017
 21
39.70000000000002
 31
0.0
  0
LINE
  5
5E33
330
5DE9
100
AcDbEntity
  8
0
100
AcDbLine
 10
11.20000000000001
 20
45.9
 30
0.0
 11
3.200000000000017
 21
45.9
 31
0.0
  0
LINE
  5
5E34
330
5DE9
100
AcDbEntity
  8
0
100
AcDbLine
 10
13.2
 20
43.51000000000001
 30
0.0
 11
13.20000000000002
 21
49.71
 31
0.0
  0
LINE
  5
5E35
330
5DE9
100
AcDbEntity
  8
0
100
AcDbLine
 10
11.20000000000001
 20
43.51000000000001
 30
0.0
 11
11.20000000000001
 21
49.71
 31
0.0
  0
LINE
  5
5E36
330
5DE9
100
AcDbEntity
  8
0
100
AcDbLine
 10
20.20000000000002
 20
49.71
 30
0.0
 11
11.20000000000001
 21
49.71
 31
0.0
  0
LINE
  5
5E37
330
5DE9
100
AcDbEntity
  8
0
100
AcDbLine
 10
5.200000000000002
 20
39.70000000000002
 30
0.0
 11
5.200000000000017
 21
45.9
 31
0.0
  0
LINE
  5
5E38
330
5DE9
100
AcDbEntity
  8
0
100
AcDbLine
 10
3.200000000000017
 20
39.70000000000002
 30
0.0
 11
3.200000000000017
 21
45.9
 31
0.0
  0
LINE
  5
5E39
330
5DE9
100
AcDbEntity
  8
0
100
AcDbLine
 10
3.200000000000017
 20
9.219999999999998
 30
0.0
 11
3.200000000000017
 21
15.42000000000001
 31
0.0
  0
LINE
  5
5E3A
330
5DE9
100
AcDbEntity
  8
0
100
AcDbLine
 10
5.200000000000002
 20
9.219999999999998
 30
0.0
 11
5.200000000000017
 21
15.42000000000001
 31
0.0
  0
LINE
  5
5E3B
330
5DE9
100
AcDbEntity
  8
0
100
AcDbLine
 10
20.20000000000002
 20
19.22999999999999
 30
0.0
 11
11.20000000000001
 21
19.22999999999999
 31
0.0
  0
LINE
  5
5E3C
330
5DE9
100
AcDbEntity
  8
0
100
AcDbLine
 10
11.20000000000001
 20
13.03
 30
0.0
 11
11.20000000000001
 21
19.22999999999999
 31
0.0
  0
LINE
  5
5E3D
330
5DE9
100
AcDbEntity
  8
0
100
AcDbLine
 10
13.2
 20
13.03
 30
0.0
 11
13.20000000000002
 21
19.22999999999999
 31
0.0
  0
LINE
  5
5E3E
330
5DE9
100
AcDbEntity
  8
0
100
AcDbLine
 10
11.20000000000001
 20
15.42000000000001
 30
0.0
 11
3.200000000000017
 21
15.42000000000001
 31
0.0
  0
LINE
  5
5E3F
330
5DE9
100
AcDbEntity
  8
0
100
AcDbLine
 10
11.20000000000001
 20
9.219999999999998
 30
0.0
 11
3.200000000000017
 21
9.219999999999998
 31
0.0
  0
LINE
  5
5E40
330
5DE9
100
AcDbEntity
  8
0
100
AcDbLine
 10
20.20000000000002
 20
13.03
 30
0.0
 11
11.20000000000001
 21
13.03
 31
0.0
  0
LINE
  5
5E41
330
5DE9
100
AcDbEntity
  8
0
100
AcDbLine
 10
5.700000000000002
 20
9.219999999999998
 30
0.0
 11
5.700000000000017
 21
15.42000000000001
 31
0.0
  0
LINE
  5
5E42
330
5DE9
100
AcDbEntity
  8
0
100
AcDbLine
 10
7.200000000000102
 20
9.669999999999987
 30
0.0
 11
5.700000000000045
 21
9.669999999999987
 31
0.0
  0
LINE
  5
5E43
330
5DE9
100
AcDbEntity
  8
0
100
AcDbLine
 10
5.699999999999988
 20
14.97
 30
0.0
 11
7.200000000000045
 21
14.97
 31
0.0
  0
ELLIPSE
  5
5E44
330
5DE9
100
AcDbEntity
  8
0
100
AcDbEllipse
 10
8.0
 20
12.37000000000003
 30
0.0
 11
-0.0000000000000049
 21
-2.399999999999972
 31
0.0
210
0.0
220
0.0
230
1.0
 40
0.541666666666654
 41
-0.6628738236501154
 42
3.804466477240025
  0
LINE
  5
5E45
330
5DE9
100
AcDbEntity
  8
0
100
AcDbLine
 10
7.200000000000045
 20
9.669999999999987
 30
0.0
 11
7.200000000000045
 21
14.97
 31
0.0
  0
LINE
  5
5E46
330
5DE9
100
AcDbEntity
  8
0
100
AcDbLine
 10
15.20000000000004
 20
13.47999999999999
 30
0.0
 11
15.20000000000004
 21
18.78
 31
0.0
  0
ELLIPSE
  5
5E47
330
5DE9
100
AcDbEntity
  8
0
100
AcDbEllipse
 10
16.0
 20
16.18000000000003
 30
0.0
 11
-0.0000000000000049
 21
-2.399999999999972
 31
0.0
210
0.0
220
0.0
230
1.0
 40
0.541666666666654
 41
-0.6628738236501154
 42
3.804466477240025
  0
LINE
  5
5E48
330
5DE9
100
AcDbEntity
  8
0
100
AcDbLine
 10
15.2000000000001
 20
13.47999999999999
 30
0.0
 11
13.70000000000004
 21
13.47999999999999
 31
0.0
  0
LINE
  5
5E49
330
5DE9
100
AcDbEntity
  8
0
100
AcDbLine
 10
13.7
 20
13.03
 30
0.0
 11
13.70000000000002
 21
19.23000000000001
 31
0.0
  0
LINE
  5
5E4A
330
5DE9
100
AcDbEntity
  8
0
100
AcDbLine
 10
13.69999999999999
 20
18.78
 30
0.0
 11
15.20000000000004
 21
18.78
 31
0.0
  0
LINE
  5
5E4B
330
5DE9
100
AcDbEntity
  8
0
100
AcDbLine
 10
13.69999999999999
 20
11.15999999999999
 30
0.0
 11
15.20000000000004
 21
11.15999999999999
 31
0.0
  0
LINE
  5
5E4C
330
5DE9
100
AcDbEntity
  8
0
100
AcDbLine
 10
13.7
 20
5.409999999999996
 30
0.0
 11
13.70000000000002
 21
11.61000000000001
 31
0.0
  0
LINE
  5
5E4D
330
5DE9
100
AcDbEntity
  8
0
100
AcDbLine
 10
15.2000000000001
 20
5.859999999999985
 30
0.0
 11
13.70000000000004
 21
5.859999999999985
 31
0.0
  0
ELLIPSE
  5
5E4E
330
5DE9
100
AcDbEntity
  8
0
100
AcDbEllipse
 10
16.0
 20
8.56000000000003
 30
0.0
 11
-0.0000000000000049
 21
-2.399999999999972
 31
0.0
210
0.0
220
0.0
230
1.0
 40
0.541666666666654
 41
-0.6628738236501154
 42
3.804466477240025
  0
LINE
  5
5E4F
330
5DE9
100
AcDbEntity
  8
0
100
AcDbLine
 10
15.20000000000004
 20
5.859999999999985
 30
0.0
 11
15.20000000000004
 21
11.15999999999999
 31
0.0
  0
LINE
  5
5E50
330
5DE9
100
AcDbEntity
  8
0
100
AcDbLine
 10
7.200000000000045
 20
2.049999999999997
 30
0.0
 11
7.200000000000045
 21
7.349999999999994
 31
0.0
  0
ELLIPSE
  5
5E51
330
5DE9
100
AcDbEntity
  8
0
100
AcDbEllipse
 10
8.0
 20
4.750000000000028
 30
0.0
 11
-0.0000000000000049
 21
-2.399999999999972
 31
0.0
210
0.0
220
0.0
230
1.0
 40
0.541666666666654
 41
-0.6628738236501154
 42
3.804466477240025
  0
LINE
  5
5E52
330
5DE9
100
AcDbEntity
  8
0
100
AcDbLine
 10
5.699999999999988
 20
7.349999999999994
 30
0.0
 11
7.200000000000045
 21
7.349999999999994
 31
0.0
  0
LINE
  5
5E53
330
5DE9
100
AcDbEntity
  8
0
100
AcDbLine
 10
7.200000000000102
 20
2.049999999999997
 30
0.0
 11
5.700000000000045
 21
2.049999999999997
 31
0.0
  0
LINE
  5
5E54
330
5DE9
100
AcDbEntity
  8
0
100
AcDbLine
 10
5.700000000000002
 20
1.599999999999994
 30
0.0
 11
5.700000000000017
 21
7.800000000000011
 31
0.0
  0
LINE
  5
5E55
330
5DE9
100
AcDbEntity
  8
0
100
AcDbLine
 10
20.20000000000002
 20
5.409999999999996
 30
0.0
 11
11.20000000000001
 21
5.409999999999996
 31
0.0
  0
LINE
  5
5E56
330
5DE9
100
AcDbEntity
  8
0
100
AcDbLine
 10
11.20000000000001
 20
7.800000000000011
 30
0.0
 11
3.200000000000017
 21
7.800000000000011
 31
0.0
  0
LINE
  5
5E57
330
5DE9
100
AcDbEntity
  8
0
100
AcDbLine
 10
13.2
 20
5.409999999999996
 30
0.0
 11
13.20000000000002
 21
11.60999999999998
 31
0.0
  0
LINE
  5
5E58
330
5DE9
100
AcDbEntity
  8
0
100
AcDbLine
 10
11.20000000000001
 20
5.409999999999996
 30
0.0
 11
11.20000000000001
 21
11.60999999999998
 31
0.0
  0
LINE
  5
5E59
330
5DE9
100
AcDbEntity
  8
0
100
AcDbLine
 10
20.20000000000002
 20
11.60999999999998
 30
0.0
 11
11.20000000000001
 21
11.60999999999998
 31
0.0
  0
LINE
  5
5E5A
330
5DE9
100
AcDbEntity
  8
0
100
AcDbLine
 10
5.200000000000002
 20
1.599999999999994
 30
0.0
 11
5.200000000000017
 21
7.800000000000011
 31
0.0
  0
LINE
  5
5E5B
330
5DE9
100
AcDbEntity
  8
0
100
AcDbLine
 10
3.200000000000017
 20
1.599999999999994
 30
0.0
 11
3.200000000000017
 21
7.800000000000011
 31
0.0
  0
LINE
  5
5E5C
330
5DE9
100
AcDbEntity
  8
0
100
AcDbLine
 10
3.200000000000017
 20
16.84
 30
0.0
 11
3.200000000000017
 21
23.03999999999999
 31
0.0
  0
LINE
  5
5E5D
330
5DE9
100
AcDbEntity
  8
0
100
AcDbLine
 10
5.200000000000002
 20
16.84
 30
0.0
 11
5.200000000000017
 21
23.03999999999999
 31
0.0
  0
LINE
  5
5E5E
330
5DE9
100
AcDbEntity
  8
0
100
AcDbLine
 10
20.20000000000002
 20
26.85
 30
0.0
 11
11.20000000000001
 21
26.85
 31
0.0
  0
LINE
  5
5E5F
330
5DE9
100
AcDbEntity
  8
0
100
AcDbLine
 10
11.20000000000001
 20
20.65000000000001
 30
0.0
 11
11.20000000000001
 21
26.85
 31
0.0
  0
LINE
  5
5E60
330
5DE9
100
AcDbEntity
  8
0
100
AcDbLine
 10
13.2
 20
20.65000000000001
 30
0.0
 11
13.20000000000002
 21
26.85
 31
0.0
  0
LINE
  5
5E61
330
5DE9
100
AcDbEntity
  8
0
100
AcDbLine
 10
11.20000000000001
 20
23.03999999999999
 30
0.0
 11
3.200000000000017
 21
23.03999999999999
 31
0.0
  0
LINE
  5
5E62
330
5DE9
100
AcDbEntity
  8
0
100
AcDbLine
 10
11.20000000000001
 20
16.84
 30
0.0
 11
3.200000000000017
 21
16.84
 31
0.0
  0
LINE
  5
5E63
330
5DE9
100
AcDbEntity
  8
0
100
AcDbLine
 10
20.20000000000002
 20
20.65000000000001
 30
0.0
 11
11.20000000000001
 21
20.65000000000001
 31
0.0
  0
LINE
  5
5E64
330
5DE9
100
AcDbEntity
  8
0
100
AcDbLine
 10
5.700000000000002
 20
16.84
 30
0.0
 11
5.700000000000017
 21
23.03999999999999
 31
0.0
  0
LINE
  5
5E65
330
5DE9
100
AcDbEntity
  8
0
100
AcDbLine
 10
7.200000000000102
 20
17.28999999999999
 30
0.0
 11
5.700000000000045
 21
17.28999999999999
 31
0.0
  0
LINE
  5
5E66
330
5DE9
100
AcDbEntity
  8
0
100
AcDbLine
 10
5.699999999999988
 20
22.59
 30
0.0
 11
7.200000000000045
 21
22.59
 31
0.0
  0
ELLIPSE
  5
5E67
330
5DE9
100
AcDbEntity
  8
0
100
AcDbEllipse
 10
8.0
 20
19.99000000000004
 30
0.0
 11
-0.0000000000000049
 21
-2.399999999999972
 31
0.0
210
0.0
220
0.0
230
1.0
 40
0.541666666666654
 41
-0.6628738236501154
 42
3.804466477240025
  0
LINE
  5
5E68
330
5DE9
100
AcDbEntity
  8
0
100
AcDbLine
 10
7.200000000000045
 20
17.28999999999999
 30
0.0
 11
7.200000000000045
 21
22.59
 31
0.0
  0
LINE
  5
5E69
330
5DE9
100
AcDbEntity
  8
0
100
AcDbLine
 10
15.20000000000004
 20
21.09999999999999
 30
0.0
 11
15.20000000000004
 21
26.40000000000001
 31
0.0
  0
ELLIPSE
  5
5E6A
330
5DE9
100
AcDbEntity
  8
0
100
AcDbEllipse
 10
16.0
 20
23.80000000000004
 30
0.0
 11
-0.0000000000000049
 21
-2.399999999999972
 31
0.0
210
0.0
220
0.0
230
1.0
 40
0.541666666666654
 41
-0.6628738236501154
 42
3.804466477240025
  0
LINE
  5
5E6B
330
5DE9
100
AcDbEntity
  8
0
100
AcDbLine
 10
15.2000000000001
 20
21.09999999999999
 30
0.0
 11
13.70000000000004
 21
21.09999999999999
 31
0.0
  0
LINE
  5
5E6C
330
5DE9
100
AcDbEntity
  8
0
100
AcDbLine
 10
13.7
 20
20.65000000000001
 30
0.0
 11
13.70000000000002
 21
26.85
 31
0.0
  0
LINE
  5
5E6D
330
5DE9
100
AcDbEntity
  8
0
100
AcDbLine
 10
13.69999999999999
 20
26.40000000000001
 30
0.0
 11
15.20000000000004
 21
26.40000000000001
 31
0.0
  0
LINE
  5
5E6E
330
5DE9
100
AcDbEntity
  8
0
100
AcDbLine
 10
13.69999999999999
 20
34.02000000000001
 30
0.0
 11
15.20000000000004
 21
34.02000000000001
 31
0.0
  0
LINE
  5
5E6F
330
5DE9
100
AcDbEntity
  8
0
100
AcDbLine
 10
13.7
 20
28.27000000000001
 30
0.0
 11
13.70000000000002
 21
34.47
 31
0.0
  0
LINE
  5
5E70
330
5DE9
100
AcDbEntity
  8
0
100
AcDbLine
 10
15.2000000000001
 20
28.72
 30
0.0
 11
13.70000000000004
 21
28.72
 31
0.0
  0
ELLIPSE
  5
5E71
330
5DE9
100
AcDbEntity
  8
0
100
AcDbEllipse
 10
16.0
 20
31.42000000000005
 30
0.0
 11
-0.0000000000000049
 21
-2.399999999999972
 31
0.0
210
0.0
220
0.0
230
1.0
 40
0.541666666666654
 41
-0.6628738236501154
 42
3.804466477240025
  0
LINE
  5
5E72
330
5DE9
100
AcDbEntity
  8
0
100
AcDbLine
 10
15.20000000000004
 20
28.72
 30
0.0
 11
15.20000000000004
 21
34.02000000000001
 31
0.0
  0
LINE
  5
5E73
330
5DE9
100
AcDbEntity
  8
0
100
AcDbLine
 10
7.200000000000045
 20
24.91
 30
0.0
 11
7.200000000000045
 21
30.21000000000001
 31
0.0
  0
ELLIPSE
  5
5E74
330
5DE9
100
AcDbEntity
  8
0
100
AcDbEllipse
 10
8.0
 20
27.61000000000005
 30
0.0
 11
-0.0000000000000049
 21
-2.399999999999972
 31
0.0
210
0.0
220
0.0
230
1.0
 40
0.541666666666654
 41
-0.6628738236501154
 42
3.804466477240025
  0
LINE
  5
5E75
330
5DE9
100
AcDbEntity
  8
0
100
AcDbLine
 10
5.699999999999988
 20
30.21000000000001
 30
0.0
 11
7.200000000000045
 21
30.21000000000001
 31
0.0
  0
LINE
  5
5E76
330
5DE9
100
AcDbEntity
  8
0
100
AcDbLine
 10
7.200000000000102
 20
24.91
 30
0.0
 11
5.700000000000045
 21
24.91
 31
0.0
  0
LINE
  5
5E77
330
5DE9
100
AcDbEntity
  8
0
100
AcDbLine
 10
5.700000000000002
 20
24.46000000000001
 30
0.0
 11
5.700000000000017
 21
30.66
 31
0.0
  0
LINE
  5
5E78
330
5DE9
100
AcDbEntity
  8
0
100
AcDbLine
 10
20.20000000000002
 20
28.27000000000001
 30
0.0
 11
11.20000000000001
 21
28.27000000000001
 31
0.0
  0
LINE
  5
5E79
330
5DE9
100
AcDbEntity
  8
0
100
AcDbLine
 10
11.20000000000001
 20
24.46000000000001
 30
0.0
 11
3.200000000000017
 21
24.46000000000001
 31
0.0
  0
LINE
  5
5E7A
330
5DE9
100
AcDbEntity
  8
0
100
AcDbLine
 10
11.20000000000001
 20
30.66
 30
0.0
 11
3.200000000000017
 21
30.66
 31
0.0
  0
LINE
  5
5E7B
330
5DE9
100
AcDbEntity
  8
0
100
AcDbLine
 10
13.2
 20
28.27000000000001
 30
0.0
 11
13.20000000000002
 21
34.47
 31
0.0
  0
LINE
  5
5E7C
330
5DE9
100
AcDbEntity
  8
0
100
AcDbLine
 10
11.20000000000001
 20
28.27000000000001
 30
0.0
 11
11.20000000000001
 21
34.47
 31
0.0
  0
LINE
  5
5E7D
330
5DE9
100
AcDbEntity
  8
0
100
AcDbLine
 10
20.20000000000002
 20
34.47
 30
0.0
 11
11.20000000000001
 21
34.47
 31
0.0
  0
LINE
  5
5E7E
330
5DE9
100
AcDbEntity
  8
0
100
AcDbLine
 10
5.200000000000002
 20
24.46000000000001
 30
0.0
 11
5.200000000000017
 21
30.66
 31
0.0
  0
LINE
  5
5E7F
330
5DE9
100
AcDbEntity
  8
0
100
AcDbLine
 10
3.200000000000017
 20
24.46000000000001
 30
0.0
 11
3.200000000000017
 21
30.66
 31
0.0
  0
LINE
  5
5E80
330
5DE9
100
AcDbEntity
  8
0
100
AcDbLine
 10
22.70000000000002
 20
64.94999999999999
 30
0.0
 11
21.20000000000002
 21
64.94999999999999
 31
0.0
  0
LINE
  5
5E81
330
5DE9
100
AcDbEntity
  8
0
100
AcDbLine
 10
21.19999999999999
 20
1.600000000000008
 30
0.0
 11
22.69999999999999
 21
1.600000000000008
 31
0.0
  0
LINE
  5
5E82
330
5DE9
100
AcDbEntity
  8
0
100
AcDbLine
 10
21.19999999999999
 20
1.099999999999994
 30
0.0
 11
21.20000000000002
 21
65.44999999999999
 31
0.0
  0
LINE
  5
5E83
330
5DE9
100
AcDbEntity
  8
0
100
AcDbLine
 10
20.20000000000002
 20
65.44999999999999
 30
0.0
 11
21.20000000000002
 21
65.44999999999999
 31
0.0
  0
LINE
  5
5E84
330
5DE9
100
AcDbEntity
  8
0
100
AcDbLine
 10
20.19999999999999
 20
1.099999999999994
 30
0.0
 11
21.19999999999999
 21
1.099999999999994
 31
0.0
  0
LINE
  5
5E85
330
5DE9
100
AcDbEntity
  8
0
100
AcDbLine
 10
22.70000000000002
 20
66.54999999999998
 30
0.0
 11
22.70000000000002
 21
64.94999999999999
 31
0.0
  0
LINE
  5
5E86
330
5DE9
100
AcDbEntity
  8
0
100
AcDbLine
 10
22.69999999999999
 20
1.600000000000008
 30
0.0
 11
22.69999999999999
 21
0.0
 31
0.0
  0
ENDBLK
  5
5DEB
330
5DE9
100
AcDbEntity
  8
0
100
AcDbBlockEnd
  0
BLOCK
  5
60DA
330
60D9
100
AcDbEntity
  8
0
100
AcDbBlockBegin
  2
UB-TOP
 70
     0
 10
0.0
 20
0.0
 30
0.0
  3
UB-TOP
  1

  0
LWPOLYLINE
  5
60DB
330
60D9
100
AcDbEntity
  8
0
100
AcDbPolyline
 90
       13
 70
     0
 43
0.0
 10
-2.0
 20
0.5
 10
-2.0
 20
-0.5
 10
-0.5
 20
-0.5
 10
-0.5
 20
-2.0
 10
0.5
 20
-2.0
 10
0.5
 20
-0.5
 10
2.0
 20
-0.5
 10
2.0
 20
0.5
 10
0.5
 20
0.5
 10
0.5
 20
2.0
 10
-0.5
 20
2.0
 10
-0.5
 20
0.5
 10
-2.0
 20
0.5
  0
CIRCLE
  5
60DC
330
60D9
100
AcDbEntity
  8
0
100
AcDbCircle
 10
0.0
 20
0.0
 30
0.0
 40
3.150000000000034
  0
CIRCLE
  5
60DD
330
60D9
100
AcDbEntity
  8
0
100
AcDbCircle
 10
0.0
 20
0.0
 30
0.0
 40
4.0
  0
ENDBLK
  5
60DE
330
60D9
100
AcDbEntity
  8
0
100
AcDbBlockEnd
  0
BLOCK
  5
60E0
330
60DF
100
AcDbEntity
  8
0
100
AcDbBlockBegin
  2
UB-SIDE
 70
     0
 10
0.0
 20
0.0
 30
0.0
  3
UB-SIDE
  1

  0
LINE
  5
60E1
330
60DF
100
AcDbEntity
  8
0
100
AcDbLine
 10
4.0
 20
0.0
 30
0.0
 11
-4.0
 21
0.0
 31
0.0
  0
LINE
  5
60E2
330
60DF
100
AcDbEntity
  8
0
100
AcDbLine
 10
3.036264737416274
 20
1.800000000000011
 30
0.0
 11
-3.036264737416274
 21
1.800000000000011
 31
0.0
  0
LINE
  5
60E3
330
60DF
100
AcDbEntity
  8
0
100
AcDbLine
 10
3.150000000000005
 20
0.5
 30
0.0
 11
3.034613417160869
 21
1.818874676888015
 31
0.0
  0
LINE
  5
60E4
330
60DF
100
AcDbEntity
  8
0
100
AcDbLine
 10
-3.150000000000005
 20
0.5
 30
0.0
 11
-3.034613417160841
 21
1.818874676888071
 31
0.0
  0
ARC
  5
60E5
330
60DF
100
AcDbEntity
  8
0
100
AcDbCircle
 10
0.0
 20
-5.813878188659941
 30
0.0
 40
8.213878188659947
100
AcDbArc
 50
68.31832775930367
 51
111.6816722406963
  0
LINE
  5
60E6
330
60DF
100
AcDbEntity
  8
0
100
AcDbLine
 10
3.149999999999948
 20
0.5
 30
0.0
 11
-3.149999999999977
 21
0.5
 31
0.0
  0
LINE
  5
60E7
330
60DF
100
AcDbEntity
  8
0
100
AcDbLine
 10
4.0
 20
0.0
 30
0.0
 11
4.0
 21
0.5
 31
0.0
  0
LINE
  5
60E8
330
60DF
100
AcDbEntity
  8
0
100
AcDbLine
 10
-4.0
 20
0.0
 30
0.0
 11
-4.0
 21
0.5000000000000285
 31
0.0
  0
LINE
  5
60E9
330
60DF
100
AcDbEntity
  8
0
100
AcDbLine
 10
-4.0
 20
0.5000000000000285
 30
0.0
 11
4.0
 21
0.5
 31
0.0
  0
ENDBLK
  5
60EA
330
60DF
100
AcDbEntity
  8
0
100
AcDbBlockEnd
  0
ENDSEC
  0
SECTION
  2
ENTITIES
  0
LINE
  5
C9
330
1A
100
AcDbEntity
  8
WAKU
 62
     7
100
AcDbLine
 10
405.0
 20
280.0
 30
0.0
 11
20.0
 21
280.0
 31
0.0
  0
LINE
  5
D5
330
1A
100
AcDbEntity
  8
WAKU
100
AcDbLine
 10
20.0
 20
280.0
 30
0.0
 11
20.0
 21
5.0
 31
0.0
  0
MTEXT
  5
E9
330
1A
100
AcDbEntity
  8
WAKU
100
AcDbMText
 10
345.0
 20
43.0
 30
0.0
 40
4.0
 41
15.0
 71
     1
 72
     5
  1

 73
     1
 44
1.0
1001
ACAD
1000
MTEXTBEGIN
1070
    73
1070
     1
1070
    44
1040
1.0
1070
    74
1070
     0
1000
MTEXTEND
  0
MTEXT
  5
EA
330
1A
100
AcDbEntity
  8
WAKU
100
AcDbMText
 10
345.0
 20
49.0
 30
0.0
 40
4.0
 41
14.0
 71
     1
 72
     5
  1

 73
     1
 44
1.0
1001
ACAD
1000
MTEXTBEGIN
1070
    73
1070
     1
1070
    44
1040
1.0
1070
    74
1070
     0
1000
MTEXTEND
  0
MTEXT
  5
EE
330
1A
100
AcDbEntity
  8
WAKU
100
AcDbMText
 10
327.0
 20
82.0
 30
0.0
 40
3.0
 41
37.0
 71
     1
 72
     5
  1

 73
     1
 44
1.0
1001
ACAD
1000
MTEXTBEGIN
1070
    73
1070
     1
1070
    44
1040
1.0
1070
    74
1070
     0
1000
MTEXTEND
  0
MTEXT
  5
F5
330
1A
100
AcDbEntity
  8
WAKU
100
AcDbMText
 10
330.0
 20
85.0
 30
0.0
 40
3.0
 41
12.0
 71
     1
 72
     5
  1

 73
     1
 44
1.0
1001
ACAD
1000
MTEXTBEGIN
1070
    73
1070
     1
1070
    44
1040
1.0
1070
    74
1070
     0
1000
MTEXTEND
  0
MTEXT
  5
FF
330
1A
100
AcDbEntity
  8
WAKU
100
AcDbMText
 10
271.0
 20
82.0
 30
0.0
 40
3.0
 41
74.0
 71
     1
 72
     5
  1

 73
     1
 44
1.0
1001
ACAD
1000
MTEXTBEGIN
1070
    73
1070
     1
1070
    44
1040
1.0
1070
    74
1070
     0
1000
MTEXTEND
  0
LINE
  5
176C
330
1A
100
AcDbEntity
  8
WAKU
 62
     7
100
AcDbLine
 10
20.0
 20
5.0
 30
0.0
 11
405.0
 21
5.0
 31
0.0
  0
LINE
  5
180F
330
1A
100
AcDbEntity
  8
WAKU
100
AcDbLine
 10
405.0
 20
5.0
 30
0.0
 11
405.0
 21
280.0
 31
0.0
  0
TEXT
  5
3A48
330
1A
100
AcDbEntity
  8
0
100
AcDbText
 10
396.5
 20
7.5
 30
0.0
 40
3.0
  1
3
100
AcDbText
  0
TEXT
  5
3A49
330
1A
100
AcDbEntity
  8
WAKU
100
AcDbText
 10
228.0
 20
37.5
 30
0.0
 40
2.0
  1
6
100
AcDbText
  0
LWPOLYLINE
  5
3A4A
330
1A
100
AcDbEntity
  8
0
100
AcDbPolyline
 90
        3
 70
     1
 43
0.0
 10
229.0
 20
41.0
 10
226.8349364905389
 20
37.25
 10
231.1650635094611
 20
37.25
  0
LWPOLYLINE
  5
3A4B
330
1A
100
AcDbEntity
  8
0
100
AcDbPolyline
 90
        3
 70
     1
 43
0.0
 10
229.0
 20
45.0
 10
226.8349364905389
 20
41.25
 10
231.1650635094611
 20
41.25
  0
TEXT
  5
3A4C
330
1A
100
AcDbEntity
  8
WAKU
100
AcDbText
 10
228.0
 20
41.5
 30
0.0
 40
2.0
  1
7
100
AcDbText
  0
TEXT
  5
3A4D
330
1A
100
AcDbEntity
  8
WAKU
100
AcDbText
 10
228.0
 20
33.5
 30
0.0
 40
2.0
  1
5
100
AcDbText
  0
TEXT
  5
3A4E
330
1A
100
AcDbEntity
  8
WAKU
100
AcDbText
 10
228.0
 20
25.5
 30
0.0
 40
2.0
  1
3
100
AcDbText
  0
LWPOLYLINE
  5
3A4F
330
1A
100
AcDbEntity
  8
0
100
AcDbPolyline
 90
        3
 70
     1
 43
0.0
 10
229.0
 20
29.0
 10
226.8349364905389
 20
25.25
 10
231.1650635094611
 20
25.25
  0
LWPOLYLINE
  5
3A50
330
1A
100
AcDbEntity
  8
0
100
AcDbPolyline
 90
        3
 70
     1
 43
0.0
 10
229.0
 20
33.0
 10
226.8349364905389
 20
29.25
 10
231.1650635094611
 20
29.25
  0
TEXT
  5
3A51
330
1A
100
AcDbEntity
  8
WAKU
100
AcDbText
 10
228.0
 20
29.5
 30
0.0
 40
2.0
  1
4
100
AcDbText
  0
TEXT
  5
3A52
330
1A
100
AcDbEntity
  8
WAKU
100
AcDbText
 10
228.0
 20
21.5
 30
0.0
 40
2.0
  1
2
100
AcDbText
  0
LWPOLYLINE
  5
3A53
330
1A
100
AcDbEntity
  8
0
100
AcDbPolyline
 90
        3
 70
     1
 43
0.0
 10
229.0
 20
25.0
 10
226.8349364905389
 20
21.25
 10
231.1650635094611
 20
21.25
  0
LWPOLYLINE
  5
3A54
330
1A
100
AcDbEntity
  8
0
100
AcDbPolyline
 90
        3
 70
     1
 43
0.0
 10
229.0
 20
21.0
 10
226.8349364905389
 20
17.25
 10
231.1650635094611
 20
17.25
  0
TEXT
  5
3A55
330
1A
100
AcDbEntity
  8
WAKU
100
AcDbText
 10
228.0
 20
17.5
 30
0.0
 40
2.0
  1
1
100
AcDbText
  0
LWPOLYLINE
  5
3A56
330
1A
100
AcDbEntity
  8
0
100
AcDbPolyline
 90
        3
 70
     1
 43
0.0
 10
229.0
 20
37.0
 10
226.8349364905389
 20
33.25
 10
231.1650635094611
 20
33.25
  0
LWPOLYLINE
  5
3A57
330
1A
100
AcDbEntity
  8
0
100
AcDbPolyline
 90
        3
 70
     1
 43
0.0
 10
398.0002991937029
 20
13.75002575180714
 10
393.6701721747807
 20
6.250025751807143
 10
402.330426212625
 20
6.250025751807143
  0
TEXT
  5
3A58
330
1A
100
AcDbEntity
  8
WAKU
100
AcDbText
 10
248.0
 20
13.5
 30
0.0
 40
3.0
  1
大野
100
AcDbText
  0
TEXT
  5
3A59
330
1A
100
AcDbEntity
  8
WAKU
100
AcDbText
 10
234.0
 20
14.0
 30
0.0
 40
1.8
  1
06.06.22
 41
0.9
100
AcDbText
  0
TEXT
  5
3A5A
330
1A
100
AcDbEntity
  8
WAKU
100
AcDbText
 10
288.0
 20
19.0
 30
0.0
 40
4.0
  1
大野
100
AcDbText
  0
TEXT
  5
3A5B
330
1A
100
AcDbEntity
  8
WAKU
100
AcDbText
 10
286.0
 20
14.0
 30
0.0
 40
2.0
  1
08.03.14
100
AcDbText
  0
TEXT
  5
3A5C
330
1A
100
AcDbEntity
  8
0
100
AcDbText
 10
358.0
 20
7.5
 30
0.0
 40
3.0
  1
EA3-00071
100
AcDbText
  0
TEXT
  5
3A5D
330
1A
100
AcDbEntity
  8
0
100
AcDbText
 10
287.5
 20
44.5
 30
0.0
 40
3.0
  1
1
100
AcDbText
  0
TEXT
  5
3A5E
330
1A
100
AcDbEntity
  8
0
100
AcDbText
 10
363.5
 20
44.5
 30
0.0
 40
3.0
  1
DLS-5033A
100
AcDbText
  0
TEXT
  5
3A5F
330
1A
100
AcDbEntity
  8
0
100
AcDbText
 10
308.0
 20
42.5
 30
0.0
 40
4.0
  1
外　形　図
100
AcDbText
  0
TEXT
  5
3A60
330
1A
100
AcDbEntity
  8
0
100
AcDbText
 10
293.0
 20
41.5
 30
0.0
 40
3.0
  1
1
100
AcDbText
  0
TEXT
  5
3A61
330
1A
100
AcDbEntity
  8
WAKU
100
AcDbText
 10
256.5
 20
6.0
 30
0.0
 40
6.0
  1
東洋測器株式会社
100
AcDbText
  0
TEXT
  5
3A62
330
1A
100
AcDbEntity
  8
WAKU
100
AcDbText
 10
346.5
 20
6.0
 30
0.0
 40
3.0
  1
番
100
AcDbText
  0
TEXT
  5
3A63
330
1A
100
AcDbEntity
  8
WAKU
100
AcDbText
 10
346.5
 20
10.5
 30
0.0
 40
3.0
  1
図
100
AcDbText
  0
LINE
  5
3A64
330
1A
100
AcDbEntity
  8
WAKU
100
AcDbLine
 10
298.0
 20
48.0
 30
0.0
 11
287.0
 21
42.0
 31
0.0
  0
TEXT
  5
3A65
330
1A
100
AcDbEntity
  8
WAKU
100
AcDbText
 10
287.5
 20
35.5
 30
0.0
 40
3.0
  1
尺　度
 72
     4
 11
292.5
 21
37.0
 31
0.0
100
AcDbText
  0
TEXT
  5
3A66
330
1A
100
AcDbEntity
  8
WAKU
100
AcDbText
 10
226.0
 20
13.5
 30
0.0
 40
3.0
  1
設置
100
AcDbText
  0
TEXT
  5
3A67
330
1A
100
AcDbEntity
  8
WAKU
100
AcDbText
 10
263.5
 20
46.0
 30
0.0
 40
3.0
  1
改連No.
100
AcDbText
  0
TEXT
  5
3A68
330
1A
100
AcDbEntity
  8
WAKU
100
AcDbText
 10
248.0
 20
46.0
 30
0.0
 40
3.0
  1
担当
100
AcDbText
  0
TEXT
  5
3A69
330
1A
100
AcDbEntity
  8
WAKU
100
AcDbText
 10
234.5
 20
46.0
 30
0.0
 40
3.0
  1
年月日
100
AcDbText
  0
TEXT
  5
3A6A
330
1A
100
AcDbEntity
  8
WAKU
100
AcDbText
 10
226.0
 20
46.0
 30
0.0
 40
3.0
  1
記号
100
AcDbText
  0
LINE
  5
3A6B
330
1A
100
AcDbEntity
  8
WAKU
100
AcDbLine
 10
256.0
 20
13.0
 30
0.0
 11
256.0
 21
50.0
 31
0.0
  0
LINE
  5
3A6C
330
1A
100
AcDbEntity
  8
WAKU
100
AcDbLine
 10
246.0
 20
13.0
 30
0.0
 11
246.0
 21
50.0
 31
0.0
  0
LINE
  5
3A6D
330
1A
100
AcDbEntity
  8
WAKU
100
AcDbLine
 10
233.0
 20
13.0
 30
0.0
 11
233.0
 21
50.0
 31
0.0
  0
LINE
  5
3A6E
330
1A
100
AcDbEntity
  8
WAKU
100
AcDbLine
 10
285.0
 20
45.0
 30
0.0
 11
225.0
 21
45.0
 31
0.0
  0
LINE
  5
3A6F
330
1A
100
AcDbEntity
  8
WAKU
100
AcDbLine
 10
285.0
 20
41.0
 30
0.0
 11
225.0
 21
41.0
 31
0.0
  0
LINE
  5
3A70
330
1A
100
AcDbEntity
  8
WAKU
100
AcDbLine
 10
285.0
 20
37.0
 30
0.0
 11
225.0
 21
37.0
 31
0.0
  0
LINE
  5
3A71
330
1A
100
AcDbEntity
  8
WAKU
100
AcDbLine
 10
285.0
 20
33.0
 30
0.0
 11
225.0
 21
33.0
 31
0.0
  0
LINE
  5
3A72
330
1A
100
AcDbEntity
  8
WAKU
100
AcDbLine
 10
285.0
 20
29.0
 30
0.0
 11
225.0
 21
29.0
 31
0.0
  0
LINE
  5
3A73
330
1A
100
AcDbEntity
  8
WAKU
100
AcDbLine
 10
285.0
 20
25.0
 30
0.0
 11
225.0
 21
25.0
 31
0.0
  0
LINE
  5
3A74
330
1A
100
AcDbEntity
  8
WAKU
100
AcDbLine
 10
285.0
 20
21.0
 30
0.0
 11
225.0
 21
21.0
 31
0.0
  0
LINE
  5
3A75
330
1A
100
AcDbEntity
  8
WAKU
100
AcDbLine
 10
285.0
 20
17.0
 30
0.0
 11
225.0
 21
17.0
 31
0.0
  0
MTEXT
  5
3A7A
330
1A
100
AcDbEntity
  8
WAKU
100
AcDbMText
 10
347.0
 20
20.0
 30
0.0
 40
3.0
 41
12.0
 71
     1
 72
     5
  1
適用ﾛｯﾄ
 73
     1
 44
1.0
1001
ACAD
1000
MTEXTBEGIN
1070
    73
1070
     1
1070
    44
1040
1.0
1070
    74
1070
     0
1000
MTEXTEND
  0
MTEXT
  5
3A7B
330
1A
100
AcDbEntity
  8
WAKU
100
AcDbMText
 10
346.0
 20
27.0
 30
0.0
 40
3.0
 41
10.0
 71
     1
 72
     5
  1
ｽﾄｯｸNo.
 73
     1
 44
1.0
1001
ACAD
1000
MTEXTBEGIN
1070
    73
1070
     1
1070
    44
1040
1.0
1070
    74
1070
     0
1000
MTEXTEND
  0
MTEXT
  5
3A7C
330
1A
100
AcDbEntity
  8
WAKU
100
AcDbMText
 10
347.2999999999999
 20
40.69999999999999
 30
0.0
 40
3.0
 41
10.0
 71
     1
 72
     5
  1
部　名
 73
     1
 44
1.0
1001
ACAD
1000
MTEXTBEGIN
1070
    73
1070
     1
1070
    44
1040
1.0
1070
    74
1070
     0
1000
MTEXTEND
  0
MTEXT
  5
3A7D
330
1A
100
AcDbEntity
  8
WAKU
100
AcDbMText
 10
347.2
 20
47.7
 30
0.0
 40
3.0
 41
10.0
 71
     1
 72
     5
  1
機種名
 73
     1
 44
1.0
1001
ACAD
1000
MTEXTBEGIN
1070
    73
1070
     1
1070
    44
1040
1.0
1070
    74
1070
     0
1000
MTEXTEND
  0
MTEXT
  5
3A7E
330
1A
100
AcDbEntity
  8
WAKU
100
AcDbMText
 10
347.3192310662242
 20
34.48051906497278
 30
0.0
 40
3.0
 41
11.0
 71
     1
 72
     5
  1
部品表
 73
     1
 44
1.0
1001
ACAD
1000
MTEXTBEGIN
1070
    73
1070
     1
1070
    44
1040
1.0
1070
    74
1070
     0
1000
MTEXTEND
  0
LINE
  5
3A7F
330
1A
100
AcDbEntity
  8
WAKU
100
AcDbLine
 10
345.0
 20
13.0
 30
0.0
 11
225.0
 21
13.0
 31
0.0
  0
LINE
  5
3A80
330
1A
100
AcDbEntity
  8
WAKU
100
AcDbLine
 10
345.0
 20
28.0
 30
0.0
 11
285.0
 21
28.0
 31
0.0
  0
LINE
  5
3A81
330
1A
100
AcDbEntity
  8
WAKU
100
AcDbLine
 10
345.0
 20
34.0
 30
0.0
 11
285.0
 21
34.0
 31
0.0
  0
LINE
  5
3A82
330
1A
100
AcDbEntity
  8
WAKU
100
AcDbLine
 10
345.0
 20
40.0
 30
0.0
 11
285.0
 21
40.0
 31
0.0
  0
LINE
  5
3A83
330
1A
100
AcDbEntity
  8
WAKU
100
AcDbLine
 10
285.0
 20
13.0
 30
0.0
 11
285.0
 21
50.0
 31
0.0
  0
LINE
  5
3A84
330
1A
100
AcDbEntity
  8
WAKU
100
AcDbLine
 10
300.0
 20
13.0
 30
0.0
 11
300.0
 21
50.0
 31
0.0
  0
LINE
  5
3A85
330
1A
100
AcDbEntity
  8
WAKU
100
AcDbLine
 10
315.0
 20
13.0
 30
0.0
 11
315.0
 21
34.0
 31
0.0
  0
LINE
  5
3A86
330
1A
100
AcDbEntity
  8
WAKU
100
AcDbLine
 10
330.0
 20
13.0
 30
0.0
 11
330.0
 21
28.0
 31
0.0
  0
LINE
  5
3A87
330
1A
100
AcDbEntity
  8
WAKU
100
AcDbLine
 10
352.0
 20
5.0
 30
0.0
 11
352.0
 21
15.0
 31
0.0
  0
LINE
  5
3A88
330
1A
100
AcDbEntity
  8
WAKU
100
AcDbLine
 10
360.0
 20
15.0
 30
0.0
 11
360.0
 21
50.0
 31
0.0
  0
LINE
  5
3A89
330
1A
100
AcDbEntity
  8
WAKU
 62
     7
100
AcDbLine
 10
345.0
 20
43.0
 30
0.0
 11
405.0
 21
43.0
 31
0.0
  0
LINE
  5
3A8A
330
1A
100
AcDbEntity
  8
WAKU
 62
     7
100
AcDbLine
 10
345.0
 20
36.0
 30
0.0
 11
405.0
 21
36.0
 31
0.0
  0
LINE
  5
3A8B
330
1A
100
AcDbEntity
  8
WAKU
 62
     7
100
AcDbLine
 10
345.0
 20
29.0
 30
0.0
 11
405.0
 21
29.0
 31
0.0
  0
LINE
  5
3A8C
330
1A
100
AcDbEntity
  8
WAKU
 62
     7
100
AcDbLine
 10
345.0
 20
22.0
 30
0.0
 11
405.0
 21
22.0
 31
0.0
  0
LINE
  5
3A8D
330
1A
100
AcDbEntity
  8
WAKU
 62
     7
100
AcDbLine
 10
345.0
 20
15.0
 30
0.0
 11
405.0
 21
15.0
 31
0.0
  0
LINE
  5
3A8E
330
1A
100
AcDbEntity
  8
WAKU
100
AcDbLine
 10
345.0
 20
5.0
 30
0.0
 11
345.0
 21
50.0
 31
0.0
  0
LINE
  5
3A8F
330
1A
100
AcDbEntity
  8
WAKU
100
AcDbLine
 10
225.0
 20
5.0
 30
0.0
 11
225.0
 21
50.0
 31
0.0
  0
LINE
  5
3A90
330
1A
100
AcDbEntity
  8
WAKU
 62
     7
100
AcDbLine
 10
225.0
 20
50.0
 30
0.0
 11
405.0
 21
50.0
 31
0.0
  0
MTEXT
  5
59D1
330
1A
100
AcDbEntity
  8
WAKU
100
AcDbMText
 10
270.500000136557
 20
386.9999999103807
 30
0.0
 40
3.0
 41
74.0
 71
     1
 72
     5
  1

 73
     1
 44
1.0
1001
ACAD
1000
MTEXTBEGIN
1070
    73
1070
     1
1070
    44
1040
1.0
1070
    74
1070
     0
1000
MTEXTEND
  0
MTEXT
  5
59D2
330
1A
100
AcDbEntity
  8
WAKU
100
AcDbMText
 10
329.500000136557
 20
389.9999999103807
 30
0.0
 40
3.0
 41
12.0
 71
     1
 72
     5
  1

 73
     1
 44
1.0
1001
ACAD
1000
MTEXTBEGIN
1070
    73
1070
     1
1070
    44
1040
1.0
1070
    74
1070
     0
1000
MTEXTEND
  0
MTEXT
  5
59D3
330
1A
100
AcDbEntity
  8
WAKU
100
AcDbMText
 10
326.500000136557
 20
386.9999999103807
 30
0.0
 40
3.0
 41
37.0
 71
     1
 72
     5
  1

 73
     1
 44
1.0
1001
ACAD
1000
MTEXTBEGIN
1070
    73
1070
     1
1070
    44
1040
1.0
1070
    74
1070
     0
1000
MTEXTEND
  0
MTEXT
  5
59D4
330
1A
100
AcDbEntity
  8
WAKU
100
AcDbMText
 10
344.500000136557
 20
353.9999999103807
 30
0.0
 40
4.0
 41
14.0
 71
     1
 72
     5
  1

 73
     1
 44
1.0
1001
ACAD
1000
MTEXTBEGIN
1070
    73
1070
     1
1070
    44
1040
1.0
1070
    74
1070
     0
1000
MTEXTEND
  0
MTEXT
  5
59D5
330
1A
100
AcDbEntity
  8
WAKU
100
AcDbMText
 10
344.500000136557
 20
347.9999999103807
 30
0.0
 40
4.0
 41
15.0
 71
     1
 72
     5
  1

 73
     1
 44
1.0
1001
ACAD
1000
MTEXTBEGIN
1070
    73
1070
     1
1070
    44
1040
1.0
1070
    74
1070
     0
1000
MTEXTEND
  0
DIMENSION
  5
5AA0
330
1A
100
AcDbEntity
  8
SUNPOU
100
AcDbDimension
  2
*D8
 10
135.0
 20
85.0
 30
0.0
 11
165.0
 21
88.0
 31
0.0
 70
    32
 71
     5
 42
59.99999999999994
  3
STANDARD
100
AcDbAlignedDimension
 13
195.0
 23
102.0
 33
0.0
 14
135.0
 24
102.0
 34
0.0
100
AcDbRotatedDimension
1001
ACAD
1000
DSTYLE
1002
{
1070
    41
1040
3.0
1070
    42
1040
0.5
1070
    43
1040
10.0
1070
    44
1040
0.5
1070
    73
1070
     0
1070
    74
1070
     0
1070
    77
1070
     1
1070
   140
1040
5.0
1070
   141
1040
0.0
1070
   147
1040
0.5
1070
   173
1070
     1
1070
   271
1070
     0
1070
   272
1070
     0
1070
   343
1005
BA
1070
   344
1005
BA
1002
}
  0
DIMENSION
  5
5AA1
330
1A
100
AcDbEntity
  8
SUNPOU
100
AcDbDimension
  2
*D7
 10
205.0
 20
105.0
 30
0.0
 11
202.0
 21
175.0
 31
0.0
 70
    32
 71
     5
 42
140.0
  3
STANDARD
100
AcDbAlignedDimension
 13
165.0
 23
245.0
 33
0.0
 14
165.0
 24
105.0
 34
0.0
 50
270.0
100
AcDbRotatedDimension
1001
ACAD
1000
DSTYLE
1002
{
1070
    41
1040
3.0
1070
    42
1040
0.5
1070
    43
1040
10.0
1070
    44
1040
0.5
1070
    73
1070
     0
1070
    74
1070
     0
1070
    77
1070
     1
1070
   140
1040
5.0
1070
   141
1040
0.0
1070
   147
1040
0.5
1070
   173
1070
     1
1070
   271
1070
     0
1070
   272
1070
     0
1070
   343
1005
BA
1070
   344
1005
BA
1002
}
  0
DIMENSION
  5
5AA2
330
1A
100
AcDbEntity
  8
SUNPOU
100
AcDbDimension
  2
*D6
 10
215.0
 20
100.0
 30
0.0
 11
212.0
 21
175.0
 31
0.0
 70
    32
 71
     5
 42
150.0
  3
STANDARD
100
AcDbAlignedDimension
 13
190.5
 23
250.0
 33
0.0
 14
190.5
 24
100.0
 34
0.0
 50
270.0
100
AcDbRotatedDimension
1001
ACAD
1000
DSTYLE
1002
{
1070
    41
1040
3.0
1070
    42
1040
0.5
1070
    43
1040
10.0
1070
    44
1040
0.5
1070
    73
1070
     0
1070
    74
1070
     0
1070
    77
1070
     1
1070
   140
1040
5.0
1070
   141
1040
0.0
1070
   147
1040
0.5
1070
   173
1070
     1
1070
   271
1070
     0
1070
   272
1070
     0
1070
   343
1005
BA
1070
   344
1005
BA
1002
}
  0
DIMENSION
  5
5B18
330
1A
100
AcDbEntity
  8
SUNPOU
100
AcDbDimension
  2
*D5
 10
39.40000000000005
 20
85.0
 30
0.0
 11
59.39999999999998
 21
88.0
 31
0.0
 70
    32
 71
     5
 42
39.99999999999987
  3
STANDARD
100
AcDbAlignedDimension
 13
79.39999999999992
 23
110.8000000000002
 33
0.0
 14
39.40000000000005
 24
100.0000000000001
 34
0.0
100
AcDbRotatedDimension
1001
ACAD
1000
DSTYLE
1002
{
1070
    41
1040
3.0
1070
    42
1040
0.5
1070
    43
1040
10.0
1070
    44
1040
0.5
1070
    73
1070
     0
1070
    74
1070
     0
1070
    77
1070
     1
1070
   140
1040
5.0
1070
   141
1040
0.0
1070
   147
1040
0.5
1070
   173
1070
     1
1070
   271
1070
     0
1070
   272
1070
     0
1070
   343
1005
BA
1070
   344
1005
BA
1002
}
  0
DIMENSION
  5
5B19
330
1A
100
AcDbEntity
  8
SUNPOU
100
AcDbDimension
  2
*D4
 10
79.39999999999992
 20
85.0
 30
0.0
 11
95.43809523809514
 21
85.0
 31
0.0
 70
   160
 71
     5
 42
4.299999999999982
  3
STANDARD
100
AcDbAlignedDimension
 13
83.6999999999999
 23
122.0399999999999
 33
0.0
 14
79.39999999999992
 24
110.8000000000002
 34
0.0
100
AcDbRotatedDimension
1001
ACAD
1000
DSTYLE
1002
{
1070
    41
1040
3.0
1070
    42
1040
0.5
1070
    43
1040
10.0
1070
    44
1040
0.5
1070
    73
1070
     0
1070
    74
1070
     0
1070
    77
1070
     1
1070
   140
1040
5.0
1070
   141
1040
0.0
1070
   147
1040
0.5
1070
   173
1070
     1
1070
   271
1070
     1
1070
   272
1070
     0
1070
   343
1005
BA
1070
   344
1005
BA
1002
}
  0
MTEXT
  5
5B20
330
1A
100
AcDbEntity
  8
SUNPOU
100
AcDbMText
 10
215.3743410043476
 20
71.0
 30
0.0
 40
5.0
 41
0.0
 71
     6
 72
     1
  1
\A1;(固定用穴)
 73
     1
 44
1.0
1001
ACAD
1000
MTEXTBEGIN
1070
    73
1070
     1
1070
    44
1040
1.0
1070
    74
1070
     0
1000
MTEXTEND
  0
LEADER
  5
5B21
330
1A
100
AcDbEntity
  8
SUNPOU
100
AcDbLeader
  3
STANDARD
 73
     0
 74
     0
 75
     1
 40
5.0
 41
27.42857142857143
 76
     3
 10
166.5
 20
103.5
 30
0.0
 10
183.3957695757763
 20
76.50000000000003
 30
0.0
 10
185.8957695757763
 20
76.50000000000003
 30
0.0
340
5B22
211
1.0
221
-0.0000000000000011
231
0.0
1001
ACAD
1000
DSTYLE
1002
{
1070
   341
1005
BA
1070
    41
1040
2.5
1070
    42
1040
0.5
1070
    43
1040
10.0
1070
    44
1040
0.5
1070
    73
1070
     0
1070
    74
1070
     0
1070
    77
1070
     1
1070
   140
1040
2.0
1070
   141
1040
0.0
1070
   147
1040
0.5
1070
   173
1070
     1
1070
   271
1070
     1
1070
   272
1070
     0
1070
   343
1005
BA
1070
   344
1005
BA
1002
}
  0
MTEXT
  5
5B22
102
{ACAD_REACTORS
330
5B21
102
}
330
1A
100
AcDbEntity
  8
SUNPOU
100
AcDbMText
 10
213.8243410043477
 20
79.5
 30
0.0
 40
5.0
 41
0.0
 71
     6
 72
     1
  1
2-φ4.5
 73
     1
 44
1.0
1001
ACAD
1000
MTEXTBEGIN
1070
    73
1070
     1
1070
    44
1040
1.0
1070
    74
1070
     0
1000
MTEXTEND
  0
MTEXT
  5
5EAD
330
1A
100
AcDbEntity
  8
SUNPOU
100
AcDbMText
 10
133.9999999999999
 20
149.855
 30
0.0
 40
4.0
 41
0.0
 71
     6
 72
     1
  1
ケーブル引き出し方向
 73
     1
 44
1.0
1001
ACAD
1000
MTEXTBEGIN
1070
    73
1070
     1
1070
    44
1040
1.0
1070
    74
1070
     0
1000
MTEXTEND
  0
LINE
  5
5EAE
330
1A
100
AcDbEntity
  8
0
100
AcDbLine
 10
126.4333336117122
 20
155.855
 30
0.0
 11
133.9333336117122
 21
155.855
 31
0.0
  0
LINE
  5
5EAF
330
1A
100
AcDbEntity
  8
0
100
AcDbLine
 10
126.4333336117122
 20
159.855
 30
0.0
 11
133.9333336117122
 21
159.855
 31
0.0
  0
LINE
  5
5EB0
330
1A
100
AcDbEntity
  8
0
100
AcDbLine
 10
133.9333336117122
 20
159.855
 30
0.0
 11
133.9333336117122
 21
155.855
 31
0.0
  0
LWPOLYLINE
  5
5EB1
330
1A
100
AcDbEntity
  8
0
100
AcDbPolyline
 90
        5
 70
     0
 43
0.0
 10
126.4333336117122
 20
159.855
 10
126.4333336117122
 20
162.1851270189222
 10
118.9333336117122
 20
157.855
 10
126.4333336117122
 20
153.5248729810778
 10
126.4333336117122
 20
155.855
  0
TEXT
  5
5EB4
330
1A
100
AcDbEntity
  8
WAKU
100
AcDbText
 10
248.0
 20
17.5
 30
0.0
 40
3.0
  1
大野
100
AcDbText
  0
TEXT
  5
5EB5
330
1A
100
AcDbEntity
  8
WAKU
100
AcDbText
 10
234.0
 20
18.0
 30
0.0
 40
1.8
  1
06.06.26
 41
0.9
100
AcDbText
  0
TEXT
  5
5F26
330
1A
100
AcDbEntity
  8
WAKU
100
AcDbText
 10
301.0
 20
14.0
 30
0.0
 40
2.0
  1
08.03.14
100
AcDbText
  0
TEXT
  5
5F27
330
1A
100
AcDbEntity
  8
WAKU
100
AcDbText
 10
303.0
 20
19.0
 30
0.0
 40
4.0
  1
横山
100
AcDbText
  0
TEXT
  5
5F28
330
1A
100
AcDbEntity
  8
WAKU
100
AcDbText
 10
331.0
 20
14.0
 30
0.0
 40
2.0
  1
08.03.14
100
AcDbText
  0
TEXT
  5
5F29
330
1A
100
AcDbEntity
  8
WAKU
100
AcDbText
 10
333.0
 20
19.0
 30
0.0
 40
4.0
  1
串田
100
AcDbText
  0
ARC
  5
63D6
330
1A
100
AcDbEntity
  8
KAGESEN
100
AcDbCircle
 10
193.0
 20
102.0
 30
0.0
 40
2.0
100
AcDbArc
 50
270.0
 51
0.0
  0
LINE
  5
63D7
330
1A
100
AcDbEntity
  8
KAGESEN
100
AcDbLine
 10
193.0
 20
100.0
 30
0.0
 11
167.5
 21
99.99999999999994
 31
0.0
  0
LINE
  5
63D8
330
1A
100
AcDbEntity
  8
KAGESEN
100
AcDbLine
 10
137.0
 20
99.99999999999994
 30
0.0
 11
162.5
 21
99.99999999999994
 31
0.0
  0
ARC
  5
63D9
330
1A
100
AcDbEntity
  8
KAGESEN
100
AcDbCircle
 10
137.0
 20
102.0
 30
0.0
 40
2.0
100
AcDbArc
 50
180.0
 51
270.0
  0
LINE
  5
63DA
330
1A
100
AcDbEntity
  8
0
100
AcDbLine
 10
136.1000000000001
 20
189.09
 30
0.0
 11
136.8999999999999
 21
189.09
 31
0.0
  0
LINE
  5
63DB
330
1A
100
AcDbEntity
  8
0
100
AcDbLine
 10
136.1
 20
121.54
 30
0.0
 11
136.9000000000001
 21
121.54
 31
0.0
  0
LINE
  5
63DC
330
1A
100
AcDbEntity
  8
0
100
AcDbLine
 10
156.1
 20
121.54
 30
0.0
 11
135.0
 21
121.54
 31
0.0
  0
LINE
  5
63DD
330
1A
100
AcDbEntity
  8
0
100
AcDbLine
 10
156.1
 20
121.54
 30
0.0
 11
156.1
 21
189.09
 31
0.0
  0
LINE
  5
63DE
330
1A
100
AcDbEntity
  8
0
100
AcDbLine
 10
156.1
 20
189.09
 30
0.0
 11
135.0
 21
189.09
 31
0.0
  0
LINE
  5
63DF
330
1A
100
AcDbEntity
  8
0
100
AcDbLine
 10
137.1
 20
121.54
 30
0.0
 11
137.0999999999999
 21
122.0400000000001
 31
0.0
  0
INSERT
  5
63E0
330
1A
100
AcDbEntity
  8
0
100
AcDbBlockReference
  2
F2069A-16P-1
 10
136.1000000000001
 20
155.315
 30
0.0
 50
270.0
  0
LINE
  5
63E1
330
1A
100
AcDbEntity
  8
0
100
AcDbLine
 10
137.0
 20
249.9999999999999
 30
0.0
 11
165.0
 21
249.9999999999999
 31
0.0
  0
LINE
  5
63E2
330
1A
100
AcDbEntity
  8
0
100
AcDbLine
 10
165.0
 20
240.0
 30
0.0
 11
135.0
 21
240.0
 31
0.0
  0
LINE
  5
63E3
330
1A
100
AcDbEntity
  8
0
100
AcDbLine
 10
135.0
 20
189.09
 30
0.0
 11
135.0
 21
248.0
 31
0.0
  0
ARC
  5
63E4
330
1A
100
AcDbEntity
  8
0
100
AcDbCircle
 10
137.0
 20
248.0
 30
0.0
 40
2.0
100
AcDbArc
 50
90.0
 51
180.0
  0
ARC
  5
63E5
330
1A
100
AcDbEntity
  8
0
100
AcDbCircle
 10
137.0
 20
102.0
 30
0.0
 40
2.0
100
AcDbArc
 50
180.0
 51
270.0
  0
LINE
  5
63E6
330
1A
100
AcDbEntity
  8
0
100
AcDbLine
 10
136.1000000000001
 20
189.09
 30
0.0
 11
136.1
 21
121.54
 31
0.0
  0
LINE
  5
63E7
330
1A
100
AcDbEntity
  8
0
100
AcDbLine
 10
136.9000000000001
 20
122.0400000000001
 30
0.0
 11
136.9000000000001
 21
121.54
 31
0.0
  0
LINE
  5
63E8
330
1A
100
AcDbEntity
  8
0
100
AcDbLine
 10
135.0000000000001
 20
121.54
 30
0.0
 11
135.0
 21
101.9999999999999
 31
0.0
  0
LINE
  5
63E9
330
1A
100
AcDbEntity
  8
0
100
AcDbLine
 10
165.0
 20
110.0
 30
0.0
 11
135.0
 21
109.9999999999999
 31
0.0
  0
LINE
  5
63EA
330
1A
100
AcDbEntity
  8
0
100
AcDbLine
 10
137.0
 20
99.99999999999994
 30
0.0
 11
165.0
 21
99.99999999999994
 31
0.0
  0
LINE
  5
63EB
330
1A
100
AcDbEntity
  8
0
100
AcDbLine
 10
193.0
 20
100.0
 30
0.0
 11
165.0
 21
99.99999999999994
 31
0.0
  0
LINE
  5
63EC
330
1A
100
AcDbEntity
  8
0
100
AcDbLine
 10
165.0
 20
110.0
 30
0.0
 11
194.9999999999999
 21
110.0
 31
0.0
  0
LINE
  5
63ED
330
1A
100
AcDbEntity
  8
0
100
AcDbLine
 10
195.0
 20
175.0
 30
0.0
 11
195.0
 21
102.0
 31
0.0
  0
ARC
  5
63EE
330
1A
100
AcDbEntity
  8
0
100
AcDbCircle
 10
193.0
 20
102.0
 30
0.0
 40
2.0
100
AcDbArc
 50
270.0
 51
0.0
  0
CIRCLE
  5
63EF
330
1A
100
AcDbEntity
  8
0
100
AcDbCircle
 10
165.0
 20
105.0
 30
0.0
 40
2.25
  0
CIRCLE
  5
63F0
330
1A
100
AcDbEntity
  8
0
100
AcDbCircle
 10
165.0
 20
245.0
 30
0.0
 40
2.25
  0
ARC
  5
63F1
330
1A
100
AcDbEntity
  8
0
100
AcDbCircle
 10
193.0
 20
248.0
 30
0.0
 40
2.0
100
AcDbArc
 50
0.0
 51
90.0
  0
LINE
  5
63F2
330
1A
100
AcDbEntity
  8
0
100
AcDbLine
 10
195.0
 20
175.0
 30
0.0
 11
195.0
 21
248.0
 31
0.0
  0
LINE
  5
63F3
330
1A
100
AcDbEntity
  8
0
100
AcDbLine
 10
165.0
 20
239.9999999999998
 30
0.0
 11
194.9999999999999
 21
240.0
 31
0.0
  0
LINE
  5
63F4
330
1A
100
AcDbEntity
  8
0
100
AcDbLine
 10
193.0
 20
250.0
 30
0.0
 11
165.0
 21
250.0
 31
0.0
  0
TEXT
  5
63F5
330
1A
100
AcDbEntity
  8
0
100
AcDbText
 10
161.047619047619
 20
148.6
 30
0.0
 40
2.0
  1
5
 72
     4
 11
162.0
 21
149.6
 31
0.0
100
AcDbText
  0
TEXT
  5
63F6
330
1A
100
AcDbEntity
  8
0
100
AcDbText
 10
161.0
 20
140.98
 30
0.0
 40
2.0
  1
6
 72
     4
 11
162.0
 21
141.98
 31
0.0
100
AcDbText
  0
TEXT
  5
63F7
330
1A
100
AcDbEntity
  8
0
100
AcDbText
 10
161.047619047619
 20
133.36
 30
0.0
 40
2.0
  1
7
 72
     4
 11
162.0
 21
134.36
 31
0.0
100
AcDbText
  0
TEXT
  5
63F8
330
1A
100
AcDbEntity
  8
0
100
AcDbText
 10
161.047619047619
 20
125.74
 30
0.0
 40
2.0
  1
8
 72
     4
 11
162.0
 21
126.74
 31
0.0
100
AcDbText
  0
TEXT
  5
63F9
330
1A
100
AcDbEntity
  8
0
100
AcDbText
 10
184.9523809523809
 20
152.4099999999999
 30
0.0
 40
2.0
  1
13
 72
     4
 11
186.9999999999999
 21
153.41
 31
0.0
100
AcDbText
  0
TEXT
  5
63FA
330
1A
100
AcDbEntity
  8
0
100
AcDbText
 10
184.9047619047618
 20
144.7899999999999
 30
0.0
 40
2.0
  1
14
 72
     4
 11
186.9999999999999
 21
145.7899999999999
 31
0.0
100
AcDbText
  0
TEXT
  5
63FB
330
1A
100
AcDbEntity
  8
0
100
AcDbText
 10
184.9523809523809
 20
129.5499999999999
 30
0.0
 40
2.0
  1
16
 72
     4
 11
186.9999999999999
 21
130.5499999999999
 31
0.0
100
AcDbText
  0
TEXT
  5
63FC
330
1A
100
AcDbEntity
  8
0
100
AcDbText
 10
184.9523809523809
 20
137.1699999999999
 30
0.0
 40
2.0
  1
15
 72
     4
 11
186.9999999999999
 21
138.1699999999999
 31
0.0
100
AcDbText
  0
TEXT
  5
63FD
330
1A
100
AcDbEntity
  8
0
100
AcDbText
 10
185.2380952380952
 20
167.65
 30
0.0
 40
2.0
  1
11
 72
     4
 11
186.9999999999999
 21
168.65
 31
0.0
100
AcDbText
  0
TEXT
  5
63FE
330
1A
100
AcDbEntity
  8
0
100
AcDbText
 10
161.047619047619
 20
163.84
 30
0.0
 40
2.0
  1
3
 72
     4
 11
162.0
 21
164.84
 31
0.0
100
AcDbText
  0
TEXT
  5
63FF
330
1A
100
AcDbEntity
  8
0
100
AcDbText
 10
161.0
 20
156.22
 30
0.0
 40
2.0
  1
4
 72
     4
 11
162.0
 21
157.22
 31
0.0
100
AcDbText
  0
TEXT
  5
6400
330
1A
100
AcDbEntity
  8
0
100
AcDbText
 10
184.9523809523809
 20
160.03
 30
0.0
 40
2.0
  1
12
 72
     4
 11
186.9999999999999
 21
161.03
 31
0.0
100
AcDbText
  0
TEXT
  5
6401
330
1A
100
AcDbEntity
  8
0
100
AcDbText
 10
161.047619047619
 20
171.46
 30
0.0
 40
2.0
  1
2
 72
     4
 11
162.0
 21
172.46
 31
0.0
100
AcDbText
  0
TEXT
  5
6402
330
1A
100
AcDbEntity
  8
0
100
AcDbText
 10
184.9523809523809
 20
175.27
 30
0.0
 40
2.0
  1
10
 72
     4
 11
186.9999999999999
 21
176.27
 31
0.0
100
AcDbText
  0
LINE
  5
6403
330
1A
100
AcDbEntity
  8
0
100
AcDbLine
 10
164.0
 20
187.7
 30
0.0
 11
184.9999999999999
 21
187.7
 31
0.0
  0
LINE
  5
6404
330
1A
100
AcDbEntity
  8
0
100
AcDbLine
 10
174.9999999999999
 20
180.08
 30
0.0
 11
184.9999999999999
 21
180.08
 31
0.0
  0
LINE
  5
6405
330
1A
100
AcDbEntity
  8
0
100
AcDbLine
 10
174.9999999999999
 20
172.46
 30
0.0
 11
184.9999999999999
 21
172.46
 31
0.0
  0
LINE
  5
6406
330
1A
100
AcDbEntity
  8
0
100
AcDbLine
 10
174.9999999999999
 20
149.6
 30
0.0
 11
184.9999999999999
 21
149.6
 31
0.0
  0
LINE
  5
6407
330
1A
100
AcDbEntity
  8
0
100
AcDbLine
 10
174.9999999999999
 20
157.22
 30
0.0
 11
184.9999999999999
 21
157.22
 31
0.0
  0
LINE
  5
6408
330
1A
100
AcDbEntity
  8
0
100
AcDbLine
 10
174.9999999999999
 20
164.84
 30
0.0
 11
184.9999999999999
 21
164.84
 31
0.0
  0
LINE
  5
6409
330
1A
100
AcDbEntity
  8
0
100
AcDbLine
 10
174.9999999999999
 20
126.74
 30
0.0
 11
184.9999999999999
 21
126.74
 31
0.0
  0
LINE
  5
640A
330
1A
100
AcDbEntity
  8
0
100
AcDbLine
 10
174.9999999999999
 20
134.36
 30
0.0
 11
184.9999999999999
 21
134.36
 31
0.0
  0
LINE
  5
640B
330
1A
100
AcDbEntity
  8
0
100
AcDbLine
 10
174.9999999999999
 20
141.98
 30
0.0
 11
184.9999999999999
 21
141.98
 31
0.0
  0
LINE
  5
640C
330
1A
100
AcDbEntity
  8
0
100
AcDbLine
 10
174.9999999999999
 20
126.74
 30
0.0
 11
174.9999999999999
 21
187.7
 31
0.0
  0
LINE
  5
640D
330
1A
100
AcDbEntity
  8
0
100
AcDbLine
 10
184.9999999999999
 20
122.93
 30
0.0
 11
184.9999999999999
 21
187.7
 31
0.0
  0
TEXT
  5
640E
330
1A
100
AcDbEntity
  8
0
100
AcDbText
 10
186.095238095238
 20
182.89
 30
0.0
 40
2.0
  1
9
 72
     4
 11
186.9999999999999
 21
183.89
 31
0.0
100
AcDbText
  0
TEXT
  5
640F
330
1A
100
AcDbEntity
  8
0
100
AcDbText
 10
161.1904761904762
 20
179.08
 30
0.0
 40
2.0
  1
1
 72
     4
 11
162.0
 21
180.08
 31
0.0
100
AcDbText
  0
LINE
  5
6410
330
1A
100
AcDbEntity
  8
0
100
AcDbLine
 10
164.0
 20
161.0300000000001
 30
0.0
 11
174.0
 21
161.0300000000001
 31
0.0
  0
LINE
  5
6411
330
1A
100
AcDbEntity
  8
0
100
AcDbLine
 10
173.9999999999999
 20
122.93
 30
0.0
 11
174.0
 21
183.8900000000001
 31
0.0
  0
LINE
  5
6412
330
1A
100
AcDbEntity
  8
0
100
AcDbLine
 10
164.0
 20
122.93
 30
0.0
 11
164.0
 21
187.7
 31
0.0
  0
LINE
  5
6413
330
1A
100
AcDbEntity
  8
0
100
AcDbLine
 10
164.0
 20
130.55
 30
0.0
 11
174.0
 21
130.55
 31
0.0
  0
LINE
  5
6414
330
1A
100
AcDbEntity
  8
0
100
AcDbLine
 10
164.0
 20
122.93
 30
0.0
 11
184.9999999999999
 21
122.93
 31
0.0
  0
LINE
  5
6415
330
1A
100
AcDbEntity
  8
0
100
AcDbLine
 10
164.0
 20
138.1700000000001
 30
0.0
 11
174.0
 21
138.1700000000001
 31
0.0
  0
LINE
  5
6416
330
1A
100
AcDbEntity
  8
0
100
AcDbLine
 10
164.0
 20
153.4100000000001
 30
0.0
 11
174.0
 21
153.4100000000001
 31
0.0
  0
LINE
  5
6417
330
1A
100
AcDbEntity
  8
0
100
AcDbLine
 10
164.0
 20
145.7900000000001
 30
0.0
 11
174.0
 21
145.7900000000001
 31
0.0
  0
LINE
  5
6418
330
1A
100
AcDbEntity
  8
0
100
AcDbLine
 10
164.0
 20
168.6500000000001
 30
0.0
 11
174.0
 21
168.6500000000001
 31
0.0
  0
LINE
  5
6419
330
1A
100
AcDbEntity
  8
0
100
AcDbLine
 10
164.0
 20
176.2700000000001
 30
0.0
 11
174.0
 21
176.2700000000001
 31
0.0
  0
LINE
  5
641A
330
1A
100
AcDbEntity
  8
0
100
AcDbLine
 10
164.0
 20
183.8900000000001
 30
0.0
 11
174.0
 21
183.8900000000001
 31
0.0
  0
LINE
  5
641B
330
1A
100
AcDbEntity
  8
0
100
AcDbLine
 10
136.9000000000001
 20
122.0400000000001
 30
0.0
 11
136.9000000000001
 21
189.09
 31
0.0
  0
LINE
  5
641C
330
1A
100
AcDbEntity
  8
0
100
AcDbLine
 10
137.0999999999999
 20
188.59
 30
0.0
 11
137.0999999999999
 21
189.09
 31
0.0
  0
TEXT
  5
641D
330
1A
100
AcDbEntity
  8
0
100
AcDbText
 10
138.0
 20
234.0
 30
0.0
 40
3.0
  1
DLS-5033A
 11
138.0
 21
237.0
 31
0.0
100
AcDbText
 73
     3
  0
TEXT
  5
641E
330
1A
100
AcDbEntity
  8
0
100
AcDbText
 10
166.4857142857143
 20
112.5
 30
0.0
 40
3.0
  1
TOYO SOKKI
 72
     2
 11
192.0
 21
112.5
 31
0.0
100
AcDbText
  0
TEXT
  5
641F
330
1A
100
AcDbEntity
  8
0
100
AcDbText
 10
148.252380952381
 20
119.0400000000001
 30
0.0
 40
2.0
  1
16
 72
     1
 11
150.3000000000001
 21
121.0400000000001
 31
0.0
100
AcDbText
 73
     3
  0
TEXT
  5
6420
330
1A
100
AcDbEntity
  8
0
100
AcDbText
 10
140.147619047619
 20
119.0400000000001
 30
0.0
 40
2.0
  1
8
 72
     1
 11
141.1
 21
121.0400000000001
 31
0.0
100
AcDbText
 73
     3
  0
TEXT
  5
6421
330
1A
100
AcDbEntity
  8
0
100
AcDbText
 10
140.2904761904762
 20
189.59
 30
0.0
 40
2.0
  1
1
 72
     1
 11
141.1
 21
189.59
 31
0.0
100
AcDbText
  0
TEXT
  5
6422
330
1A
100
AcDbEntity
  8
0
100
AcDbText
 10
166.0952380952381
 20
148.6
 30
0.0
 40
2.0
  1
SHL
 72
     4
 11
169.0
 21
149.6
 31
0.0
100
AcDbText
  0
TEXT
  5
6423
330
1A
100
AcDbEntity
  8
0
100
AcDbText
 10
168.0
 20
140.98
 30
0.0
 40
2.0
  1
E
 72
     4
 11
169.0
 21
141.98
 31
0.0
100
AcDbText
  0
TEXT
  5
6424
330
1A
100
AcDbEntity
  8
0
100
AcDbText
 10
167.095238095238
 20
125.74
 30
0.0
 40
2.0
  1
0V
 72
     4
 11
168.9999999999999
 21
126.74
 31
0.0
100
AcDbText
  0
TEXT
  5
6425
330
1A
100
AcDbEntity
  8
0
100
AcDbText
 10
164.8571428571428
 20
133.36
 30
0.0
 40
2.0
  1
+24V
 72
     4
 11
169.0
 21
134.36
 31
0.0
100
AcDbText
  0
TEXT
  5
6426
330
1A
100
AcDbEntity
  8
0
100
AcDbText
 10
165.4761904761905
 20
163.84
 30
0.0
 40
2.0
  1
SIG+
 72
     4
 11
169.0
 21
164.84
 31
0.0
100
AcDbText
  0
TEXT
  5
6427
330
1A
100
AcDbEntity
  8
0
100
AcDbText
 10
165.4761904761905
 20
156.22
 30
0.0
 40
2.0
  1
SIG-
 72
     4
 11
169.0
 21
157.22
 31
0.0
100
AcDbText
  0
TEXT
  5
6428
330
1A
100
AcDbEntity
  8
0
100
AcDbText
 10
177.3809523809522
 20
182.8900000000001
 30
0.0
 40
2.0
  1
SP1
 72
     4
 11
179.9999999999999
 21
183.8900000000001
 31
0.0
100
AcDbText
  0
TEXT
  5
6429
330
1A
100
AcDbEntity
  8
0
100
AcDbText
 10
177.095238095238
 20
175.2700000000001
 30
0.0
 40
2.0
  1
SP2
 72
     4
 11
179.9999999999999
 21
176.2700000000001
 31
0.0
100
AcDbText
  0
TEXT
  5
642A
330
1A
100
AcDbEntity
  8
0
100
AcDbText
 10
177.095238095238
 20
167.6500000000001
 30
0.0
 40
2.0
  1
SP3
 72
     4
 11
179.9999999999999
 21
168.6500000000001
 31
0.0
100
AcDbText
  0
TEXT
  5
642B
330
1A
100
AcDbEntity
  8
0
100
AcDbText
 10
176.3428571428571
 20
144.7900000000001
 30
0.0
 40
2.0
  1
E.COM
 41
0.8
 72
     4
 11
179.9999999999999
 21
145.7900000000001
 31
0.0
100
AcDbText
  0
TEXT
  5
642C
330
1A
100
AcDbEntity
  8
0
100
AcDbText
 10
176.7619047619047
 20
137.1700000000001
 30
0.0
 40
2.0
  1
OUT+
 41
0.8
 72
     4
 11
179.9999999999999
 21
138.1700000000001
 31
0.0
100
AcDbText
  0
TEXT
  5
642D
330
1A
100
AcDbEntity
  8
0
100
AcDbText
 10
176.7619047619047
 20
129.55
 30
0.0
 40
2.0
  1
OUT-
 41
0.8
 72
     4
 11
179.9999999999999
 21
130.55
 31
0.0
100
AcDbText
  0
TEXT
  5
642E
330
1A
100
AcDbEntity
  8
0
100
AcDbText
 10
164.9047619047619
 20
179.08
 30
0.0
 40
2.0
  1
EXC+
 72
     4
 11
169.0
 21
180.08
 31
0.0
100
AcDbText
  0
TEXT
  5
642F
330
1A
100
AcDbEntity
  8
0
100
AcDbText
 10
164.9047619047619
 20
171.46
 30
0.0
 40
2.0
  1
EXC-
 72
     4
 11
169.0
 21
172.46
 31
0.0
100
AcDbText
  0
TEXT
  5
6430
330
1A
100
AcDbEntity
  8
0
100
AcDbText
 10
177.095238095238
 20
152.4100000000001
 30
0.0
 40
2.0
  1
SP5
 72
     4
 11
179.9999999999999
 21
153.4100000000001
 31
0.0
100
AcDbText
  0
TEXT
  5
6431
330
1A
100
AcDbEntity
  8
0
100
AcDbText
 10
177.047619047619
 20
160.0300000000001
 30
0.0
 40
2.0
  1
SP4
 72
     4
 11
179.9999999999999
 21
161.0300000000001
 31
0.0
100
AcDbText
  0
CIRCLE
  5
6432
330
1A
100
AcDbEntity
  8
0
100
AcDbCircle
 10
145.9500000000001
 20
201.7500000000002
 30
0.0
 40
2.0
  0
CIRCLE
  5
6433
330
1A
100
AcDbEntity
  8
0
100
AcDbCircle
 10
154.8400000000001
 20
201.7500000000002
 30
0.0
 40
2.0
  0
CIRCLE
  5
6434
330
1A
100
AcDbEntity
  8
0
100
AcDbCircle
 10
172.6200000000001
 20
201.7500000000002
 30
0.0
 40
2.0
  0
CIRCLE
  5
6435
330
1A
100
AcDbEntity
  8
0
100
AcDbCircle
 10
163.73
 20
201.7500000000002
 30
0.0
 40
2.0
  0
CIRCLE
  5
6436
330
1A
100
AcDbEntity
  8
0
100
AcDbCircle
 10
181.5100000000001
 20
201.7500000000002
 30
0.0
 40
2.0
  0
LWPOLYLINE
  5
6437
330
1A
100
AcDbEntity
  8
0
100
AcDbPolyline
 90
        4
 70
     0
 43
0.0
 10
153.8400000000001
 20
199.2500000000001
 10
153.8400000000001
 20
196.2500000000001
 10
156.3400000000001
 20
197.7500000000001
 10
153.8400000000001
 20
199.2500000000001
  0
LWPOLYLINE
  5
6438
330
1A
100
AcDbEntity
  8
0
100
AcDbPolyline
 90
        4
 70
     0
 43
0.0
 10
163.73
 20
198.7500000000002
 10
162.23
 20
196.2500000000001
 10
165.23
 20
196.2500000000001
 10
163.73
 20
198.7500000000002
  0
TEXT
  5
6439
330
1A
100
AcDbEntity
  8
0
100
AcDbText
 10
170.2961904761906
 20
196.7500000000002
 30
0.0
 40
2.0
  1
ESC
 41
0.8
 72
     1
 11
172.6200000000001
 21
196.7500000000002
 31
0.0
100
AcDbText
  0
LINE
  5
643A
330
1A
100
AcDbEntity
  8
0
100
AcDbLine
 10
142.9500000000001
 20
195.7500000000002
 30
0.0
 11
142.4500000000001
 21
196.2500000000001
 31
0.0
  0
LINE
  5
643B
330
1A
100
AcDbEntity
  8
0
100
AcDbLine
 10
148.9500000000001
 20
195.7500000000002
 30
0.0
 11
149.4500000000001
 21
196.2500000000001
 31
0.0
  0
LINE
  5
643C
330
1A
100
AcDbEntity
  8
0
100
AcDbLine
 10
148.9500000000001
 20
195.7500000000003
 30
0.0
 11
142.9500000000001
 21
195.7500000000002
 31
0.0
  0
LINE
  5
643D
330
1A
100
AcDbEntity
  8
0
100
AcDbLine
 10
149.4500000000001
 20
204.2500000000002
 30
0.0
 11
149.4500000000001
 21
196.2500000000001
 31
0.0
  0
LINE
  5
643E
330
1A
100
AcDbEntity
  8
0
100
AcDbLine
 10
142.4500000000001
 20
204.2500000000003
 30
0.0
 11
142.45
 21
196.2500000000001
 31
0.0
  0
LINE
  5
643F
330
1A
100
AcDbEntity
  8
0
100
AcDbLine
 10
142.4500000000001
 20
204.2500000000003
 30
0.0
 11
142.9500000000001
 21
204.7500000000003
 31
0.0
  0
LINE
  5
6440
330
1A
100
AcDbEntity
  8
0
100
AcDbLine
 10
149.4500000000001
 20
204.2500000000002
 30
0.0
 11
148.9500000000001
 21
204.7500000000002
 31
0.0
  0
LINE
  5
6441
330
1A
100
AcDbEntity
  8
0
100
AcDbLine
 10
148.9500000000001
 20
204.7500000000003
 30
0.0
 11
142.9500000000001
 21
204.7500000000003
 31
0.0
  0
LINE
  5
6442
330
1A
100
AcDbEntity
  8
0
100
AcDbLine
 10
157.8400000000001
 20
204.7500000000003
 30
0.0
 11
151.8400000000001
 21
204.7500000000003
 31
0.0
  0
LINE
  5
6443
330
1A
100
AcDbEntity
  8
0
100
AcDbLine
 10
158.3400000000001
 20
204.2500000000002
 30
0.0
 11
157.8400000000001
 21
204.7500000000002
 31
0.0
  0
LINE
  5
6444
330
1A
100
AcDbEntity
  8
0
100
AcDbLine
 10
151.3400000000001
 20
204.2500000000003
 30
0.0
 11
151.8400000000001
 21
204.7500000000003
 31
0.0
  0
LINE
  5
6445
330
1A
100
AcDbEntity
  8
0
100
AcDbLine
 10
151.3400000000001
 20
204.2500000000003
 30
0.0
 11
151.3400000000001
 21
196.2500000000001
 31
0.0
  0
LINE
  5
6446
330
1A
100
AcDbEntity
  8
0
100
AcDbLine
 10
158.3400000000001
 20
204.2500000000002
 30
0.0
 11
158.3400000000001
 21
196.2500000000001
 31
0.0
  0
LINE
  5
6447
330
1A
100
AcDbEntity
  8
0
100
AcDbLine
 10
157.8400000000001
 20
195.7500000000003
 30
0.0
 11
151.8400000000001
 21
195.7500000000002
 31
0.0
  0
LINE
  5
6448
330
1A
100
AcDbEntity
  8
0
100
AcDbLine
 10
157.8400000000001
 20
195.7500000000002
 30
0.0
 11
158.3400000000001
 21
196.2500000000001
 31
0.0
  0
LINE
  5
6449
330
1A
100
AcDbEntity
  8
0
100
AcDbLine
 10
151.8400000000001
 20
195.7500000000002
 30
0.0
 11
151.3400000000001
 21
196.2500000000001
 31
0.0
  0
LINE
  5
644A
330
1A
100
AcDbEntity
  8
0
100
AcDbLine
 10
176.1200000000001
 20
204.2500000000002
 30
0.0
 11
176.1200000000001
 21
196.2500000000001
 31
0.0
  0
LINE
  5
644B
330
1A
100
AcDbEntity
  8
0
100
AcDbLine
 10
169.1200000000001
 20
204.2500000000003
 30
0.0
 11
169.1200000000001
 21
196.2500000000001
 31
0.0
  0
LINE
  5
644C
330
1A
100
AcDbEntity
  8
0
100
AcDbLine
 10
169.1200000000001
 20
204.2500000000003
 30
0.0
 11
169.6200000000001
 21
204.7500000000003
 31
0.0
  0
LINE
  5
644D
330
1A
100
AcDbEntity
  8
0
100
AcDbLine
 10
176.1200000000001
 20
204.2500000000002
 30
0.0
 11
175.6200000000001
 21
204.7500000000002
 31
0.0
  0
LINE
  5
644E
330
1A
100
AcDbEntity
  8
0
100
AcDbLine
 10
175.6200000000001
 20
204.7500000000003
 30
0.0
 11
169.6200000000001
 21
204.7500000000003
 31
0.0
  0
LINE
  5
644F
330
1A
100
AcDbEntity
  8
0
100
AcDbLine
 10
166.73
 20
204.7500000000003
 30
0.0
 11
160.73
 21
204.7500000000003
 31
0.0
  0
LINE
  5
6450
330
1A
100
AcDbEntity
  8
0
100
AcDbLine
 10
167.23
 20
204.2500000000002
 30
0.0
 11
166.73
 21
204.7500000000002
 31
0.0
  0
LINE
  5
6451
330
1A
100
AcDbEntity
  8
0
100
AcDbLine
 10
160.23
 20
204.2500000000003
 30
0.0
 11
160.73
 21
204.7500000000003
 31
0.0
  0
LINE
  5
6452
330
1A
100
AcDbEntity
  8
0
100
AcDbLine
 10
160.23
 20
204.2500000000003
 30
0.0
 11
160.23
 21
196.2500000000001
 31
0.0
  0
LINE
  5
6453
330
1A
100
AcDbEntity
  8
0
100
AcDbLine
 10
167.23
 20
204.2500000000002
 30
0.0
 11
167.23
 21
196.2500000000001
 31
0.0
  0
LINE
  5
6454
330
1A
100
AcDbEntity
  8
0
100
AcDbLine
 10
169.6200000000001
 20
195.7500000000002
 30
0.0
 11
169.1200000000001
 21
196.2500000000001
 31
0.0
  0
LINE
  5
6455
330
1A
100
AcDbEntity
  8
0
100
AcDbLine
 10
175.6200000000001
 20
195.7500000000002
 30
0.0
 11
176.1200000000001
 21
196.2500000000001
 31
0.0
  0
LINE
  5
6456
330
1A
100
AcDbEntity
  8
0
100
AcDbLine
 10
175.6200000000001
 20
195.7500000000003
 30
0.0
 11
169.6200000000001
 21
195.7500000000002
 31
0.0
  0
LINE
  5
6457
330
1A
100
AcDbEntity
  8
0
100
AcDbLine
 10
166.73
 20
195.7500000000003
 30
0.0
 11
160.73
 21
195.7500000000002
 31
0.0
  0
LINE
  5
6458
330
1A
100
AcDbEntity
  8
0
100
AcDbLine
 10
166.73
 20
195.7500000000002
 30
0.0
 11
167.23
 21
196.2500000000001
 31
0.0
  0
LINE
  5
6459
330
1A
100
AcDbEntity
  8
0
100
AcDbLine
 10
160.73
 20
195.7500000000002
 30
0.0
 11
160.23
 21
196.2500000000001
 31
0.0
  0
LINE
  5
645A
330
1A
100
AcDbEntity
  8
0
100
AcDbLine
 10
184.51
 20
204.7500000000003
 30
0.0
 11
178.5100000000001
 21
204.7500000000003
 31
0.0
  0
LINE
  5
645B
330
1A
100
AcDbEntity
  8
0
100
AcDbLine
 10
185.0100000000001
 20
204.2500000000002
 30
0.0
 11
184.5100000000001
 21
204.7500000000002
 31
0.0
  0
LINE
  5
645C
330
1A
100
AcDbEntity
  8
0
100
AcDbLine
 10
185.01
 20
204.2500000000002
 30
0.0
 11
185.0100000000001
 21
196.2500000000001
 31
0.0
  0
LINE
  5
645D
330
1A
100
AcDbEntity
  8
0
100
AcDbLine
 10
178.0100000000001
 20
204.2500000000003
 30
0.0
 11
178.5100000000001
 21
204.7500000000003
 31
0.0
  0
LINE
  5
645E
330
1A
100
AcDbEntity
  8
0
100
AcDbLine
 10
178.0100000000001
 20
204.2500000000003
 30
0.0
 11
178.01
 21
196.2500000000001
 31
0.0
  0
LINE
  5
645F
330
1A
100
AcDbEntity
  8
0
100
AcDbLine
 10
184.5100000000001
 20
195.7500000000003
 30
0.0
 11
178.5100000000001
 21
195.7500000000002
 31
0.0
  0
LINE
  5
6460
330
1A
100
AcDbEntity
  8
0
100
AcDbLine
 10
184.5100000000001
 20
195.7500000000002
 30
0.0
 11
185.0100000000001
 21
196.2500000000001
 31
0.0
  0
LINE
  5
6461
330
1A
100
AcDbEntity
  8
0
100
AcDbLine
 10
178.5100000000001
 20
195.7500000000002
 30
0.0
 11
178.0100000000001
 21
196.2500000000001
 31
0.0
  0
LWPOLYLINE
  5
6462
330
1A
100
AcDbEntity
  8
0
100
AcDbPolyline
 90
       11
 70
     0
 43
0.0
 10
180.0100000000002
 20
197.7500000000001
 10
181.0100000000002
 20
198.7500000000002
 10
181.0100000000002
 20
198.2500000000001
 10
182.0100000000002
 20
198.2500000000001
 10
182.0100000000002
 20
199.2500000000001
 10
183.0100000000001
 20
199.2500000000001
 10
183.0100000000001
 20
197.7500000000001
 42
-0.4142135623730951
 10
182.5100000000001
 20
197.2500000000001
 10
181.0100000000002
 20
197.2500000000001
 10
181.0100000000002
 20
196.7500000000002
 10
180.0100000000002
 20
197.7500000000001
  0
LINE
  5
6463
330
1A
100
AcDbEntity
  8
0
100
AcDbLine
 10
146.6500000000002
 20
196.7500000000002
 30
0.0
 11
147.2500000000001
 21
196.7500000000002
 31
0.0
  0
ELLIPSE
  5
6464
330
1A
100
AcDbEntity
  8
0
100
AcDbEllipse
 10
145.9500000000001
 20
197.7500000000001
 30
0.0
 11
-1.5
 21
0.0000000000000001
 31
0.0
210
0.0
220
0.0
230
1.0
 40
0.7453559924999299
 41
2.031964065796924
 42
7.392813894972848
  0
LINE
  5
6465
330
1A
100
AcDbEntity
  8
0
100
AcDbLine
 10
146.6500000000002
 20
196.7500000000002
 30
0.0
 11
146.9500000000001
 21
197.3500000000002
 31
0.0
  0
TEXT
  5
6466
330
1A
100
AcDbEntity
  8
0
100
AcDbText
 10
165.8576190476187
 20
228.4100000000001
 30
0.0
 40
2.0
  1
SP4
 72
     1
 11
168.8099999999996
 21
228.4100000000001
 31
0.0
100
AcDbText
  0
TEXT
  5
6467
330
1A
100
AcDbEntity
  8
0
100
AcDbText
 10
173.5252380952378
 20
228.4100000000001
 30
0.0
 40
2.0
  1
SP5
 72
     1
 11
176.4299999999997
 21
228.4100000000001
 31
0.0
100
AcDbText
  0
TEXT
  5
6468
330
1A
100
AcDbEntity
  8
0
100
AcDbText
 10
158.2852380952378
 20
228.4100000000001
 30
0.0
 40
2.0
  1
SP3
 72
     1
 11
161.1899999999997
 21
228.4100000000001
 31
0.0
100
AcDbText
  0
TEXT
  5
6469
330
1A
100
AcDbEntity
  8
0
100
AcDbText
 10
150.6652380952377
 20
228.4100000000001
 30
0.0
 40
2.0
  1
SP2
 72
     1
 11
153.5699999999996
 21
228.4100000000001
 31
0.0
100
AcDbText
  0
TEXT
  5
646A
330
1A
100
AcDbEntity
  8
0
100
AcDbText
 10
143.3309523809522
 20
228.4100000000001
 30
0.0
 40
2.0
  1
SP1
 72
     1
 11
145.9499999999998
 21
228.4100000000001
 31
0.0
100
AcDbText
  0
LINE
  5
646B
330
1A
100
AcDbEntity
  8
SUNPOU
100
AcDbLine
 10
193.5000000000001
 20
201.7300000000001
 30
0.0
 11
193.5000000000001
 21
207.7300000000001
 31
0.0
  0
TEXT
  5
646C
330
1A
100
AcDbEntity
  8
0
100
AcDbText
 10
187.4428571428572
 20
203.2300000000001
 30
0.0
 40
3.0
  1
kg
 41
0.8
 72
     1
 11
189.5000000000001
 21
204.7300000000001
 31
0.0
100
AcDbText
 73
     2
  0
LINE
  5
646D
330
1A
100
AcDbEntity
  8
SUNPOU
100
AcDbLine
 10
193.5000000000001
 20
207.7300000000001
 30
0.0
 11
185.5000000000001
 21
207.7300000000001
 31
0.0
  0
LINE
  5
646E
330
1A
100
AcDbEntity
  8
SUNPOU
100
AcDbLine
 10
185.5000000000001
 20
201.7300000000001
 30
0.0
 11
193.5000000000001
 21
201.7300000000001
 31
0.0
  0
LINE
  5
646F
330
1A
100
AcDbEntity
  8
SUNPOU
100
AcDbLine
 10
185.5000000000001
 20
207.7300000000001
 30
0.0
 11
185.5000000000001
 21
201.7300000000001
 31
0.0
  0
TEXT
  5
6470
330
1A
100
AcDbEntity
  8
0
100
AcDbText
 10
142.7595238095236
 20
205.4100000000001
 30
0.0
 40
2.0
  1
ITEM
 72
     1
 11
145.9499999999998
 21
207.4100000000001
 31
0.0
100
AcDbText
 73
     3
  0
TEXT
  5
6471
330
1A
100
AcDbEntity
  8
0
100
AcDbText
 10
153.1257142857139
 20
205.4100000000001
 30
0.0
 40
2.0
  1
AZ
 72
     1
 11
154.8399999999997
 21
207.4100000000001
 31
0.0
100
AcDbText
 73
     3
  0
TEXT
  5
6472
330
1A
100
AcDbEntity
  8
0
100
AcDbText
 10
160.5395238095236
 20
205.4100000000001
 30
0.0
 40
2.0
  1
AZ.R
 72
     1
 11
163.7299999999998
 21
207.4100000000001
 31
0.0
100
AcDbText
 73
     3
  0
LINE
  5
647D
330
1A
100
AcDbEntity
  8
0
100
AcDbLine
 10
142.5
 20
208.7300000000001
 30
0.0
 11
187.5000000000001
 21
208.7300000000001
 31
0.0
  0
LINE
  5
647F
330
1A
100
AcDbEntity
  8
0
100
AcDbLine
 10
142.5
 20
227.7300000000001
 30
0.0
 11
187.5
 21
227.73
 31
0.0
  0
LINE
  5
6480
330
1A
100
AcDbEntity
  8
0
100
AcDbLine
 10
142.5
 20
227.7300000000001
 30
0.0
 11
142.5
 21
208.7300000000001
 31
0.0
  0
LINE
  5
6481
330
1A
100
AcDbEntity
  8
0
100
AcDbLine
 10
187.5000000000001
 20
227.7300000000001
 30
0.0
 11
187.5000000000001
 21
208.7300000000001
 31
0.0
  0
TEXT
  5
6482
330
1A
100
AcDbEntity
  8
0
100
AcDbText
 10
182.3357142857139
 20
228.4100000000001
 30
0.0
 40
2.0
  1
AZ
 72
     1
 11
184.0499999999996
 21
228.4100000000001
 31
0.0
100
AcDbText
  0
TEXT
  5
6483
330
1A
100
AcDbEntity
  8
0
100
AcDbText
 10
149.3952380952381
 20
189.5899999999999
 30
0.0
 40
2.0
  1
9
 72
     1
 11
150.3000000000001
 21
189.5899999999999
 31
0.0
100
AcDbText
  0
INSERT
  5
6484
330
1A
100
AcDbEntity
  8
0
100
AcDbBlockReference
  2
UB-SIDE
 10
141.0
 20
240.0
 30
0.0
  0
INSERT
  5
6485
330
1A
100
AcDbEntity
  8
0
100
AcDbBlockReference
  2
UB-SIDE
 10
189.0
 20
240.0
 30
0.0
  0
INSERT
  5
6486
330
1A
100
AcDbEntity
  8
0
100
AcDbBlockReference
  2
UB-SIDE
 10
189.0
 20
110.0
 30
0.0
 50
180.0
  0
INSERT
  5
6487
330
1A
100
AcDbEntity
  8
0
100
AcDbBlockReference
  2
UB-SIDE
 10
140.9999999999999
 20
109.9999999999999
 30
0.0
 50
180.0
  0
LINE
  5
64C0
330
1A
100
AcDbEntity
  8
0
100
AcDbLine
 10
40.20000000000004
 20
250.0
 30
0.0
 11
39.40000000000003
 21
250.0
 31
0.0
  0
LINE
  5
64C1
330
1A
100
AcDbEntity
  8
0
100
AcDbLine
 10
39.40000000000003
 20
250.0
 30
0.0
 11
39.40000000000003
 21
240.0
 31
0.0
  0
LINE
  5
64C2
330
1A
100
AcDbEntity
  8
0
100
AcDbLine
 10
40.20000000000004
 20
250.0
 30
0.0
 11
40.20000000000004
 21
240.0
 31
0.0
  0
ARC
  5
64C3
330
1A
100
AcDbEntity
  8
0
100
AcDbCircle
 10
40.19999999999998
 20
240.0
 30
0.0
 40
0.8
100
AcDbArc
 50
180.0
 51
270.0
  0
LINE
  5
64C4
330
1A
100
AcDbEntity
  8
0
100
AcDbLine
 10
78.59999999999991
 20
239.1999999999999
 30
0.0
 11
40.19999999999998
 21
239.2
 31
0.0
  0
LINE
  5
64C5
330
1A
100
AcDbEntity
  8
0
100
AcDbLine
 10
78.59999999999991
 20
240.0
 30
0.0
 11
40.20000000000004
 21
240.0
 31
0.0
  0
ARC
  5
64C7
330
1A
100
AcDbEntity
  8
0
100
AcDbCircle
 10
40.19999999999998
 20
110.0000000000001
 30
0.0
 40
0.8
100
AcDbArc
 50
90.0
 51
180.0
  0
LINE
  5
64C8
330
1A
100
AcDbEntity
  8
0
100
AcDbLine
 10
40.20000000000004
 20
100.0000000000001
 30
0.0
 11
40.20000000000004
 21
110.0000000000001
 31
0.0
  0
LINE
  5
64C9
330
1A
100
AcDbEntity
  8
0
100
AcDbLine
 10
39.40000000000003
 20
100.0000000000001
 30
0.0
 11
39.40000000000003
 21
110.0000000000001
 31
0.0
  0
LINE
  5
64CA
330
1A
100
AcDbEntity
  8
0
100
AcDbLine
 10
40.20000000000004
 20
100.0000000000001
 30
0.0
 11
39.40000000000003
 21
100.0000000000001
 31
0.0
  0
LINE
  5
64CB
330
1A
100
AcDbEntity
  8
0
100
AcDbLine
 10
78.59999999999991
 20
110.0000000000003
 30
0.0
 11
40.20000000000004
 21
110.0000000000001
 31
0.0
  0
LINE
  5
64CC
330
1A
100
AcDbEntity
  8
0
100
AcDbLine
 10
78.59999999999996
 20
110.8000000000002
 30
0.0
 11
40.19999999999998
 21
110.8000000000002
 31
0.0
  0
ARC
  5
64CE
330
1A
100
AcDbEntity
  8
KAGESEN
100
AcDbCircle
 10
78.59999999999991
 20
110.8000000000002
 30
0.0
 40
0.8
100
AcDbArc
 50
270.0
 51
0.0
  0
LINE
  5
64CF
330
1A
100
AcDbEntity
  8
0
100
AcDbLine
 10
79.39999999999995
 20
121.54
 30
0.0
 11
79.39999999999997
 21
110.8000000000002
 31
0.0
  0
LINE
  5
64D1
330
1A
100
AcDbEntity
  8
0
100
AcDbLine
 10
73.39999999999995
 20
121.54
 30
0.0
 11
73.39999999999995
 21
110.8000000000002
 31
0.0
  0
ARC
  5
64D3
330
1A
100
AcDbEntity
  8
0
100
AcDbCircle
 10
78.59999999999991
 20
239.1999999999999
 30
0.0
 40
0.8
100
AcDbArc
 50
0.0
 51
90.0
  0
LINE
  5
64D4
330
1A
100
AcDbEntity
  8
0
100
AcDbLine
 10
79.39999999999992
 20
189.0900000000001
 30
0.0
 11
79.39999999999997
 21
239.1999999999999
 31
0.0
  0
LINE
  5
64D6
330
1A
100
AcDbEntity
  8
0
100
AcDbLine
 10
73.39999999999995
 20
189.0900000000001
 30
0.0
 11
73.39999999999998
 21
239.1999999999999
 31
0.0
  0
LINE
  5
64D7
330
1A
100
AcDbEntity
  8
0
100
AcDbLine
 10
60.79999999999998
 20
189.0900000000001
 30
0.0
 11
79.39999999999995
 21
189.0900000000001
 31
0.0
  0
LINE
  5
64E4
330
1A
100
AcDbEntity
  8
0
100
AcDbLine
 10
43.59999999999999
 20
238.9999999999999
 30
0.0
 11
43.59999999999994
 21
175.0
 31
0.0
  0
LINE
  5
64E5
330
1A
100
AcDbEntity
  8
0
100
AcDbLine
 10
43.59999999999999
 20
238.9999999999999
 30
0.0
 11
78.40000000000003
 21
238.9999999999999
 31
0.0
  0
LINE
  5
64E9
330
1A
100
AcDbEntity
  8
0
100
AcDbLine
 10
60.79999999999998
 20
189.0900000000001
 30
0.0
 11
60.79999999999998
 21
121.54
 31
0.0
  0
LINE
  5
64EA
330
1A
100
AcDbEntity
  8
0
100
AcDbLine
 10
79.39999999999995
 20
121.54
 30
0.0
 11
60.79999999999998
 21
121.54
 31
0.0
  0
LINE
  5
64EC
330
1A
100
AcDbEntity
  8
0
100
AcDbLine
 10
43.59999999999999
 20
111.0000000000002
 30
0.0
 11
78.40000000000003
 21
111.0000000000002
 31
0.0
  0
LINE
  5
64EE
330
1A
100
AcDbEntity
  8
0
100
AcDbLine
 10
43.59999999999999
 20
111.0000000000002
 30
0.0
 11
43.59999999999994
 21
175.0
 31
0.0
  0
INSERT
  5
65BD
330
1A
100
AcDbEntity
  8
0
100
AcDbBlockReference
  2
TB16P-1
 10
60.99999999999991
 20
122.0399999999999
 30
0.0
  0
INSERT
  5
65C6
330
1A
100
AcDbEntity
  8
0
100
AcDbBlockReference
  2
M3-1
 10
43.59999999999999
 20
233.0
 30
0.0
 50
90.0
  0
INSERT
  5
65CF
330
1A
100
AcDbEntity
  8
0
100
AcDbBlockReference
  2
M3-1
 10
-43.59999999999999
 20
117.0000000000001
 30
0.0
 43
-1.0
 50
270.0
210
0.0
220
0.0
230
-1.0
  0
LINE
  5
65D0
330
1A
100
AcDbEntity
  8
0
100
AcDbLine
 10
51.40000000000004
 20
240.5
 30
0.0
 11
59.40000000000003
 21
240.5
 31
0.0
  0
LINE
  5
65D1
330
1A
100
AcDbEntity
  8
0
100
AcDbLine
 10
51.40000000000004
 20
240.0
 30
0.0
 11
51.40000000000004
 21
240.5
 31
0.0
  0
LINE
  5
65D2
330
1A
100
AcDbEntity
  8
0
100
AcDbLine
 10
59.40000000000003
 20
240.0
 30
0.0
 11
59.40000000000003
 21
240.5
 31
0.0
  0
LINE
  5
65D3
330
1A
100
AcDbEntity
  8
0
100
AcDbLine
 10
59.40000000000003
 20
240.0
 30
0.0
 11
51.40000000000004
 21
240.0
 31
0.0
  0
LINE
  5
65DC
330
1A
100
AcDbEntity
  8
0
100
AcDbLine
 10
58.55000000000001
 20
240.5
 30
0.0
 11
52.25000000000005
 21
240.5
 31
0.0
  0
ARC
  5
65DD
330
1A
100
AcDbEntity
  8
0
100
AcDbCircle
 10
55.40000000000003
 20
234.18612181134
 30
0.0
 40
8.213878188659947
100
AcDbArc
 50
68.31832775930367
 51
111.6816722406963
  0
LINE
  5
65DE
330
1A
100
AcDbEntity
  8
0
100
AcDbLine
 10
52.25000000000005
 20
240.5
 30
0.0
 11
52.36538658283922
 21
241.818874676888
 31
0.0
  0
LINE
  5
65DF
330
1A
100
AcDbEntity
  8
0
100
AcDbLine
 10
58.55000000000007
 20
240.5
 30
0.0
 11
58.4346134171609
 21
241.818874676888
 31
0.0
  0
LINE
  5
65E0
330
1A
100
AcDbEntity
  8
0
100
AcDbLine
 10
58.43626473741631
 20
241.8
 30
0.0
 11
52.36373526258375
 21
241.8
 31
0.0
  0
LINE
  5
65E1
330
1A
100
AcDbEntity
  8
0
100
AcDbLine
 10
59.40000000000001
 20
109.5000000000002
 30
0.0
 11
51.4
 21
109.5000000000002
 31
0.0
  0
LINE
  5
65E2
330
1A
100
AcDbEntity
  8
0
100
AcDbLine
 10
59.40000000000001
 20
110.0000000000002
 30
0.0
 11
59.40000000000001
 21
109.5000000000002
 31
0.0
  0
LINE
  5
65E3
330
1A
100
AcDbEntity
  8
0
100
AcDbLine
 10
51.4
 20
110.0000000000002
 30
0.0
 11
51.4
 21
109.5000000000002
 31
0.0
  0
LINE
  5
65E4
330
1A
100
AcDbEntity
  8
0
100
AcDbLine
 10
51.4
 20
110.0000000000002
 30
0.0
 11
59.40000000000001
 21
110.0000000000002
 31
0.0
  0
LINE
  5
65ED
330
1A
100
AcDbEntity
  8
0
100
AcDbLine
 10
52.25000000000005
 20
109.5000000000002
 30
0.0
 11
58.54999999999998
 21
109.5000000000002
 31
0.0
  0
ARC
  5
65EE
330
1A
100
AcDbEntity
  8
0
100
AcDbCircle
 10
55.4
 20
115.8138781886602
 30
0.0
 40
8.213878188659947
100
AcDbArc
 50
248.3183277593037
 51
291.6816722406963
  0
LINE
  5
65EF
330
1A
100
AcDbEntity
  8
0
100
AcDbLine
 10
58.55000000000001
 20
109.5000000000002
 30
0.0
 11
58.43461341716085
 21
108.1811253231122
 31
0.0
  0
LINE
  5
65F0
330
1A
100
AcDbEntity
  8
0
100
AcDbLine
 10
52.25
 20
109.5000000000002
 30
0.0
 11
52.36538658283913
 21
108.1811253231122
 31
0.0
  0
LINE
  5
65F1
330
1A
100
AcDbEntity
  8
0
100
AcDbLine
 10
52.36373526258373
 20
108.2000000000002
 30
0.0
 11
58.43626473741628
 21
108.2000000000002
 31
0.0
  0
LINE
  5
65F2
330
1A
100
AcDbEntity
  8
0
100
AcDbLine
 10
75.09999999999994
 20
189.0900000000001
 30
0.0
 11
75.09999999999994
 21
188.5899999999999
 31
0.0
  0
LINE
  5
65F3
330
1A
100
AcDbEntity
  8
0
100
AcDbLine
 10
73.49999999999994
 20
189.0900000000001
 30
0.0
 11
73.49999999999994
 21
188.5899999999999
 31
0.0
  0
LINE
  5
65F4
330
1A
100
AcDbEntity
  8
0
100
AcDbLine
 10
75.0999999999999
 20
122.0399999999999
 30
0.0
 11
75.0999999999999
 21
121.54
 31
0.0
  0
LINE
  5
65F5
330
1A
100
AcDbEntity
  8
0
100
AcDbLine
 10
73.49999999999991
 20
121.54
 30
0.0
 11
73.49999999999991
 21
122.0399999999999
 31
0.0
  0
LINE
  5
6644
330
1A
100
AcDbEntity
  8
0
100
AcDbLine
 10
195.0
 20
20.80000000000007
 30
0.0
 11
165.0
 21
20.80000000000001
 31
0.0
  0
LINE
  5
6645
330
1A
100
AcDbEntity
  8
0
100
AcDbLine
 10
195.0
 20
20.0
 30
0.0
 11
165.0
 21
20.0
 31
0.0
  0
LINE
  5
6646
330
1A
100
AcDbEntity
  8
0
100
AcDbLine
 10
165.0
 20
60.0
 30
0.0
 11
195.0
 21
60.0
 31
0.0
  0
LINE
  5
6647
330
1A
100
AcDbEntity
  8
0
100
AcDbLine
 10
193.5
 20
20.80000000000007
 30
0.0
 11
193.5
 21
20.0
 31
0.0
  0
LINE
  5
6648
330
1A
100
AcDbEntity
  8
0
100
AcDbLine
 10
195.0
 20
60.0
 30
0.0
 11
195.0
 21
20.0
 31
0.0
  0
LINE
  5
6649
330
1A
100
AcDbEntity
  8
0
100
AcDbLine
 10
135.0000000000001
 20
60.0
 30
0.0
 11
135.0
 21
20.0
 31
0.0
  0
LINE
  5
664A
330
1A
100
AcDbEntity
  8
0
100
AcDbLine
 10
136.5
 20
20.80000000000007
 30
0.0
 11
136.5
 21
20.0
 31
0.0
  0
LINE
  5
664B
330
1A
100
AcDbEntity
  8
0
100
AcDbLine
 10
135.0
 20
20.0
 30
0.0
 11
165.0
 21
20.0
 31
0.0
  0
LINE
  5
664C
330
1A
100
AcDbEntity
  8
0
100
AcDbLine
 10
135.0
 20
20.80000000000007
 30
0.0
 11
165.0
 21
20.80000000000001
 31
0.0
  0
LINE
  5
664D
330
1A
100
AcDbEntity
  8
0
100
AcDbLine
 10
165.0
 20
60.0
 30
0.0
 11
135.0000000000001
 21
60.0
 31
0.0
  0
LINE
  5
664E
330
1A
100
AcDbEntity
  8
0
100
AcDbLine
 10
147.1
 20
61.80000000000013
 30
0.0
 11
153.1
 21
61.80000000000013
 31
0.0
  0
LINE
  5
664F
330
1A
100
AcDbEntity
  8
0
100
AcDbLine
 10
136.1
 20
64.30000000000013
 30
0.0
 11
155.6000000000001
 21
64.30000000000013
 31
0.0
  0
LINE
  5
6650
330
1A
100
AcDbEntity
  8
0
100
AcDbLine
 10
155.6000000000001
 20
60.0
 30
0.0
 11
155.6000000000001
 21
64.30000000000013
 31
0.0
  0
LINE
  5
6651
330
1A
100
AcDbEntity
  8
0
100
AcDbLine
 10
136.1
 20
60.0
 30
0.0
 11
136.1
 21
64.30000000000013
 31
0.0
  0
LINE
  5
6652
330
1A
100
AcDbEntity
  8
0
100
AcDbLine
 10
147.1
 20
60.0
 30
0.0
 11
147.1
 21
62.80000000000012
 31
0.0
  0
LINE
  5
6653
330
1A
100
AcDbEntity
  8
0
100
AcDbLine
 10
153.1
 20
60.0
 30
0.0
 11
153.1
 21
62.80000000000012
 31
0.0
  0
LINE
  5
6654
330
1A
100
AcDbEntity
  8
0
100
AcDbLine
 10
147.1
 20
62.80000000000012
 30
0.0
 11
153.1
 21
62.80000000000012
 31
0.0
  0
LINE
  5
6655
330
1A
100
AcDbEntity
  8
0
100
AcDbLine
 10
136.1
 20
61.60000000000014
 30
0.0
 11
145.1
 21
61.60000000000014
 31
0.0
  0
LINE
  5
6656
330
1A
100
AcDbEntity
  8
0
100
AcDbLine
 10
145.1
 20
61.60000000000014
 30
0.0
 11
145.1
 21
64.30000000000013
 31
0.0
  0
LINE
  5
6657
330
1A
100
AcDbEntity
  8
0
100
AcDbLine
 10
144.1
 20
62.80000000000012
 30
0.0
 11
138.1
 21
62.80000000000012
 31
0.0
  0
LINE
  5
6658
330
1A
100
AcDbEntity
  8
0
100
AcDbLine
 10
138.1
 20
61.60000000000014
 30
0.0
 11
138.1
 21
62.80000000000012
 31
0.0
  0
LINE
  5
6659
330
1A
100
AcDbEntity
  8
0
100
AcDbLine
 10
144.1
 20
61.60000000000014
 30
0.0
 11
144.1
 21
62.80000000000012
 31
0.0
  0
INSERT
  5
665A
330
1A
100
AcDbEntity
  8
0
100
AcDbBlockReference
  2
UB-TOP
 10
141.0
 20
36.00000000000003
 30
0.0
  0
INSERT
  5
665B
330
1A
100
AcDbEntity
  8
0
100
AcDbBlockReference
  2
UB-TOP
 10
189.0
 20
36.0
 30
0.0
  0
TEXT
  5
665D
330
1A
100
AcDbEntity
  8
WAKU
100
AcDbText
 10
234.0
 20
22.0
 30
0.0
 40
1.8
  1
07.12.15
 41
0.9
100
AcDbText
  0
TEXT
  5
665E
330
1A
100
AcDbEntity
  8
WAKU
100
AcDbText
 10
248.0
 20
21.5
 30
0.0
 40
3.0
  1
大野
100
AcDbText
  0
TEXT
  5
6679
330
1A
100
AcDbEntity
  8
0
100
AcDbText
 10
277.0
 20
238.0
 30
0.0
 40
3.0
  1
1/5,000 (0.5mV/V入力時)
100
AcDbText
  0
TEXT
  5
667D
330
1A
100
AcDbEntity
  8
0
100
AcDbText
 10
237.0
 20
245.0
 30
0.0
 40
3.0
  1
入力感度
100
AcDbText
  0
TEXT
  5
667E
330
1A
100
AcDbEntity
  8
0
100
AcDbText
 10
237.0
 20
238.0
 30
0.0
 40
3.0
  1
最小表示分解能
100
AcDbText
  0
LINE
  5
66B8
330
1A
100
AcDbEntity
  8
0
100
AcDbLine
 10
235.0
 20
250.0
 30
0.0
 11
395.0
 21
250.0
 31
0.0
  0
LINE
  5
66B9
330
1A
100
AcDbEntity
  8
0
100
AcDbLine
 10
395.0
 20
257.0
 30
0.0
 11
395.0
 21
138.0
 31
0.0
  0
LINE
  5
66BB
330
1A
100
AcDbEntity
  8
0
100
AcDbLine
 10
235.0
 20
138.0
 30
0.0
 11
235.0
 21
257.0
 31
0.0
  0
LINE
  5
66BC
330
1A
100
AcDbEntity
  8
0
100
AcDbLine
 10
275.0
 20
250.0
 30
0.0
 11
275.0
 21
138.0
 31
0.0
  0
LINE
  5
66BE
330
1A
100
AcDbEntity
  8
0
100
AcDbLine
 10
235.0
 20
243.0
 30
0.0
 11
395.0
 21
243.0
 31
0.0
  0
LINE
  5
66BF
330
1A
100
AcDbEntity
  8
0
100
AcDbLine
 10
235.0
 20
236.0
 30
0.0
 11
395.0
 21
236.0
 31
0.0
  0
LINE
  5
66C0
330
1A
100
AcDbEntity
  8
0
100
AcDbLine
 10
235.0
 20
229.0
 30
0.0
 11
395.0
 21
229.0
 31
0.0
  0
LINE
  5
66C1
330
1A
100
AcDbEntity
  8
0
100
AcDbLine
 10
235.0
 20
222.0
 30
0.0
 11
395.0
 21
222.0
 31
0.0
  0
LINE
  5
66C2
330
1A
100
AcDbEntity
  8
0
100
AcDbLine
 10
235.0
 20
215.0
 30
0.0
 11
395.0
 21
215.0
 31
0.0
  0
LINE
  5
66C3
330
1A
100
AcDbEntity
  8
0
100
AcDbLine
 10
235.0
 20
208.0
 30
0.0
 11
395.0
 21
208.0
 31
0.0
  0
LINE
  5
66C4
330
1A
100
AcDbEntity
  8
0
100
AcDbLine
 10
235.0
 20
201.0
 30
0.0
 11
395.0
 21
201.0
 31
0.0
  0
TEXT
  5
66C6
330
1A
100
AcDbEntity
  8
0
100
AcDbText
 10
277.0
 20
245.0
 30
0.0
 40
3.0
  1
0.5μV/D以上
100
AcDbText
  0
TEXT
  5
66C7
330
1A
100
AcDbEntity
  8
0
100
AcDbText
 10
277.0
 20
231.0
 30
0.0
 40
3.0
  1
±3.3mV/V
100
AcDbText
  0
TEXT
  5
66C8
330
1A
100
AcDbEntity
  8
0
100
AcDbText
 10
237.0
 20
231.0
 30
0.0
 40
3.0
  1
入力範囲
100
AcDbText
  0
TEXT
  5
66C9
330
1A
100
AcDbEntity
  8
0
100
AcDbText
 10
277.0
 20
224.0
 30
0.0
 40
3.0
  1
±2.8mV/V
100
AcDbText
  0
TEXT
  5
66CA
330
1A
100
AcDbEntity
  8
0
100
AcDbText
 10
237.0
 20
224.0
 30
0.0
 40
3.0
  1
零点調整範囲
100
AcDbText
  0
TEXT
  5
66CB
330
1A
100
AcDbEntity
  8
0
100
AcDbText
 10
277.0
 20
217.0
 30
0.0
 40
3.0
  1
0.5～3.0mV/V (分解能1/5,000に必要なスパン量)
100
AcDbText
  0
TEXT
  5
66CC
330
1A
100
AcDbEntity
  8
0
100
AcDbText
 10
237.0
 20
217.0
 30
0.0
 40
3.0
  1
感度調整範囲
100
AcDbText
  0
TEXT
  5
66CD
330
1A
100
AcDbEntity
  8
0
100
AcDbText
 10
237.0
 20
210.0
 30
0.0
 40
3.0
  1
トランデューサ電源
100
AcDbText
  0
TEXT
  5
66CE
330
1A
100
AcDbEntity
  8
0
100
AcDbText
 10
277.0
 20
210.0
 30
0.0
 40
3.0
  1
DC5V±5%, 60mA (350Ωひずみゲージ式トランデューサ4点)
100
AcDbText
  0
TEXT
  5
66D0
330
1A
100
AcDbEntity
  8
0
100
AcDbText
 10
237.0
 20
203.0
 30
0.0
 40
3.0
  1
サンプリング周期
100
AcDbText
  0
TEXT
  5
66D1
330
1A
100
AcDbEntity
  8
0
100
AcDbText
 10
277.0
 20
203.0
 30
0.0
 40
3.0
  1
60msec.
100
AcDbText
  0
TEXT
  5
66D2
330
1A
100
AcDbEntity
  8
0
100
AcDbText
 10
277.0
 20
196.0
 30
0.0
 40
3.0
  1
無し
100
AcDbText
  0
TEXT
  5
66D3
330
1A
100
AcDbEntity
  8
0
100
AcDbText
 10
237.0
 20
196.0
 30
0.0
 40
3.0
  1
外部指令入力
100
AcDbText
  0
TEXT
  5
66D4
330
1A
100
AcDbEntity
  8
0
100
AcDbText
 10
237.0
 20
189.0
 30
0.0
 40
3.0
  1
制御用出力
100
AcDbText
  0
TEXT
  5
66D5
330
1A
100
AcDbEntity
  8
0
100
AcDbText
 10
277.0
 20
189.0
 30
0.0
 40
3.0
  1
オープンコレクタ出力5点 (5点コンパレータ用)
100
AcDbText
  0
LINE
  5
66D6
330
1A
100
AcDbEntity
  8
0
100
AcDbLine
 10
235.0
 20
166.0
 30
0.0
 11
395.0
 21
166.0
 31
0.0
  0
LINE
  5
66D7
330
1A
100
AcDbEntity
  8
0
100
AcDbLine
 10
235.0
 20
187.0
 30
0.0
 11
395.0
 21
187.0
 31
0.0
  0
LINE
  5
66D8
330
1A
100
AcDbEntity
  8
0
100
AcDbLine
 10
235.0
 20
194.0
 30
0.0
 11
395.0
 21
194.0
 31
0.0
  0
TEXT
  5
66D9
330
1A
100
AcDbEntity
  8
0
100
AcDbText
 10
237.0
 20
182.0
 30
0.0
 40
3.0
  1
オプション
100
AcDbText
  0
TEXT
  5
66DA
330
1A
100
AcDbEntity
  8
0
100
AcDbText
 10
277.0
 20
182.0
 30
0.0
 40
3.0
  1
4～20mA電流出力(アイソレート出力, 負荷抵抗510Ω以内)
100
AcDbText
  0
TEXT
  5
66DB
330
1A
100
AcDbEntity
  8
0
100
AcDbText
 10
277.0
 20
147.0
 30
0.0
 40
3.0
  1
ペンタッチ式キー操作設定
100
AcDbText
  0
LINE
  5
66DC
330
1A
100
AcDbEntity
  8
0
100
AcDbLine
 10
235.0
 20
145.0
 30
0.0
 11
395.0
 21
145.0
 31
0.0
  0
TEXT
  5
66DD
330
1A
100
AcDbEntity
  8
0
100
AcDbText
 10
237.0
 20
147.0
 30
0.0
 40
3.0
  1
機能設定方法
100
AcDbText
  0
LINE
  5
66DF
330
1A
100
AcDbEntity
  8
0
100
AcDbLine
 10
275.0
 20
159.0
 30
0.0
 11
395.0
 21
159.0
 31
0.0
  0
TEXT
  5
66E0
330
1A
100
AcDbEntity
  8
0
100
AcDbText
 10
277.0
 20
154.0
 30
0.0
 40
3.0
  1
5点コンパレータ (SP1～5、各CH毎に上限または下限動作切替可)
100
AcDbText
  0
TEXT
  5
66E1
330
1A
100
AcDbEntity
  8
0
100
AcDbText
 10
277.0
 20
161.0
 30
0.0
 40
3.0
  1
オートゼロ、プリセット風袋引き、ゼロトラッキング、デジタルフィルタ
100
AcDbText
  0
TEXT
  5
66E3
330
1A
100
AcDbEntity
  8
0
100
AcDbText
 10
237.0
 20
161.0
 30
0.0
 40
3.0
  1
演算機能
100
AcDbText
  0
TEXT
  5
66E5
330
1A
100
AcDbEntity
  8
0
100
AcDbText
 10
277.0
 20
140.0
 30
0.0
 40
3.0
  1
DC20-27V, 0.5Amax
100
AcDbText
  0
TEXT
  5
66E6
330
1A
100
AcDbEntity
  8
0
100
AcDbText
 10
237.0
 20
140.0
 30
0.0
 40
3.0
  1
使用電源
100
AcDbText
  0
LINE
  5
66E7
330
1A
100
AcDbEntity
  8
0
100
AcDbLine
 10
235.0
 20
138.0
 30
0.0
 11
395.0
 21
138.0
 31
0.0
  0
LINE
  5
66E8
330
1A
100
AcDbEntity
  8
0
100
AcDbLine
 10
235.0
 20
257.0
 30
0.0
 11
395.0
 21
257.0
 31
0.0
  0
TEXT
  5
66E9
330
1A
100
AcDbEntity
  8
0
100
AcDbText
 10
237.0
 20
252.0
 30
0.0
 40
3.0
  1
概略仕様
100
AcDbText
  0
LINE
  5
670F
330
1A
100
AcDbEntity
  8
0
100
AcDbLine
 10
235.0
 20
152.0
 30
0.0
 11
395.0
 21
152.0
 31
0.0
  0
LINE
  5
672B
330
1A
100
AcDbEntity
  8
0
100
AcDbLine
 10
148.2093251203826
 20
215.3040000000002
 30
0.0
 11
151.1158183234804
 21
215.3040000000002
 31
0.0
  0
LINE
  5
672C
330
1A
100
AcDbEntity
  8
0
100
AcDbLine
 10
148.3415127486898
 20
216.1360000000001
 30
0.0
 11
151.3076312859962
 21
216.1360000000001
 31
0.0
  0
LINE
  5
672F
330
1A
100
AcDbEntity
  8
0
100
AcDbLine
 10
147.8990705916623
 20
215.7191544693009
 30
0.0
 11
148.3415127486898
 21
216.1360000000001
 31
0.0
  0
LINE
  5
6731
330
1A
100
AcDbEntity
  8
0
100
AcDbLine
 10
147.8990705916623
 20
215.7191544693009
 30
0.0
 11
148.2093251203826
 21
215.3040000000002
 31
0.0
  0
LINE
  5
6737
330
1A
100
AcDbEntity
  8
0
100
AcDbLine
 10
151.3076312859962
 20
216.1360000000001
 30
0.0
 11
151.5932500629262
 21
215.7538108592072
 31
0.0
  0
LINE
  5
6739
330
1A
100
AcDbEntity
  8
0
100
AcDbLine
 10
151.1158183234804
 20
215.3040000000002
 30
0.0
 11
151.5932500629262
 21
215.7538108592072
 31
0.0
  0
LINE
  5
6747
330
1A
100
AcDbEntity
  8
0
100
AcDbLine
 10
158.9051920435297
 20
215.2129367349321
 30
0.0
 11
158.528884456005
 21
212.2065450273376
 31
0.0
  0
LINE
  5
6748
330
1A
100
AcDbEntity
  8
0
100
AcDbLine
 10
155.7201643242654
 20
215.1513701013894
 30
0.0
 11
155.3575265806382
 21
212.2541893337274
 31
0.0
  0
LINE
  5
6749
330
1A
100
AcDbEntity
  8
0
100
AcDbLine
 10
154.9792968926804
 20
215.2106083227916
 30
0.0
 11
154.5570460444751
 21
211.8371673116244
 31
0.0
  0
LINE
  5
674A
330
1A
100
AcDbEntity
  8
0
100
AcDbLine
 10
159.6483072912691
 20
215.171656737257
 30
0.0
 11
159.2273191380019
 21
211.8083036321451
 31
0.0
  0
LINE
  5
674D
330
1A
100
AcDbEntity
  8
0
100
AcDbLine
 10
155.4505575726975
 20
212.0912000000002
 30
0.0
 11
158.3918598139687
 21
212.0912000000002
 31
0.0
  0
LINE
  5
674E
330
1A
100
AcDbEntity
  8
0
100
AcDbLine
 10
154.9791177953171
 20
211.2592000000002
 30
0.0
 11
158.6444974989399
 21
211.2592000000002
 31
0.0
  0
LINE
  5
674F
330
1A
100
AcDbEntity
  8
0
100
AcDbLine
 10
154.7029026571801
 20
211.6374373980267
 30
0.0
 11
155.3575265806382
 21
212.2541893337274
 31
0.0
  0
LINE
  5
6750
330
1A
100
AcDbEntity
  8
0
100
AcDbLine
 10
154.811333402026
 20
211.4889568944844
 30
0.0
 11
155.4505575726975
 21
212.0912000000002
 31
0.0
  0
LINE
  5
6751
330
1A
100
AcDbEntity
  8
0
100
AcDbLine
 10
154.811333402026
 20
211.4889568944844
 30
0.0
 11
154.9791177953171
 21
211.2592000000002
 31
0.0
  0
LINE
  5
6752
330
1A
100
AcDbEntity
  8
0
100
AcDbLine
 10
154.5570460444751
 20
211.8371673116244
 30
0.0
 11
154.7029026571801
 21
211.6374373980267
 31
0.0
  0
ELLIPSE
  5
6755
330
1A
100
AcDbEntity
  8
0
100
AcDbEllipse
 10
160.1441345941515
 20
211.6184575641952
 30
0.0
 11
0.0000000000000345
 21
0.5439999999999827
 31
0.0
210
0.0
220
0.0
230
1.0
 40
0.890625000000023
 41
-1.57079632679484
 42
4.712388980384746
  0
LINE
  5
6756
330
1A
100
AcDbEntity
  8
0
100
AcDbLine
 10
158.992108491916
 20
211.5867006383154
 30
0.0
 11
159.2273191380019
 21
211.8083036321452
 31
0.0
  0
LINE
  5
6757
330
1A
100
AcDbEntity
  8
0
100
AcDbLine
 10
158.528884456005
 20
212.2065450273376
 30
0.0
 11
158.992108491916
 21
211.5867006383154
 31
0.0
  0
LINE
  5
6758
330
1A
100
AcDbEntity
  8
0
100
AcDbLine
 10
158.3918598139687
 20
212.0912000000002
 30
0.0
 11
158.8611148921427
 21
211.4632854172556
 31
0.0
  0
LINE
  5
6759
330
1A
100
AcDbEntity
  8
0
100
AcDbLine
 10
158.6444974989399
 20
211.2592000000002
 30
0.0
 11
158.8611148921427
 21
211.4632854172556
 31
0.0
  0
LINE
  5
675C
330
1A
100
AcDbEntity
  8
0
100
AcDbLine
 10
156.243138217014
 20
219.3295063563348
 30
0.0
 11
155.8631864158838
 21
216.294000344571
 31
0.0
  0
LINE
  5
675D
330
1A
100
AcDbEntity
  8
0
100
AcDbLine
 10
155.549333951361
 20
219.7647410138489
 30
0.0
 11
155.111256069777
 21
216.2648548724658
 31
0.0
  0
LINE
  5
675E
330
1A
100
AcDbEntity
  8
0
100
AcDbLine
 10
159.4211864360401
 20
219.3353124569125
 30
0.0
 11
159.0393990367807
 21
216.2851415083334
 31
0.0
  0
LINE
  5
675F
330
1A
100
AcDbEntity
  8
0
100
AcDbLine
 10
160.223968230115
 20
219.7707196589389
 30
0.0
 11
159.7890815667331
 21
216.2963287567115
 31
0.0
  0
LINE
  5
6760
330
1A
100
AcDbEntity
  8
0
100
AcDbLine
 10
155.8293251203824
 20
215.3040000000002
 30
0.0
 11
158.7358183234802
 21
215.3040000000002
 31
0.0
  0
LINE
  5
6761
330
1A
100
AcDbEntity
  8
0
100
AcDbLine
 10
155.9615127486897
 20
216.1360000000001
 30
0.0
 11
158.9276312859961
 21
216.1360000000001
 31
0.0
  0
LINE
  5
6764
330
1A
100
AcDbEntity
  8
0
100
AcDbLine
 10
155.5190705916622
 20
215.7191544693009
 30
0.0
 11
155.9615127486897
 21
216.1360000000001
 31
0.0
  0
LINE
  5
6765
330
1A
100
AcDbEntity
  8
0
100
AcDbLine
 10
154.9792968926804
 20
215.2106083227916
 30
0.0
 11
155.3880769918889
 21
215.5957392482411
 31
0.0
  0
LINE
  5
6766
330
1A
100
AcDbEntity
  8
0
100
AcDbLine
 10
155.5190705916622
 20
215.7191544693009
 30
0.0
 11
155.8293251203824
 21
215.3040000000002
 31
0.0
  0
LINE
  5
6767
330
1A
100
AcDbEntity
  8
0
100
AcDbLine
 10
155.111256069777
 20
216.2648548724658
 30
0.0
 11
155.4091539104058
 21
215.8662350023798
 31
0.0
  0
LINE
  5
6768
330
1A
100
AcDbEntity
  8
0
100
AcDbLine
 10
155.4091539104058
 20
215.8662350023798
 30
0.0
 11
155.8631864158838
 21
216.294000344571
 31
0.0
  0
LINE
  5
6769
330
1A
100
AcDbEntity
  8
0
100
AcDbLine
 10
155.3880769918889
 20
215.5957392482411
 30
0.0
 11
155.7201643242654
 21
215.1513701013894
 31
0.0
  0
LINE
  5
676A
330
1A
100
AcDbEntity
  8
0
100
AcDbLine
 10
159.3442436626994
 20
215.877226080267
 30
0.0
 11
159.7890815667331
 21
216.2963287567114
 31
0.0
  0
LINE
  5
676B
330
1A
100
AcDbEntity
  8
0
100
AcDbLine
 10
159.0393990367807
 20
216.2851415083334
 30
0.0
 11
159.3442436626994
 21
215.877226080267
 31
0.0
  0
LINE
  5
676C
330
1A
100
AcDbEntity
  8
0
100
AcDbLine
 10
158.9276312859961
 20
216.1360000000001
 30
0.0
 11
159.2132500629261
 21
215.7538108592072
 31
0.0
  0
LINE
  5
676D
330
1A
100
AcDbEntity
  8
0
100
AcDbLine
 10
159.3231667441825
 20
215.6067303261284
 30
0.0
 11
159.6483072912691
 21
215.171656737257
 31
0.0
  0
LINE
  5
676E
330
1A
100
AcDbEntity
  8
0
100
AcDbLine
 10
158.7358183234802
 20
215.3040000000002
 30
0.0
 11
159.2132500629261
 21
215.7538108592072
 31
0.0
  0
LINE
  5
676F
330
1A
100
AcDbEntity
  8
0
100
AcDbLine
 10
158.9051920435297
 20
215.2129367349321
 30
0.0
 11
159.3231667441825
 21
215.6067303261284
 31
0.0
  0
LINE
  5
6770
330
1A
100
AcDbEntity
  8
0
100
AcDbLine
 10
156.3658526555628
 20
219.4640000000001
 30
0.0
 11
159.2917473332472
 21
219.4640000000001
 31
0.0
  0
LINE
  5
6771
330
1A
100
AcDbEntity
  8
0
100
AcDbLine
 10
156.1132151842452
 20
220.296
 30
0.0
 11
159.840372153355
 21
220.296
 31
0.0
  0
LINE
  5
6772
330
1A
100
AcDbEntity
  8
0
100
AcDbLine
 10
155.8965976656653
 20
220.0919144646211
 30
0.0
 11
156.1132151842452
 21
220.296
 31
0.0
  0
LINE
  5
6773
330
1A
100
AcDbEntity
  8
0
100
AcDbLine
 10
155.549333951361
 20
219.7647410138489
 30
0.0
 11
155.765604065892
 21
219.9684992435613
 31
0.0
  0
LINE
  5
6774
330
1A
100
AcDbEntity
  8
0
100
AcDbLine
 10
155.8965976656654
 20
220.0919144646211
 30
0.0
 11
156.3658526555629
 21
219.4640000000001
 31
0.0
  0
LINE
  5
6775
330
1A
100
AcDbEntity
  8
0
100
AcDbLine
 10
155.765604065892
 20
219.9684992435613
 30
0.0
 11
156.243138217014
 21
219.3295063563348
 31
0.0
  0
LINE
  5
6778
330
1A
100
AcDbEntity
  8
0
100
AcDbLine
 10
160.0851274176757
 20
219.9608424305983
 30
0.0
 11
160.223968230115
 21
219.7707196589389
 31
0.0
  0
LINE
  5
6779
330
1A
100
AcDbEntity
  8
0
100
AcDbLine
 10
159.2917473332472
 20
219.4640000000001
 30
0.0
 11
159.9766966728298
 21
220.1093229341406
 31
0.0
  0
LINE
  5
677A
330
1A
100
AcDbEntity
  8
0
100
AcDbLine
 10
159.4211864360401
 20
219.3353124569125
 30
0.0
 11
160.0851274176757
 21
219.9608424305983
 31
0.0
  0
LINE
  5
677B
330
1A
100
AcDbEntity
  8
0
100
AcDbLine
 10
159.840372153355
 20
220.296
 30
0.0
 11
159.9766966728298
 21
220.1093229341406
 31
0.0
  0
LINE
  5
677C
330
1A
100
AcDbEntity
  8
0
100
AcDbLine
 10
166.5251920435298
 20
215.2129367349321
 30
0.0
 11
166.1488844560051
 21
212.2065450273376
 31
0.0
  0
LINE
  5
677D
330
1A
100
AcDbEntity
  8
0
100
AcDbLine
 10
163.3401643242655
 20
215.1513701013894
 30
0.0
 11
162.9775265806383
 21
212.2541893337274
 31
0.0
  0
LINE
  5
677E
330
1A
100
AcDbEntity
  8
0
100
AcDbLine
 10
162.5992968926806
 20
215.2106083227916
 30
0.0
 11
162.1770460444752
 21
211.8371673116244
 31
0.0
  0
LINE
  5
677F
330
1A
100
AcDbEntity
  8
0
100
AcDbLine
 10
167.2683072912693
 20
215.171656737257
 30
0.0
 11
166.847319138002
 21
211.8083036321451
 31
0.0
  0
LINE
  5
6782
330
1A
100
AcDbEntity
  8
0
100
AcDbLine
 10
163.0705575726976
 20
212.0912000000002
 30
0.0
 11
166.0118598139688
 21
212.0912000000002
 31
0.0
  0
LINE
  5
6783
330
1A
100
AcDbEntity
  8
0
100
AcDbLine
 10
162.5991177953172
 20
211.2592000000002
 30
0.0
 11
166.26449749894
 21
211.2592000000002
 31
0.0
  0
LINE
  5
6784
330
1A
100
AcDbEntity
  8
0
100
AcDbLine
 10
162.3229026571802
 20
211.6374373980267
 30
0.0
 11
162.9775265806383
 21
212.2541893337274
 31
0.0
  0
LINE
  5
6785
330
1A
100
AcDbEntity
  8
0
100
AcDbLine
 10
162.4313334020261
 20
211.4889568944844
 30
0.0
 11
163.0705575726976
 21
212.0912000000002
 31
0.0
  0
LINE
  5
6786
330
1A
100
AcDbEntity
  8
0
100
AcDbLine
 10
162.4313334020261
 20
211.4889568944844
 30
0.0
 11
162.5991177953172
 21
211.2592000000002
 31
0.0
  0
LINE
  5
6787
330
1A
100
AcDbEntity
  8
0
100
AcDbLine
 10
162.1770460444752
 20
211.8371673116244
 30
0.0
 11
162.3229026571802
 21
211.6374373980267
 31
0.0
  0
ELLIPSE
  5
678A
330
1A
100
AcDbEntity
  8
0
100
AcDbEllipse
 10
167.7641345941516
 20
211.6184575641952
 30
0.0
 11
0.0000000000000345
 21
0.5439999999999827
 31
0.0
210
0.0
220
0.0
230
1.0
 40
0.890625000000023
 41
-1.57079632679484
 42
4.712388980384746
  0
LINE
  5
678B
330
1A
100
AcDbEntity
  8
0
100
AcDbLine
 10
166.6121084919161
 20
211.5867006383154
 30
0.0
 11
166.847319138002
 21
211.8083036321452
 31
0.0
  0
LINE
  5
678C
330
1A
100
AcDbEntity
  8
0
100
AcDbLine
 10
166.1488844560051
 20
212.2065450273376
 30
0.0
 11
166.6121084919162
 21
211.5867006383154
 31
0.0
  0
LINE
  5
678D
330
1A
100
AcDbEntity
  8
0
100
AcDbLine
 10
166.0118598139688
 20
212.0912000000002
 30
0.0
 11
166.4811148921428
 21
211.4632854172556
 31
0.0
  0
LINE
  5
678E
330
1A
100
AcDbEntity
  8
0
100
AcDbLine
 10
166.26449749894
 20
211.2592000000002
 30
0.0
 11
166.4811148921428
 21
211.4632854172556
 31
0.0
  0
LINE
  5
6791
330
1A
100
AcDbEntity
  8
0
100
AcDbLine
 10
163.8631382170141
 20
219.3295063563348
 30
0.0
 11
163.4831864158839
 21
216.294000344571
 31
0.0
  0
LINE
  5
6792
330
1A
100
AcDbEntity
  8
0
100
AcDbLine
 10
163.1693339513611
 20
219.7647410138489
 30
0.0
 11
162.7312560697771
 21
216.2648548724658
 31
0.0
  0
LINE
  5
6793
330
1A
100
AcDbEntity
  8
0
100
AcDbLine
 10
167.0411864360403
 20
219.3353124569125
 30
0.0
 11
166.6593990367808
 21
216.2851415083334
 31
0.0
  0
LINE
  5
6794
330
1A
100
AcDbEntity
  8
0
100
AcDbLine
 10
167.8439682301151
 20
219.7707196589389
 30
0.0
 11
167.4090815667332
 21
216.2963287567115
 31
0.0
  0
LINE
  5
6795
330
1A
100
AcDbEntity
  8
0
100
AcDbLine
 10
163.4493251203826
 20
215.3040000000002
 30
0.0
 11
166.3558183234804
 21
215.3040000000002
 31
0.0
  0
LINE
  5
6796
330
1A
100
AcDbEntity
  8
0
100
AcDbLine
 10
163.5815127486898
 20
216.1360000000001
 30
0.0
 11
166.5476312859962
 21
216.1360000000001
 31
0.0
  0
LINE
  5
6799
330
1A
100
AcDbEntity
  8
0
100
AcDbLine
 10
163.1390705916623
 20
215.7191544693009
 30
0.0
 11
163.5815127486898
 21
216.1360000000001
 31
0.0
  0
LINE
  5
679A
330
1A
100
AcDbEntity
  8
0
100
AcDbLine
 10
162.5992968926806
 20
215.2106083227916
 30
0.0
 11
163.008076991889
 21
215.5957392482411
 31
0.0
  0
LINE
  5
679B
330
1A
100
AcDbEntity
  8
0
100
AcDbLine
 10
163.1390705916623
 20
215.7191544693009
 30
0.0
 11
163.4493251203826
 21
215.3040000000002
 31
0.0
  0
LINE
  5
679C
330
1A
100
AcDbEntity
  8
0
100
AcDbLine
 10
162.7312560697771
 20
216.2648548724658
 30
0.0
 11
163.0291539104059
 21
215.8662350023798
 31
0.0
  0
LINE
  5
679D
330
1A
100
AcDbEntity
  8
0
100
AcDbLine
 10
163.0291539104059
 20
215.8662350023798
 30
0.0
 11
163.4831864158839
 21
216.294000344571
 31
0.0
  0
LINE
  5
679E
330
1A
100
AcDbEntity
  8
0
100
AcDbLine
 10
163.008076991889
 20
215.5957392482411
 30
0.0
 11
163.3401643242655
 21
215.1513701013894
 31
0.0
  0
LINE
  5
679F
330
1A
100
AcDbEntity
  8
0
100
AcDbLine
 10
166.9642436626995
 20
215.877226080267
 30
0.0
 11
167.4090815667332
 21
216.2963287567114
 31
0.0
  0
LINE
  5
67A0
330
1A
100
AcDbEntity
  8
0
100
AcDbLine
 10
166.6593990367808
 20
216.2851415083334
 30
0.0
 11
166.9642436626995
 21
215.877226080267
 31
0.0
  0
LINE
  5
67A1
330
1A
100
AcDbEntity
  8
0
100
AcDbLine
 10
166.5476312859962
 20
216.1360000000001
 30
0.0
 11
166.8332500629262
 21
215.7538108592072
 31
0.0
  0
LINE
  5
67A2
330
1A
100
AcDbEntity
  8
0
100
AcDbLine
 10
166.9431667441826
 20
215.6067303261284
 30
0.0
 11
167.2683072912693
 21
215.171656737257
 31
0.0
  0
LINE
  5
67A3
330
1A
100
AcDbEntity
  8
0
100
AcDbLine
 10
166.3558183234804
 20
215.3040000000002
 30
0.0
 11
166.8332500629262
 21
215.7538108592072
 31
0.0
  0
LINE
  5
67A4
330
1A
100
AcDbEntity
  8
0
100
AcDbLine
 10
166.5251920435298
 20
215.2129367349321
 30
0.0
 11
166.9431667441826
 21
215.6067303261284
 31
0.0
  0
LINE
  5
67A5
330
1A
100
AcDbEntity
  8
0
100
AcDbLine
 10
163.985852655563
 20
219.4640000000001
 30
0.0
 11
166.9117473332473
 21
219.4640000000001
 31
0.0
  0
LINE
  5
67A6
330
1A
100
AcDbEntity
  8
0
100
AcDbLine
 10
163.7332151842453
 20
220.296
 30
0.0
 11
167.4603721533551
 21
220.296
 31
0.0
  0
LINE
  5
67A7
330
1A
100
AcDbEntity
  8
0
100
AcDbLine
 10
163.5165976656655
 20
220.0919144646211
 30
0.0
 11
163.7332151842453
 21
220.296
 31
0.0
  0
LINE
  5
67A8
330
1A
100
AcDbEntity
  8
0
100
AcDbLine
 10
163.1693339513612
 20
219.7647410138489
 30
0.0
 11
163.3856040658921
 21
219.9684992435613
 31
0.0
  0
LINE
  5
67A9
330
1A
100
AcDbEntity
  8
0
100
AcDbLine
 10
163.5165976656655
 20
220.0919144646211
 30
0.0
 11
163.985852655563
 21
219.4640000000001
 31
0.0
  0
LINE
  5
67AA
330
1A
100
AcDbEntity
  8
0
100
AcDbLine
 10
163.3856040658921
 20
219.9684992435613
 30
0.0
 11
163.8631382170141
 21
219.3295063563348
 31
0.0
  0
LINE
  5
67AD
330
1A
100
AcDbEntity
  8
0
100
AcDbLine
 10
167.7051274176758
 20
219.9608424305983
 30
0.0
 11
167.8439682301151
 21
219.7707196589389
 31
0.0
  0
LINE
  5
67AE
330
1A
100
AcDbEntity
  8
0
100
AcDbLine
 10
166.9117473332473
 20
219.4640000000001
 30
0.0
 11
167.59669667283
 21
220.1093229341406
 31
0.0
  0
LINE
  5
67AF
330
1A
100
AcDbEntity
  8
0
100
AcDbLine
 10
167.0411864360403
 20
219.3353124569125
 30
0.0
 11
167.7051274176758
 21
219.9608424305983
 31
0.0
  0
LINE
  5
67B0
330
1A
100
AcDbEntity
  8
0
100
AcDbLine
 10
167.4603721533551
 20
220.296
 30
0.0
 11
167.59669667283
 21
220.1093229341406
 31
0.0
  0
LINE
  5
67B1
330
1A
100
AcDbEntity
  8
0
100
AcDbLine
 10
174.1451920435298
 20
215.2129367349321
 30
0.0
 11
173.7688844560051
 21
212.2065450273376
 31
0.0
  0
LINE
  5
67B2
330
1A
100
AcDbEntity
  8
0
100
AcDbLine
 10
170.9601643242655
 20
215.1513701013894
 30
0.0
 11
170.5975265806382
 21
212.2541893337274
 31
0.0
  0
LINE
  5
67B3
330
1A
100
AcDbEntity
  8
0
100
AcDbLine
 10
170.2192968926805
 20
215.2106083227916
 30
0.0
 11
169.7970460444752
 21
211.8371673116244
 31
0.0
  0
LINE
  5
67B4
330
1A
100
AcDbEntity
  8
0
100
AcDbLine
 10
174.8883072912692
 20
215.171656737257
 30
0.0
 11
174.467319138002
 21
211.8083036321451
 31
0.0
  0
LINE
  5
67B7
330
1A
100
AcDbEntity
  8
0
100
AcDbLine
 10
170.6905575726976
 20
212.0912000000002
 30
0.0
 11
173.6318598139688
 21
212.0912000000002
 31
0.0
  0
LINE
  5
67B8
330
1A
100
AcDbEntity
  8
0
100
AcDbLine
 10
170.2191177953172
 20
211.2592000000002
 30
0.0
 11
173.8844974989399
 21
211.2592000000002
 31
0.0
  0
LINE
  5
67B9
330
1A
100
AcDbEntity
  8
0
100
AcDbLine
 10
169.9429026571802
 20
211.6374373980267
 30
0.0
 11
170.5975265806382
 21
212.2541893337274
 31
0.0
  0
LINE
  5
67BA
330
1A
100
AcDbEntity
  8
0
100
AcDbLine
 10
170.0513334020261
 20
211.4889568944844
 30
0.0
 11
170.6905575726976
 21
212.0912000000002
 31
0.0
  0
LINE
  5
67BB
330
1A
100
AcDbEntity
  8
0
100
AcDbLine
 10
170.0513334020261
 20
211.4889568944844
 30
0.0
 11
170.2191177953172
 21
211.2592000000002
 31
0.0
  0
LINE
  5
67BC
330
1A
100
AcDbEntity
  8
0
100
AcDbLine
 10
169.7970460444752
 20
211.8371673116244
 30
0.0
 11
169.9429026571802
 21
211.6374373980267
 31
0.0
  0
ELLIPSE
  5
67BF
330
1A
100
AcDbEntity
  8
0
100
AcDbEllipse
 10
175.3841345941515
 20
211.6184575641952
 30
0.0
 11
0.0000000000000345
 21
0.5439999999999827
 31
0.0
210
0.0
220
0.0
230
1.0
 40
0.890625000000023
 41
-1.57079632679484
 42
4.712388980384746
  0
LINE
  5
67C0
330
1A
100
AcDbEntity
  8
0
100
AcDbLine
 10
174.2321084919161
 20
211.5867006383154
 30
0.0
 11
174.467319138002
 21
211.8083036321452
 31
0.0
  0
LINE
  5
67C1
330
1A
100
AcDbEntity
  8
0
100
AcDbLine
 10
173.7688844560051
 20
212.2065450273376
 30
0.0
 11
174.2321084919161
 21
211.5867006383154
 31
0.0
  0
LINE
  5
67C2
330
1A
100
AcDbEntity
  8
0
100
AcDbLine
 10
173.6318598139688
 20
212.0912000000002
 30
0.0
 11
174.1011148921428
 21
211.4632854172556
 31
0.0
  0
LINE
  5
67C3
330
1A
100
AcDbEntity
  8
0
100
AcDbLine
 10
173.8844974989399
 20
211.2592000000002
 30
0.0
 11
174.1011148921428
 21
211.4632854172556
 31
0.0
  0
LINE
  5
67C6
330
1A
100
AcDbEntity
  8
0
100
AcDbLine
 10
171.4831382170141
 20
219.3295063563348
 30
0.0
 11
171.1031864158839
 21
216.294000344571
 31
0.0
  0
LINE
  5
67C7
330
1A
100
AcDbEntity
  8
0
100
AcDbLine
 10
170.7893339513611
 20
219.7647410138489
 30
0.0
 11
170.351256069777
 21
216.2648548724658
 31
0.0
  0
LINE
  5
67C8
330
1A
100
AcDbEntity
  8
0
100
AcDbLine
 10
174.6611864360402
 20
219.3353124569125
 30
0.0
 11
174.2793990367808
 21
216.2851415083334
 31
0.0
  0
LINE
  5
67C9
330
1A
100
AcDbEntity
  8
0
100
AcDbLine
 10
175.4639682301151
 20
219.7707196589389
 30
0.0
 11
175.0290815667332
 21
216.2963287567115
 31
0.0
  0
LINE
  5
67CA
330
1A
100
AcDbEntity
  8
0
100
AcDbLine
 10
171.0693251203825
 20
215.3040000000002
 30
0.0
 11
173.9758183234803
 21
215.3040000000002
 31
0.0
  0
LINE
  5
67CB
330
1A
100
AcDbEntity
  8
0
100
AcDbLine
 10
171.2015127486897
 20
216.1360000000001
 30
0.0
 11
174.1676312859962
 21
216.1360000000001
 31
0.0
  0
LINE
  5
67CE
330
1A
100
AcDbEntity
  8
0
100
AcDbLine
 10
170.7590705916623
 20
215.7191544693009
 30
0.0
 11
171.2015127486897
 21
216.1360000000001
 31
0.0
  0
LINE
  5
67CF
330
1A
100
AcDbEntity
  8
0
100
AcDbLine
 10
170.2192968926805
 20
215.2106083227916
 30
0.0
 11
170.6280769918889
 21
215.5957392482411
 31
0.0
  0
LINE
  5
67D0
330
1A
100
AcDbEntity
  8
0
100
AcDbLine
 10
170.7590705916623
 20
215.7191544693009
 30
0.0
 11
171.0693251203825
 21
215.3040000000002
 31
0.0
  0
LINE
  5
67D1
330
1A
100
AcDbEntity
  8
0
100
AcDbLine
 10
170.351256069777
 20
216.2648548724658
 30
0.0
 11
170.6491539104059
 21
215.8662350023798
 31
0.0
  0
LINE
  5
67D2
330
1A
100
AcDbEntity
  8
0
100
AcDbLine
 10
170.6491539104059
 20
215.8662350023798
 30
0.0
 11
171.1031864158839
 21
216.294000344571
 31
0.0
  0
LINE
  5
67D3
330
1A
100
AcDbEntity
  8
0
100
AcDbLine
 10
170.6280769918889
 20
215.5957392482411
 30
0.0
 11
170.9601643242655
 21
215.1513701013894
 31
0.0
  0
LINE
  5
67D4
330
1A
100
AcDbEntity
  8
0
100
AcDbLine
 10
174.5842436626995
 20
215.877226080267
 30
0.0
 11
175.0290815667332
 21
216.2963287567114
 31
0.0
  0
LINE
  5
67D5
330
1A
100
AcDbEntity
  8
0
100
AcDbLine
 10
174.2793990367808
 20
216.2851415083334
 30
0.0
 11
174.5842436626995
 21
215.877226080267
 31
0.0
  0
LINE
  5
67D6
330
1A
100
AcDbEntity
  8
0
100
AcDbLine
 10
174.1676312859961
 20
216.1360000000001
 30
0.0
 11
174.4532500629261
 21
215.7538108592072
 31
0.0
  0
LINE
  5
67D7
330
1A
100
AcDbEntity
  8
0
100
AcDbLine
 10
174.5631667441825
 20
215.6067303261284
 30
0.0
 11
174.8883072912692
 21
215.171656737257
 31
0.0
  0
LINE
  5
67D8
330
1A
100
AcDbEntity
  8
0
100
AcDbLine
 10
173.9758183234803
 20
215.3040000000002
 30
0.0
 11
174.4532500629261
 21
215.7538108592072
 31
0.0
  0
LINE
  5
67D9
330
1A
100
AcDbEntity
  8
0
100
AcDbLine
 10
174.1451920435298
 20
215.2129367349321
 30
0.0
 11
174.5631667441825
 21
215.6067303261284
 31
0.0
  0
LINE
  5
67DA
330
1A
100
AcDbEntity
  8
0
100
AcDbLine
 10
171.6058526555629
 20
219.4640000000001
 30
0.0
 11
174.5317473332473
 21
219.4640000000001
 31
0.0
  0
LINE
  5
67DB
330
1A
100
AcDbEntity
  8
0
100
AcDbLine
 10
171.3532151842452
 20
220.296
 30
0.0
 11
175.080372153355
 21
220.296
 31
0.0
  0
LINE
  5
67DC
330
1A
100
AcDbEntity
  8
0
100
AcDbLine
 10
171.1365976656654
 20
220.0919144646211
 30
0.0
 11
171.3532151842452
 21
220.296
 31
0.0
  0
LINE
  5
67DD
330
1A
100
AcDbEntity
  8
0
100
AcDbLine
 10
170.7893339513611
 20
219.7647410138489
 30
0.0
 11
171.0056040658921
 21
219.9684992435613
 31
0.0
  0
LINE
  5
67DE
330
1A
100
AcDbEntity
  8
0
100
AcDbLine
 10
171.1365976656654
 20
220.0919144646211
 30
0.0
 11
171.6058526555629
 21
219.4640000000001
 31
0.0
  0
LINE
  5
67DF
330
1A
100
AcDbEntity
  8
0
100
AcDbLine
 10
171.0056040658921
 20
219.9684992435613
 30
0.0
 11
171.4831382170141
 21
219.3295063563348
 31
0.0
  0
LINE
  5
67E2
330
1A
100
AcDbEntity
  8
0
100
AcDbLine
 10
175.3251274176758
 20
219.9608424305983
 30
0.0
 11
175.4639682301151
 21
219.7707196589389
 31
0.0
  0
LINE
  5
67E3
330
1A
100
AcDbEntity
  8
0
100
AcDbLine
 10
174.5317473332473
 20
219.4640000000001
 30
0.0
 11
175.2166966728299
 21
220.1093229341406
 31
0.0
  0
LINE
  5
67E4
330
1A
100
AcDbEntity
  8
0
100
AcDbLine
 10
174.6611864360402
 20
219.3353124569125
 30
0.0
 11
175.3251274176758
 21
219.9608424305983
 31
0.0
  0
LINE
  5
67E5
330
1A
100
AcDbEntity
  8
0
100
AcDbLine
 10
175.0803721533551
 20
220.296
 30
0.0
 11
175.2166966728299
 21
220.1093229341406
 31
0.0
  0
LINE
  5
67E6
330
1A
100
AcDbEntity
  8
0
100
AcDbLine
 10
181.7651920435297
 20
215.2129367349321
 30
0.0
 11
181.388884456005
 21
212.2065450273376
 31
0.0
  0
LINE
  5
67E7
330
1A
100
AcDbEntity
  8
0
100
AcDbLine
 10
178.5801643242654
 20
215.1513701013894
 30
0.0
 11
178.2175265806381
 21
212.2541893337274
 31
0.0
  0
LINE
  5
67E8
330
1A
100
AcDbEntity
  8
0
100
AcDbLine
 10
177.8392968926804
 20
215.2106083227916
 30
0.0
 11
177.4170460444751
 21
211.8371673116244
 31
0.0
  0
LINE
  5
67E9
330
1A
100
AcDbEntity
  8
0
100
AcDbLine
 10
182.5083072912691
 20
215.171656737257
 30
0.0
 11
182.0873191380018
 21
211.8083036321451
 31
0.0
  0
LINE
  5
67EC
330
1A
100
AcDbEntity
  8
0
100
AcDbLine
 10
178.3105575726974
 20
212.0912000000002
 30
0.0
 11
181.2518598139687
 21
212.0912000000002
 31
0.0
  0
LINE
  5
67ED
330
1A
100
AcDbEntity
  8
0
100
AcDbLine
 10
177.8391177953171
 20
211.2592000000002
 30
0.0
 11
181.5044974989398
 21
211.2592000000002
 31
0.0
  0
LINE
  5
67EE
330
1A
100
AcDbEntity
  8
0
100
AcDbLine
 10
177.5629026571801
 20
211.6374373980267
 30
0.0
 11
178.2175265806381
 21
212.2541893337274
 31
0.0
  0
LINE
  5
67EF
330
1A
100
AcDbEntity
  8
0
100
AcDbLine
 10
177.671333402026
 20
211.4889568944844
 30
0.0
 11
178.3105575726974
 21
212.0912000000002
 31
0.0
  0
LINE
  5
67F0
330
1A
100
AcDbEntity
  8
0
100
AcDbLine
 10
177.671333402026
 20
211.4889568944844
 30
0.0
 11
177.8391177953171
 21
211.2592000000002
 31
0.0
  0
LINE
  5
67F1
330
1A
100
AcDbEntity
  8
0
100
AcDbLine
 10
177.4170460444751
 20
211.8371673116244
 30
0.0
 11
177.5629026571801
 21
211.6374373980267
 31
0.0
  0
ELLIPSE
  5
67F4
330
1A
100
AcDbEntity
  8
0
100
AcDbEllipse
 10
183.0041345941514
 20
211.6184575641952
 30
0.0
 11
0.0000000000000345
 21
0.5439999999999827
 31
0.0
210
0.0
220
0.0
230
1.0
 40
0.890625000000023
 41
-1.57079632679484
 42
4.712388980384746
  0
LINE
  5
67F5
330
1A
100
AcDbEntity
  8
0
100
AcDbLine
 10
181.852108491916
 20
211.5867006383154
 30
0.0
 11
182.0873191380018
 21
211.8083036321452
 31
0.0
  0
LINE
  5
67F6
330
1A
100
AcDbEntity
  8
0
100
AcDbLine
 10
181.388884456005
 20
212.2065450273376
 30
0.0
 11
181.852108491916
 21
211.5867006383154
 31
0.0
  0
LINE
  5
67F7
330
1A
100
AcDbEntity
  8
0
100
AcDbLine
 10
181.2518598139687
 20
212.0912000000002
 30
0.0
 11
181.7211148921427
 21
211.4632854172556
 31
0.0
  0
LINE
  5
67F8
330
1A
100
AcDbEntity
  8
0
100
AcDbLine
 10
181.5044974989398
 20
211.2592000000002
 30
0.0
 11
181.7211148921427
 21
211.4632854172556
 31
0.0
  0
LINE
  5
67FB
330
1A
100
AcDbEntity
  8
0
100
AcDbLine
 10
179.103138217014
 20
219.3295063563348
 30
0.0
 11
178.7231864158838
 21
216.294000344571
 31
0.0
  0
LINE
  5
67FC
330
1A
100
AcDbEntity
  8
0
100
AcDbLine
 10
178.409333951361
 20
219.7647410138489
 30
0.0
 11
177.9712560697769
 21
216.2648548724658
 31
0.0
  0
LINE
  5
67FD
330
1A
100
AcDbEntity
  8
0
100
AcDbLine
 10
182.2811864360401
 20
219.3353124569125
 30
0.0
 11
181.8993990367807
 21
216.2851415083334
 31
0.0
  0
LINE
  5
67FE
330
1A
100
AcDbEntity
  8
0
100
AcDbLine
 10
183.083968230115
 20
219.7707196589389
 30
0.0
 11
182.649081566733
 21
216.2963287567115
 31
0.0
  0
LINE
  5
67FF
330
1A
100
AcDbEntity
  8
0
100
AcDbLine
 10
178.6893251203824
 20
215.3040000000002
 30
0.0
 11
181.5958183234802
 21
215.3040000000002
 31
0.0
  0
LINE
  5
6800
330
1A
100
AcDbEntity
  8
0
100
AcDbLine
 10
178.8215127486896
 20
216.1360000000001
 30
0.0
 11
181.787631285996
 21
216.1360000000001
 31
0.0
  0
LINE
  5
6803
330
1A
100
AcDbEntity
  8
0
100
AcDbLine
 10
178.3790705916621
 20
215.7191544693009
 30
0.0
 11
178.8215127486896
 21
216.1360000000001
 31
0.0
  0
LINE
  5
6804
330
1A
100
AcDbEntity
  8
0
100
AcDbLine
 10
177.8392968926804
 20
215.2106083227916
 30
0.0
 11
178.2480769918888
 21
215.5957392482411
 31
0.0
  0
LINE
  5
6805
330
1A
100
AcDbEntity
  8
0
100
AcDbLine
 10
178.3790705916621
 20
215.7191544693009
 30
0.0
 11
178.6893251203824
 21
215.3040000000002
 31
0.0
  0
LINE
  5
6806
330
1A
100
AcDbEntity
  8
0
100
AcDbLine
 10
177.9712560697769
 20
216.2648548724658
 30
0.0
 11
178.2691539104058
 21
215.8662350023798
 31
0.0
  0
LINE
  5
6807
330
1A
100
AcDbEntity
  8
0
100
AcDbLine
 10
178.2691539104058
 20
215.8662350023798
 30
0.0
 11
178.7231864158838
 21
216.294000344571
 31
0.0
  0
LINE
  5
6808
330
1A
100
AcDbEntity
  8
0
100
AcDbLine
 10
178.2480769918888
 20
215.5957392482411
 30
0.0
 11
178.5801643242654
 21
215.1513701013894
 31
0.0
  0
LINE
  5
6809
330
1A
100
AcDbEntity
  8
0
100
AcDbLine
 10
182.2042436626994
 20
215.877226080267
 30
0.0
 11
182.649081566733
 21
216.2963287567114
 31
0.0
  0
LINE
  5
680A
330
1A
100
AcDbEntity
  8
0
100
AcDbLine
 10
181.8993990367807
 20
216.2851415083334
 30
0.0
 11
182.2042436626994
 21
215.877226080267
 31
0.0
  0
LINE
  5
680B
330
1A
100
AcDbEntity
  8
0
100
AcDbLine
 10
181.787631285996
 20
216.1360000000001
 30
0.0
 11
182.073250062926
 21
215.7538108592072
 31
0.0
  0
LINE
  5
680C
330
1A
100
AcDbEntity
  8
0
100
AcDbLine
 10
182.1831667441824
 20
215.6067303261284
 30
0.0
 11
182.5083072912691
 21
215.171656737257
 31
0.0
  0
LINE
  5
680D
330
1A
100
AcDbEntity
  8
0
100
AcDbLine
 10
181.5958183234802
 20
215.3040000000002
 30
0.0
 11
182.073250062926
 21
215.7538108592072
 31
0.0
  0
LINE
  5
680E
330
1A
100
AcDbEntity
  8
0
100
AcDbLine
 10
181.7651920435297
 20
215.2129367349321
 30
0.0
 11
182.1831667441824
 21
215.6067303261284
 31
0.0
  0
LINE
  5
680F
330
1A
100
AcDbEntity
  8
0
100
AcDbLine
 10
179.2258526555628
 20
219.4640000000001
 30
0.0
 11
182.1517473332472
 21
219.4640000000001
 31
0.0
  0
LINE
  5
6810
330
1A
100
AcDbEntity
  8
0
100
AcDbLine
 10
178.9732151842451
 20
220.296
 30
0.0
 11
182.7003721533549
 21
220.296
 31
0.0
  0
LINE
  5
6811
330
1A
100
AcDbEntity
  8
0
100
AcDbLine
 10
178.7565976656653
 20
220.0919144646211
 30
0.0
 11
178.9732151842451
 21
220.296
 31
0.0
  0
LINE
  5
6812
330
1A
100
AcDbEntity
  8
0
100
AcDbLine
 10
178.409333951361
 20
219.7647410138489
 30
0.0
 11
178.625604065892
 21
219.9684992435613
 31
0.0
  0
LINE
  5
6813
330
1A
100
AcDbEntity
  8
0
100
AcDbLine
 10
178.7565976656653
 20
220.0919144646211
 30
0.0
 11
179.2258526555628
 21
219.4640000000001
 31
0.0
  0
LINE
  5
6814
330
1A
100
AcDbEntity
  8
0
100
AcDbLine
 10
178.625604065892
 20
219.9684992435613
 30
0.0
 11
179.103138217014
 21
219.3295063563348
 31
0.0
  0
LINE
  5
6817
330
1A
100
AcDbEntity
  8
0
100
AcDbLine
 10
182.9451274176757
 20
219.9608424305983
 30
0.0
 11
183.083968230115
 21
219.7707196589389
 31
0.0
  0
LINE
  5
6818
330
1A
100
AcDbEntity
  8
0
100
AcDbLine
 10
182.1517473332472
 20
219.4640000000001
 30
0.0
 11
182.8366966728298
 21
220.1093229341406
 31
0.0
  0
LINE
  5
6819
330
1A
100
AcDbEntity
  8
0
100
AcDbLine
 10
182.2811864360401
 20
219.3353124569125
 30
0.0
 11
182.9451274176757
 21
219.9608424305983
 31
0.0
  0
LINE
  5
681A
330
1A
100
AcDbEntity
  8
0
100
AcDbLine
 10
182.7003721533549
 20
220.296
 30
0.0
 11
182.8366966728298
 21
220.1093229341406
 31
0.0
  0
CIRCLE
  5
681D
330
1A
100
AcDbEntity
  8
SUNPOU
100
AcDbCircle
 10
184.0499999999997
 20
224.6100000000001
 30
0.0
 40
1.5
  0
CIRCLE
  5
681E
330
1A
100
AcDbEntity
  8
0
100
AcDbCircle
 10
184.0499999999997
 20
224.6100000000001
 30
0.0
 40
2.0
  0
CIRCLE
  5
6821
330
1A
100
AcDbEntity
  8
SUNPOU
100
AcDbCircle
 10
145.95
 20
224.6100000000001
 30
0.0
 40
1.5
  0
CIRCLE
  5
6822
330
1A
100
AcDbEntity
  8
0
100
AcDbCircle
 10
145.95
 20
224.6100000000001
 30
0.0
 40
2.0
  0
CIRCLE
  5
6825
330
1A
100
AcDbEntity
  8
SUNPOU
100
AcDbCircle
 10
153.5699999999999
 20
224.6100000000001
 30
0.0
 40
1.5
  0
CIRCLE
  5
6826
330
1A
100
AcDbEntity
  8
0
100
AcDbCircle
 10
153.5699999999999
 20
224.6100000000001
 30
0.0
 40
2.0
  0
CIRCLE
  5
6829
330
1A
100
AcDbEntity
  8
SUNPOU
100
AcDbCircle
 10
161.19
 20
224.6100000000001
 30
0.0
 40
1.5
  0
CIRCLE
  5
682A
330
1A
100
AcDbEntity
  8
0
100
AcDbCircle
 10
161.19
 20
224.6100000000001
 30
0.0
 40
2.0
  0
CIRCLE
  5
682D
330
1A
100
AcDbEntity
  8
SUNPOU
100
AcDbCircle
 10
168.8099999999999
 20
224.6100000000001
 30
0.0
 40
1.5
  0
CIRCLE
  5
682E
330
1A
100
AcDbEntity
  8
0
100
AcDbCircle
 10
168.8099999999999
 20
224.6100000000001
 30
0.0
 40
2.0
  0
CIRCLE
  5
6831
330
1A
100
AcDbEntity
  8
SUNPOU
100
AcDbCircle
 10
176.4299999999999
 20
224.6100000000001
 30
0.0
 40
1.5
  0
CIRCLE
  5
6832
330
1A
100
AcDbEntity
  8
0
100
AcDbCircle
 10
176.4299999999999
 20
224.6100000000001
 30
0.0
 40
2.0
  0
TEXT
  5
6835
330
1A
100
AcDbEntity
  8
WAKU
100
AcDbText
 10
287.5
 20
29.5
 30
0.0
 40
3.0
  1
設　計
 72
     4
 11
292.5
 21
31.0
 31
0.0
100
AcDbText
  0
TEXT
  5
6836
330
1A
100
AcDbEntity
  8
WAKU
100
AcDbText
 10
302.6
 20
29.5
 30
0.0
 40
3.0
  1
検　図
 72
     4
 11
307.5
 21
31.0
 31
0.0
100
AcDbText
  0
TEXT
  5
6837
330
1A
100
AcDbEntity
  8
WAKU
100
AcDbText
 10
325.0
 20
29.5
 30
0.0
 40
3.0
  1
承　認
 72
     4
 11
330.0
 21
31.0
 31
0.0
100
AcDbText
  0
TEXT
  5
6838
330
1A
100
AcDbEntity
  8
WAKU
100
AcDbText
 10
317.5
 20
35.5
 30
0.0
 40
3.0
  1
名　称
 72
     4
 11
322.5
 21
37.0
 31
0.0
100
AcDbText
  0
LINE
  5
6839
330
1A
100
AcDbEntity
  8
SUNPOU
100
AcDbLine
 10
261.95
 20
65.27000000000009
 30
0.0
 11
261.95
 21
65.52000000000004
 31
0.0
  0
LINE
  5
683A
330
1A
100
AcDbEntity
  8
SUNPOU
100
AcDbLine
 10
262.75
 20
65.52000000000004
 30
0.0
 11
262.75
 21
65.27000000000009
 31
0.0
  0
LINE
  5
683B
330
1A
100
AcDbEntity
  8
SUNPOU
100
AcDbLine
 10
261.95
 20
99.04500000000011
 30
0.0
 11
261.95
 21
98.79500000000005
 31
0.0
  0
LINE
  5
683C
330
1A
100
AcDbEntity
  8
SUNPOU
100
AcDbLine
 10
262.75
 20
99.04500000000011
 30
0.0
 11
262.75
 21
98.79500000000005
 31
0.0
  0
LINE
  5
683D
330
1A
100
AcDbEntity
  8
SUNPOU
100
AcDbLine
 10
251.3818676312919
 20
58.60000000000017
 30
0.0
 11
254.4181323687082
 21
58.60000000000018
 31
0.0
  0
LINE
  5
683E
330
1A
100
AcDbEntity
  8
SUNPOU
100
AcDbLine
 10
251.325
 20
59.25000000000017
 30
0.0
 11
251.3826932914196
 21
58.59056266155616
 31
0.0
  0
LINE
  5
683F
330
1A
100
AcDbEntity
  8
SUNPOU
100
AcDbLine
 10
254.475
 20
59.25000000000017
 30
0.0
 11
254.4173067085804
 21
58.59056266155615
 31
0.0
  0
ARC
  5
6840
330
1A
100
AcDbEntity
  8
SUNPOU
100
AcDbCircle
 10
252.9
 20
62.40693909433014
 30
0.0
 40
4.106939094329973
100
AcDbArc
 50
248.3183277593037
 51
291.6816722406963
  0
LINE
  5
6841
330
1A
100
AcDbEntity
  8
SUNPOU
100
AcDbLine
 10
251.3250000000001
 20
59.25000000000017
 30
0.0
 11
254.475
 21
59.25000000000017
 31
0.0
  0
LINE
  5
6842
330
1A
100
AcDbEntity
  8
SUNPOU
100
AcDbLine
 10
250.9
 20
59.50000000000017
 30
0.0
 11
254.9
 21
59.50000000000017
 31
0.0
  0
LINE
  5
6843
330
1A
100
AcDbEntity
  8
SUNPOU
100
AcDbLine
 10
250.9
 20
59.50000000000017
 30
0.0
 11
250.9
 21
59.25000000000017
 31
0.0
  0
LINE
  5
6844
330
1A
100
AcDbEntity
  8
SUNPOU
100
AcDbLine
 10
254.9
 20
59.50000000000017
 30
0.0
 11
254.9
 21
59.25000000000017
 31
0.0
  0
LINE
  5
6845
330
1A
100
AcDbEntity
  8
SUNPOU
100
AcDbLine
 10
254.9
 20
59.25000000000017
 30
0.0
 11
250.9
 21
59.25000000000017
 31
0.0
  0
LINE
  5
6846
330
1A
100
AcDbEntity
  8
SUNPOU
100
AcDbLine
 10
254.4181323687082
 20
125.4
 30
0.0
 11
251.3818676312919
 21
125.4
 31
0.0
  0
LINE
  5
6847
330
1A
100
AcDbEntity
  8
SUNPOU
100
AcDbLine
 10
254.475
 20
124.75
 30
0.0
 11
254.4173067085805
 21
125.409437338444
 31
0.0
  0
LINE
  5
6848
330
1A
100
AcDbEntity
  8
SUNPOU
100
AcDbLine
 10
251.3250000000001
 20
124.75
 30
0.0
 11
251.3826932914196
 21
125.409437338444
 31
0.0
  0
ARC
  5
6849
330
1A
100
AcDbEntity
  8
SUNPOU
100
AcDbCircle
 10
252.9
 20
121.5930609056701
 30
0.0
 40
4.106939094329973
100
AcDbArc
 50
68.31832775930367
 51
111.6816722406963
  0
LINE
  5
684A
330
1A
100
AcDbEntity
  8
SUNPOU
100
AcDbLine
 10
254.475
 20
124.75
 30
0.0
 11
251.3250000000001
 21
124.75
 31
0.0
  0
LINE
  5
684B
330
1A
100
AcDbEntity
  8
SUNPOU
100
AcDbLine
 10
254.9
 20
124.5
 30
0.0
 11
250.9
 21
124.5
 31
0.0
  0
LINE
  5
684C
330
1A
100
AcDbEntity
  8
SUNPOU
100
AcDbLine
 10
254.9
 20
124.5
 30
0.0
 11
254.9
 21
124.75
 31
0.0
  0
LINE
  5
684D
330
1A
100
AcDbEntity
  8
SUNPOU
100
AcDbLine
 10
250.9
 20
124.5
 30
0.0
 11
250.9
 21
124.75
 31
0.0
  0
LINE
  5
684E
330
1A
100
AcDbEntity
  8
SUNPOU
100
AcDbLine
 10
250.9
 20
124.75
 30
0.0
 11
254.9
 21
124.75
 31
0.0
  0
INSERT
  5
684F
330
1A
100
AcDbEntity
  8
SUNPOU
100
AcDbBlockReference
  2
M3-1
 10
-247.0
 20
63.00000000000011
 30
0.0
 41
0.5
 42
0.5
 43
-0.5
 50
270.0
210
0.0
220
0.0
230
-1.0
  0
INSERT
  5
6850
330
1A
100
AcDbEntity
  8
SUNPOU
100
AcDbBlockReference
  2
M3-1
 10
247.0
 20
121.0
 30
0.0
 41
0.5
 42
0.5
 43
0.5
 50
90.0
  0
INSERT
  5
6851
330
1A
100
AcDbEntity
  8
SUNPOU
100
AcDbBlockReference
  2
TB16P-1
 10
255.7
 20
65.52000000000004
 30
0.0
 41
0.5
 42
0.5
 43
0.5
  0
LINE
  5
6852
330
1A
100
AcDbEntity
  8
SUNPOU
100
AcDbLine
 10
247.0
 20
60.00000000000017
 30
0.0
 11
247.0
 21
92.00000000000008
 31
0.0
  0
LINE
  5
6853
330
1A
100
AcDbEntity
  8
SUNPOU
100
AcDbLine
 10
247.0
 20
60.00000000000017
 30
0.0
 11
264.4000000000001
 21
60.00000000000017
 31
0.0
  0
LINE
  5
6854
330
1A
100
AcDbEntity
  8
SUNPOU
100
AcDbLine
 10
264.9
 20
65.27000000000009
 30
0.0
 11
255.6
 21
65.27000000000009
 31
0.0
  0
LINE
  5
6855
330
1A
100
AcDbEntity
  8
SUNPOU
100
AcDbLine
 10
255.6
 20
99.04500000000011
 30
0.0
 11
255.6
 21
65.27000000000009
 31
0.0
  0
LINE
  5
6856
330
1A
100
AcDbEntity
  8
SUNPOU
100
AcDbLine
 10
247.0
 20
124.0
 30
0.0
 11
264.4000000000001
 21
124.0
 31
0.0
  0
LINE
  5
6857
330
1A
100
AcDbEntity
  8
SUNPOU
100
AcDbLine
 10
247.0
 20
124.0
 30
0.0
 11
247.0
 21
92.00000000000008
 31
0.0
  0
LINE
  5
6858
330
1A
100
AcDbEntity
  8
SUNPOU
100
AcDbLine
 10
255.6
 20
99.04500000000011
 30
0.0
 11
264.9
 21
99.04500000000011
 31
0.0
  0
LINE
  5
6859
330
1A
100
AcDbEntity
  8
SUNPOU
100
AcDbLine
 10
261.9
 20
99.04500000000011
 30
0.0
 11
261.9
 21
124.1
 31
0.0
  0
LINE
  5
685A
330
1A
100
AcDbEntity
  8
SUNPOU
100
AcDbLine
 10
264.9
 20
99.04500000000011
 30
0.0
 11
264.9
 21
124.1
 31
0.0
  0
ARC
  5
685B
330
1A
100
AcDbEntity
  8
SUNPOU
100
AcDbCircle
 10
264.5
 20
124.1
 30
0.0
 40
0.4
100
AcDbArc
 50
0.0
 51
90.0
  0
LINE
  5
685C
330
1A
100
AcDbEntity
  8
SUNPOU
100
AcDbLine
 10
261.9
 20
65.27000000000009
 30
0.0
 11
261.9
 21
59.90000000000015
 31
0.0
  0
LINE
  5
685D
330
1A
100
AcDbEntity
  8
SUNPOU
100
AcDbLine
 10
264.9
 20
65.27000000000009
 30
0.0
 11
264.9
 21
59.90000000000015
 31
0.0
  0
ARC
  5
685E
330
1A
100
AcDbEntity
  8
SUNPOU
100
AcDbCircle
 10
264.5
 20
59.90000000000015
 30
0.0
 40
0.4
100
AcDbArc
 50
270.0
 51
0.0
  0
LINE
  5
685F
330
1A
100
AcDbEntity
  8
SUNPOU
100
AcDbLine
 10
264.5
 20
59.90000000000017
 30
0.0
 11
245.3
 21
59.90000000000015
 31
0.0
  0
LINE
  5
6860
330
1A
100
AcDbEntity
  8
SUNPOU
100
AcDbLine
 10
264.5
 20
59.5000000000002
 30
0.0
 11
245.3
 21
59.50000000000011
 31
0.0
  0
LINE
  5
6861
330
1A
100
AcDbEntity
  8
SUNPOU
100
AcDbLine
 10
245.3
 20
54.50000000000011
 30
0.0
 11
244.9
 21
54.50000000000011
 31
0.0
  0
LINE
  5
6862
330
1A
100
AcDbEntity
  8
SUNPOU
100
AcDbLine
 10
244.9
 20
54.50000000000011
 30
0.0
 11
244.9
 21
59.50000000000011
 31
0.0
  0
LINE
  5
6863
330
1A
100
AcDbEntity
  8
SUNPOU
100
AcDbLine
 10
245.3
 20
54.50000000000011
 30
0.0
 11
245.3
 21
59.50000000000011
 31
0.0
  0
ARC
  5
6864
330
1A
100
AcDbEntity
  8
SUNPOU
100
AcDbCircle
 10
245.3
 20
59.50000000000011
 30
0.0
 40
0.4
100
AcDbArc
 50
90.0
 51
180.0
  0
LINE
  5
6865
330
1A
100
AcDbEntity
  8
SUNPOU
100
AcDbLine
 10
264.5
 20
124.5
 30
0.0
 11
245.3
 21
124.5
 31
0.0
  0
LINE
  5
6866
330
1A
100
AcDbEntity
  8
SUNPOU
100
AcDbLine
 10
264.5
 20
124.1
 30
0.0
 11
245.3
 21
124.1
 31
0.0
  0
ARC
  5
6867
330
1A
100
AcDbEntity
  8
SUNPOU
100
AcDbCircle
 10
245.3
 20
124.5
 30
0.0
 40
0.4
100
AcDbArc
 50
180.0
 51
270.0
  0
LINE
  5
6868
330
1A
100
AcDbEntity
  8
SUNPOU
100
AcDbLine
 10
245.3
 20
129.5
 30
0.0
 11
245.3
 21
124.5
 31
0.0
  0
LINE
  5
6869
330
1A
100
AcDbEntity
  8
SUNPOU
100
AcDbLine
 10
244.9
 20
129.5
 30
0.0
 11
244.9
 21
124.5
 31
0.0
  0
LINE
  5
686A
330
1A
100
AcDbEntity
  8
SUNPOU
100
AcDbLine
 10
245.3
 20
129.5
 30
0.0
 11
244.9
 21
129.5
 31
0.0
  0
LINE
  5
686C
330
1A
100
AcDbEntity
  8
SUNPOU
100
AcDbLine
 10
244.9
 20
52.0000000000001
 30
0.0
 11
244.9
 21
132.0
 31
0.0
  0
HATCH
  5
6A33
330
1A
100
AcDbEntity
  8
SUNPOU
100
AcDbHatch
 10
0.0
 20
0.0
 30
0.0
210
0.0
220
0.0
230
1.0
  2
ANSI31
 70
     0
 71
     0
 91
        1
 92
        7
 72
     0
 73
     1
 93
        4
 10
244.9
 20
132.0
 10
242.9
 20
132.0
 10
242.9
 20
52.00000000000012
 10
244.9
 20
52.00000000000009
 97
        0
 75
     0
 76
     1
 52
0.0
 41
1.0
 77
     0
 78
     1
 53
45.0
 43
0.0
 44
0.0
 45
-2.245064030267287
 46
2.245064030267288
 79
     0
 47
0.1334963909621611
 98
        1
 10
244.0
 20
118.5
  0
LWPOLYLINE
  5
6A34
330
1A
100
AcDbEntity
  8
SUNPOU
100
AcDbPolyline
 90
        5
 70
     0
 43
0.0
 10
271.0
 20
121.25
 10
272.1650635094611
 20
121.25
 10
270.0
 20
125.0
 10
267.8349364905389
 20
121.25
 10
269.0
 20
121.25
  0
LINE
  5
6A35
330
1A
100
AcDbEntity
  8
SUNPOU
100
AcDbLine
 10
271.0
 20
117.5
 30
0.0
 11
269.0
 21
117.5
 31
0.0
  0
LINE
  5
6A36
330
1A
100
AcDbEntity
  8
SUNPOU
100
AcDbLine
 10
271.0
 20
121.25
 30
0.0
 11
271.0
 21
117.5
 31
0.0
  0
LINE
  5
6A37
330
1A
100
AcDbEntity
  8
SUNPOU
100
AcDbLine
 10
269.0
 20
121.25
 30
0.0
 11
269.0
 21
117.5
 31
0.0
  0
TEXT
  5
6A38
330
1A
100
AcDbEntity
  8
SUNPOU
100
AcDbText
 10
274.0
 20
117.5
 30
0.0
 40
3.0
  1
UP SIDE
100
AcDbText
  0
INSERT
  5
6A39
330
1A
100
AcDbEntity
  8
SUNPOU
100
AcDbBlockReference
  2
M3-1
 10
-245.3
 20
127.0
 30
0.0
 41
0.6667
 42
0.6667
 43
-0.6667
 50
90.0
210
0.0
220
0.0
230
-1.0
  0
INSERT
  5
6A3A
330
1A
100
AcDbEntity
  8
SUNPOU
100
AcDbBlockReference
  2
M3-1
 10
-245.3
 20
57.00000000000011
 30
0.0
 41
0.6667
 42
0.6667
 43
-0.6667
 50
90.0
210
0.0
220
0.0
230
-1.0
  0
TEXT
  5
6A5D
330
1A
100
AcDbEntity
  8
0
100
AcDbText
 10
169.4961904761903
 20
205.4100000000001
 30
0.0
 40
2.0
  1
LOCK
 41
0.8
 72
     1
 11
172.6199999999999
 21
207.4100000000001
 31
0.0
100
AcDbText
 73
     3
  0
LINE
  5
6A5E
330
1A
100
AcDbEntity
  8
0
100
AcDbLine
 10
255.0
 20
180.0
 30
0.0
 11
395.0
 21
180.0
 31
0.0
  0
LINE
  5
6A5F
330
1A
100
AcDbEntity
  8
0
100
AcDbLine
 10
255.0
 20
173.0
 30
0.0
 11
395.0
 21
173.0
 31
0.0
  0
LINE
  5
6A60
330
1A
100
AcDbEntity
  8
0
100
AcDbLine
 10
255.0
 20
187.0
 30
0.0
 11
255.0
 21
166.0
 31
0.0
  0
TEXT
  5
6A61
330
1A
100
AcDbEntity
  8
0
100
AcDbText
 10
257.0
 20
182.0
 30
0.0
 40
3.0
  1
OP-1
100
AcDbText
  0
TEXT
  5
6A62
330
1A
100
AcDbEntity
  8
0
100
AcDbText
 10
257.0
 20
175.0
 30
0.0
 40
3.0
  1
OP-5
100
AcDbText
  0
TEXT
  5
6A63
330
1A
100
AcDbEntity
  8
0
100
AcDbText
 10
257.0
 20
168.0
 30
0.0
 40
3.0
  1
OP-4
100
AcDbText
  0
TEXT
  5
6A64
330
1A
100
AcDbEntity
  8
0
100
AcDbText
 10
277.0
 20
175.0
 30
0.0
 40
3.0
  1
0～10V電圧出力(アイソレート出力 , 負荷抵抗5kΩ以上)
100
AcDbText
  0
TEXT
  5
6A65
330
1A
100
AcDbEntity
  8
0
100
AcDbText
 10
277.0
 20
168.0
 30
0.0
 40
3.0
  1
カレントループシリアル出力 (弊社周辺機器接続用)
100
AcDbText
  0
TEXT
  5
6A66
330
1A
100
AcDbEntity
  8
0
100
AcDbText
 10
237.0
 20
175.0
 30
0.0
 40
3.0
  1
(何れか1点)
 41
0.8
100
AcDbText
  0
TEXT
  5
6A68
330
1A
100
AcDbEntity
  8
WAKU
100
AcDbText
 10
248.0
 20
25.5
 30
0.0
 40
3.0
  1
大野
100
AcDbText
  0
TEXT
  5
6A69
330
1A
100
AcDbEntity
  8
WAKU
100
AcDbText
 10
234.0
 20
26.0
 30
0.0
 40
1.8
  1
08.03.14
 41
0.9
100
AcDbText
  0
VIEWPORT
  5
22
102
{ACAD_XDICTIONARY
360
6A7A
102
}
330
17
100
AcDbEntity
 67
     1
  8
0
100
AcDbViewport
 10
261.5176991150442
 20
154.7242978687078
 30
0.0
 40
523.0353982300885
 41
309.4485957374157
 68
     1
 69
     1
 12
261.5176991150442
 22
154.7242978687078
 13
0.0
 23
0.0
 14
1.0
 24
1.0
 15
10.0
 25
10.0
 16
0.0
 26
0.0
 36
1.0
 17
0.0
 27
0.0
 37
0.0
 42
50.0
 43
0.0
 44
0.0
 45
309.4485957374157
 50
0.0
 51
0.0
 72
   100
 90
    32768
  1

281
     0
 71
     1
 74
     0
110
0.0
120
0.0
130
0.0
111
1.0
121
0.0
131
0.0
112
0.0
122
1.0
132
0.0
 79
     0
146
0.0
  0
ENDSEC
  0
SECTION
  2
OBJECTS
  0
DICTIONARY
  5
C
330
0
100
AcDbDictionary
281
     1
  3
ACAD_COLOR
350
2BB0
  3
ACAD_GROUP
350
D
  3
ACAD_LAYOUT
350
2BB1
  3
ACAD_MATERIAL
350
2BAF
  3
ACAD_MLINESTYLE
350
E
  3
ACAD_PLOTSETTINGS
350
2BB2
  3
ACAD_PLOTSTYLENAME
350
2BAD
  3
ACDBHEADERROUNDTRIPXREC
350
6A77
  3
AcDbVariableDictionary
350
6A73
  3
CONTENTDICTIONARY
350
2405
  0
DICTIONARY
  5
6A7A
330
22
100
AcDbDictionary
280
     1
281
     1
  3
ACAD_XREC_ROUNDTRIP
360
6A7B
  0
DICTIONARY
  5
2BB0
102
{ACAD_REACTORS
330
C
102
}
330
C
100
AcDbDictionary
281
     1
  0
DICTIONARY
  5
D
102
{ACAD_REACTORS
330
C
102
}
330
C
100
AcDbDictionary
281
     1
  3
*A1
350
37E4
  3
*A10
350
3849
  3
*A11
350
4D94
  3
*A12
350
4D9E
  3
*A13
350
4F00
  3
*A14
350
4F01
  3
*A15
350
4FDD
  3
*A16
350
4FDE
  3
*A17
350
531B
  3
*A2
350
37C4
  3
*A3
350
3B19
  3
*A4
350
37C5
  3
*A5
350
37C6
  3
*A6
350
396A
  3
*A7
350
3BD1
  3
*A8
350
39A8
  3
*A9
350
3848
  0
DICTIONARY
  5
2BB1
102
{ACAD_REACTORS
330
C
102
}
330
C
100
AcDbDictionary
281
     1
  3
Model
350
2BB3
  3
レイアウト1
350
2BB4
  0
DICTIONARY
  5
2BAF
102
{ACAD_REACTORS
330
C
102
}
330
C
100
AcDbDictionary
281
     1
  0
DICTIONARY
  5
E
102
{ACAD_REACTORS
330
C
102
}
330
C
100
AcDbDictionary
281
     1
  3
STANDARD
350
13
  0
DICTIONARY
  5
2BB2
102
{ACAD_REACTORS
330
C
102
}
330
C
100
AcDbDictionary
281
     1
  0
ACDBDICTIONARYWDFLT
  5
2BAD
102
{ACAD_REACTORS
330
C
102
}
330
C
100
AcDbDictionary
281
     1
  3
Normal
350
2BAE
100
AcDbDictionaryWithDefault
340
2BAE
  0
DICTIONARY
  5
6A77
102
{ACAD_REACTORS
330
C
102
}
330
C
100
AcDbDictionary
281
     1
  3
COLORDICT
350
6A79
  3
MATERIALDICT
350
6A78
  0
DICTIONARY
  5
6A73
102
{ACAD_REACTORS
330
C
102
}
330
C
100
AcDbDictionary
281
     1
  3
DIMASSOC
350
6A74
  3
PROJECTNAME
350
6A75
  0
DICTIONARY
  5
2405
102
{ACAD_REACTORS
330
C
102
}
330
C
100
AcDbDictionary
281
     1
  0
XRECORD
  5
6A7B
102
{ACAD_REACTORS
330
6A7A
102
}
330
6A7A
100
AcDbXrecord
280
     1
102
SHADEPLOT
 70
     0
  0
GROUP
  5
37E4
102
{ACAD_REACTORS
330
D
102
}
330
D
100
AcDbGroup
300

 70
     1
 71
     1
  0
GROUP
  5
3849
102
{ACAD_REACTORS
330
D
102
}
330
D
100
AcDbGroup
300

 70
     1
 71
     1
  0
GROUP
  5
4D94
102
{ACAD_REACTORS
330
D
102
}
330
D
100
AcDbGroup
300

 70
     1
 71
     1
  0
GROUP
  5
4D9E
102
{ACAD_REACTORS
330
D
102
}
330
D
100
AcDbGroup
300

 70
     1
 71
     1
  0
GROUP
  5
4F00
102
{ACAD_REACTORS
330
D
102
}
330
D
100
AcDbGroup
300

 70
     1
 71
     1
  0
GROUP
  5
4F01
102
{ACAD_REACTORS
330
D
102
}
330
D
100
AcDbGroup
300

 70
     1
 71
     1
  0
GROUP
  5
4FDD
102
{ACAD_REACTORS
330
D
102
}
330
D
100
AcDbGroup
300

 70
     1
 71
     1
  0
GROUP
  5
4FDE
102
{ACAD_REACTORS
330
D
102
}
330
D
100
AcDbGroup
300

 70
     1
 71
     1
  0
GROUP
  5
531B
102
{ACAD_REACTORS
330
D
102
}
330
D
100
AcDbGroup
300

 70
     1
 71
     1
  0
GROUP
  5
37C4
102
{ACAD_REACTORS
330
D
102
}
330
D
100
AcDbGroup
300

 70
     1
 71
     1
  0
GROUP
  5
3B19
102
{ACAD_REACTORS
330
D
102
}
330
D
100
AcDbGroup
300

 70
     1
 71
     1
  0
GROUP
  5
37C5
102
{ACAD_REACTORS
330
D
102
}
330
D
100
AcDbGroup
300

 70
     1
 71
     1
  0
GROUP
  5
37C6
102
{ACAD_REACTORS
330
D
102
}
330
D
100
AcDbGroup
300

 70
     1
 71
     1
  0
GROUP
  5
396A
102
{ACAD_REACTORS
330
D
102
}
330
D
100
AcDbGroup
300

 70
     1
 71
     1
  0
GROUP
  5
3BD1
102
{ACAD_REACTORS
330
D
102
}
330
D
100
AcDbGroup
300

 70
     1
 71
     1
  0
GROUP
  5
39A8
102
{ACAD_REACTORS
330
D
102
}
330
D
100
AcDbGroup
300

 70
     1
 71
     1
  0
GROUP
  5
3848
102
{ACAD_REACTORS
330
D
102
}
330
D
100
AcDbGroup
300

 70
     1
 71
     1
  0
LAYOUT
  5
2BB3
102
{ACAD_XDICTIONARY
360
6A7C
102
}
102
{ACAD_REACTORS
330
2BB1
102
}
330
2BB1
100
AcDbPlotSettings
  1

  2
Adobe PDF A3横.pc3
  4
A3
  6

 40
3.174999952316284
 41
3.174999952316284
 42
3.17498779296875
 43
3.17498779296875
 44
420.1583251953125
 45
297.0530090332031
 46
0.0
 47
0.0
 48
0.0
 49
0.0
140
0.0
141
0.0
142
1.0
143
1.0
 70
 11952
 72
     1
 73
     0
 74
     2
  7
tmi_penstyle.ctb
 75
    16
147
1.0
148
0.0
149
0.0
100
AcDbLayout
  1
Model
 70
     1
 71
     0
 10
0.0
 20
0.0
 11
12.0
 21
9.0
 12
0.0
 22
0.0
 32
0.0
 14
0.0
 24
0.0
 34
0.0
 15
0.0
 25
0.0
 35
0.0
146
0.0
 13
0.0
 23
0.0
 33
0.0
 16
1.0
 26
0.0
 36
0.0
 17
0.0
 27
1.0
 37
0.0
 76
     0
330
1A
  0
LAYOUT
  5
2BB4
102
{ACAD_XDICTIONARY
360
6A7E
102
}
102
{ACAD_REACTORS
330
2BB1
102
}
330
2BB1
100
AcDbPlotSettings
  1

  2
Adobe PDF
  4

  6

 40
0.0
 41
0.0
 42
0.0
 43
0.0
 44
0.0
 45
0.0
 46
0.0
 47
0.0
 48
0.0
 49
0.0
140
0.0
141
0.0
142
1.0
143
1.0
 70
   688
 72
     0
 73
     0
 74
     5
  7
tmi_penstyle.ctb
 75
    16
147
1.0
148
0.0
149
0.0
100
AcDbLayout
  1
レイアウト1
 70
     1
 71
     1
 10
0.0
 20
0.0
 11
420.0
 21
297.0
 12
0.0
 22
0.0
 32
0.0
 14
1.000000000000000E+20
 24
1.000000000000000E+20
 34
1.000000000000000E+20
 15
-1.000000000000000E+20
 25
-1.000000000000000E+20
 35
-1.000000000000000E+20
146
0.0
 13
0.0
 23
0.0
 33
0.0
 16
1.0
 26
0.0
 36
0.0
 17
0.0
 27
1.0
 37
0.0
 76
     0
330
17
331
22
  0
MLINESTYLE
  5
13
102
{ACAD_REACTORS
330
E
102
}
330
E
100
AcDbMlineStyle
  2
STANDARD
 70
     0
  3

 62
     0
 51
90.0
 52
90.0
 71
     2
 49
0.5
 62
   256
  6
BYLAYER
 49
-0.5
 62
   256
  6
BYLAYER
  0
ACDBPLACEHOLDER
  5
2BAE
102
{ACAD_REACTORS
330
2BAD
102
}
330
2BAD
  0
XRECORD
  5
6A79
102
{ACAD_REACTORS
330
6A77
102
}
330
6A77
100
AcDbXrecord
280
     1
340
2BB0
  0
XRECORD
  5
6A78
102
{ACAD_REACTORS
330
6A77
102
}
330
6A77
100
AcDbXrecord
280
     1
340
2BAF
  0
DICTIONARYVAR
  5
6A74
102
{ACAD_REACTORS
330
6A73
102
}
330
6A73
100
DictionaryVariables
280
     0
  1
1
  0
DICTIONARYVAR
  5
6A75
102
{ACAD_REACTORS
330
6A73
102
}
330
6A73
100
DictionaryVariables
280
     0
  1

  0
DICTIONARY
  5
6A7C
330
2BB3
100
AcDbDictionary
280
     1
281
     1
  3
ACAD_XREC_ROUNDTRIP
360
6A7D
  0
DICTIONARY
  5
6A7E
330
2BB4
100
AcDbDictionary
280
     1
281
     1
  3
ACAD_XREC_ROUNDTRIP
360
6A7F
  0
XRECORD
  5
6A7D
102
{ACAD_REACTORS
330
6A7C
102
}
330
6A7C
100
AcDbXrecord
280
     1
102
SHADEPLOT
 70
     0
102
SHADEPLOTRESLEVEL
 70
     2
102
SHADEPLOTCUSTOMDPI
 70
   300
  0
XRECORD
  5
6A7F
102
{ACAD_REACTORS
330
6A7E
102
}
330
6A7E
100
AcDbXrecord
280
     1
102
SHADEPLOT
 70
     0
102
SHADEPLOTRESLEVEL
 70
     2
102
SHADEPLOTCUSTOMDPI
 70
   300
  0
ENDSEC
  0
EOF
