  0
SECTION
  2
HEADER
  9
$ACADVER
  1
AC1015
  9
$ACADMAINTVER
 70
    20
  9
$DWGCODEPAGE
  3
ANSI_932
  9
$INSBASE
 10
0.0
 20
0.0
 30
0.0
  9
$EXTMIN
 10
20.0
 20
5.0
 30
0.0
  9
$EXTMAX
 10
405.0
 20
280.0
 30
0.0
  9
$LIMMIN
 10
0.0
 20
0.0
  9
$LIMMAX
 10
420.0
 20
297.0
  9
$ORTHOMODE
 70
     0
  9
$REGENMODE
 70
     1
  9
$FILLMODE
 70
     1
  9
$QTEXTMODE
 70
     0
  9
$MIRRTEXT
 70
     1
  9
$LTSCALE
 40
15.0
  9
$ATTMODE
 70
     1
  9
$TEXTSIZE
 40
2.0
  9
$TRACEWID
 40
1.0
  9
$TEXTSTYLE
  7
STANDARD
  9
$CLAYER
  8
SUNPOU
  9
$CELTYPE
  6
BYLAYER
  9
$CECOLOR
 62
   256
  9
$CELTSCALE
 40
1.0
  9
$DISPSILH
 70
     0
  9
$DIMSCALE
 40
1.0
  9
$DIMASZ
 40
2.5
  9
$DIMEXO
 40
0.5
  9
$DIMDLI
 40
10.0
  9
$DIMRND
 40
0.0
  9
$DIMDLE
 40
0.0
  9
$DIMEXE
 40
0.5
  9
$DIMTP
 40
0.0
  9
$DIMTM
 40
0.0
  9
$DIMTXT
 40
3.0
  9
$DIMCEN
 40
0.0
  9
$DIMTSZ
 40
0.0
  9
$DIMTOL
 70
     0
  9
$DIMLIM
 70
     0
  9
$DIMTIH
 70
     0
  9
$DIMTOH
 70
     0
  9
$DIMSE1
 70
     0
  9
$DIMSE2
 70
     0
  9
$DIMTAD
 70
     1
  9
$DIMZIN
 70
     0
  9
$DIMBLK
  1

  9
$DIMASO
 70
     1
  9
$DIMSHO
 70
     1
  9
$DIMPOST
  1

  9
$DIMAPOST
  1

  9
$DIMALT
 70
     0
  9
$DIMALTD
 70
     2
  9
$DIMALTF
 40
25.4
  9
$DIMLFAC
 40
1.0
  9
$DIMTOFL
 70
     0
  9
$DIMTVP
 40
0.0
  9
$DIMTIX
 70
     0
  9
$DIMSOXD
 70
     0
  9
$DIMSAH
 70
     1
  9
$DIMBLK1
  1
OPEN
  9
$DIMBLK2
  1
OPEN
  9
$DIMSTYLE
  2
STANDARD
  9
$DIMCLRD
 70
     0
  9
$DIMCLRE
 70
     0
  9
$DIMCLRT
 70
     0
  9
$DIMTFAC
 40
1.0
  9
$DIMGAP
 40
0.5
  9
$DIMJUST
 70
     0
  9
$DIMSD1
 70
     0
  9
$DIMSD2
 70
     0
  9
$DIMTOLJ
 70
     1
  9
$DIMTZIN
 70
     0
  9
$DIMALTZ
 70
     0
  9
$DIMALTTZ
 70
     0
  9
$DIMUPT
 70
     0
  9
$DIMDEC
 70
     1
  9
$DIMTDEC
 70
     0
  9
$DIMALTU
 70
     2
  9
$DIMALTTD
 70
     2
  9
$DIMTXSTY
  7
STANDARD
  9
$DIMAUNIT
 70
     0
  9
$DIMADEC
 70
     0
  9
$DIMALTRND
 40
0.0
  9
$DIMAZIN
 70
     0
  9
$DIMDSEP
 70
    46
  9
$DIMATFIT
 70
     3
  9
$DIMFRAC
 70
     0
  9
$DIMLDRBLK
  1

  9
$DIMLUNIT
 70
     2
  9
$DIMLWD
 70
    -2
  9
$DIMLWE
 70
    -2
  9
$DIMTMOVE
 70
     0
  9
$LUNITS
 70
     2
  9
$LUPREC
 70
     4
  9
$SKETCHINC
 40
1.0
  9
$FILLETRAD
 40
1.0
  9
$AUNITS
 70
     0
  9
$AUPREC
 70
     0
  9
$MENU
  1
.
  9
$ELEVATION
 40
0.0
  9
$PELEVATION
 40
0.0
  9
$THICKNESS
 40
0.0
  9
$LIMCHECK
 70
     0
  9
$CHAMFERA
 40
0.5
  9
$CHAMFERB
 40
0.5
  9
$CHAMFERC
 40
20.0
  9
$CHAMFERD
 40
0.0
  9
$SKPOLY
 70
     0
  9
$TDCREATE
 40
2450857.620429745
  9
$TDUCREATE
 40
2450857.245429745
  9
$TDUPDATE
 40
2455394.448302951
  9
$TDUUPDATE
 40
2455394.073302951
  9
$TDINDWG
 40
2.0038366667
  9
$TDUSRTIMER
 40
2.0038366667
  9
$USRTIMER
 70
     1
  9
$ANGBASE
 50
0.0
  9
$ANGDIR
 70
     0
  9
$PDMODE
 70
     0
  9
$PDSIZE
 40
0.0
  9
$PLINEWID
 40
0.0
  9
$SPLFRAME
 70
     0
  9
$SPLINETYPE
 70
     6
  9
$SPLINESEGS
 70
     8
  9
$HANDSEED
  5
2DE4
  9
$SURFTAB1
 70
     6
  9
$SURFTAB2
 70
     6
  9
$SURFTYPE
 70
     6
  9
$SURFU
 70
     6
  9
$SURFV
 70
     6
  9
$UCSBASE
  2

  9
$UCSNAME
  2

  9
$UCSORG
 10
0.0
 20
0.0
 30
0.0
  9
$UCSXDIR
 10
1.0
 20
0.0
 30
0.0
  9
$UCSYDIR
 10
0.0
 20
1.0
 30
0.0
  9
$UCSORTHOREF
  2

  9
$UCSORTHOVIEW
 70
     0
  9
$UCSORGTOP
 10
0.0
 20
0.0
 30
0.0
  9
$UCSORGBOTTOM
 10
0.0
 20
0.0
 30
0.0
  9
$UCSORGLEFT
 10
0.0
 20
0.0
 30
0.0
  9
$UCSORGRIGHT
 10
0.0
 20
0.0
 30
0.0
  9
$UCSORGFRONT
 10
0.0
 20
0.0
 30
0.0
  9
$UCSORGBACK
 10
0.0
 20
0.0
 30
0.0
  9
$PUCSBASE
  2

  9
$PUCSNAME
  2

  9
$PUCSORG
 10
0.0
 20
0.0
 30
0.0
  9
$PUCSXDIR
 10
1.0
 20
0.0
 30
0.0
  9
$PUCSYDIR
 10
0.0
 20
1.0
 30
0.0
  9
$PUCSORTHOREF
  2

  9
$PUCSORTHOVIEW
 70
     0
  9
$PUCSORGTOP
 10
0.0
 20
0.0
 30
0.0
  9
$PUCSORGBOTTOM
 10
0.0
 20
0.0
 30
0.0
  9
$PUCSORGLEFT
 10
0.0
 20
0.0
 30
0.0
  9
$PUCSORGRIGHT
 10
0.0
 20
0.0
 30
0.0
  9
$PUCSORGFRONT
 10
0.0
 20
0.0
 30
0.0
  9
$PUCSORGBACK
 10
0.0
 20
0.0
 30
0.0
  9
$USERI1
 70
     0
  9
$USERI2
 70
     0
  9
$USERI3
 70
     0
  9
$USERI4
 70
     0
  9
$USERI5
 70
     0
  9
$USERR1
 40
0.0
  9
$USERR2
 40
0.0
  9
$USERR3
 40
0.0
  9
$USERR4
 40
0.0
  9
$USERR5
 40
0.0
  9
$WORLDVIEW
 70
     1
  9
$SHADEDGE
 70
     3
  9
$SHADEDIF
 70
    70
  9
$TILEMODE
 70
     1
  9
$MAXACTVP
 70
    16
  9
$PINSBASE
 10
0.0
 20
0.0
 30
0.0
  9
$PLIMCHECK
 70
     0
  9
$PEXTMIN
 10
1.000000000000000E+20
 20
1.000000000000000E+20
 30
1.000000000000000E+20
  9
$PEXTMAX
 10
-1.000000000000000E+20
 20
-1.000000000000000E+20
 30
-1.000000000000000E+20
  9
$PLIMMIN
 10
0.0
 20
0.0
  9
$PLIMMAX
 10
420.0
 20
297.0
  9
$UNITMODE
 70
     0
  9
$VISRETAIN
 70
     0
  9
$PLINEGEN
 70
     0
  9
$PSLTSCALE
 70
     1
  9
$TREEDEPTH
 70
  3020
  9
$CMLSTYLE
  2
STANDARD
  9
$CMLJUST
 70
     0
  9
$CMLSCALE
 40
1.0
  9
$PROXYGRAPHICS
 70
     1
  9
$MEASUREMENT
 70
     1
  9
$CELWEIGHT
370
    -1
  9
$ENDCAPS
280
     0
  9
$JOINSTYLE
280
     0
  9
$LWDISPLAY
290
     0
  9
$INSUNITS
 70
     0
  9
$HYPERLINKBASE
  1

  9
$STYLESHEET
  1
tmi_penstyle.ctb
  9
$XEDIT
290
     1
  9
$CEPSNTYPE
380
     0
  9
$PSTYLEMODE
290
     1
  9
$FINGERPRINTGUID
  2
{BE6A69A7-ABDB-43C7-99AD-83823B42A4DA}
  9
$VERSIONGUID
  2
{7083D785-34C5-40D6-A61F-E365D6AEC77A}
  9
$EXTNAMES
290
     1
  9
$PSVPSCALE
 40
0.0
  9
$OLESTARTUP
290
     0
  0
ENDSEC
  0
SECTION
  2
CLASSES
  0
CLASS
  1
ACDBDICTIONARYWDFLT
  2
AcDbDictionaryWithDefault
  3
ObjectDBX Classes
 90
        0
280
     0
281
     0
  0
CLASS
  1
DICTIONARYVAR
  2
AcDbDictionaryVar
  3
ObjectDBX Classes
 90
        0
280
     0
281
     0
  0
CLASS
  1
ACDBPLACEHOLDER
  2
AcDbPlaceHolder
  3
ObjectDBX Classes
 90
        0
280
     0
281
     0
  0
CLASS
  1
LAYOUT
  2
AcDbLayout
  3
ObjectDBX Classes
 90
        0
280
     0
281
     0
  0
ENDSEC
  0
SECTION
  2
TABLES
  0
TABLE
  2
VPORT
  5
8
330
0
100
AcDbSymbolTable
 70
     2
  0
VPORT
  5
2DDA
330
8
100
AcDbSymbolTableRecord
100
AcDbViewportTableRecord
  2
*Active
 70
     0
 10
0.0
 20
0.0
 11
1.0
 21
1.0
 12
212.499390629236
 22
150.4214186171549
 13
0.0
 23
0.0
 14
0.5
 24
0.5
 15
5.0
 25
5.0
 16
0.0
 26
0.0
 36
1.0
 17
0.0
 27
0.0
 37
0.0
 40
293.9589399653443
 41
1.632958801498127
 42
50.0
 43
0.0
 44
0.0
 50
0.0
 51
0.0
 71
     0
 72
   100
 73
     1
 74
     0
 75
     1
 76
     1
 77
     0
 78
     0
281
     0
 65
     1
110
0.0
120
0.0
130
0.0
111
1.0
121
0.0
131
0.0
112
0.0
122
1.0
132
0.0
 79
     0
146
0.0
  0
ENDTAB
  0
TABLE
  2
LTYPE
  5
5
330
0
100
AcDbSymbolTable
 70
     3
  0
LTYPE
  5
14
330
5
100
AcDbSymbolTableRecord
100
AcDbLinetypeTableRecord
  2
BYBLOCK
 70
     0
  3

 72
    65
 73
     0
 40
0.0
  0
LTYPE
  5
15
330
5
100
AcDbSymbolTableRecord
100
AcDbLinetypeTableRecord
  2
BYLAYER
 70
     0
  3

 72
    65
 73
     0
 40
0.0
  0
LTYPE
  5
16
330
5
100
AcDbSymbolTableRecord
100
AcDbLinetypeTableRecord
  2
CONTINUOUS
 70
     0
  3
Solid line
 72
    65
 73
     0
 40
0.0
  0
LTYPE
  5
61
330
5
100
AcDbSymbolTableRecord
100
AcDbLinetypeTableRecord
  2
CENTER2
 70
     0
  3
___ _ ___ _ ___ _ ___ _ ___ _ ___ _ ___ _ ___ _
 72
    65
 73
     4
 40
1.125
 49
0.75
 74
     0
 49
-0.125
 74
     0
 49
0.125
 74
     0
 49
-0.125
 74
     0
  0
LTYPE
  5
62
330
5
100
AcDbSymbolTableRecord
100
AcDbLinetypeTableRecord
  2
DASHED2
 70
     0
  3
_ _ _ _ _ _ _ _ _ _ _ _ _ _ _ _ _ _ _ _ _ _ _ _
 72
    65
 73
     2
 40
0.375
 49
0.25
 74
     0
 49
-0.125
 74
     0
  0
ENDTAB
  0
TABLE
  2
LAYER
  5
2
330
0
100
AcDbSymbolTable
 70
     6
  0
LAYER
  5
F
330
2
100
AcDbSymbolTableRecord
100
AcDbLayerTableRecord
  2
0
 70
     0
 62
     7
  6
CONTINUOUS
370
    -3
390
2DAD
  0
LAYER
  5
63
330
2
100
AcDbSymbolTableRecord
100
AcDbLayerTableRecord
  2
WAKU
 70
     0
 62
     7
  6
CONTINUOUS
370
    -3
390
2DAD
  0
LAYER
  5
64
330
2
100
AcDbSymbolTableRecord
100
AcDbLayerTableRecord
  2
SUNPOU
 70
     0
 62
     5
  6
CONTINUOUS
370
    -3
390
2DAD
  0
LAYER
  5
65
330
2
100
AcDbSymbolTableRecord
100
AcDbLayerTableRecord
  2
CENTER
 70
     4
 62
    14
  6
CENTER2
370
    -3
390
2DAD
  0
LAYER
  5
66
330
2
100
AcDbSymbolTableRecord
100
AcDbLayerTableRecord
  2
KAGESEN
 70
     0
 62
     5
  6
DASHED2
370
    -3
390
2DAD
  0
LAYER
  5
7DC
330
2
100
AcDbSymbolTableRecord
100
AcDbLayerTableRecord
  2
DEFPOINTS
 70
     0
 62
     7
  6
CONTINUOUS
290
     0
370
    -3
390
2DAD
  0
ENDTAB
  0
TABLE
  2
STYLE
  5
3
330
0
100
AcDbSymbolTable
 70
     1
  0
STYLE
  5
10
330
3
100
AcDbSymbolTableRecord
100
AcDbTextStyleTableRecord
  2
STANDARD
 70
     0
 40
0.0
 41
1.0
 50
0.0
 71
     0
 42
2.0
  3
C:\Program Files\AutoCAD LT\romans.shx
  4
C:\Program Files\AutoCAD LT\extfont.shx
  0
ENDTAB
  0
TABLE
  2
VIEW
  5
6
330
0
100
AcDbSymbolTable
 70
     0
  0
ENDTAB
  0
TABLE
  2
UCS
  5
7
330
0
100
AcDbSymbolTable
 70
     0
  0
ENDTAB
  0
TABLE
  2
APPID
  5
9
330
0
100
AcDbSymbolTable
 70
     1
  0
APPID
  5
11
330
9
100
AcDbSymbolTableRecord
100
AcDbRegAppTableRecord
  2
ACAD
 70
     0
  0
ENDTAB
  0
TABLE
  2
DIMSTYLE
  5
A
330
0
100
AcDbSymbolTable
 70
     8
100
AcDbDimStyleTable
 71
     0
  0
DIMSTYLE
105
1D
102
{ACAD_REACTORS
330
A5B
330
A78
330
A85
330
A92
330
A9F
330
AAD
330
293B
102
}
330
A
100
AcDbSymbolTableRecord
100
AcDbDimStyleTableRecord
  2
STANDARD
 70
     0
340
10
  0
DIMSTYLE
105
24
330
A
100
AcDbSymbolTableRecord
100
AcDbDimStyleTableRecord
  2
ISO-25
 70
     0
 41
2.5
 42
0.625
 43
3.75
 44
1.25
 74
     0
 77
     1
 78
     8
140
2.5
141
2.5
143
0.0394
145
1.0
147
0.625
172
     1
340
10
  0
DIMSTYLE
105
25
330
A
100
AcDbSymbolTableRecord
100
AcDbDimStyleTableRecord
  2
ISO-35
 70
     0
 41
3.5
 42
0.875
 43
5.25
 44
1.75
 74
     0
 77
     1
 78
     8
140
3.5
141
3.5
143
0.0394
145
1.399999999999999
147
0.875
172
     1
340
10
  0
DIMSTYLE
105
26
330
A
100
AcDbSymbolTableRecord
100
AcDbDimStyleTableRecord
  2
ISO-5
 70
     0
 41
5.0
 42
1.25
 43
7.5
 44
2.5
 74
     0
 77
     1
 78
     8
140
5.0
141
5.0
143
0.0394
145
2.0
147
1.25
172
     1
340
10
  0
DIMSTYLE
105
27
330
A
100
AcDbSymbolTableRecord
100
AcDbDimStyleTableRecord
  2
ISO-7
 70
     0
 41
7.0
 42
1.75
 43
10.5
 44
3.5
 74
     0
 77
     1
 78
     8
140
7.0
141
7.0
143
0.0394
145
2.799999999999999
147
1.75
172
     1
340
10
  0
DIMSTYLE
105
28
330
A
100
AcDbSymbolTableRecord
100
AcDbDimStyleTableRecord
  2
ISO1
 70
     0
 41
10.0
 42
2.5
 43
15.0
 44
5.0
 74
     0
 77
     1
 78
     8
140
10.0
141
10.0
143
0.0394
145
4.0
147
2.5
172
     1
340
10
  0
DIMSTYLE
105
29
330
A
100
AcDbSymbolTableRecord
100
AcDbDimStyleTableRecord
  2
ISO1-4
 70
     0
 41
14.0
 42
3.5
 43
21.0
 44
7.0
 74
     0
 77
     1
 78
     8
140
14.0
141
14.0
143
0.0394
145
5.599999999999999
147
3.5
172
     1
340
10
  0
DIMSTYLE
105
2A
330
A
100
AcDbSymbolTableRecord
100
AcDbDimStyleTableRecord
  2
ISO2
 70
     0
 41
20.0
 42
5.0
 43
30.0
 44
10.0
 74
     0
 77
     1
 78
     8
140
20.0
141
20.0
143
0.0394
145
8.0
147
5.0
172
     1
340
10
  0
ENDTAB
  0
TABLE
  2
BLOCK_RECORD
  5
1
330
0
100
AcDbSymbolTable
 70
     9
  0
BLOCK_RECORD
  5
1A
330
1
100
AcDbSymbolTableRecord
100
AcDbBlockTableRecord
  2
*MODEL_SPACE
340
2DB2
  0
BLOCK_RECORD
  5
17
330
1
100
AcDbSymbolTableRecord
100
AcDbBlockTableRecord
  2
*PAPER_SPACE
340
2DB3
  0
BLOCK_RECORD
  5
BA
330
1
100
AcDbSymbolTableRecord
100
AcDbBlockTableRecord
  2
_OPEN
340
0
102
{BLKREFS
331
2928
331
2929
331
A71
331
A72
331
A7E
331
A7F
331
A8B
331
A8C
331
A98
331
A99
331
AA6
331
AA7
331
29A4
331
29A5
102
}
  0
BLOCK_RECORD
  5
A4F
330
1
100
AcDbSymbolTableRecord
100
AcDbBlockTableRecord
  2
*D1
340
0
  0
BLOCK_RECORD
  5
A6C
330
1
100
AcDbSymbolTableRecord
100
AcDbBlockTableRecord
  2
*D2
340
0
  0
BLOCK_RECORD
  5
A79
330
1
100
AcDbSymbolTableRecord
100
AcDbBlockTableRecord
  2
*D3
340
0
  0
BLOCK_RECORD
  5
A86
330
1
100
AcDbSymbolTableRecord
100
AcDbBlockTableRecord
  2
*D4
340
0
  0
BLOCK_RECORD
  5
A93
330
1
100
AcDbSymbolTableRecord
100
AcDbBlockTableRecord
  2
*D5
340
0
  0
BLOCK_RECORD
  5
AA0
330
1
100
AcDbSymbolTableRecord
100
AcDbBlockTableRecord
  2
*D6
340
0
  0
BLOCK_RECORD
  5
292F
330
1
100
AcDbSymbolTableRecord
100
AcDbBlockTableRecord
  2
*D7
340
0
  0
BLOCK_RECORD
  5
2A58
330
1
100
AcDbSymbolTableRecord
100
AcDbBlockTableRecord
  2
A$C2AB22391
340
0
102
{BLKREFS
331
2CFD
331
2D07
331
2D09
331
2D14
102
}
  0
ENDTAB
  0
ENDSEC
  0
SECTION
  2
BLOCKS
  0
BLOCK
  5
1B
330
1A
100
AcDbEntity
  8
0
100
AcDbBlockBegin
  2
*MODEL_SPACE
 70
     0
 10
0.0
 20
0.0
 30
0.0
  3
*MODEL_SPACE
  1

  0
ENDBLK
  5
1C
330
1A
100
AcDbEntity
  8
0
100
AcDbBlockEnd
  0
BLOCK
  5
18
330
17
100
AcDbEntity
 67
     1
  8
0
100
AcDbBlockBegin
  2
*PAPER_SPACE
 70
     0
 10
0.0
 20
0.0
 30
0.0
  3
*PAPER_SPACE
  1

  0
ENDBLK
  5
19
330
17
100
AcDbEntity
 67
     1
  8
0
100
AcDbBlockEnd
  0
BLOCK
  5
BB
330
BA
100
AcDbEntity
  8
0
100
AcDbBlockBegin
  2
_OPEN
 70
     0
 10
0.0
 20
0.0
 30
0.0
  3
_OPEN
  1

  0
LINE
  5
BC
330
BA
100
AcDbEntity
  8
0
  6
ByBlock
 62
     0
100
AcDbLine
 10
-1.0
 20
0.1666666666666666
 30
0.0
 11
0.0
 21
0.0
 31
0.0
  0
LINE
  5
BD
330
BA
100
AcDbEntity
  8
0
  6
ByBlock
 62
     0
100
AcDbLine
 10
0.0
 20
0.0
 30
0.0
 11
-1.0
 21
-0.1666666666666666
 31
0.0
  0
LINE
  5
BE
330
BA
100
AcDbEntity
  8
0
  6
ByBlock
 62
     0
100
AcDbLine
 10
0.0
 20
0.0
 30
0.0
 11
-1.0
 21
0.0
 31
0.0
  0
ENDBLK
  5
BF
330
BA
100
AcDbEntity
  8
0
100
AcDbBlockEnd
  0
BLOCK
  5
2924
330
A4F
100
AcDbEntity
  8
0
100
AcDbBlockBegin
  2
*D1
 70
     1
 10
0.0
 20
0.0
 30
0.0
  3
*D1
  1

  0
LINE
  5
2925
330
A4F
100
AcDbEntity
  8
0
  6
ByBlock
 62
     0
100
AcDbLine
 10
250.0
 20
112.0
 30
0.0
 11
250.0
 21
120.5
 31
0.0
  0
LINE
  5
2926
330
A4F
100
AcDbEntity
  8
0
  6
ByBlock
 62
     0
100
AcDbLine
 10
145.9999999999999
 20
100.5
 30
0.0
 11
145.9999999999999
 21
120.5
 31
0.0
  0
LINE
  5
2927
330
A4F
100
AcDbEntity
  8
0
  6
ByBlock
 62
     0
100
AcDbLine
 10
247.5
 20
120.0
 30
0.0
 11
148.4999999999999
 21
120.0
 31
0.0
  0
INSERT
  5
2928
330
A4F
100
AcDbEntity
  8
0
  6
ByBlock
 62
     0
100
AcDbBlockReference
  2
_OPEN
 10
250.0
 20
120.0
 30
0.0
 41
2.5
 42
2.5
 43
2.5
  0
INSERT
  5
2929
330
A4F
100
AcDbEntity
  8
0
  6
ByBlock
 62
     0
100
AcDbBlockReference
  2
_OPEN
 10
145.9999999999999
 20
120.0
 30
0.0
 41
2.5
 42
2.5
 43
2.5
 50
180.0
  0
MTEXT
  5
292A
330
A4F
100
AcDbEntity
  8
0
  6
ByBlock
 62
     0
100
AcDbMText
 10
198.0
 20
122.0
 30
0.0
 40
3.0
 41
0.0
 71
     5
 72
     5
  1
\A1;104
 73
     1
 44
1.0
1001
ACAD
1000
MTEXTBEGIN
1070
    73
1070
     1
1070
    44
1040
1.0
1070
    74
1070
     0
1000
MTEXTEND
  0
POINT
  5
292B
330
A4F
100
AcDbEntity
  8
DEFPOINTS
  6
ByBlock
 62
     0
100
AcDbPoint
 10
250.0
 20
111.5
 30
0.0
  0
POINT
  5
292C
330
A4F
100
AcDbEntity
  8
DEFPOINTS
  6
ByBlock
 62
     0
100
AcDbPoint
 10
145.9999999999999
 20
100.0
 30
0.0
  0
POINT
  5
292D
330
A4F
100
AcDbEntity
  8
DEFPOINTS
  6
ByBlock
 62
     0
100
AcDbPoint
 10
145.9999999999999
 20
120.0
 30
0.0
  0
ENDBLK
  5
292E
330
A4F
100
AcDbEntity
  8
0
100
AcDbBlockEnd
  0
BLOCK
  5
A6D
330
A6C
100
AcDbEntity
  8
0
100
AcDbBlockBegin
  2
*D2
 70
     1
 10
0.0
 20
0.0
 30
0.0
  3
*D2
  1

  0
LINE
  5
A6E
330
A6C
100
AcDbEntity
  8
0
  6
ByBlock
 62
     0
100
AcDbLine
 10
45.49999999999999
 20
228.0
 30
0.0
 11
34.5
 21
228.0
 31
0.0
  0
LINE
  5
A6F
330
A6C
100
AcDbEntity
  8
0
  6
ByBlock
 62
     0
100
AcDbLine
 10
45.49999999999999
 20
132.0
 30
0.0
 11
34.5
 21
132.0
 31
0.0
  0
LINE
  5
A70
330
A6C
100
AcDbEntity
  8
0
  6
ByBlock
 62
     0
100
AcDbLine
 10
35.0
 20
225.5
 30
0.0
 11
35.0
 21
134.5
 31
0.0
  0
INSERT
  5
A71
330
A6C
100
AcDbEntity
  8
0
  6
ByBlock
 62
     0
100
AcDbBlockReference
  2
_OPEN
 10
35.0
 20
228.0
 30
0.0
 41
2.5
 42
2.5
 43
2.5
 50
90.0
  0
INSERT
  5
A72
330
A6C
100
AcDbEntity
  8
0
  6
ByBlock
 62
     0
100
AcDbBlockReference
  2
_OPEN
 10
35.0
 20
132.0
 30
0.0
 41
2.5
 42
2.5
 43
2.5
 50
270.0
  0
MTEXT
  5
A73
330
A6C
100
AcDbEntity
  8
0
  6
ByBlock
 62
     0
100
AcDbMText
 10
33.0
 20
180.0
 30
0.0
 40
3.0
 41
0.0
 71
     5
 72
     5
  1
\A1;96
 11
0.0
 21
1.0
 31
0.0
 73
     1
 44
1.0
1001
ACAD
1000
MTEXTBEGIN
1070
    73
1070
     1
1070
    44
1040
1.0
1070
    74
1070
     0
1000
MTEXTEND
  0
POINT
  5
A74
330
A6C
100
AcDbEntity
  8
DEFPOINTS
  6
ByBlock
 62
     0
100
AcDbPoint
 10
46.0
 20
228.0
 30
0.0
  0
POINT
  5
A75
330
A6C
100
AcDbEntity
  8
DEFPOINTS
  6
ByBlock
 62
     0
100
AcDbPoint
 10
46.0
 20
132.0
 30
0.0
  0
POINT
  5
A76
330
A6C
100
AcDbEntity
  8
DEFPOINTS
  6
ByBlock
 62
     0
100
AcDbPoint
 10
35.0
 20
132.0
 30
0.0
  0
ENDBLK
  5
A77
330
A6C
100
AcDbEntity
  8
0
100
AcDbBlockEnd
  0
BLOCK
  5
A7A
330
A79
100
AcDbEntity
  8
0
100
AcDbBlockBegin
  2
*D3
 70
     1
 10
0.0
 20
0.0
 30
0.0
  3
*D3
  1

  0
LINE
  5
A7B
330
A79
100
AcDbEntity
  8
0
  6
ByBlock
 62
     0
100
AcDbLine
 10
46.0
 20
131.5
 30
0.0
 11
46.0
 21
119.5
 31
0.0
  0
LINE
  5
A7C
330
A79
100
AcDbEntity
  8
0
  6
ByBlock
 62
     0
100
AcDbLine
 10
94.0
 20
131.5
 30
0.0
 11
94.0
 21
119.5
 31
0.0
  0
LINE
  5
A7D
330
A79
100
AcDbEntity
  8
0
  6
ByBlock
 62
     0
100
AcDbLine
 10
48.5
 20
120.0
 30
0.0
 11
91.5
 21
120.0
 31
0.0
  0
INSERT
  5
A7E
330
A79
100
AcDbEntity
  8
0
  6
ByBlock
 62
     0
100
AcDbBlockReference
  2
_OPEN
 10
46.0
 20
120.0
 30
0.0
 41
2.5
 42
2.5
 43
2.5
 50
180.0
  0
INSERT
  5
A7F
330
A79
100
AcDbEntity
  8
0
  6
ByBlock
 62
     0
100
AcDbBlockReference
  2
_OPEN
 10
94.0
 20
120.0
 30
0.0
 41
2.5
 42
2.5
 43
2.5
  0
MTEXT
  5
A80
330
A79
100
AcDbEntity
  8
0
  6
ByBlock
 62
     0
100
AcDbMText
 10
70.0
 20
122.0
 30
0.0
 40
3.0
 41
0.0
 71
     5
 72
     5
  1
\A1;48
 73
     1
 44
1.0
1001
ACAD
1000
MTEXTBEGIN
1070
    73
1070
     1
1070
    44
1040
1.0
1070
    74
1070
     0
1000
MTEXTEND
  0
POINT
  5
A81
330
A79
100
AcDbEntity
  8
DEFPOINTS
  6
ByBlock
 62
     0
100
AcDbPoint
 10
46.0
 20
132.0
 30
0.0
  0
POINT
  5
A82
330
A79
100
AcDbEntity
  8
DEFPOINTS
  6
ByBlock
 62
     0
100
AcDbPoint
 10
94.0
 20
132.0
 30
0.0
  0
POINT
  5
A83
330
A79
100
AcDbEntity
  8
DEFPOINTS
  6
ByBlock
 62
     0
100
AcDbPoint
 10
94.0
 20
120.0
 30
0.0
  0
ENDBLK
  5
A84
330
A79
100
AcDbEntity
  8
0
100
AcDbBlockEnd
  0
BLOCK
  5
A87
330
A86
100
AcDbEntity
  8
0
100
AcDbBlockBegin
  2
*D4
 70
     1
 10
0.0
 20
0.0
 30
0.0
  3
*D4
  1

  0
LINE
  5
A88
330
A86
100
AcDbEntity
  8
0
  6
ByBlock
 62
     0
100
AcDbLine
 10
372.0
 20
225.5
 30
0.0
 11
385.5
 21
225.5
 31
0.0
  0
LINE
  5
A89
330
A86
100
AcDbEntity
  8
0
  6
ByBlock
 62
     0
100
AcDbLine
 10
372.0
 20
134.5
 30
0.0
 11
385.5
 21
134.5
 31
0.0
  0
LINE
  5
A8A
330
A86
100
AcDbEntity
  8
0
  6
ByBlock
 62
     0
100
AcDbLine
 10
385.0
 20
223.0
 30
0.0
 11
385.0
 21
137.0
 31
0.0
  0
INSERT
  5
A8B
330
A86
100
AcDbEntity
  8
0
  6
ByBlock
 62
     0
100
AcDbBlockReference
  2
_OPEN
 10
385.0
 20
225.5
 30
0.0
 41
2.5
 42
2.5
 43
2.5
 50
90.0
  0
INSERT
  5
A8C
330
A86
100
AcDbEntity
  8
0
  6
ByBlock
 62
     0
100
AcDbBlockReference
  2
_OPEN
 10
385.0
 20
134.5
 30
0.0
 41
2.5
 42
2.5
 43
2.5
 50
270.0
  0
MTEXT
  5
A8D
330
A86
100
AcDbEntity
  8
0
  6
ByBlock
 62
     0
100
AcDbMText
 10
383.0
 20
180.0
 30
0.0
 40
3.0
 41
0.0
 71
     5
 72
     5
  1
\A1;91
 11
0.0
 21
1.0
 31
0.0
 73
     1
 44
1.0
1001
ACAD
1000
MTEXTBEGIN
1070
    73
1070
     1
1070
    44
1040
1.0
1070
    74
1070
     0
1000
MTEXTEND
  0
POINT
  5
A8E
330
A86
100
AcDbEntity
  8
DEFPOINTS
  6
ByBlock
 62
     0
100
AcDbPoint
 10
371.5
 20
225.5
 30
0.0
  0
POINT
  5
A8F
330
A86
100
AcDbEntity
  8
DEFPOINTS
  6
ByBlock
 62
     0
100
AcDbPoint
 10
371.5
 20
134.5
 30
0.0
  0
POINT
  5
A90
330
A86
100
AcDbEntity
  8
DEFPOINTS
  6
ByBlock
 62
     0
100
AcDbPoint
 10
385.0
 20
134.5
 30
0.0
  0
ENDBLK
  5
A91
330
A86
100
AcDbEntity
  8
0
100
AcDbBlockEnd
  0
BLOCK
  5
A94
330
A93
100
AcDbEntity
  8
0
100
AcDbBlockBegin
  2
*D5
 70
     1
 10
0.0
 20
0.0
 30
0.0
  3
*D5
  1

  0
LINE
  5
A95
330
A93
100
AcDbEntity
  8
0
  6
ByBlock
 62
     0
100
AcDbLine
 10
328.5
 20
134.0
 30
0.0
 11
328.5
 21
119.5
 31
0.0
  0
LINE
  5
A96
330
A93
100
AcDbEntity
  8
0
  6
ByBlock
 62
     0
100
AcDbLine
 10
371.5
 20
134.0
 30
0.0
 11
371.5
 21
119.5
 31
0.0
  0
LINE
  5
A97
330
A93
100
AcDbEntity
  8
0
  6
ByBlock
 62
     0
100
AcDbLine
 10
331.0
 20
120.0
 30
0.0
 11
369.0
 21
120.0
 31
0.0
  0
INSERT
  5
A98
330
A93
100
AcDbEntity
  8
0
  6
ByBlock
 62
     0
100
AcDbBlockReference
  2
_OPEN
 10
328.5
 20
120.0
 30
0.0
 41
2.5
 42
2.5
 43
2.5
 50
180.0
  0
INSERT
  5
A99
330
A93
100
AcDbEntity
  8
0
  6
ByBlock
 62
     0
100
AcDbBlockReference
  2
_OPEN
 10
371.5
 20
120.0
 30
0.0
 41
2.5
 42
2.5
 43
2.5
  0
MTEXT
  5
A9A
330
A93
100
AcDbEntity
  8
0
  6
ByBlock
 62
     0
100
AcDbMText
 10
350.0
 20
122.0
 30
0.0
 40
3.0
 41
0.0
 71
     5
 72
     5
  1
\A1;43
 73
     1
 44
1.0
1001
ACAD
1000
MTEXTBEGIN
1070
    73
1070
     1
1070
    44
1040
1.0
1070
    74
1070
     0
1000
MTEXTEND
  0
POINT
  5
A9B
330
A93
100
AcDbEntity
  8
DEFPOINTS
  6
ByBlock
 62
     0
100
AcDbPoint
 10
328.5
 20
134.5
 30
0.0
  0
POINT
  5
A9C
330
A93
100
AcDbEntity
  8
DEFPOINTS
  6
ByBlock
 62
     0
100
AcDbPoint
 10
371.5
 20
134.5
 30
0.0
  0
POINT
  5
A9D
330
A93
100
AcDbEntity
  8
DEFPOINTS
  6
ByBlock
 62
     0
100
AcDbPoint
 10
371.5
 20
120.0
 30
0.0
  0
ENDBLK
  5
A9E
330
A93
100
AcDbEntity
  8
0
100
AcDbBlockEnd
  0
BLOCK
  5
AA1
330
AA0
100
AcDbEntity
  8
0
100
AcDbBlockBegin
  2
*D6
 70
     1
 10
0.0
 20
0.0
 30
0.0
  3
*D6
  1

  0
LINE
  5
AA2
330
AA0
100
AcDbEntity
  8
0
  6
ByBlock
 62
     0
100
AcDbLine
 10
125.9999999999999
 20
100.5
 30
0.0
 11
125.9999999999999
 21
120.5
 31
0.0
  0
LINE
  5
AA3
330
AA0
100
AcDbEntity
  8
0
  6
ByBlock
 62
     0
100
AcDbLine
 10
120.0
 20
113.5
 30
0.0
 11
120.0
 21
120.5
 31
0.0
  0
LINE
  5
AA4
330
AA0
100
AcDbEntity
  8
0
  6
ByBlock
 62
     0
100
AcDbLine
 10
128.4999999999999
 20
120.0
 30
0.0
 11
130.9999999999999
 21
120.0
 31
0.0
  0
LINE
  5
AA5
330
AA0
100
AcDbEntity
  8
0
  6
ByBlock
 62
     0
100
AcDbLine
 10
117.5
 20
120.0
 30
0.0
 11
115.0
 21
120.0
 31
0.0
  0
INSERT
  5
AA6
330
AA0
100
AcDbEntity
  8
0
  6
ByBlock
 62
     0
100
AcDbBlockReference
  2
_OPEN
 10
125.9999999999999
 20
120.0
 30
0.0
 41
2.5
 42
2.5
 43
2.5
 50
180.0
  0
INSERT
  5
AA7
330
AA0
100
AcDbEntity
  8
0
  6
ByBlock
 62
     0
100
AcDbBlockReference
  2
_OPEN
 10
120.0
 20
120.0
 30
0.0
 41
2.5
 42
2.5
 43
2.5
  0
MTEXT
  5
AA8
330
AA0
100
AcDbEntity
  8
0
  6
ByBlock
 62
     0
100
AcDbMText
 10
122.9999999999999
 20
122.0
 30
0.0
 40
3.0
 41
0.0
 71
     5
 72
     5
  1
\A1;6
 73
     1
 44
1.0
1001
ACAD
1000
MTEXTBEGIN
1070
    73
1070
     1
1070
    44
1040
1.0
1070
    74
1070
     0
1000
MTEXTEND
  0
POINT
  5
AA9
330
AA0
100
AcDbEntity
  8
DEFPOINTS
  6
ByBlock
 62
     0
100
AcDbPoint
 10
125.9999999999999
 20
100.0
 30
0.0
  0
POINT
  5
AAA
330
AA0
100
AcDbEntity
  8
DEFPOINTS
  6
ByBlock
 62
     0
100
AcDbPoint
 10
120.0
 20
113.0
 30
0.0
  0
POINT
  5
AAB
330
AA0
100
AcDbEntity
  8
DEFPOINTS
  6
ByBlock
 62
     0
100
AcDbPoint
 10
120.0
 20
120.0
 30
0.0
  0
ENDBLK
  5
AAC
330
AA0
100
AcDbEntity
  8
0
100
AcDbBlockEnd
  0
BLOCK
  5
29A0
330
292F
100
AcDbEntity
  8
0
100
AcDbBlockBegin
  2
*D7
 70
     1
 10
0.0
 20
0.0
 30
0.0
  3
*D7
  1

  0
LINE
  5
29A1
330
292F
100
AcDbEntity
  8
0
  6
ByBlock
 62
     0
100
AcDbLine
 10
260.0
 20
112.0
 30
0.0
 11
260.0
 21
120.5
 31
0.0
  0
LINE
  5
29A2
330
292F
100
AcDbEntity
  8
0
  6
ByBlock
 62
     0
100
AcDbLine
 10
276.6
 20
107.6
 30
0.0
 11
276.6
 21
120.5
 31
0.0
  0
LINE
  5
29A3
330
292F
100
AcDbEntity
  8
0
  6
ByBlock
 62
     0
100
AcDbLine
 10
262.5
 20
120.0
 30
0.0
 11
274.1
 21
120.0
 31
0.0
  0
INSERT
  5
29A4
330
292F
100
AcDbEntity
  8
0
  6
ByBlock
 62
     0
100
AcDbBlockReference
  2
_OPEN
 10
260.0
 20
120.0
 30
0.0
 41
2.5
 42
2.5
 43
2.5
 50
180.0
  0
INSERT
  5
29A5
330
292F
100
AcDbEntity
  8
0
  6
ByBlock
 62
     0
100
AcDbBlockReference
  2
_OPEN
 10
276.6
 20
120.0
 30
0.0
 41
2.5
 42
2.5
 43
2.5
  0
MTEXT
  5
29A6
330
292F
100
AcDbEntity
  8
0
  6
ByBlock
 62
     0
100
AcDbMText
 10
268.2999999999999
 20
122.0
 30
0.0
 40
3.0
 41
0.0
 71
     5
 72
     5
  1
\A1;17
 73
     1
 44
1.0
1001
ACAD
1000
MTEXTBEGIN
1070
    73
1070
     1
1070
    44
1040
1.0
1070
    74
1070
     0
1000
MTEXTEND
  0
POINT
  5
29A7
330
292F
100
AcDbEntity
  8
DEFPOINTS
  6
ByBlock
 62
     0
100
AcDbPoint
 10
260.0
 20
111.5
 30
0.0
  0
POINT
  5
29A8
330
292F
100
AcDbEntity
  8
DEFPOINTS
  6
ByBlock
 62
     0
100
AcDbPoint
 10
276.6
 20
107.1
 30
0.0
  0
POINT
  5
29A9
330
292F
100
AcDbEntity
  8
DEFPOINTS
  6
ByBlock
 62
     0
100
AcDbPoint
 10
276.6
 20
120.0
 30
0.0
  0
ENDBLK
  5
29AA
330
292F
100
AcDbEntity
  8
0
100
AcDbBlockEnd
  0
BLOCK
  5
2A8E
330
2A58
100
AcDbEntity
  8
0
100
AcDbBlockBegin
  2
A$C2AB22391
 70
     0
 10
0.0
 20
0.0
 30
0.0
  3
A$C2AB22391
  1

  0
LINE
  5
2A59
330
2A58
100
AcDbEntity
  8
0
100
AcDbLine
 10
11.05321991189647
 20
1.210646201878972
 30
0.0
 11
7.147823840150749
 21
1.759513825645555
 31
0.0
  0
LINE
  5
2A5A
330
2A58
100
AcDbEntity
  8
0
100
AcDbLine
 10
10.5637995719706
 20
2.223831872578642
 30
0.0
 11
7.135248791142487
 21
2.70568326113576
 31
0.0
  0
LINE
  5
2A5B
330
2A58
100
AcDbEntity
  8
0
100
AcDbLine
 10
11.04649960387535
 20
7.110471661240922
 30
0.0
 11
7.112445557351094
 21
7.663366900703763
 31
0.0
  0
LINE
  5
2A5C
330
2A58
100
AcDbEntity
  8
0
100
AcDbLine
 10
10.55727321295508
 20
6.234825818973121
 30
0.0
 11
7.145206583807777
 21
6.714360511093659
 31
0.0
  0
LINE
  5
2A5D
330
2A58
100
AcDbEntity
  8
SUNPOU
100
AcDbLine
 10
0.0000003436490488
 20
-0.0000000285846653
 30
0.0
 11
0.0000003436490488
 21
0.9999999714153346
 31
0.0
  0
LINE
  5
2A5E
330
2A58
100
AcDbEntity
  8
SUNPOU
100
AcDbLine
 10
0.0000003436490488
 20
-0.0000000285846653
 30
0.0
 11
1.000000343649048
 21
-0.0000000285846653
 31
0.0
  0
LINE
  5
2A5F
330
2A58
100
AcDbEntity
  8
SUNPOU
100
AcDbLine
 10
0.0000003436490488
 20
9.599999971415329
 30
0.0
 11
1.000000343649048
 21
9.599999971415329
 31
0.0
  0
LINE
  5
2A60
330
2A58
100
AcDbEntity
  8
SUNPOU
100
AcDbLine
 10
0.0000003436490488
 20
9.599999971415329
 30
0.0
 11
0.0000003436490488
 21
8.599999971415329
 31
0.0
  0
LINE
  5
2A61
330
2A58
100
AcDbEntity
  8
0
100
AcDbLine
 10
6.967605979159046
 20
6.590263487236583
 30
0.0
 11
6.967605979159046
 21
2.846744611028285
 31
0.0
  0
LINE
  5
2A62
330
2A58
100
AcDbEntity
  8
0
100
AcDbLine
 10
6.032394708139065
 20
6.757096631477239
 30
0.0
 11
6.032394708139051
 21
3.088830501004721
 31
0.0
  0
LINE
  5
2A63
330
2A58
100
AcDbEntity
  8
0
100
AcDbLine
 10
1.485829144411042
 20
7.830137755775311
 30
0.0
 11
1.485829144411042
 21
3.204085918533706
 31
0.0
  0
LINE
  5
2A64
330
2A58
100
AcDbEntity
  8
0
100
AcDbLine
 10
2.42104041543105
 20
7.235136685042121
 30
0.0
 11
2.421040415431065
 21
3.522938294335929
 31
0.0
  0
LINE
  5
2A65
330
2A58
100
AcDbEntity
  8
0
100
AcDbLine
 10
5.883633997849443
 20
1.937184121304866
 30
0.0
 11
2.103050184963848
 21
2.468510526030158
 31
0.0
  0
LINE
  5
2A66
330
2A58
100
AcDbEntity
  8
0
100
AcDbLine
 10
5.930034862144466
 20
2.8750650327121
 30
0.0
 11
2.55069422507293
 21
3.350000386589854
 31
0.0
  0
LINE
  5
2A67
330
2A58
100
AcDbEntity
  8
0
100
AcDbLine
 10
1.485829144411042
 20
3.204085918533706
 30
0.0
 11
1.715231767569761
 21
2.930694518233806
 31
0.0
  0
LINE
  5
2A68
330
2A58
100
AcDbEntity
  8
0
100
AcDbLine
 10
2.421040415431065
 20
3.522938294335929
 30
0.0
 11
1.715231767569747
 21
2.930694518233792
 31
0.0
  0
LINE
  5
2A69
330
2A58
100
AcDbEntity
  8
0
100
AcDbLine
 10
2.55069422507293
 20
3.350000386589854
 30
0.0
 11
1.853956894673785
 21
2.76536834962448
 31
0.0
  0
LINE
  5
2A6A
330
2A58
100
AcDbEntity
  8
0
100
AcDbLine
 10
1.853956894673785
 20
2.76536834962448
 30
0.0
 11
2.103050184963876
 21
2.468510526030158
 31
0.0
  0
CIRCLE
  5
2A6B
330
2A58
100
AcDbEntity
  8
0
100
AcDbCircle
 10
1.889653330990782
 20
1.311403713565326
 30
0.0
 40
0.61148429259
  0
LINE
  5
2A6C
330
2A58
100
AcDbEntity
  8
0
100
AcDbLine
 10
5.930034862144466
 20
2.8750650327121
 30
0.0
 11
6.372679339238445
 21
2.347541886893367
 31
0.0
  0
LINE
  5
2A6D
330
2A58
100
AcDbEntity
  8
0
100
AcDbLine
 10
6.032394708139051
 20
3.088830501004721
 30
0.0
 11
6.538005507847785
 21
2.486267013997405
 31
0.0
  0
LINE
  5
2A6E
330
2A58
100
AcDbEntity
  8
0
100
AcDbLine
 10
6.372679339238445
 20
2.347541886893367
 30
0.0
 11
5.883633997849415
 21
1.937184121304866
 31
0.0
  0
LINE
  5
2A6F
330
2A58
100
AcDbEntity
  8
0
100
AcDbLine
 10
6.96760597915906
 20
2.846744611028285
 30
0.0
 11
6.538005507847771
 21
2.486267013997391
 31
0.0
  0
LINE
  5
2A70
330
2A58
100
AcDbEntity
  8
0
100
AcDbLine
 10
7.135248791142487
 20
2.70568326113576
 30
0.0
 11
6.676730634951809
 21
2.320940845388079
 31
0.0
  0
LINE
  5
2A71
330
2A58
100
AcDbEntity
  8
0
100
AcDbLine
 10
6.676730634951809
 20
2.320940845388079
 30
0.0
 11
7.147823840150721
 21
1.759513825645555
 31
0.0
  0
LINE
  5
2A72
330
2A58
100
AcDbEntity
  8
SUNPOU
100
AcDbLine
 10
6.500000343649048
 20
5.159696614115333
 30
0.0
 11
6.500000343649048
 21
4.44030332871533
 31
0.0
  0
LINE
  5
2A73
330
2A58
100
AcDbEntity
  8
SUNPOU
100
AcDbLine
 10
6.85969698634905
 20
4.799999971415331
 30
0.0
 11
6.140303700949047
 21
4.799999971415331
 31
0.0
  0
LINE
  5
2A74
330
2A58
100
AcDbEntity
  8
0
100
AcDbLine
 10
5.92741760580148
 20
7.829911718160218
 30
0.0
 11
2.135494461853411
 21
8.362831761937997
 31
0.0
  0
LINE
  5
2A75
330
2A58
100
AcDbEntity
  8
0
100
AcDbLine
 10
5.86083076405805
 20
6.894867760872855
 30
0.0
 11
2.604248903360982
 21
7.352550493851893
 31
0.0
  0
LINE
  5
2A76
330
2A58
100
AcDbEntity
  8
0
100
AcDbLine
 10
2.135494461853411
 20
8.362831761937982
 30
0.0
 11
1.910987651328852
 21
8.178747081567536
 31
0.0
  0
LINE
  5
2A77
330
2A58
100
AcDbEntity
  8
0
100
AcDbLine
 10
1.744087843108331
 20
8.041897345123587
 30
0.0
 11
1.485829144411042
 21
7.830137755775311
 31
0.0
  0
LINE
  5
2A78
330
2A58
100
AcDbEntity
  8
0
100
AcDbLine
 10
1.744087843108331
 20
8.041897345123587
 30
0.0
 11
2.42104041543105
 21
7.235136685042107
 31
0.0
  0
LINE
  5
2A79
330
2A58
100
AcDbEntity
  8
0
100
AcDbLine
 10
1.910987651328838
 20
8.17874708156755
 30
0.0
 11
2.604248903360982
 21
7.352550493851879
 31
0.0
  0
LINE
  5
2A7A
330
2A58
100
AcDbEntity
  8
0
100
AcDbLine
 10
6.360324796064347
 20
7.313993018904568
 30
0.0
 11
5.86083076405805
 21
6.894867760872841
 31
0.0
  0
LINE
  5
2A7B
330
2A58
100
AcDbEntity
  8
0
100
AcDbLine
 10
6.664376091777697
 20
7.287391977399323
 30
0.0
 11
7.145206583807762
 21
6.714360511093659
 31
0.0
  0
LINE
  5
2A7C
330
2A58
100
AcDbEntity
  8
0
100
AcDbLine
 10
7.112445557351108
 20
7.663366900703749
 30
0.0
 11
6.664376091777697
 21
7.287391977399323
 31
0.0
  0
LINE
  5
2A7D
330
2A58
100
AcDbEntity
  8
0
100
AcDbLine
 10
6.499049923168357
 20
7.148666850295256
 30
0.0
 11
6.032394708139065
 21
6.757096631477239
 31
0.0
  0
LINE
  5
2A7E
330
2A58
100
AcDbEntity
  8
0
100
AcDbLine
 10
5.92741760580148
 20
7.829911718160204
 30
0.0
 11
6.360324796064347
 21
7.313993018904568
 31
0.0
  0
LINE
  5
2A7F
330
2A58
100
AcDbEntity
  8
0
100
AcDbLine
 10
6.499049923168357
 20
7.148666850295271
 30
0.0
 11
6.967605979159046
 21
6.590263487236583
 31
0.0
  0
LINE
  5
2A80
330
2A58
100
AcDbEntity
  8
SUNPOU
100
AcDbLine
 10
13.00000034364905
 20
-0.0000000285846653
 30
0.0
 11
13.00000034364905
 21
0.9999999714153346
 31
0.0
  0
LINE
  5
2A81
330
2A58
100
AcDbEntity
  8
SUNPOU
100
AcDbLine
 10
13.00000034364905
 20
-0.0000000285846653
 30
0.0
 11
12.00000034364905
 21
-0.0000000285846653
 31
0.0
  0
LINE
  5
2A82
330
2A58
100
AcDbEntity
  8
0
100
AcDbLine
 10
11.41425957832331
 20
6.672192390480219
 30
0.0
 11
10.70845106323904
 21
6.079948725791226
 31
0.0
  0
LINE
  5
2A83
330
2A58
100
AcDbEntity
  8
0
100
AcDbLine
 10
11.64366233425906
 20
6.398800831942779
 30
0.0
 11
11.64366233425905
 21
1.694780310522716
 31
0.0
  0
LINE
  5
2A84
330
2A58
100
AcDbEntity
  8
0
100
AcDbLine
 10
11.64366233425905
 20
1.694780310522702
 30
0.0
 11
11.43382760345049
 21
1.522726022898865
 31
0.0
  0
LINE
  5
2A85
330
2A58
100
AcDbEntity
  8
0
100
AcDbLine
 10
10.5637995719706
 20
2.223831872578642
 30
0.0
 11
11.26692779523
 21
1.385876286454902
 31
0.0
  0
LINE
  5
2A86
330
2A58
100
AcDbEntity
  8
0
100
AcDbLine
 10
10.70845106323907
 20
2.387196120679405
 30
0.0
 11
11.43382760345051
 21
1.522726022898851
 31
0.0
  0
LINE
  5
2A87
330
2A58
100
AcDbEntity
  8
0
100
AcDbLine
 10
11.26692779523
 20
1.385876286454902
 30
0.0
 11
11.05321991189647
 21
1.210646201878972
 31
0.0
  0
LINE
  5
2A88
330
2A58
100
AcDbEntity
  8
0
100
AcDbLine
 10
10.70845106323904
 20
6.07994872579124
 30
0.0
 11
10.70845106323905
 21
2.387196120679419
 31
0.0
  0
LINE
  5
2A89
330
2A58
100
AcDbEntity
  8
SUNPOU
100
AcDbLine
 10
13.00000034364905
 20
9.599999971415329
 30
0.0
 11
12.00000034364905
 21
9.599999971415329
 31
0.0
  0
LINE
  5
2A8A
330
2A58
100
AcDbEntity
  8
0
100
AcDbLine
 10
11.27553445121927
 20
6.837518559089545
 30
0.0
 11
10.55727321295506
 21
6.234825818973106
 31
0.0
  0
LINE
  5
2A8B
330
2A58
100
AcDbEntity
  8
0
100
AcDbLine
 10
11.04649960387539
 20
7.110471661240907
 30
0.0
 11
11.27553445121928
 21
6.837518559089545
 31
0.0
  0
LINE
  5
2A8C
330
2A58
100
AcDbEntity
  8
0
100
AcDbLine
 10
11.41425957832331
 20
6.672192390480219
 30
0.0
 11
11.64366233425905
 21
6.398800831942779
 31
0.0
  0
LINE
  5
2A8D
330
2A58
100
AcDbEntity
  8
SUNPOU
100
AcDbLine
 10
13.00000034364905
 20
9.599999971415329
 30
0.0
 11
13.00000034364905
 21
8.599999971415329
 31
0.0
  0
ENDBLK
  5
2A8F
330
2A58
100
AcDbEntity
  8
0
100
AcDbBlockEnd
  0
ENDSEC
  0
SECTION
  2
ENTITIES
  0
LINE
  5
C9
330
1A
100
AcDbEntity
  8
WAKU
 62
     7
100
AcDbLine
 10
405.0
 20
280.0
 30
0.0
 11
20.0
 21
280.0
 31
0.0
  0
LINE
  5
CB
330
1A
100
AcDbEntity
  8
WAKU
 62
     7
100
AcDbLine
 10
20.0
 20
5.0
 30
0.0
 11
405.0
 21
5.0
 31
0.0
  0
LINE
  5
D4
330
1A
100
AcDbEntity
  8
WAKU
100
AcDbLine
 10
405.0
 20
5.0
 30
0.0
 11
405.0
 21
280.0
 31
0.0
  0
LINE
  5
D5
330
1A
100
AcDbEntity
  8
WAKU
100
AcDbLine
 10
20.0
 20
280.0
 30
0.0
 11
20.0
 21
5.0
 31
0.0
  0
LINE
  5
D6
330
1A
100
AcDbEntity
  8
WAKU
 62
     7
100
AcDbLine
 10
225.0
 20
50.0
 30
0.0
 11
405.0
 21
50.0
 31
0.0
  0
LINE
  5
D7
330
1A
100
AcDbEntity
  8
WAKU
100
AcDbLine
 10
225.0
 20
5.0
 30
0.0
 11
225.0
 21
50.0
 31
0.0
  0
LINE
  5
D8
330
1A
100
AcDbEntity
  8
WAKU
100
AcDbLine
 10
345.0
 20
5.0
 30
0.0
 11
345.0
 21
50.0
 31
0.0
  0
LINE
  5
D9
330
1A
100
AcDbEntity
  8
WAKU
 62
     7
100
AcDbLine
 10
345.0
 20
15.0
 30
0.0
 11
405.0
 21
15.0
 31
0.0
  0
LINE
  5
DA
330
1A
100
AcDbEntity
  8
WAKU
 62
     7
100
AcDbLine
 10
345.0
 20
22.0
 30
0.0
 11
405.0
 21
22.0
 31
0.0
  0
LINE
  5
DB
330
1A
100
AcDbEntity
  8
WAKU
 62
     7
100
AcDbLine
 10
345.0
 20
29.0
 30
0.0
 11
405.0
 21
29.0
 31
0.0
  0
LINE
  5
DC
330
1A
100
AcDbEntity
  8
WAKU
 62
     7
100
AcDbLine
 10
345.0
 20
36.0
 30
0.0
 11
405.0
 21
36.0
 31
0.0
  0
LINE
  5
DD
330
1A
100
AcDbEntity
  8
WAKU
 62
     7
100
AcDbLine
 10
345.0
 20
43.0
 30
0.0
 11
405.0
 21
43.0
 31
0.0
  0
LINE
  5
DE
330
1A
100
AcDbEntity
  8
WAKU
100
AcDbLine
 10
360.0
 20
15.0
 30
0.0
 11
360.0
 21
50.0
 31
0.0
  0
LINE
  5
DF
330
1A
100
AcDbEntity
  8
WAKU
100
AcDbLine
 10
352.0
 20
5.0
 30
0.0
 11
352.0
 21
15.0
 31
0.0
  0
LINE
  5
E0
330
1A
100
AcDbEntity
  8
WAKU
100
AcDbLine
 10
330.0
 20
13.0
 30
0.0
 11
330.0
 21
28.0
 31
0.0
  0
LINE
  5
E1
330
1A
100
AcDbEntity
  8
WAKU
100
AcDbLine
 10
315.0
 20
13.0
 30
0.0
 11
315.0
 21
34.0
 31
0.0
  0
LINE
  5
E2
330
1A
100
AcDbEntity
  8
WAKU
100
AcDbLine
 10
300.0
 20
13.0
 30
0.0
 11
300.0
 21
50.0
 31
0.0
  0
LINE
  5
E3
330
1A
100
AcDbEntity
  8
WAKU
100
AcDbLine
 10
285.0
 20
13.0
 30
0.0
 11
285.0
 21
50.0
 31
0.0
  0
LINE
  5
E4
330
1A
100
AcDbEntity
  8
WAKU
100
AcDbLine
 10
345.0
 20
40.0
 30
0.0
 11
285.0
 21
40.0
 31
0.0
  0
LINE
  5
E5
330
1A
100
AcDbEntity
  8
WAKU
100
AcDbLine
 10
345.0
 20
34.0
 30
0.0
 11
285.0
 21
34.0
 31
0.0
  0
LINE
  5
E6
330
1A
100
AcDbEntity
  8
WAKU
100
AcDbLine
 10
345.0
 20
28.0
 30
0.0
 11
285.0
 21
28.0
 31
0.0
  0
LINE
  5
E7
330
1A
100
AcDbEntity
  8
WAKU
100
AcDbLine
 10
345.0
 20
13.0
 30
0.0
 11
225.0
 21
13.0
 31
0.0
  0
MTEXT
  5
E9
330
1A
100
AcDbEntity
  8
WAKU
100
AcDbMText
 10
345.0
 20
43.0
 30
0.0
 40
4.0
 41
15.0
 71
     1
 72
     5
  1

 73
     1
 44
1.0
1001
ACAD
1000
MTEXTBEGIN
1070
    73
1070
     1
1070
    44
1040
1.0
1070
    74
1070
     0
1000
MTEXTEND
  0
MTEXT
  5
EA
330
1A
100
AcDbEntity
  8
WAKU
100
AcDbMText
 10
345.0
 20
49.0
 30
0.0
 40
4.0
 41
14.0
 71
     1
 72
     5
  1

 73
     1
 44
1.0
1001
ACAD
1000
MTEXTBEGIN
1070
    73
1070
     1
1070
    44
1040
1.0
1070
    74
1070
     0
1000
MTEXTEND
  0
MTEXT
  5
ED
330
1A
100
AcDbEntity
  8
WAKU
100
AcDbMText
 10
347.3192310662242
 20
34.48051906497278
 30
0.0
 40
3.0
 41
11.0
 71
     1
 72
     5
  1
部品表
 73
     1
 44
1.0
1001
ACAD
1000
MTEXTBEGIN
1070
    73
1070
     1
1070
    44
1040
1.0
1070
    74
1070
     0
1000
MTEXTEND
  0
MTEXT
  5
EE
330
1A
100
AcDbEntity
  8
WAKU
100
AcDbMText
 10
327.0
 20
82.0
 30
0.0
 40
3.0
 41
37.0
 71
     1
 72
     5
  1

 73
     1
 44
1.0
1001
ACAD
1000
MTEXTBEGIN
1070
    73
1070
     1
1070
    44
1040
1.0
1070
    74
1070
     0
1000
MTEXTEND
  0
MTEXT
  5
F0
330
1A
100
AcDbEntity
  8
WAKU
100
AcDbMText
 10
347.2
 20
47.7
 30
0.0
 40
3.0
 41
10.0
 71
     1
 72
     5
  1
機種名
 73
     1
 44
1.0
1001
ACAD
1000
MTEXTBEGIN
1070
    73
1070
     1
1070
    44
1040
1.0
1070
    74
1070
     0
1000
MTEXTEND
  0
MTEXT
  5
F1
330
1A
100
AcDbEntity
  8
WAKU
100
AcDbMText
 10
347.2999999999999
 20
40.69999999999999
 30
0.0
 40
3.0
 41
10.0
 71
     1
 72
     5
  1
部　名
 73
     1
 44
1.0
1001
ACAD
1000
MTEXTBEGIN
1070
    73
1070
     1
1070
    44
1040
1.0
1070
    74
1070
     0
1000
MTEXTEND
  0
MTEXT
  5
F2
330
1A
100
AcDbEntity
  8
WAKU
100
AcDbMText
 10
346.0
 20
27.0
 30
0.0
 40
3.0
 41
10.0
 71
     1
 72
     5
  1
ｽﾄｯｸNo.
 73
     1
 44
1.0
1001
ACAD
1000
MTEXTBEGIN
1070
    73
1070
     1
1070
    44
1040
1.0
1070
    74
1070
     0
1000
MTEXTEND
  0
MTEXT
  5
F3
330
1A
100
AcDbEntity
  8
WAKU
100
AcDbMText
 10
347.0
 20
20.0
 30
0.0
 40
3.0
 41
12.0
 71
     1
 72
     5
  1
適用ﾛｯﾄ
 73
     1
 44
1.0
1001
ACAD
1000
MTEXTBEGIN
1070
    73
1070
     1
1070
    44
1040
1.0
1070
    74
1070
     0
1000
MTEXTEND
  0
MTEXT
  5
F5
330
1A
100
AcDbEntity
  8
WAKU
100
AcDbMText
 10
330.0
 20
85.0
 30
0.0
 40
3.0
 41
12.0
 71
     1
 72
     5
  1

 73
     1
 44
1.0
1001
ACAD
1000
MTEXTBEGIN
1070
    73
1070
     1
1070
    44
1040
1.0
1070
    74
1070
     0
1000
MTEXTEND
  0
MTEXT
  5
FF
330
1A
100
AcDbEntity
  8
WAKU
100
AcDbMText
 10
271.0
 20
82.0
 30
0.0
 40
3.0
 41
74.0
 71
     1
 72
     5
  1

 73
     1
 44
1.0
1001
ACAD
1000
MTEXTBEGIN
1070
    73
1070
     1
1070
    44
1040
1.0
1070
    74
1070
     0
1000
MTEXTEND
  0
MTEXT
  5
102
330
1A
100
AcDbEntity
  8
WAKU
100
AcDbMText
 10
287.0
 20
32.51948100072616
 30
0.0
 40
3.0
 41
13.0
 71
     1
 72
     5
  1
設　計
 73
     1
 44
1.0
1001
ACAD
1000
MTEXTBEGIN
1070
    73
1070
     1
1070
    44
1040
1.0
1070
    74
1070
     0
1000
MTEXTEND
  0
MTEXT
  5
103
330
1A
100
AcDbEntity
  8
WAKU
100
AcDbMText
 10
302.0
 20
33.0
 30
0.0
 40
3.0
 41
13.0
 71
     1
 72
     5
  1
検　図
 73
     1
 44
1.0
1001
ACAD
1000
MTEXTBEGIN
1070
    73
1070
     1
1070
    44
1040
1.0
1070
    74
1070
     0
1000
MTEXTEND
  0
MTEXT
  5
104
330
1A
100
AcDbEntity
  8
WAKU
100
AcDbMText
 10
325.5
 20
32.51948100072616
 30
0.0
 40
3.0
 41
13.0
 71
     1
 72
     5
  1
承　認
 73
     1
 44
1.0
1001
ACAD
1000
MTEXTBEGIN
1070
    73
1070
     1
1070
    44
1040
1.0
1070
    74
1070
     0
1000
MTEXTEND
  0
MTEXT
  5
106
330
1A
100
AcDbEntity
  8
WAKU
100
AcDbMText
 10
314.791664707496
 20
38.86071114661275
 30
0.0
 40
3.0
 41
13.6217958711934
 71
     1
 72
     5
  1
名　　称
 73
     1
 44
1.0
1001
ACAD
1000
MTEXTBEGIN
1070
    73
1070
     1
1070
    44
1040
1.0
1070
    74
1070
     0
1000
MTEXTEND
  0
LINE
  5
108
330
1A
100
AcDbEntity
  8
CENTER
100
AcDbLine
 10
30.0
 20
180.0
 30
0.0
 11
395.0
 21
180.0
 31
0.0
  0
LINE
  5
109
330
1A
100
AcDbEntity
  8
0
100
AcDbLine
 10
150.0
 20
228.0
 30
0.0
 11
150.0
 21
132.0
 31
0.0
  0
LINE
  5
10B
330
1A
100
AcDbEntity
  8
0
100
AcDbLine
 10
260.0
 20
226.0
 30
0.0
 11
260.0
 21
134.0
 31
0.0
  0
LINE
  5
10D
330
1A
100
AcDbEntity
  8
0
100
AcDbLine
 10
262.0
 20
226.0
 30
0.0
 11
262.0
 21
221.549193338483
 31
0.0
  0
LINE
  5
110
330
1A
100
AcDbEntity
  8
0
100
AcDbLine
 10
56.0
 20
228.0
 30
0.0
 11
104.0
 21
228.0
 31
0.0
  0
LINE
  5
111
330
1A
100
AcDbEntity
  8
0
100
AcDbLine
 10
56.0
 20
132.0
 30
0.0
 11
104.0
 21
132.0
 31
0.0
  0
LINE
  5
118
330
1A
100
AcDbEntity
  8
0
100
AcDbLine
 10
56.0
 20
228.0
 30
0.0
 11
56.0
 21
132.0
 31
0.0
  0
LINE
  5
119
330
1A
100
AcDbEntity
  8
0
100
AcDbLine
 10
104.0
 20
228.0
 30
0.0
 11
104.0
 21
132.0
 31
0.0
  0
LINE
  5
11B
330
1A
100
AcDbEntity
  8
0
100
AcDbLine
 10
326.0
 20
228.0
 30
0.0
 11
326.0
 21
132.0
 31
0.0
  0
LINE
  5
11C
330
1A
100
AcDbEntity
  8
0
100
AcDbLine
 10
374.0
 20
228.0
 30
0.0
 11
374.0
 21
132.0
 31
0.0
  0
LINE
  5
11E
330
1A
100
AcDbEntity
  8
0
100
AcDbLine
 10
151.0
 20
114.0
 30
0.0
 11
155.7
 21
114.0
 31
0.0
  0
LINE
  5
11F
330
1A
100
AcDbEntity
  8
0
100
AcDbLine
 10
151.0
 20
66.0
 30
0.0
 11
155.6999999999999
 21
66.0
 31
0.0
  0
LINE
  5
120
330
1A
100
AcDbEntity
  8
0
100
AcDbLine
 10
150.0
 20
113.0
 30
0.0
 11
150.0
 21
67.0
 31
0.0
  0
LINE
  5
123
330
1A
100
AcDbEntity
  8
0
100
AcDbLine
 10
262.0
 20
97.5
 30
0.0
 11
262.0
 21
82.5
 31
0.0
  0
LINE
  5
124
330
1A
100
AcDbEntity
  8
0
100
AcDbLine
 10
260.0
 20
111.5
 30
0.0
 11
260.0
 21
97.5
 31
0.0
  0
LINE
  5
126
330
1A
100
AcDbEntity
  8
0
100
AcDbLine
 10
326.0
 20
228.0
 30
0.0
 11
374.0
 21
228.0
 31
0.0
  0
LINE
  5
129
330
1A
100
AcDbEntity
  8
0
100
AcDbLine
 10
326.0
 20
132.0
 30
0.0
 11
374.0
 21
132.0
 31
0.0
  0
LINE
  5
12E
330
1A
100
AcDbEntity
  8
0
100
AcDbLine
 10
156.5000000000003
 20
226.0
 30
0.0
 11
260.0
 21
226.0
 31
0.0
  0
LINE
  5
12F
330
1A
100
AcDbEntity
  8
0
100
AcDbLine
 10
150.0
 20
228.0
 30
0.0
 11
156.0000000000003
 21
228.0
 31
0.0
  0
LINE
  5
130
330
1A
100
AcDbEntity
  8
0
100
AcDbLine
 10
155.7
 20
225.5
 30
0.0
 11
260.0
 21
225.5
 31
0.0
  0
LINE
  5
131
330
1A
100
AcDbEntity
  8
0
100
AcDbLine
 10
156.5000000000001
 20
134.0
 30
0.0
 11
260.0
 21
134.0
 31
0.0
  0
LINE
  5
132
330
1A
100
AcDbEntity
  8
0
100
AcDbLine
 10
155.7
 20
134.5
 30
0.0
 11
260.0
 21
134.5
 31
0.0
  0
LINE
  5
133
330
1A
100
AcDbEntity
  8
0
100
AcDbLine
 10
150.0
 20
132.0
 30
0.0
 11
156.0
 21
132.0
 31
0.0
  0
LINE
  5
134
330
1A
100
AcDbEntity
  8
CENTER
100
AcDbLine
 10
94.0
 20
90.0
 30
0.0
 11
315.0
 21
90.0
 31
0.0
  0
LINE
  5
135
330
1A
100
AcDbEntity
  8
0
100
AcDbLine
 10
155.7
 20
111.5
 30
0.0
 11
260.0
 21
111.5
 31
0.0
  0
LINE
  5
136
330
1A
100
AcDbEntity
  8
0
100
AcDbLine
 10
155.6999999999999
 20
68.5
 30
0.0
 11
260.0
 21
68.5
 31
0.0
  0
LINE
  5
137
330
1A
100
AcDbEntity
  8
0
100
AcDbLine
 10
156.5000000000003
 20
228.0
 30
0.0
 11
260.0
 21
228.0
 31
0.0
  0
LINE
  5
138
330
1A
100
AcDbEntity
  8
0
100
AcDbLine
 10
156.5000000000001
 20
132.0
 30
0.0
 11
260.0
 21
132.0
 31
0.0
  0
ARC
  5
13E
330
1A
100
AcDbEntity
  8
0
100
AcDbCircle
 10
260.0
 20
226.0
 30
0.0
 40
2.0
100
AcDbArc
 50
0.0
 51
90.0
  0
ARC
  5
13F
330
1A
100
AcDbEntity
  8
0
100
AcDbCircle
 10
260.0
 20
134.0
 30
0.0
 40
2.0
100
AcDbArc
 50
270.0
 51
0.0
  0
LINE
  5
140
330
1A
100
AcDbEntity
  8
0
100
AcDbLine
 10
156.4999999999999
 20
97.5
 30
0.0
 11
262.0
 21
97.5
 31
0.0
  0
LINE
  5
142
330
1A
100
AcDbEntity
  8
0
100
AcDbLine
 10
156.4999999999999
 20
82.5
 30
0.0
 11
262.0
 21
82.5
 31
0.0
  0
LINE
  5
144
330
1A
100
AcDbEntity
  8
0
100
AcDbLine
 10
260.0
 20
82.5
 30
0.0
 11
260.0
 21
68.5
 31
0.0
  0
LINE
  5
340
330
1A
100
AcDbEntity
  8
0
100
AcDbLine
 10
328.5
 20
225.5
 30
0.0
 11
342.5
 21
225.5
 31
0.0
  0
LINE
  5
341
330
1A
100
AcDbEntity
  8
0
100
AcDbLine
 10
328.5
 20
134.5
 30
0.0
 11
342.5
 21
134.5
 31
0.0
  0
LINE
  5
342
330
1A
100
AcDbEntity
  8
0
100
AcDbLine
 10
371.5
 20
225.5
 30
0.0
 11
371.5
 21
134.5
 31
0.0
  0
LINE
  5
343
330
1A
100
AcDbEntity
  8
0
100
AcDbLine
 10
328.5
 20
225.5
 30
0.0
 11
328.5
 21
134.5
 31
0.0
  0
LINE
  5
344
330
1A
100
AcDbEntity
  8
0
100
AcDbLine
 10
357.5
 20
228.0
 30
0.0
 11
357.5
 21
217.5
 31
0.0
  0
LINE
  5
345
330
1A
100
AcDbEntity
  8
0
100
AcDbLine
 10
342.5
 20
228.0
 30
0.0
 11
342.5
 21
217.5
 31
0.0
  0
LINE
  5
347
330
1A
100
AcDbEntity
  8
0
100
AcDbLine
 10
357.5
 20
225.5
 30
0.0
 11
371.5
 21
225.5
 31
0.0
  0
LINE
  5
348
330
1A
100
AcDbEntity
  8
0
100
AcDbLine
 10
357.5
 20
134.5
 30
0.0
 11
371.5
 21
134.5
 31
0.0
  0
LINE
  5
34B
330
1A
100
AcDbEntity
  8
0
100
AcDbLine
 10
343.0
 20
217.0
 30
0.0
 11
357.0
 21
217.0
 31
0.0
  0
LINE
  5
34C
330
1A
100
AcDbEntity
  8
0
100
AcDbLine
 10
343.0
 20
143.0
 30
0.0
 11
357.0
 21
143.0
 31
0.0
  0
LINE
  5
34D
330
1A
100
AcDbEntity
  8
0
100
AcDbLine
 10
342.5
 20
142.5
 30
0.0
 11
342.5
 21
132.0
 31
0.0
  0
CIRCLE
  5
632
330
1A
100
AcDbEntity
  8
0
100
AcDbCircle
 10
350.0
 20
138.5
 30
0.0
 40
3.0
  0
LINE
  5
633
330
1A
100
AcDbEntity
  8
0
100
AcDbLine
 10
348.5
 20
140.0
 30
0.0
 11
351.5
 21
137.0
 31
0.0
  0
LINE
  5
634
330
1A
100
AcDbEntity
  8
0
100
AcDbLine
 10
351.5
 20
140.0
 30
0.0
 11
348.5
 21
137.0
 31
0.0
  0
CIRCLE
  5
638
330
1A
100
AcDbEntity
  8
0
100
AcDbCircle
 10
350.0
 20
221.5
 30
0.0
 40
3.0
  0
LINE
  5
639
330
1A
100
AcDbEntity
  8
0
100
AcDbLine
 10
348.5
 20
223.0
 30
0.0
 11
351.5
 21
220.0
 31
0.0
  0
LINE
  5
63A
330
1A
100
AcDbEntity
  8
0
100
AcDbLine
 10
351.5
 20
223.0
 30
0.0
 11
348.5
 21
220.0
 31
0.0
  0
CIRCLE
  5
63B
330
1A
100
AcDbEntity
  8
0
100
AcDbCircle
 10
338.0
 20
220.0
 30
0.0
 40
2.1
  0
LINE
  5
63C
330
1A
100
AcDbEntity
  8
0
100
AcDbLine
 10
339.0
 20
221.0
 30
0.0
 11
337.0
 21
219.0
 31
0.0
  0
LINE
  5
63D
330
1A
100
AcDbEntity
  8
0
100
AcDbLine
 10
337.0
 20
221.0
 30
0.0
 11
339.0
 21
219.0
 31
0.0
  0
LINE
  5
63E
330
1A
100
AcDbEntity
  8
0
100
AcDbLine
 10
360.0
 20
221.0
 30
0.0
 11
362.0
 21
219.0
 31
0.0
  0
LINE
  5
63F
330
1A
100
AcDbEntity
  8
0
100
AcDbLine
 10
362.0
 20
221.0
 30
0.0
 11
360.0
 21
219.0
 31
0.0
  0
CIRCLE
  5
640
330
1A
100
AcDbEntity
  8
0
100
AcDbCircle
 10
361.0
 20
220.0
 30
0.0
 40
2.1
  0
CIRCLE
  5
641
330
1A
100
AcDbEntity
  8
0
100
AcDbCircle
 10
361.0
 20
140.0
 30
0.0
 40
2.1
  0
LINE
  5
642
330
1A
100
AcDbEntity
  8
0
100
AcDbLine
 10
362.0
 20
141.0
 30
0.0
 11
360.0
 21
139.0
 31
0.0
  0
LINE
  5
643
330
1A
100
AcDbEntity
  8
0
100
AcDbLine
 10
360.0
 20
141.0
 30
0.0
 11
362.0
 21
139.0
 31
0.0
  0
LINE
  5
644
330
1A
100
AcDbEntity
  8
0
100
AcDbLine
 10
337.0
 20
141.0
 30
0.0
 11
339.0
 21
139.0
 31
0.0
  0
LINE
  5
645
330
1A
100
AcDbEntity
  8
0
100
AcDbLine
 10
339.0
 20
141.0
 30
0.0
 11
337.0
 21
139.0
 31
0.0
  0
CIRCLE
  5
646
330
1A
100
AcDbEntity
  8
0
100
AcDbCircle
 10
338.0
 20
140.0
 30
0.0
 40
2.1
  0
LINE
  5
78B
330
1A
100
AcDbEntity
  8
WAKU
100
AcDbLine
 10
285.0
 20
17.0
 30
0.0
 11
225.0
 21
17.0
 31
0.0
  0
LINE
  5
78C
330
1A
100
AcDbEntity
  8
WAKU
100
AcDbLine
 10
285.0
 20
21.0
 30
0.0
 11
225.0
 21
21.0
 31
0.0
  0
LINE
  5
78D
330
1A
100
AcDbEntity
  8
WAKU
100
AcDbLine
 10
285.0
 20
25.0
 30
0.0
 11
225.0
 21
25.0
 31
0.0
  0
LINE
  5
78E
330
1A
100
AcDbEntity
  8
WAKU
100
AcDbLine
 10
285.0
 20
29.0
 30
0.0
 11
225.0
 21
29.0
 31
0.0
  0
LINE
  5
78F
330
1A
100
AcDbEntity
  8
WAKU
100
AcDbLine
 10
285.0
 20
33.0
 30
0.0
 11
225.0
 21
33.0
 31
0.0
  0
LINE
  5
790
330
1A
100
AcDbEntity
  8
WAKU
100
AcDbLine
 10
285.0
 20
37.0
 30
0.0
 11
225.0
 21
37.0
 31
0.0
  0
LINE
  5
791
330
1A
100
AcDbEntity
  8
WAKU
100
AcDbLine
 10
285.0
 20
41.0
 30
0.0
 11
225.0
 21
41.0
 31
0.0
  0
LINE
  5
792
330
1A
100
AcDbEntity
  8
WAKU
100
AcDbLine
 10
285.0
 20
45.0
 30
0.0
 11
225.0
 21
45.0
 31
0.0
  0
LINE
  5
794
330
1A
100
AcDbEntity
  8
WAKU
100
AcDbLine
 10
233.0
 20
13.0
 30
0.0
 11
233.0
 21
50.0
 31
0.0
  0
LINE
  5
795
330
1A
100
AcDbEntity
  8
WAKU
100
AcDbLine
 10
246.0
 20
13.0
 30
0.0
 11
246.0
 21
50.0
 31
0.0
  0
LINE
  5
796
330
1A
100
AcDbEntity
  8
WAKU
100
AcDbLine
 10
256.0
 20
13.0
 30
0.0
 11
256.0
 21
50.0
 31
0.0
  0
TEXT
  5
797
330
1A
100
AcDbEntity
  8
WAKU
100
AcDbText
 10
226.0
 20
46.0
 30
0.0
 40
3.0
  1
記号
100
AcDbText
  0
TEXT
  5
798
330
1A
100
AcDbEntity
  8
WAKU
100
AcDbText
 10
234.5
 20
46.0
 30
0.0
 40
3.0
  1
年月日
100
AcDbText
  0
TEXT
  5
799
330
1A
100
AcDbEntity
  8
WAKU
100
AcDbText
 10
248.0
 20
46.0
 30
0.0
 40
3.0
  1
担当
100
AcDbText
  0
TEXT
  5
79A
330
1A
100
AcDbEntity
  8
WAKU
100
AcDbText
 10
263.5
 20
46.0
 30
0.0
 40
3.0
  1
改連No.
100
AcDbText
  0
TEXT
  5
7C5
330
1A
100
AcDbEntity
  8
WAKU
100
AcDbText
 10
228.0
 20
17.5
 30
0.0
 40
2.0
  1
A
100
AcDbText
  0
TEXT
  5
7C6
330
1A
100
AcDbEntity
  8
WAKU
100
AcDbText
 10
228.0
 20
21.5
 30
0.0
 40
2.0
  1
B
100
AcDbText
  0
TEXT
  5
7C7
330
1A
100
AcDbEntity
  8
WAKU
100
AcDbText
 10
228.0
 20
25.5
 30
0.0
 40
2.0
  1
C
100
AcDbText
  0
TEXT
  5
7C8
330
1A
100
AcDbEntity
  8
WAKU
100
AcDbText
 10
228.0
 20
29.5
 30
0.0
 40
2.0
  1
D
100
AcDbText
  0
TEXT
  5
7C9
330
1A
100
AcDbEntity
  8
WAKU
100
AcDbText
 10
228.0
 20
33.5
 30
0.0
 40
2.0
  1
E
100
AcDbText
  0
TEXT
  5
7CA
330
1A
100
AcDbEntity
  8
WAKU
100
AcDbText
 10
228.0
 20
37.5
 30
0.0
 40
2.0
  1
F
100
AcDbText
  0
TEXT
  5
7CB
330
1A
100
AcDbEntity
  8
WAKU
100
AcDbText
 10
228.0
 20
41.5
 30
0.0
 40
2.0
  1
G
100
AcDbText
  0
TEXT
  5
7CC
330
1A
100
AcDbEntity
  8
WAKU
100
AcDbText
 10
226.0
 20
13.5
 30
0.0
 40
3.0
  1
設置
100
AcDbText
  0
TEXT
  5
7CD
330
1A
100
AcDbEntity
  8
WAKU
100
AcDbText
 10
286.5
 20
35.5
 30
0.0
 40
3.0
  1
尺　度
100
AcDbText
  0
LINE
  5
7CE
330
1A
100
AcDbEntity
  8
WAKU
100
AcDbLine
 10
298.0
 20
48.0
 30
0.0
 11
287.0
 21
42.0
 31
0.0
  0
TEXT
  5
7CF
330
1A
100
AcDbEntity
  8
WAKU
100
AcDbText
 10
346.5
 20
10.5
 30
0.0
 40
3.0
  1
図
100
AcDbText
  0
TEXT
  5
7D0
330
1A
100
AcDbEntity
  8
WAKU
100
AcDbText
 10
346.5
 20
6.0
 30
0.0
 40
3.0
  1
番
100
AcDbText
  0
TEXT
  5
7D1
330
1A
100
AcDbEntity
  8
WAKU
100
AcDbText
 10
256.5
 20
6.0
 30
0.0
 40
6.0
  1
東洋測器株式会社
100
AcDbText
  0
TEXT
  5
8C1
330
1A
100
AcDbEntity
  8
0
100
AcDbText
 10
293.0
 20
41.5
 30
0.0
 40
3.0
  1
1
100
AcDbText
  0
TEXT
  5
8C4
330
1A
100
AcDbEntity
  8
0
100
AcDbText
 10
308.0
 20
42.5
 30
0.0
 40
4.0
  1
外　観　図
100
AcDbText
  0
TEXT
  5
8C5
330
1A
100
AcDbEntity
  8
0
100
AcDbText
 10
363.5
 20
44.5
 30
0.0
 40
3.0
  1
ＤＬＳ－５０２９
100
AcDbText
  0
TEXT
  5
8C6
330
1A
100
AcDbEntity
  8
0
100
AcDbText
 10
287.5
 20
44.5
 30
0.0
 40
3.0
  1
1
100
AcDbText
  0
LINE
  5
8DD
330
1A
100
AcDbEntity
  8
0
100
AcDbLine
 10
340.0
 20
228.0
 30
0.0
 11
340.0
 21
225.5
 31
0.0
  0
LINE
  5
8DE
330
1A
100
AcDbEntity
  8
0
100
AcDbLine
 10
340.0
 20
134.5
 30
0.0
 11
340.0
 21
132.0
 31
0.0
  0
LINE
  5
8DF
330
1A
100
AcDbEntity
  8
0
100
AcDbLine
 10
360.0
 20
228.0
 30
0.0
 11
360.0
 21
225.5
 31
0.0
  0
LINE
  5
8E0
330
1A
100
AcDbEntity
  8
0
100
AcDbLine
 10
360.0
 20
134.5
 30
0.0
 11
360.0
 21
132.0
 31
0.0
  0
LINE
  5
8E6
330
1A
100
AcDbEntity
  8
0
100
AcDbLine
 10
155.9999999999999
 20
100.0
 30
0.0
 11
155.9999999999999
 21
80.0
 31
0.0
  0
ARC
  5
8E8
330
1A
100
AcDbEntity
  8
0
100
AcDbCircle
 10
151.0
 20
113.0
 30
0.0
 40
1.0
100
AcDbArc
 50
90.0
 51
180.0
  0
ARC
  5
8E9
330
1A
100
AcDbEntity
  8
0
100
AcDbCircle
 10
151.0
 20
67.0
 30
0.0
 40
1.0
100
AcDbArc
 50
180.0
 51
270.0
  0
LINE
  5
8F0
330
1A
100
AcDbEntity
  8
0
100
AcDbLine
 10
151.0
 20
113.0
 30
0.0
 11
155.7
 21
113.0
 31
0.0
  0
LINE
  5
8F1
330
1A
100
AcDbEntity
  8
0
100
AcDbLine
 10
151.0
 20
67.0
 30
0.0
 11
155.6999999999999
 21
67.0
 31
0.0
  0
LINE
  5
990
330
1A
100
AcDbEntity
  8
0
100
AcDbLine
 10
155.2
 20
100.5
 30
0.0
 11
155.1999999999999
 21
79.5
 31
0.0
  0
LINE
  5
991
330
1A
100
AcDbEntity
  8
0
100
AcDbLine
 10
154.7
 20
100.5
 30
0.0
 11
154.6999999999999
 21
79.5
 31
0.0
  0
LINE
  5
992
330
1A
100
AcDbEntity
  8
0
100
AcDbLine
 10
155.2
 20
100.0
 30
0.0
 11
156.0
 21
100.0
 31
0.0
  0
LINE
  5
993
330
1A
100
AcDbEntity
  8
0
100
AcDbLine
 10
155.1999999999999
 20
80.0
 30
0.0
 11
155.9999999999999
 21
80.0
 31
0.0
  0
LINE
  5
994
330
1A
100
AcDbEntity
  8
0
100
AcDbLine
 10
155.7
 20
114.0
 30
0.0
 11
155.7
 21
100.5
 31
0.0
  0
LINE
  5
995
330
1A
100
AcDbEntity
  8
0
100
AcDbLine
 10
155.6999999999999
 20
79.5
 30
0.0
 11
155.6999999999999
 21
66.0
 31
0.0
  0
LINE
  5
996
330
1A
100
AcDbEntity
  8
0
100
AcDbLine
 10
154.6999999999999
 20
79.5
 30
0.0
 11
155.6999999999999
 21
79.5
 31
0.0
  0
LINE
  5
997
330
1A
100
AcDbEntity
  8
0
100
AcDbLine
 10
154.7
 20
100.5
 30
0.0
 11
155.7
 21
100.5
 31
0.0
  0
LINE
  5
998
330
1A
100
AcDbEntity
  8
0
100
AcDbLine
 10
156.5000000000003
 20
228.0
 30
0.0
 11
156.5000000000003
 21
226.0
 31
0.0
  0
LINE
  5
9D3
330
1A
100
AcDbEntity
  8
0
100
AcDbLine
 10
155.7
 20
228.0
 30
0.0
 11
155.7
 21
132.0
 31
0.0
  0
LINE
  5
9D4
330
1A
100
AcDbEntity
  8
0
100
AcDbLine
 10
156.5
 20
97.5
 30
0.0
 11
156.4999999999999
 21
82.5
 31
0.0
  0
LINE
  5
9D5
330
1A
100
AcDbEntity
  8
0
100
AcDbLine
 10
156.5000000000001
 20
134.0
 30
0.0
 11
156.5000000000001
 21
132.0
 31
0.0
  0
LINE
  5
9D7
330
1A
100
AcDbEntity
  8
0
100
AcDbLine
 10
156.0000000000001
 20
134.5
 30
0.0
 11
156.0000000000001
 21
132.0
 31
0.0
  0
LINE
  5
9D8
330
1A
100
AcDbEntity
  8
0
100
AcDbLine
 10
156.0000000000003
 20
228.0
 30
0.0
 11
156.0000000000003
 21
225.5
 31
0.0
  0
LINE
  5
9E8
330
1A
100
AcDbEntity
  8
0
100
AcDbLine
 10
373.0
 20
228.0
 30
0.0
 11
373.0
 21
132.0
 31
0.0
  0
LINE
  5
9E9
330
1A
100
AcDbEntity
  8
0
100
AcDbLine
 10
327.0
 20
228.0
 30
0.0
 11
327.0
 21
132.0
 31
0.0
  0
LINE
  5
9EA
330
1A
100
AcDbEntity
  8
0
100
AcDbLine
 10
327.0
 20
227.0
 30
0.0
 11
340.0
 21
227.0
 31
0.0
  0
LINE
  5
9EB
330
1A
100
AcDbEntity
  8
0
100
AcDbLine
 10
327.0
 20
133.0
 30
0.0
 11
340.0
 21
133.0
 31
0.0
  0
LINE
  5
9EC
330
1A
100
AcDbEntity
  8
0
100
AcDbLine
 10
360.0
 20
133.0
 30
0.0
 11
373.0
 21
133.0
 31
0.0
  0
LINE
  5
9ED
330
1A
100
AcDbEntity
  8
0
100
AcDbLine
 10
360.0
 20
227.0
 30
0.0
 11
373.0
 21
227.0
 31
0.0
  0
LINE
  5
9F0
330
1A
100
AcDbEntity
  8
0
100
AcDbLine
 10
258.8
 20
225.5
 30
0.0
 11
258.8
 21
134.5
 31
0.0
  0
LINE
  5
9F1
330
1A
100
AcDbEntity
  8
0
100
AcDbLine
 10
258.8
 20
111.5
 30
0.0
 11
258.8
 21
97.5
 31
0.0
  0
LINE
  5
9F2
330
1A
100
AcDbEntity
  8
0
100
AcDbLine
 10
258.8
 20
82.5
 30
0.0
 11
258.8
 21
68.5
 31
0.0
  0
LINE
  5
9F5
330
1A
100
AcDbEntity
  8
0
100
AcDbLine
 10
370.7
 20
216.5
 30
0.0
 11
370.7
 21
143.5
 31
0.0
  0
ELLIPSE
  5
A10
330
1A
100
AcDbEntity
  8
0
100
AcDbEllipse
 10
261.0
 20
220.0
 30
0.0
 11
0.0
 21
2.0
 31
0.0
210
0.0
220
0.0
230
1.0
 40
0.7905694150420949
 41
2.456873450587514
 42
6.967904510181925
  0
ELLIPSE
  5
A11
330
1A
100
AcDbEntity
  8
0
100
AcDbEllipse
 10
261.0
 20
140.0
 30
0.0
 11
0.0
 21
2.0
 31
0.0
210
0.0
220
0.0
230
1.0
 40
0.7905694150420949
 41
2.456873450587514
 42
6.967904510181925
  0
ELLIPSE
  5
A17
330
1A
100
AcDbEntity
  8
0
100
AcDbEllipse
 10
263.0
 20
138.5
 30
0.0
 11
0.0
 21
3.0
 31
0.0
210
0.0
220
0.0
230
1.0
 40
0.6666666666666666
 41
2.617993877991494
 42
6.806784082778001
  0
ELLIPSE
  5
A19
330
1A
100
AcDbEntity
  8
0
100
AcDbEllipse
 10
263.0
 20
90.0
 30
0.0
 11
0.0
 21
3.0
 31
0.0
210
0.0
220
0.0
230
1.0
 40
0.6666666666666666
 41
2.617993877991494
 42
6.806784082778001
  0
ELLIPSE
  5
A1A
330
1A
100
AcDbEntity
  8
0
100
AcDbEllipse
 10
263.0
 20
221.5
 30
0.0
 11
0.0
 21
3.0
 31
0.0
210
0.0
220
0.0
230
1.0
 40
0.6666666666666666
 41
2.617993877991494
 42
6.806784082778001
  0
DIMENSION
  5
A5B
330
1A
100
AcDbEntity
  8
SUNPOU
100
AcDbDimension
  2
*D1
 10
155.9999999999999
 20
120.0
 30
0.0
 11
208.0
 21
122.0
 31
0.0
 12
10.0
 22
0.0
 32
0.0
 70
    32
 71
     5
 42
-1.0
  3
STANDARD
100
AcDbAlignedDimension
 13
260.0
 23
111.5
 33
0.0
 14
155.9999999999999
 24
100.0
 34
0.0
100
AcDbRotatedDimension
1001
ACAD
1000
DSTYLE
1002
{
1070
   140
1040
3.0
1070
    74
1070
     0
1070
    73
1070
     0
1070
   272
1070
     0
1070
    77
1070
     1
1070
   173
1070
     1
1070
   147
1040
0.5
1070
    42
1040
0.5
1070
    44
1040
0.5
1070
    43
1040
10.0
1070
   271
1070
     0
1070
   141
1040
0.0
1070
     7
1000
_OPEN
1070
     6
1000
_OPEN
1070
    41
1040
2.5
1002
}
  0
DIMENSION
  5
A78
330
1A
100
AcDbEntity
  8
SUNPOU
100
AcDbDimension
  2
*D2
 10
45.0
 20
132.0
 30
0.0
 11
43.0
 21
180.0
 31
0.0
 12
10.0
 22
0.0
 32
0.0
 70
    32
 71
     5
 42
-1.0
  3
STANDARD
100
AcDbAlignedDimension
 13
56.0
 23
228.0
 33
0.0
 14
56.0
 24
132.0
 34
0.0
 50
90.0
100
AcDbRotatedDimension
1001
ACAD
1000
DSTYLE
1002
{
1070
   140
1040
3.0
1070
    74
1070
     0
1070
    73
1070
     0
1070
   272
1070
     0
1070
    77
1070
     1
1070
   173
1070
     1
1070
   147
1040
0.5
1070
    42
1040
0.5
1070
    44
1040
0.5
1070
    43
1040
10.0
1070
   271
1070
     0
1070
   141
1040
0.0
1070
     7
1000
_OPEN
1070
     6
1000
_OPEN
1070
    41
1040
2.5
1002
}
  0
DIMENSION
  5
A85
330
1A
100
AcDbEntity
  8
SUNPOU
100
AcDbDimension
  2
*D3
 10
104.0
 20
120.0
 30
0.0
 11
80.0
 21
122.0
 31
0.0
 12
10.0
 22
0.0
 32
0.0
 70
    32
 71
     5
 42
-1.0
  3
STANDARD
100
AcDbAlignedDimension
 13
56.0
 23
132.0
 33
0.0
 14
104.0
 24
132.0
 34
0.0
100
AcDbRotatedDimension
1001
ACAD
1000
DSTYLE
1002
{
1070
   140
1040
3.0
1070
    74
1070
     0
1070
    73
1070
     0
1070
   272
1070
     0
1070
    77
1070
     1
1070
   173
1070
     1
1070
   147
1040
0.5
1070
    42
1040
0.5
1070
    44
1040
0.5
1070
    43
1040
10.0
1070
   271
1070
     0
1070
   141
1040
0.0
1070
     7
1000
_OPEN
1070
     6
1000
_OPEN
1070
    41
1040
2.5
1002
}
  0
DIMENSION
  5
A92
330
1A
100
AcDbEntity
  8
SUNPOU
100
AcDbDimension
  2
*D4
 10
385.0
 20
134.5
 30
0.0
 11
383.0
 21
180.0
 31
0.0
 70
    32
 71
     5
 42
-1.0
  3
STANDARD
100
AcDbAlignedDimension
 13
371.5
 23
225.5
 33
0.0
 14
371.5
 24
134.5
 34
0.0
 50
90.0
100
AcDbRotatedDimension
1001
ACAD
1000
DSTYLE
1002
{
1070
   140
1040
3.0
1070
    74
1070
     0
1070
    73
1070
     0
1070
   272
1070
     0
1070
    77
1070
     1
1070
   173
1070
     1
1070
   147
1040
0.5
1070
    42
1040
0.5
1070
    44
1040
0.5
1070
    43
1040
10.0
1070
   271
1070
     0
1070
   141
1040
0.0
1070
     7
1000
_OPEN
1070
     6
1000
_OPEN
1070
    41
1040
2.5
1002
}
  0
DIMENSION
  5
A9F
330
1A
100
AcDbEntity
  8
SUNPOU
100
AcDbDimension
  2
*D5
 10
371.5
 20
120.0
 30
0.0
 11
350.0
 21
122.0
 31
0.0
 70
    32
 71
     5
 42
-1.0
  3
STANDARD
100
AcDbAlignedDimension
 13
328.5
 23
134.5
 33
0.0
 14
371.5
 24
134.5
 34
0.0
100
AcDbRotatedDimension
1001
ACAD
1000
DSTYLE
1002
{
1070
   140
1040
3.0
1070
    74
1070
     0
1070
    73
1070
     0
1070
   272
1070
     0
1070
    77
1070
     1
1070
   173
1070
     1
1070
   147
1040
0.5
1070
    42
1040
0.5
1070
    44
1040
0.5
1070
    43
1040
10.0
1070
   271
1070
     0
1070
   141
1040
0.0
1070
     7
1000
_OPEN
1070
     6
1000
_OPEN
1070
    41
1040
2.5
1002
}
  0
DIMENSION
  5
AAD
330
1A
100
AcDbEntity
  8
SUNPOU
100
AcDbDimension
  2
*D6
 10
150.0
 20
120.0
 30
0.0
 11
153.0
 21
122.0
 31
0.0
 12
30.0
 22
0.0
 32
0.0
 70
    32
 71
     5
 42
-1.0
  3
STANDARD
100
AcDbAlignedDimension
 13
155.9999999999999
 23
100.0
 33
0.0
 14
150.0
 24
113.0
 34
0.0
100
AcDbRotatedDimension
1001
ACAD
1000
DSTYLE
1002
{
1070
   140
1040
3.0
1070
    74
1070
     0
1070
    73
1070
     0
1070
   272
1070
     0
1070
    77
1070
     1
1070
   173
1070
     1
1070
   147
1040
0.5
1070
    42
1040
0.5
1070
    44
1040
0.5
1070
    43
1040
10.0
1070
   271
1070
     0
1070
   141
1040
0.0
1070
     7
1000
_OPEN
1070
     6
1000
_OPEN
1070
    41
1040
2.5
1002
}
  0
LINE
  5
AAE
330
1A
100
AcDbEntity
  8
0
100
AcDbLine
 10
262.0
 20
138.450806661517
 30
0.0
 11
262.0
 21
134.0
 31
0.0
  0
LINE
  5
AAF
330
1A
100
AcDbEntity
  8
0
100
AcDbLine
 10
262.0
 20
218.450806661517
 30
0.0
 11
262.0
 21
217.0
 31
0.0
  0
TEXT
  5
C38
330
1A
100
AcDbEntity
  8
0
100
AcDbText
 10
357.5
 20
8.0
 30
0.0
 40
3.5
  1
EA3-00013
100
AcDbText
  0
TEXT
  5
1219
330
1A
100
AcDbEntity
  8
WAKU
100
AcDbText
 10
288.2668582879964
 20
20.03689667871304
 30
0.0
 40
4.0
  1
大野
100
AcDbText
  0
TEXT
  5
121A
330
1A
100
AcDbEntity
  8
WAKU
100
AcDbText
 10
286.0
 20
15.03689667871303
 30
0.0
 40
2.0
  1
99.06.29
100
AcDbText
  0
LINE
  5
233A
330
1A
100
AcDbEntity
  8
0
100
AcDbLine
 10
356.8000000000001
 20
216.5
 30
0.0
 11
371.5
 21
216.5
 31
0.0
  0
LINE
  5
233B
330
1A
100
AcDbEntity
  8
0
100
AcDbLine
 10
371.5
 20
143.5
 30
0.0
 11
356.8
 21
143.5
 31
0.0
  0
LINE
  5
233C
330
1A
100
AcDbEntity
  8
0
100
AcDbLine
 10
331.9040133308281
 20
214.8682052721356
 30
0.0
 11
331.904013330828
 21
145.1299999999999
 31
0.0
  0
LINE
  5
233D
330
1A
100
AcDbEntity
  8
0
100
AcDbLine
 10
343.904013330828
 20
214.8682052721356
 30
0.0
 11
343.904013330828
 21
145.1299999999999
 31
0.0
  0
LINE
  5
233E
330
1A
100
AcDbEntity
  8
0
100
AcDbLine
 10
336.3263205431338
 20
147.9864076418011
 30
0.0
 11
339.3263205431338
 21
150.9864076418011
 31
0.0
  0
LINE
  5
233F
330
1A
100
AcDbEntity
  8
0
100
AcDbLine
 10
336.3263205431338
 20
150.9864076418011
 30
0.0
 11
339.3263205431338
 21
147.9864076418011
 31
0.0
  0
CIRCLE
  5
2340
330
1A
100
AcDbEntity
  8
0
100
AcDbCircle
 10
337.8263205431338
 20
149.4864076418012
 30
0.0
 40
2.75
  0
LINE
  5
2341
330
1A
100
AcDbEntity
  8
0
100
AcDbLine
 10
333.8263205431338
 20
150.7364076418012
 30
0.0
 11
333.8263205431338
 21
148.2364076418011
 31
0.0
  0
LINE
  5
2342
330
1A
100
AcDbEntity
  8
0
100
AcDbLine
 10
333.3263205431338
 20
152.6864076418011
 30
0.0
 11
333.3263205431338
 21
146.2864076418012
 31
0.0
  0
LINE
  5
2343
330
1A
100
AcDbEntity
  8
0
100
AcDbLine
 10
334.8263205431337
 20
152.6864076418011
 30
0.0
 11
334.8263205431337
 21
146.2864076418012
 31
0.0
  0
LINE
  5
2344
330
1A
100
AcDbEntity
  8
0
100
AcDbLine
 10
342.3263205431338
 20
152.6864076418011
 30
0.0
 11
342.3263205431338
 21
146.2864076418012
 31
0.0
  0
LINE
  5
2345
330
1A
100
AcDbEntity
  8
0
100
AcDbLine
 10
340.8263205431337
 20
146.2864076418012
 30
0.0
 11
340.8263205431337
 21
152.6864076418011
 31
0.0
  0
LINE
  5
2346
330
1A
100
AcDbEntity
  8
0
100
AcDbLine
 10
357.3
 20
214.85
 30
0.0
 11
357.3
 21
145.1299999999999
 31
0.0
  0
LINE
  5
2347
330
1A
100
AcDbEntity
  8
0
100
AcDbLine
 10
369.3
 20
214.85
 30
0.0
 11
369.3
 21
145.1299999999999
 31
0.0
  0
LINE
  5
2348
330
1A
100
AcDbEntity
  8
0
100
AcDbLine
 10
358.8776927876943
 20
152.6864076418011
 30
0.0
 11
358.8776927876943
 21
146.2864076418011
 31
0.0
  0
LINE
  5
2349
330
1A
100
AcDbEntity
  8
0
100
AcDbLine
 10
364.8776927876942
 20
147.9864076418011
 30
0.0
 11
361.8776927876942
 21
150.9864076418011
 31
0.0
  0
LINE
  5
234A
330
1A
100
AcDbEntity
  8
0
100
AcDbLine
 10
364.8776927876942
 20
150.9864076418011
 30
0.0
 11
361.8776927876942
 21
147.9864076418011
 31
0.0
  0
CIRCLE
  5
234B
330
1A
100
AcDbEntity
  8
0
100
AcDbCircle
 10
363.3776927876942
 20
149.4864076418011
 30
0.0
 40
2.75
  0
LINE
  5
234C
330
1A
100
AcDbEntity
  8
0
100
AcDbLine
 10
360.3776927876942
 20
146.2864076418011
 30
0.0
 11
360.3776927876942
 21
152.6864076418011
 31
0.0
  0
LINE
  5
234D
330
1A
100
AcDbEntity
  8
0
100
AcDbLine
 10
366.3776927876942
 20
152.6864076418011
 30
0.0
 11
366.3776927876942
 21
146.2864076418011
 31
0.0
  0
LINE
  5
234E
330
1A
100
AcDbEntity
  8
0
100
AcDbLine
 10
367.3776927876942
 20
150.7364076418011
 30
0.0
 11
367.3776927876942
 21
148.2364076418011
 31
0.0
  0
LINE
  5
234F
330
1A
100
AcDbEntity
  8
0
100
AcDbLine
 10
367.8776927876942
 20
152.6864076418011
 30
0.0
 11
367.8776927876942
 21
146.2864076418012
 31
0.0
  0
LINE
  5
2350
330
1A
100
AcDbEntity
  8
0
100
AcDbLine
 10
369.3
 20
144.13
 30
0.0
 11
357.3
 21
144.13
 31
0.0
  0
LINE
  5
2351
330
1A
100
AcDbEntity
  8
0
100
AcDbLine
 10
369.3
 20
146.29
 30
0.0
 11
357.3
 21
146.29
 31
0.0
  0
LINE
  5
2352
330
1A
100
AcDbEntity
  8
0
100
AcDbLine
 10
369.3
 20
145.1299999999999
 30
0.0
 11
357.3
 21
145.1299999999999
 31
0.0
  0
LINE
  5
2353
330
1A
100
AcDbEntity
  8
0
100
AcDbLine
 10
366.3776927876942
 20
146.4864076418011
 30
0.0
 11
360.3776927876942
 21
146.4864076418011
 31
0.0
  0
LINE
  5
2354
330
1A
100
AcDbEntity
  8
0
100
AcDbLine
 10
331.904013330828
 20
144.13
 30
0.0
 11
343.904013330828
 21
144.13
 31
0.0
  0
LINE
  5
2355
330
1A
100
AcDbEntity
  8
0
100
AcDbLine
 10
331.904013330828
 20
146.29
 30
0.0
 11
343.904013330828
 21
146.29
 31
0.0
  0
LINE
  5
2356
330
1A
100
AcDbEntity
  8
0
100
AcDbLine
 10
331.904013330828
 20
145.13
 30
0.0
 11
343.904013330828
 21
145.13
 31
0.0
  0
LINE
  5
2357
330
1A
100
AcDbEntity
  8
0
100
AcDbLine
 10
334.8263205431337
 20
146.4864076418012
 30
0.0
 11
340.8263205431337
 21
146.4864076418012
 31
0.0
  0
LINE
  5
2358
330
1A
100
AcDbEntity
  8
0
100
AcDbLine
 10
331.904013330828
 20
145.13
 30
0.0
 11
331.904013330828
 21
144.13
 31
0.0
  0
LINE
  5
2359
330
1A
100
AcDbEntity
  8
0
100
AcDbLine
 10
333.8263205431338
 20
148.2364076418011
 30
0.0
 11
334.6263205431338
 21
148.2364076418011
 31
0.0
  0
LINE
  5
235A
330
1A
100
AcDbEntity
  8
0
100
AcDbLine
 10
334.6263205431338
 20
148.2364076418011
 30
0.0
 11
334.6263205431338
 21
146.2864076418012
 31
0.0
  0
LINE
  5
235B
330
1A
100
AcDbEntity
  8
0
100
AcDbLine
 10
343.904013330828
 20
145.13
 30
0.0
 11
343.904013330828
 21
144.13
 31
0.0
  0
LINE
  5
235C
330
1A
100
AcDbEntity
  8
0
100
AcDbLine
 10
357.3
 20
145.1299999999999
 30
0.0
 11
357.3
 21
144.13
 31
0.0
  0
LINE
  5
235D
330
1A
100
AcDbEntity
  8
0
100
AcDbLine
 10
367.3776927876942
 20
148.2364076418011
 30
0.0
 11
366.5776927876942
 21
148.2364076418011
 31
0.0
  0
LINE
  5
235E
330
1A
100
AcDbEntity
  8
0
100
AcDbLine
 10
366.5776927876942
 20
148.2364076418011
 30
0.0
 11
366.5776927876942
 21
146.2864076418011
 31
0.0
  0
LINE
  5
235F
330
1A
100
AcDbEntity
  8
0
100
AcDbLine
 10
369.3
 20
145.1299999999999
 30
0.0
 11
369.3
 21
144.13
 31
0.0
  0
LINE
  5
2360
330
1A
100
AcDbEntity
  8
0
100
AcDbLine
 10
369.3
 20
214.85
 30
0.0
 11
369.3
 21
152.7499999999999
 31
0.0
  0
LINE
  5
2361
330
1A
100
AcDbEntity
  8
0
100
AcDbLine
 10
357.3
 20
214.85
 30
0.0
 11
357.3
 21
152.7499999999999
 31
0.0
  0
LINE
  5
2362
330
1A
100
AcDbEntity
  8
0
100
AcDbLine
 10
369.3
 20
214.85
 30
0.0
 11
369.3
 21
152.7499999999999
 31
0.0
  0
LINE
  5
2363
330
1A
100
AcDbEntity
  8
0
100
AcDbLine
 10
357.3
 20
214.85
 30
0.0
 11
357.3
 21
152.7499999999999
 31
0.0
  0
LINE
  5
2364
330
1A
100
AcDbEntity
  8
0
100
AcDbLine
 10
358.8040133308279
 20
198.4185901852718
 30
0.0
 11
358.8040133308279
 21
192.0185901852718
 31
0.0
  0
LINE
  5
2365
330
1A
100
AcDbEntity
  8
0
100
AcDbLine
 10
358.8040133308279
 20
198.4185901852718
 30
0.0
 11
358.8040133308279
 21
192.0185901852718
 31
0.0
  0
LINE
  5
2366
330
1A
100
AcDbEntity
  8
0
100
AcDbLine
 10
358.8040133308279
 20
198.4185901852717
 30
0.0
 11
358.8040133308279
 21
192.0185901852718
 31
0.0
  0
LINE
  5
2367
330
1A
100
AcDbEntity
  8
0
100
AcDbLine
 10
366.3040133308279
 20
198.4185901852718
 30
0.0
 11
366.3040133308279
 21
192.0185901852718
 31
0.0
  0
LINE
  5
2368
330
1A
100
AcDbEntity
  8
0
100
AcDbLine
 10
360.3040133308279
 20
192.0185901852718
 30
0.0
 11
360.3040133308279
 21
198.4185901852718
 31
0.0
  0
CIRCLE
  5
2369
330
1A
100
AcDbEntity
  8
0
100
AcDbCircle
 10
363.3040133308279
 20
195.2185901852718
 30
0.0
 40
2.75
  0
LINE
  5
236A
330
1A
100
AcDbEntity
  8
0
100
AcDbLine
 10
364.8040133308279
 20
196.7185901852718
 30
0.0
 11
361.8040133308279
 21
193.7185901852718
 31
0.0
  0
LINE
  5
236B
330
1A
100
AcDbEntity
  8
0
100
AcDbLine
 10
364.8040133308279
 20
193.7185901852718
 30
0.0
 11
361.8040133308279
 21
196.7185901852718
 31
0.0
  0
LINE
  5
236C
330
1A
100
AcDbEntity
  8
0
100
AcDbLine
 10
366.3040133308279
 20
198.4185901852718
 30
0.0
 11
366.3040133308279
 21
192.0185901852718
 31
0.0
  0
LINE
  5
236D
330
1A
100
AcDbEntity
  8
0
100
AcDbLine
 10
360.3040133308279
 20
192.0185901852718
 30
0.0
 11
360.3040133308279
 21
198.4185901852718
 31
0.0
  0
CIRCLE
  5
236E
330
1A
100
AcDbEntity
  8
0
100
AcDbCircle
 10
363.3040133308279
 20
195.2185901852718
 30
0.0
 40
2.75
  0
LINE
  5
236F
330
1A
100
AcDbEntity
  8
0
100
AcDbLine
 10
364.8040133308279
 20
196.7185901852718
 30
0.0
 11
361.8040133308279
 21
193.7185901852718
 31
0.0
  0
LINE
  5
2370
330
1A
100
AcDbEntity
  8
0
100
AcDbLine
 10
364.8040133308279
 20
193.7185901852718
 30
0.0
 11
361.8040133308279
 21
196.7185901852718
 31
0.0
  0
LINE
  5
2371
330
1A
100
AcDbEntity
  8
0
100
AcDbLine
 10
366.3040133308279
 20
198.4185901852718
 30
0.0
 11
366.3040133308279
 21
192.0185901852718
 31
0.0
  0
LINE
  5
2372
330
1A
100
AcDbEntity
  8
0
100
AcDbLine
 10
360.3040133308279
 20
192.0185901852718
 30
0.0
 11
360.3040133308279
 21
198.4185901852718
 31
0.0
  0
LINE
  5
2373
330
1A
100
AcDbEntity
  8
0
100
AcDbLine
 10
364.8040133308279
 20
193.7185901852718
 30
0.0
 11
361.8040133308279
 21
196.7185901852718
 31
0.0
  0
LINE
  5
2374
330
1A
100
AcDbEntity
  8
0
100
AcDbLine
 10
364.8040133308279
 20
196.7185901852718
 30
0.0
 11
361.8040133308279
 21
193.7185901852718
 31
0.0
  0
CIRCLE
  5
2375
330
1A
100
AcDbEntity
  8
0
100
AcDbCircle
 10
363.3040133308279
 20
195.2185901852718
 30
0.0
 40
2.75
  0
LINE
  5
2376
330
1A
100
AcDbEntity
  8
0
100
AcDbLine
 10
367.3040133308279
 20
196.4685901852718
 30
0.0
 11
367.3040133308279
 21
193.9685901852718
 31
0.0
  0
LINE
  5
2377
330
1A
100
AcDbEntity
  8
0
100
AcDbLine
 10
367.8040133308279
 20
198.4185901852718
 30
0.0
 11
367.8040133308279
 21
192.0185901852719
 31
0.0
  0
LINE
  5
2378
330
1A
100
AcDbEntity
  8
0
100
AcDbLine
 10
367.3040133308279
 20
196.4685901852718
 30
0.0
 11
367.3040133308279
 21
193.9685901852718
 31
0.0
  0
LINE
  5
2379
330
1A
100
AcDbEntity
  8
0
100
AcDbLine
 10
367.8040133308279
 20
198.4185901852718
 30
0.0
 11
367.8040133308279
 21
192.0185901852719
 31
0.0
  0
LINE
  5
237A
330
1A
100
AcDbEntity
  8
0
100
AcDbLine
 10
367.3040133308279
 20
196.4685901852718
 30
0.0
 11
367.3040133308279
 21
193.9685901852718
 31
0.0
  0
LINE
  5
237B
330
1A
100
AcDbEntity
  8
0
100
AcDbLine
 10
367.8040133308279
 20
198.4185901852718
 30
0.0
 11
367.8040133308279
 21
192.0185901852719
 31
0.0
  0
CIRCLE
  5
237C
330
1A
100
AcDbEntity
  8
0
100
AcDbCircle
 10
363.3776927876942
 20
157.1064076418012
 30
0.0
 40
2.75
  0
CIRCLE
  5
237D
330
1A
100
AcDbEntity
  8
0
100
AcDbCircle
 10
363.3776927876942
 20
157.1064076418012
 30
0.0
 40
2.75
  0
CIRCLE
  5
237E
330
1A
100
AcDbEntity
  8
0
100
AcDbCircle
 10
363.3776927876942
 20
157.1064076418011
 30
0.0
 40
2.75
  0
LINE
  5
237F
330
1A
100
AcDbEntity
  8
0
100
AcDbLine
 10
369.3
 20
153.91
 30
0.0
 11
357.3
 21
153.91
 31
0.0
  0
LINE
  5
2380
330
1A
100
AcDbEntity
  8
0
100
AcDbLine
 10
369.3
 20
152.75
 30
0.0
 11
357.3
 21
152.75
 31
0.0
  0
LINE
  5
2381
330
1A
100
AcDbEntity
  8
0
100
AcDbLine
 10
369.3
 20
153.91
 30
0.0
 11
357.3
 21
153.91
 31
0.0
  0
LINE
  5
2382
330
1A
100
AcDbEntity
  8
0
100
AcDbLine
 10
369.3
 20
152.75
 30
0.0
 11
357.3
 21
152.75
 31
0.0
  0
LINE
  5
2383
330
1A
100
AcDbEntity
  8
0
100
AcDbLine
 10
369.3
 20
153.91
 30
0.0
 11
357.3
 21
153.91
 31
0.0
  0
LINE
  5
2384
330
1A
100
AcDbEntity
  8
0
100
AcDbLine
 10
366.3776927876942
 20
154.1064076418012
 30
0.0
 11
360.3776927876942
 21
154.1064076418012
 31
0.0
  0
LINE
  5
2385
330
1A
100
AcDbEntity
  8
0
100
AcDbLine
 10
366.3776927876942
 20
154.1064076418012
 30
0.0
 11
360.3776927876942
 21
154.1064076418012
 31
0.0
  0
LINE
  5
2386
330
1A
100
AcDbEntity
  8
0
100
AcDbLine
 10
360.3776927876942
 20
152.4864076418011
 30
0.0
 11
366.3776927876942
 21
152.4864076418011
 31
0.0
  0
LINE
  5
2387
330
1A
100
AcDbEntity
  8
0
100
AcDbLine
 10
366.3776927876942
 20
154.1064076418011
 30
0.0
 11
360.3776927876942
 21
154.1064076418011
 31
0.0
  0
LINE
  5
2388
330
1A
100
AcDbEntity
  8
0
100
AcDbLine
 10
369.3
 20
184.39
 30
0.0
 11
357.3
 21
184.39
 31
0.0
  0
LINE
  5
2389
330
1A
100
AcDbEntity
  8
0
100
AcDbLine
 10
369.3
 20
176.77
 30
0.0
 11
357.3
 21
176.77
 31
0.0
  0
LINE
  5
238A
330
1A
100
AcDbEntity
  8
0
100
AcDbLine
 10
369.3
 20
169.15
 30
0.0
 11
357.3
 21
169.15
 31
0.0
  0
LINE
  5
238B
330
1A
100
AcDbEntity
  8
0
100
AcDbLine
 10
369.3
 20
161.53
 30
0.0
 11
357.3
 21
161.53
 31
0.0
  0
LINE
  5
238C
330
1A
100
AcDbEntity
  8
0
100
AcDbLine
 10
369.3
 20
183.17
 30
0.0
 11
357.3
 21
183.17
 31
0.0
  0
LINE
  5
238D
330
1A
100
AcDbEntity
  8
0
100
AcDbLine
 10
369.3
 20
175.55
 30
0.0
 11
357.3
 21
175.55
 31
0.0
  0
LINE
  5
238E
330
1A
100
AcDbEntity
  8
0
100
AcDbLine
 10
369.3
 20
167.93
 30
0.0
 11
357.3
 21
167.93
 31
0.0
  0
LINE
  5
238F
330
1A
100
AcDbEntity
  8
0
100
AcDbLine
 10
369.3
 20
160.31
 30
0.0
 11
357.3
 21
160.31
 31
0.0
  0
LINE
  5
2390
330
1A
100
AcDbEntity
  8
0
100
AcDbLine
 10
369.3
 20
192.01
 30
0.0
 11
357.3
 21
192.01
 31
0.0
  0
LINE
  5
2391
330
1A
100
AcDbEntity
  8
0
100
AcDbLine
 10
369.3
 20
190.79
 30
0.0
 11
357.3
 21
190.79
 31
0.0
  0
LINE
  5
2392
330
1A
100
AcDbEntity
  8
0
100
AcDbLine
 10
369.3
 20
184.39
 30
0.0
 11
357.3
 21
184.39
 31
0.0
  0
LINE
  5
2393
330
1A
100
AcDbEntity
  8
0
100
AcDbLine
 10
369.3
 20
176.77
 30
0.0
 11
357.3
 21
176.77
 31
0.0
  0
LINE
  5
2394
330
1A
100
AcDbEntity
  8
0
100
AcDbLine
 10
369.3
 20
169.15
 30
0.0
 11
357.3
 21
169.15
 31
0.0
  0
LINE
  5
2395
330
1A
100
AcDbEntity
  8
0
100
AcDbLine
 10
369.3
 20
161.53
 30
0.0
 11
357.3
 21
161.53
 31
0.0
  0
LINE
  5
2396
330
1A
100
AcDbEntity
  8
0
100
AcDbLine
 10
369.3
 20
183.17
 30
0.0
 11
357.3
 21
183.17
 31
0.0
  0
LINE
  5
2397
330
1A
100
AcDbEntity
  8
0
100
AcDbLine
 10
369.3
 20
175.55
 30
0.0
 11
357.3
 21
175.55
 31
0.0
  0
LINE
  5
2398
330
1A
100
AcDbEntity
  8
0
100
AcDbLine
 10
369.3
 20
167.93
 30
0.0
 11
357.3
 21
167.93
 31
0.0
  0
LINE
  5
2399
330
1A
100
AcDbEntity
  8
0
100
AcDbLine
 10
369.3
 20
160.31
 30
0.0
 11
357.3
 21
160.31
 31
0.0
  0
LINE
  5
239A
330
1A
100
AcDbEntity
  8
0
100
AcDbLine
 10
369.3
 20
192.01
 30
0.0
 11
357.3
 21
192.01
 31
0.0
  0
LINE
  5
239B
330
1A
100
AcDbEntity
  8
0
100
AcDbLine
 10
369.3
 20
190.79
 30
0.0
 11
357.3
 21
190.79
 31
0.0
  0
LINE
  5
239C
330
1A
100
AcDbEntity
  8
0
100
AcDbLine
 10
369.3
 20
160.3099999999999
 30
0.0
 11
357.3
 21
160.3099999999999
 31
0.0
  0
LINE
  5
239D
330
1A
100
AcDbEntity
  8
0
100
AcDbLine
 10
369.3
 20
167.93
 30
0.0
 11
357.3
 21
167.93
 31
0.0
  0
LINE
  5
239E
330
1A
100
AcDbEntity
  8
0
100
AcDbLine
 10
369.3
 20
175.55
 30
0.0
 11
357.3
 21
175.55
 31
0.0
  0
LINE
  5
239F
330
1A
100
AcDbEntity
  8
0
100
AcDbLine
 10
369.3
 20
183.17
 30
0.0
 11
357.3
 21
183.17
 31
0.0
  0
LINE
  5
23A0
330
1A
100
AcDbEntity
  8
0
100
AcDbLine
 10
369.3
 20
161.53
 30
0.0
 11
357.3
 21
161.53
 31
0.0
  0
LINE
  5
23A1
330
1A
100
AcDbEntity
  8
0
100
AcDbLine
 10
369.3
 20
169.15
 30
0.0
 11
357.3
 21
169.15
 31
0.0
  0
LINE
  5
23A2
330
1A
100
AcDbEntity
  8
0
100
AcDbLine
 10
369.3
 20
176.77
 30
0.0
 11
357.3
 21
176.77
 31
0.0
  0
LINE
  5
23A3
330
1A
100
AcDbEntity
  8
0
100
AcDbLine
 10
369.3
 20
184.39
 30
0.0
 11
357.3
 21
184.39
 31
0.0
  0
LINE
  5
23A4
330
1A
100
AcDbEntity
  8
0
100
AcDbLine
 10
369.3
 20
190.79
 30
0.0
 11
357.3
 21
190.79
 31
0.0
  0
LINE
  5
23A5
330
1A
100
AcDbEntity
  8
0
100
AcDbLine
 10
369.3
 20
192.01
 30
0.0
 11
357.3
 21
192.01
 31
0.0
  0
CIRCLE
  5
23A6
330
1A
100
AcDbEntity
  8
0
100
AcDbCircle
 10
363.2671736023949
 20
179.9958326751206
 30
0.0
 40
2.75
  0
CIRCLE
  5
23A7
330
1A
100
AcDbEntity
  8
0
100
AcDbCircle
 10
363.2671736023949
 20
179.9958326751206
 30
0.0
 40
2.75
  0
CIRCLE
  5
23A8
330
1A
100
AcDbEntity
  8
0
100
AcDbCircle
 10
363.2671736023949
 20
179.9958326751205
 30
0.0
 40
2.75
  0
LINE
  5
23A9
330
1A
100
AcDbEntity
  8
0
100
AcDbLine
 10
366.267173602395
 20
176.9958326751206
 30
0.0
 11
360.267173602395
 21
176.9958326751206
 31
0.0
  0
CIRCLE
  5
23AA
330
1A
100
AcDbEntity
  8
0
100
AcDbCircle
 10
363.3408530592612
 20
172.3660243306807
 30
0.0
 40
2.75
  0
LINE
  5
23AB
330
1A
100
AcDbEntity
  8
0
100
AcDbLine
 10
366.3408530592612
 20
169.3660243306807
 30
0.0
 11
360.3408530592612
 21
169.3660243306807
 31
0.0
  0
LINE
  5
23AC
330
1A
100
AcDbEntity
  8
0
100
AcDbLine
 10
360.3408530592612
 20
175.3660243306807
 30
0.0
 11
366.3408530592612
 21
175.3660243306807
 31
0.0
  0
CIRCLE
  5
23AD
330
1A
100
AcDbEntity
  8
0
100
AcDbCircle
 10
363.304013330828
 20
164.6993568075121
 30
0.0
 40
2.75
  0
LINE
  5
23AE
330
1A
100
AcDbEntity
  8
0
100
AcDbLine
 10
366.304013330828
 20
161.6993568075121
 30
0.0
 11
360.304013330828
 21
161.6993568075121
 31
0.0
  0
LINE
  5
23AF
330
1A
100
AcDbEntity
  8
0
100
AcDbLine
 10
360.304013330828
 20
167.6993568075121
 30
0.0
 11
366.304013330828
 21
167.6993568075121
 31
0.0
  0
LINE
  5
23B0
330
1A
100
AcDbEntity
  8
0
100
AcDbLine
 10
360.3776927876942
 20
160.1064076418012
 30
0.0
 11
366.3776927876942
 21
160.1064076418012
 31
0.0
  0
LINE
  5
23B1
330
1A
100
AcDbEntity
  8
0
100
AcDbLine
 10
366.267173602395
 20
176.9958326751206
 30
0.0
 11
360.267173602395
 21
176.9958326751206
 31
0.0
  0
CIRCLE
  5
23B2
330
1A
100
AcDbEntity
  8
0
100
AcDbCircle
 10
363.3408530592612
 20
172.3660243306807
 30
0.0
 40
2.75
  0
LINE
  5
23B3
330
1A
100
AcDbEntity
  8
0
100
AcDbLine
 10
366.3408530592612
 20
169.3660243306807
 30
0.0
 11
360.3408530592612
 21
169.3660243306807
 31
0.0
  0
LINE
  5
23B4
330
1A
100
AcDbEntity
  8
0
100
AcDbLine
 10
360.3408530592612
 20
175.3660243306807
 30
0.0
 11
366.3408530592612
 21
175.3660243306807
 31
0.0
  0
CIRCLE
  5
23B5
330
1A
100
AcDbEntity
  8
0
100
AcDbCircle
 10
363.304013330828
 20
164.6993568075121
 30
0.0
 40
2.75
  0
LINE
  5
23B6
330
1A
100
AcDbEntity
  8
0
100
AcDbLine
 10
366.304013330828
 20
161.6993568075121
 30
0.0
 11
360.304013330828
 21
161.6993568075121
 31
0.0
  0
LINE
  5
23B7
330
1A
100
AcDbEntity
  8
0
100
AcDbLine
 10
360.304013330828
 20
167.6993568075121
 30
0.0
 11
366.304013330828
 21
167.6993568075121
 31
0.0
  0
LINE
  5
23B8
330
1A
100
AcDbEntity
  8
0
100
AcDbLine
 10
360.3776927876942
 20
160.1064076418012
 30
0.0
 11
366.3776927876942
 21
160.1064076418012
 31
0.0
  0
LINE
  5
23B9
330
1A
100
AcDbEntity
  8
0
100
AcDbLine
 10
360.3776927876942
 20
160.1064076418011
 30
0.0
 11
366.3776927876942
 21
160.1064076418011
 31
0.0
  0
LINE
  5
23BA
330
1A
100
AcDbEntity
  8
0
100
AcDbLine
 10
360.304013330828
 20
167.6993568075121
 30
0.0
 11
366.304013330828
 21
167.6993568075121
 31
0.0
  0
LINE
  5
23BB
330
1A
100
AcDbEntity
  8
0
100
AcDbLine
 10
366.304013330828
 20
161.6993568075121
 30
0.0
 11
360.304013330828
 21
161.6993568075121
 31
0.0
  0
CIRCLE
  5
23BC
330
1A
100
AcDbEntity
  8
0
100
AcDbCircle
 10
363.304013330828
 20
164.6993568075121
 30
0.0
 40
2.75
  0
LINE
  5
23BD
330
1A
100
AcDbEntity
  8
0
100
AcDbLine
 10
360.3408530592612
 20
175.3660243306807
 30
0.0
 11
366.3408530592612
 21
175.3660243306807
 31
0.0
  0
LINE
  5
23BE
330
1A
100
AcDbEntity
  8
0
100
AcDbLine
 10
366.3408530592612
 20
169.3660243306807
 30
0.0
 11
360.3408530592612
 21
169.3660243306807
 31
0.0
  0
CIRCLE
  5
23BF
330
1A
100
AcDbEntity
  8
0
100
AcDbCircle
 10
363.3408530592612
 20
172.3660243306807
 30
0.0
 40
2.75
  0
LINE
  5
23C0
330
1A
100
AcDbEntity
  8
0
100
AcDbLine
 10
366.267173602395
 20
176.9958326751206
 30
0.0
 11
360.267173602395
 21
176.9958326751206
 31
0.0
  0
LINE
  5
23C1
330
1A
100
AcDbEntity
  8
0
100
AcDbLine
 10
366.3040133308279
 20
184.588781840832
 30
0.0
 11
360.3040133308279
 21
184.588781840832
 31
0.0
  0
LINE
  5
23C2
330
1A
100
AcDbEntity
  8
0
100
AcDbLine
 10
360.267173602395
 20
182.9958326751206
 30
0.0
 11
366.267173602395
 21
182.9958326751206
 31
0.0
  0
LINE
  5
23C3
330
1A
100
AcDbEntity
  8
0
100
AcDbLine
 10
366.3040133308279
 20
192.2185901852719
 30
0.0
 11
360.3040133308279
 21
192.2185901852719
 31
0.0
  0
LINE
  5
23C4
330
1A
100
AcDbEntity
  8
0
100
AcDbLine
 10
360.3040133308279
 20
190.588781840832
 30
0.0
 11
366.3040133308279
 21
190.588781840832
 31
0.0
  0
CIRCLE
  5
23C5
330
1A
100
AcDbEntity
  8
0
100
AcDbCircle
 10
363.3040133308279
 20
187.588781840832
 30
0.0
 40
2.75
  0
LINE
  5
23C6
330
1A
100
AcDbEntity
  8
0
100
AcDbLine
 10
366.3040133308279
 20
184.588781840832
 30
0.0
 11
360.3040133308279
 21
184.588781840832
 31
0.0
  0
LINE
  5
23C7
330
1A
100
AcDbEntity
  8
0
100
AcDbLine
 10
360.267173602395
 20
182.9958326751206
 30
0.0
 11
366.267173602395
 21
182.9958326751206
 31
0.0
  0
LINE
  5
23C8
330
1A
100
AcDbEntity
  8
0
100
AcDbLine
 10
366.3040133308279
 20
192.2185901852719
 30
0.0
 11
360.3040133308279
 21
192.2185901852719
 31
0.0
  0
LINE
  5
23C9
330
1A
100
AcDbEntity
  8
0
100
AcDbLine
 10
360.3040133308279
 20
190.588781840832
 30
0.0
 11
366.3040133308279
 21
190.588781840832
 31
0.0
  0
CIRCLE
  5
23CA
330
1A
100
AcDbEntity
  8
0
100
AcDbCircle
 10
363.3040133308279
 20
187.588781840832
 30
0.0
 40
2.75
  0
LINE
  5
23CB
330
1A
100
AcDbEntity
  8
0
100
AcDbLine
 10
360.267173602395
 20
182.9958326751205
 30
0.0
 11
366.267173602395
 21
182.9958326751205
 31
0.0
  0
LINE
  5
23CC
330
1A
100
AcDbEntity
  8
0
100
AcDbLine
 10
366.3040133308279
 20
184.5887818408319
 30
0.0
 11
360.3040133308279
 21
184.5887818408319
 31
0.0
  0
LINE
  5
23CD
330
1A
100
AcDbEntity
  8
0
100
AcDbLine
 10
360.3040133308279
 20
190.5887818408319
 30
0.0
 11
366.3040133308279
 21
190.5887818408319
 31
0.0
  0
LINE
  5
23CE
330
1A
100
AcDbEntity
  8
0
100
AcDbLine
 10
366.3040133308279
 20
192.2185901852718
 30
0.0
 11
360.3040133308279
 21
192.2185901852718
 31
0.0
  0
CIRCLE
  5
23CF
330
1A
100
AcDbEntity
  8
0
100
AcDbCircle
 10
363.3040133308279
 20
187.5887818408319
 30
0.0
 40
2.75
  0
LINE
  5
23D0
330
1A
100
AcDbEntity
  8
0
100
AcDbLine
 10
336.4368397284331
 20
170.8758326751206
 30
0.0
 11
339.436839728433
 21
173.8758326751206
 31
0.0
  0
LINE
  5
23D1
330
1A
100
AcDbEntity
  8
0
100
AcDbLine
 10
336.4368397284331
 20
173.8758326751206
 30
0.0
 11
339.436839728433
 21
170.8758326751206
 31
0.0
  0
CIRCLE
  5
23D2
330
1A
100
AcDbEntity
  8
0
100
AcDbCircle
 10
337.936839728433
 20
172.3758326751206
 30
0.0
 40
2.75
  0
LINE
  5
23D3
330
1A
100
AcDbEntity
  8
0
100
AcDbLine
 10
333.936839728433
 20
173.6258326751206
 30
0.0
 11
333.936839728433
 21
171.1258326751206
 31
0.0
  0
LINE
  5
23D4
330
1A
100
AcDbEntity
  8
0
100
AcDbLine
 10
333.436839728433
 20
175.5758326751205
 30
0.0
 11
333.436839728433
 21
169.1758326751206
 31
0.0
  0
LINE
  5
23D5
330
1A
100
AcDbEntity
  8
0
100
AcDbLine
 10
334.936839728433
 20
175.5758326751205
 30
0.0
 11
334.936839728433
 21
169.1758326751206
 31
0.0
  0
LINE
  5
23D6
330
1A
100
AcDbEntity
  8
0
100
AcDbLine
 10
342.436839728433
 20
175.5758326751205
 30
0.0
 11
342.436839728433
 21
169.1758326751206
 31
0.0
  0
LINE
  5
23D7
330
1A
100
AcDbEntity
  8
0
100
AcDbLine
 10
340.936839728433
 20
169.1758326751206
 30
0.0
 11
340.936839728433
 21
175.5758326751205
 31
0.0
  0
LINE
  5
23D8
330
1A
100
AcDbEntity
  8
0
100
AcDbLine
 10
358.8408530592612
 20
175.5660243306806
 30
0.0
 11
358.8408530592612
 21
169.1660243306807
 31
0.0
  0
LINE
  5
23D9
330
1A
100
AcDbEntity
  8
0
100
AcDbLine
 10
358.8408530592612
 20
175.5660243306806
 30
0.0
 11
358.8408530592612
 21
169.1660243306807
 31
0.0
  0
LINE
  5
23DA
330
1A
100
AcDbEntity
  8
0
100
AcDbLine
 10
358.8408530592612
 20
175.5660243306806
 30
0.0
 11
358.8408530592612
 21
169.1660243306807
 31
0.0
  0
LINE
  5
23DB
330
1A
100
AcDbEntity
  8
0
100
AcDbLine
 10
360.3408530592612
 20
169.1660243306807
 30
0.0
 11
360.3408530592612
 21
175.5660243306807
 31
0.0
  0
LINE
  5
23DC
330
1A
100
AcDbEntity
  8
0
100
AcDbLine
 10
364.8408530592612
 20
170.8660243306807
 30
0.0
 11
361.8408530592612
 21
173.8660243306807
 31
0.0
  0
LINE
  5
23DD
330
1A
100
AcDbEntity
  8
0
100
AcDbLine
 10
364.8408530592612
 20
173.8660243306807
 30
0.0
 11
361.8408530592612
 21
170.8660243306807
 31
0.0
  0
LINE
  5
23DE
330
1A
100
AcDbEntity
  8
0
100
AcDbLine
 10
360.3408530592612
 20
169.1660243306807
 30
0.0
 11
360.3408530592612
 21
175.5660243306807
 31
0.0
  0
LINE
  5
23DF
330
1A
100
AcDbEntity
  8
0
100
AcDbLine
 10
364.8408530592612
 20
170.8660243306807
 30
0.0
 11
361.8408530592612
 21
173.8660243306807
 31
0.0
  0
LINE
  5
23E0
330
1A
100
AcDbEntity
  8
0
100
AcDbLine
 10
364.8408530592612
 20
173.8660243306807
 30
0.0
 11
361.8408530592612
 21
170.8660243306807
 31
0.0
  0
LINE
  5
23E1
330
1A
100
AcDbEntity
  8
0
100
AcDbLine
 10
360.3408530592612
 20
169.1660243306807
 30
0.0
 11
360.3408530592612
 21
175.5660243306806
 31
0.0
  0
LINE
  5
23E2
330
1A
100
AcDbEntity
  8
0
100
AcDbLine
 10
364.8408530592612
 20
173.8660243306807
 30
0.0
 11
361.8408530592612
 21
170.8660243306807
 31
0.0
  0
LINE
  5
23E3
330
1A
100
AcDbEntity
  8
0
100
AcDbLine
 10
364.8408530592612
 20
170.8660243306807
 30
0.0
 11
361.8408530592612
 21
173.8660243306807
 31
0.0
  0
LINE
  5
23E4
330
1A
100
AcDbEntity
  8
0
100
AcDbLine
 10
342.4
 20
160.279356807512
 30
0.0
 11
342.4
 21
153.8793568075121
 31
0.0
  0
LINE
  5
23E5
330
1A
100
AcDbEntity
  8
0
100
AcDbLine
 10
340.9
 20
153.8793568075121
 30
0.0
 11
340.9
 21
160.2793568075121
 31
0.0
  0
LINE
  5
23E6
330
1A
100
AcDbEntity
  8
0
100
AcDbLine
 10
334.7
 20
160.2793568075121
 30
0.0
 11
334.7
 21
158.3293568075121
 31
0.0
  0
LINE
  5
23E7
330
1A
100
AcDbEntity
  8
0
100
AcDbLine
 10
333.4
 20
160.2793568075121
 30
0.0
 11
333.4
 21
153.8793568075122
 31
0.0
  0
LINE
  5
23E8
330
1A
100
AcDbEntity
  8
0
100
AcDbLine
 10
334.9
 20
160.2793568075121
 30
0.0
 11
334.9
 21
153.8793568075121
 31
0.0
  0
LINE
  5
23E9
330
1A
100
AcDbEntity
  8
0
100
AcDbLine
 10
336.4
 20
155.5793568075121
 30
0.0
 11
339.4
 21
158.5793568075121
 31
0.0
  0
LINE
  5
23EA
330
1A
100
AcDbEntity
  8
0
100
AcDbLine
 10
336.4
 20
158.5793568075121
 30
0.0
 11
339.4
 21
155.5793568075121
 31
0.0
  0
CIRCLE
  5
23EB
330
1A
100
AcDbEntity
  8
0
100
AcDbCircle
 10
337.9
 20
157.0793568075121
 30
0.0
 40
2.75
  0
LINE
  5
23EC
330
1A
100
AcDbEntity
  8
0
100
AcDbLine
 10
331.904013330828
 20
153.91
 30
0.0
 11
343.904013330828
 21
153.91
 31
0.0
  0
LINE
  5
23ED
330
1A
100
AcDbEntity
  8
0
100
AcDbLine
 10
331.904013330828
 20
152.69
 30
0.0
 11
343.904013330828
 21
152.69
 31
0.0
  0
LINE
  5
23EE
330
1A
100
AcDbEntity
  8
0
100
AcDbLine
 10
334.9
 20
154.0793568075121
 30
0.0
 11
340.9
 21
154.0793568075121
 31
0.0
  0
LINE
  5
23EF
330
1A
100
AcDbEntity
  8
0
100
AcDbLine
 10
340.8263205431337
 20
152.4864076418012
 30
0.0
 11
334.8263205431337
 21
152.4864076418012
 31
0.0
  0
LINE
  5
23F0
330
1A
100
AcDbEntity
  8
0
100
AcDbLine
 10
340.9
 20
160.0793568075121
 30
0.0
 11
334.9
 21
160.0793568075121
 31
0.0
  0
LINE
  5
23F1
330
1A
100
AcDbEntity
  8
0
100
AcDbLine
 10
334.7
 20
155.8293568075121
 30
0.0
 11
334.7
 21
153.8793568075121
 31
0.0
  0
LINE
  5
23F2
330
1A
100
AcDbEntity
  8
0
100
AcDbLine
 10
333.8263205431338
 20
150.7364076418012
 30
0.0
 11
334.6263205431338
 21
150.7364076418012
 31
0.0
  0
LINE
  5
23F3
330
1A
100
AcDbEntity
  8
0
100
AcDbLine
 10
334.6263205431338
 20
152.6864076418011
 30
0.0
 11
334.6263205431338
 21
150.7364076418012
 31
0.0
  0
LINE
  5
23F4
330
1A
100
AcDbEntity
  8
0
100
AcDbLine
 10
333.9
 20
158.3293568075121
 30
0.0
 11
333.9
 21
155.8293568075121
 31
0.0
  0
LINE
  5
23F5
330
1A
100
AcDbEntity
  8
0
100
AcDbLine
 10
333.9
 20
155.8293568075121
 30
0.0
 11
334.7
 21
155.8293568075121
 31
0.0
  0
LINE
  5
23F6
330
1A
100
AcDbEntity
  8
0
100
AcDbLine
 10
333.9
 20
158.3293568075121
 30
0.0
 11
334.7
 21
158.3293568075121
 31
0.0
  0
LINE
  5
23F7
330
1A
100
AcDbEntity
  8
0
100
AcDbLine
 10
331.904013330828
 20
169.15
 30
0.0
 11
343.904013330828
 21
169.15
 31
0.0
  0
LINE
  5
23F8
330
1A
100
AcDbEntity
  8
0
100
AcDbLine
 10
331.904013330828
 20
161.53
 30
0.0
 11
343.904013330828
 21
161.53
 31
0.0
  0
LINE
  5
23F9
330
1A
100
AcDbEntity
  8
0
100
AcDbLine
 10
331.904013330828
 20
167.93
 30
0.0
 11
343.904013330828
 21
167.93
 31
0.0
  0
LINE
  5
23FA
330
1A
100
AcDbEntity
  8
0
100
AcDbLine
 10
334.936839728433
 20
169.3758326751206
 30
0.0
 11
340.936839728433
 21
169.3758326751206
 31
0.0
  0
LINE
  5
23FB
330
1A
100
AcDbEntity
  8
0
100
AcDbLine
 10
336.3631602715668
 20
163.2460243306807
 30
0.0
 11
339.3631602715668
 21
166.2460243306807
 31
0.0
  0
LINE
  5
23FC
330
1A
100
AcDbEntity
  8
0
100
AcDbLine
 10
336.3631602715668
 20
166.2460243306807
 30
0.0
 11
339.3631602715668
 21
163.2460243306807
 31
0.0
  0
CIRCLE
  5
23FD
330
1A
100
AcDbEntity
  8
0
100
AcDbCircle
 10
337.8631602715668
 20
164.7460243306807
 30
0.0
 40
2.75
  0
LINE
  5
23FE
330
1A
100
AcDbEntity
  8
0
100
AcDbLine
 10
334.8631602715668
 20
161.7460243306807
 30
0.0
 11
340.8631602715668
 21
161.7460243306807
 31
0.0
  0
LINE
  5
23FF
330
1A
100
AcDbEntity
  8
0
100
AcDbLine
 10
340.8631602715668
 20
167.7460243306807
 30
0.0
 11
334.8631602715668
 21
167.7460243306807
 31
0.0
  0
LINE
  5
2400
330
1A
100
AcDbEntity
  8
0
100
AcDbLine
 10
331.904013330828
 20
160.31
 30
0.0
 11
343.904013330828
 21
160.31
 31
0.0
  0
LINE
  5
2401
330
1A
100
AcDbEntity
  8
0
100
AcDbLine
 10
333.8631602715668
 20
165.9960243306807
 30
0.0
 11
333.8631602715668
 21
163.4960243306807
 31
0.0
  0
LINE
  5
2402
330
1A
100
AcDbEntity
  8
0
100
AcDbLine
 10
333.3631602715668
 20
167.9460243306807
 30
0.0
 11
333.3631602715668
 21
161.5460243306808
 31
0.0
  0
LINE
  5
2403
330
1A
100
AcDbEntity
  8
0
100
AcDbLine
 10
334.8631602715668
 20
167.9460243306807
 30
0.0
 11
334.8631602715668
 21
161.5460243306807
 31
0.0
  0
LINE
  5
2404
330
1A
100
AcDbEntity
  8
0
100
AcDbLine
 10
333.8631602715668
 20
163.4960243306807
 30
0.0
 11
334.6631602715668
 21
163.4960243306807
 31
0.0
  0
LINE
  5
2405
330
1A
100
AcDbEntity
  8
0
100
AcDbLine
 10
334.6631602715668
 20
163.4960243306807
 30
0.0
 11
334.6631602715668
 21
161.5460243306807
 31
0.0
  0
LINE
  5
2406
330
1A
100
AcDbEntity
  8
0
100
AcDbLine
 10
333.936839728433
 20
171.1258326751206
 30
0.0
 11
334.7368397284331
 21
171.1258326751206
 31
0.0
  0
LINE
  5
2407
330
1A
100
AcDbEntity
  8
0
100
AcDbLine
 10
334.7368397284331
 20
171.1258326751206
 30
0.0
 11
334.7368397284331
 21
169.1758326751206
 31
0.0
  0
LINE
  5
2408
330
1A
100
AcDbEntity
  8
0
100
AcDbLine
 10
333.8631602715668
 20
165.9960243306807
 30
0.0
 11
334.6631602715668
 21
165.9960243306807
 31
0.0
  0
LINE
  5
2409
330
1A
100
AcDbEntity
  8
0
100
AcDbLine
 10
334.6631602715668
 20
167.9460243306807
 30
0.0
 11
334.6631602715668
 21
165.9960243306807
 31
0.0
  0
LINE
  5
240A
330
1A
100
AcDbEntity
  8
0
100
AcDbLine
 10
342.3631602715668
 20
167.9460243306806
 30
0.0
 11
342.3631602715668
 21
161.5460243306807
 31
0.0
  0
LINE
  5
240B
330
1A
100
AcDbEntity
  8
0
100
AcDbLine
 10
340.8631602715668
 20
161.5460243306807
 30
0.0
 11
340.8631602715668
 21
167.9460243306807
 31
0.0
  0
LINE
  5
240C
330
1A
100
AcDbEntity
  8
0
100
AcDbLine
 10
358.8776927876943
 20
160.3064076418011
 30
0.0
 11
358.8776927876943
 21
153.9064076418012
 31
0.0
  0
LINE
  5
240D
330
1A
100
AcDbEntity
  8
0
100
AcDbLine
 10
360.3776927876942
 20
153.9064076418012
 30
0.0
 11
360.3776927876942
 21
160.3064076418012
 31
0.0
  0
LINE
  5
240E
330
1A
100
AcDbEntity
  8
0
100
AcDbLine
 10
358.8776927876943
 20
160.3064076418011
 30
0.0
 11
358.8776927876943
 21
153.9064076418012
 31
0.0
  0
LINE
  5
240F
330
1A
100
AcDbEntity
  8
0
100
AcDbLine
 10
360.3776927876942
 20
153.9064076418012
 30
0.0
 11
360.3776927876942
 21
160.3064076418012
 31
0.0
  0
LINE
  5
2410
330
1A
100
AcDbEntity
  8
0
100
AcDbLine
 10
360.3776927876942
 20
153.9064076418011
 30
0.0
 11
360.3776927876942
 21
160.3064076418011
 31
0.0
  0
LINE
  5
2411
330
1A
100
AcDbEntity
  8
0
100
AcDbLine
 10
358.8776927876943
 20
160.3064076418011
 30
0.0
 11
358.8776927876943
 21
153.9064076418011
 31
0.0
  0
LINE
  5
2412
330
1A
100
AcDbEntity
  8
0
100
AcDbLine
 10
364.8776927876942
 20
155.6064076418012
 30
0.0
 11
361.8776927876942
 21
158.6064076418012
 31
0.0
  0
LINE
  5
2413
330
1A
100
AcDbEntity
  8
0
100
AcDbLine
 10
364.8776927876942
 20
158.6064076418012
 30
0.0
 11
361.8776927876942
 21
155.6064076418012
 31
0.0
  0
LINE
  5
2414
330
1A
100
AcDbEntity
  8
0
100
AcDbLine
 10
364.8776927876942
 20
155.6064076418012
 30
0.0
 11
361.8776927876942
 21
158.6064076418012
 31
0.0
  0
LINE
  5
2415
330
1A
100
AcDbEntity
  8
0
100
AcDbLine
 10
364.8776927876942
 20
158.6064076418012
 30
0.0
 11
361.8776927876942
 21
155.6064076418012
 31
0.0
  0
LINE
  5
2416
330
1A
100
AcDbEntity
  8
0
100
AcDbLine
 10
364.8776927876942
 20
158.6064076418011
 30
0.0
 11
361.8776927876942
 21
155.6064076418011
 31
0.0
  0
LINE
  5
2417
330
1A
100
AcDbEntity
  8
0
100
AcDbLine
 10
364.8776927876942
 20
155.6064076418011
 30
0.0
 11
361.8776927876942
 21
158.6064076418011
 31
0.0
  0
LINE
  5
2418
330
1A
100
AcDbEntity
  8
0
100
AcDbLine
 10
364.804013330828
 20
163.1993568075121
 30
0.0
 11
361.804013330828
 21
166.1993568075121
 31
0.0
  0
LINE
  5
2419
330
1A
100
AcDbEntity
  8
0
100
AcDbLine
 10
364.804013330828
 20
166.1993568075121
 30
0.0
 11
361.804013330828
 21
163.1993568075121
 31
0.0
  0
LINE
  5
241A
330
1A
100
AcDbEntity
  8
0
100
AcDbLine
 10
364.804013330828
 20
163.1993568075121
 30
0.0
 11
361.804013330828
 21
166.1993568075121
 31
0.0
  0
LINE
  5
241B
330
1A
100
AcDbEntity
  8
0
100
AcDbLine
 10
364.804013330828
 20
166.1993568075121
 30
0.0
 11
361.804013330828
 21
163.1993568075121
 31
0.0
  0
LINE
  5
241C
330
1A
100
AcDbEntity
  8
0
100
AcDbLine
 10
364.804013330828
 20
166.1993568075121
 30
0.0
 11
361.804013330828
 21
163.1993568075121
 31
0.0
  0
LINE
  5
241D
330
1A
100
AcDbEntity
  8
0
100
AcDbLine
 10
364.804013330828
 20
163.1993568075121
 30
0.0
 11
361.804013330828
 21
166.1993568075121
 31
0.0
  0
LINE
  5
241E
330
1A
100
AcDbEntity
  8
0
100
AcDbLine
 10
358.804013330828
 20
167.899356807512
 30
0.0
 11
358.804013330828
 21
161.4993568075121
 31
0.0
  0
LINE
  5
241F
330
1A
100
AcDbEntity
  8
0
100
AcDbLine
 10
358.804013330828
 20
167.899356807512
 30
0.0
 11
358.804013330828
 21
161.4993568075121
 31
0.0
  0
LINE
  5
2420
330
1A
100
AcDbEntity
  8
0
100
AcDbLine
 10
358.804013330828
 20
167.899356807512
 30
0.0
 11
358.804013330828
 21
161.4993568075121
 31
0.0
  0
LINE
  5
2421
330
1A
100
AcDbEntity
  8
0
100
AcDbLine
 10
360.304013330828
 20
161.4993568075121
 30
0.0
 11
360.304013330828
 21
167.8993568075121
 31
0.0
  0
LINE
  5
2422
330
1A
100
AcDbEntity
  8
0
100
AcDbLine
 10
360.304013330828
 20
161.4993568075121
 30
0.0
 11
360.304013330828
 21
167.8993568075121
 31
0.0
  0
LINE
  5
2423
330
1A
100
AcDbEntity
  8
0
100
AcDbLine
 10
360.304013330828
 20
161.4993568075121
 30
0.0
 11
360.304013330828
 21
167.8993568075121
 31
0.0
  0
LINE
  5
2424
330
1A
100
AcDbEntity
  8
0
100
AcDbLine
 10
331.904013330828
 20
176.77
 30
0.0
 11
343.904013330828
 21
176.77
 31
0.0
  0
LINE
  5
2425
330
1A
100
AcDbEntity
  8
0
100
AcDbLine
 10
331.904013330828
 20
175.55
 30
0.0
 11
343.904013330828
 21
175.55
 31
0.0
  0
LINE
  5
2426
330
1A
100
AcDbEntity
  8
0
100
AcDbLine
 10
331.9040133308281
 20
183.17
 30
0.0
 11
343.904013330828
 21
183.17
 31
0.0
  0
LINE
  5
2427
330
1A
100
AcDbEntity
  8
0
100
AcDbLine
 10
336.4000000000002
 20
181.468781840832
 30
0.0
 11
339.4000000000001
 21
178.468781840832
 31
0.0
  0
LINE
  5
2428
330
1A
100
AcDbEntity
  8
0
100
AcDbLine
 10
336.4000000000001
 20
178.468781840832
 30
0.0
 11
339.4000000000001
 21
181.468781840832
 31
0.0
  0
CIRCLE
  5
2429
330
1A
100
AcDbEntity
  8
0
100
AcDbCircle
 10
337.9000000000001
 20
179.968781840832
 30
0.0
 40
2.75
  0
LINE
  5
242A
330
1A
100
AcDbEntity
  8
0
100
AcDbLine
 10
334.9000000000001
 20
176.968781840832
 30
0.0
 11
340.9000000000001
 21
176.968781840832
 31
0.0
  0
LINE
  5
242B
330
1A
100
AcDbEntity
  8
0
100
AcDbLine
 10
340.936839728433
 20
175.3758326751206
 30
0.0
 11
334.936839728433
 21
175.3758326751206
 31
0.0
  0
LINE
  5
242C
330
1A
100
AcDbEntity
  8
0
100
AcDbLine
 10
340.9000000000002
 20
182.968781840832
 30
0.0
 11
334.9000000000001
 21
182.968781840832
 31
0.0
  0
LINE
  5
242D
330
1A
100
AcDbEntity
  8
0
100
AcDbLine
 10
334.7000000000001
 20
178.718781840832
 30
0.0
 11
334.7000000000001
 21
176.768781840832
 31
0.0
  0
LINE
  5
242E
330
1A
100
AcDbEntity
  8
0
100
AcDbLine
 10
334.9000000000001
 20
183.1687818408319
 30
0.0
 11
334.9000000000001
 21
176.768781840832
 31
0.0
  0
LINE
  5
242F
330
1A
100
AcDbEntity
  8
0
100
AcDbLine
 10
333.4000000000001
 20
183.1687818408319
 30
0.0
 11
333.4000000000001
 21
176.768781840832
 31
0.0
  0
LINE
  5
2430
330
1A
100
AcDbEntity
  8
0
100
AcDbLine
 10
333.936839728433
 20
173.6258326751206
 30
0.0
 11
334.7368397284331
 21
173.6258326751206
 31
0.0
  0
LINE
  5
2431
330
1A
100
AcDbEntity
  8
0
100
AcDbLine
 10
334.7368397284331
 20
175.5758326751205
 30
0.0
 11
334.7368397284331
 21
173.6258326751206
 31
0.0
  0
LINE
  5
2432
330
1A
100
AcDbEntity
  8
0
100
AcDbLine
 10
334.7000000000002
 20
183.1687818408319
 30
0.0
 11
334.7000000000002
 21
181.218781840832
 31
0.0
  0
LINE
  5
2433
330
1A
100
AcDbEntity
  8
0
100
AcDbLine
 10
333.9000000000002
 20
181.218781840832
 30
0.0
 11
334.7000000000002
 21
181.218781840832
 31
0.0
  0
LINE
  5
2434
330
1A
100
AcDbEntity
  8
0
100
AcDbLine
 10
333.9000000000001
 20
178.718781840832
 30
0.0
 11
334.7000000000001
 21
178.718781840832
 31
0.0
  0
LINE
  5
2435
330
1A
100
AcDbEntity
  8
0
100
AcDbLine
 10
333.9000000000002
 20
181.218781840832
 30
0.0
 11
333.9000000000001
 21
178.718781840832
 31
0.0
  0
LINE
  5
2436
330
1A
100
AcDbEntity
  8
0
100
AcDbLine
 10
340.9000000000001
 20
176.768781840832
 30
0.0
 11
340.9000000000002
 21
183.1687818408319
 31
0.0
  0
LINE
  5
2437
330
1A
100
AcDbEntity
  8
0
100
AcDbLine
 10
342.4000000000002
 20
183.1687818408319
 30
0.0
 11
342.4000000000001
 21
176.768781840832
 31
0.0
  0
LINE
  5
243F
330
1A
100
AcDbEntity
  8
0
100
AcDbLine
 10
331.9040133308281
 20
184.39
 30
0.0
 11
343.904013330828
 21
184.39
 31
0.0
  0
LINE
  5
244E
330
1A
100
AcDbEntity
  8
0
100
AcDbLine
 10
358.767173602395
 20
183.1958326751205
 30
0.0
 11
358.767173602395
 21
176.7958326751206
 31
0.0
  0
LINE
  5
244F
330
1A
100
AcDbEntity
  8
0
100
AcDbLine
 10
358.767173602395
 20
183.1958326751205
 30
0.0
 11
358.767173602395
 21
176.7958326751206
 31
0.0
  0
LINE
  5
2450
330
1A
100
AcDbEntity
  8
0
100
AcDbLine
 10
358.767173602395
 20
183.1958326751205
 30
0.0
 11
358.767173602395
 21
176.7958326751205
 31
0.0
  0
LINE
  5
2451
330
1A
100
AcDbEntity
  8
0
100
AcDbLine
 10
360.267173602395
 20
176.7958326751206
 30
0.0
 11
360.267173602395
 21
183.1958326751206
 31
0.0
  0
LINE
  5
2452
330
1A
100
AcDbEntity
  8
0
100
AcDbLine
 10
360.267173602395
 20
176.7958326751206
 30
0.0
 11
360.267173602395
 21
183.1958326751206
 31
0.0
  0
LINE
  5
2453
330
1A
100
AcDbEntity
  8
0
100
AcDbLine
 10
360.267173602395
 20
176.7958326751205
 30
0.0
 11
360.267173602395
 21
183.1958326751205
 31
0.0
  0
LINE
  5
2454
330
1A
100
AcDbEntity
  8
0
100
AcDbLine
 10
364.767173602395
 20
178.4958326751206
 30
0.0
 11
361.767173602395
 21
181.4958326751206
 31
0.0
  0
LINE
  5
2455
330
1A
100
AcDbEntity
  8
0
100
AcDbLine
 10
364.767173602395
 20
181.4958326751206
 30
0.0
 11
361.767173602395
 21
178.4958326751206
 31
0.0
  0
LINE
  5
2456
330
1A
100
AcDbEntity
  8
0
100
AcDbLine
 10
364.767173602395
 20
178.4958326751206
 30
0.0
 11
361.767173602395
 21
181.4958326751206
 31
0.0
  0
LINE
  5
2457
330
1A
100
AcDbEntity
  8
0
100
AcDbLine
 10
364.767173602395
 20
181.4958326751206
 30
0.0
 11
361.767173602395
 21
178.4958326751206
 31
0.0
  0
LINE
  5
2458
330
1A
100
AcDbEntity
  8
0
100
AcDbLine
 10
364.767173602395
 20
181.4958326751206
 30
0.0
 11
361.767173602395
 21
178.4958326751205
 31
0.0
  0
LINE
  5
2459
330
1A
100
AcDbEntity
  8
0
100
AcDbLine
 10
364.767173602395
 20
178.4958326751205
 30
0.0
 11
361.767173602395
 21
181.4958326751206
 31
0.0
  0
LINE
  5
245A
330
1A
100
AcDbEntity
  8
0
100
AcDbLine
 10
358.8040133308279
 20
190.7887818408319
 30
0.0
 11
358.8040133308279
 21
184.388781840832
 31
0.0
  0
LINE
  5
245B
330
1A
100
AcDbEntity
  8
0
100
AcDbLine
 10
358.8040133308279
 20
190.7887818408319
 30
0.0
 11
358.8040133308279
 21
184.388781840832
 31
0.0
  0
LINE
  5
245C
330
1A
100
AcDbEntity
  8
0
100
AcDbLine
 10
358.8040133308279
 20
190.7887818408319
 30
0.0
 11
358.8040133308279
 21
184.3887818408319
 31
0.0
  0
LINE
  5
245D
330
1A
100
AcDbEntity
  8
0
100
AcDbLine
 10
360.3040133308279
 20
184.388781840832
 30
0.0
 11
360.3040133308279
 21
190.7887818408319
 31
0.0
  0
LINE
  5
245E
330
1A
100
AcDbEntity
  8
0
100
AcDbLine
 10
360.3040133308279
 20
184.388781840832
 30
0.0
 11
360.3040133308279
 21
190.7887818408319
 31
0.0
  0
LINE
  5
245F
330
1A
100
AcDbEntity
  8
0
100
AcDbLine
 10
360.3040133308279
 20
184.3887818408319
 30
0.0
 11
360.3040133308279
 21
190.7887818408319
 31
0.0
  0
LINE
  5
2460
330
1A
100
AcDbEntity
  8
0
100
AcDbLine
 10
364.8040133308279
 20
189.088781840832
 30
0.0
 11
361.8040133308279
 21
186.088781840832
 31
0.0
  0
LINE
  5
2461
330
1A
100
AcDbEntity
  8
0
100
AcDbLine
 10
364.8040133308279
 20
186.088781840832
 30
0.0
 11
361.8040133308279
 21
189.088781840832
 31
0.0
  0
LINE
  5
2462
330
1A
100
AcDbEntity
  8
0
100
AcDbLine
 10
364.8040133308279
 20
189.088781840832
 30
0.0
 11
361.8040133308279
 21
186.088781840832
 31
0.0
  0
LINE
  5
2463
330
1A
100
AcDbEntity
  8
0
100
AcDbLine
 10
364.8040133308279
 20
186.088781840832
 30
0.0
 11
361.8040133308279
 21
189.088781840832
 31
0.0
  0
LINE
  5
2464
330
1A
100
AcDbEntity
  8
0
100
AcDbLine
 10
364.8040133308279
 20
186.0887818408319
 30
0.0
 11
361.8040133308279
 21
189.0887818408319
 31
0.0
  0
LINE
  5
2465
330
1A
100
AcDbEntity
  8
0
100
AcDbLine
 10
364.8040133308279
 20
189.0887818408319
 30
0.0
 11
361.8040133308279
 21
186.0887818408319
 31
0.0
  0
LINE
  5
2466
330
1A
100
AcDbEntity
  8
0
100
AcDbLine
 10
366.3408530592612
 20
175.5660243306807
 30
0.0
 11
366.3408530592612
 21
169.1660243306807
 31
0.0
  0
LINE
  5
2467
330
1A
100
AcDbEntity
  8
0
100
AcDbLine
 10
366.3408530592612
 20
175.5660243306807
 30
0.0
 11
366.3408530592612
 21
169.1660243306807
 31
0.0
  0
LINE
  5
2468
330
1A
100
AcDbEntity
  8
0
100
AcDbLine
 10
366.3408530592612
 20
175.5660243306806
 30
0.0
 11
366.3408530592612
 21
169.1660243306807
 31
0.0
  0
LINE
  5
2469
330
1A
100
AcDbEntity
  8
0
100
AcDbLine
 10
367.3408530592612
 20
173.6160243306807
 30
0.0
 11
367.3408530592612
 21
171.1160243306807
 31
0.0
  0
LINE
  5
246A
330
1A
100
AcDbEntity
  8
0
100
AcDbLine
 10
367.8408530592612
 20
175.5660243306807
 30
0.0
 11
367.8408530592612
 21
169.1660243306808
 31
0.0
  0
LINE
  5
246B
330
1A
100
AcDbEntity
  8
0
100
AcDbLine
 10
367.3408530592612
 20
173.6160243306807
 30
0.0
 11
367.3408530592612
 21
171.1160243306807
 31
0.0
  0
LINE
  5
246C
330
1A
100
AcDbEntity
  8
0
100
AcDbLine
 10
367.8408530592612
 20
175.5660243306807
 30
0.0
 11
367.8408530592612
 21
169.1660243306808
 31
0.0
  0
LINE
  5
246D
330
1A
100
AcDbEntity
  8
0
100
AcDbLine
 10
367.8408530592612
 20
175.5660243306806
 30
0.0
 11
367.8408530592612
 21
169.1660243306807
 31
0.0
  0
LINE
  5
246E
330
1A
100
AcDbEntity
  8
0
100
AcDbLine
 10
367.3408530592612
 20
173.6160243306807
 30
0.0
 11
367.3408530592612
 21
171.1160243306807
 31
0.0
  0
LINE
  5
246F
330
1A
100
AcDbEntity
  8
0
100
AcDbLine
 10
366.5776927876942
 20
160.3064076418012
 30
0.0
 11
366.5776927876942
 21
158.3564076418012
 31
0.0
  0
LINE
  5
2470
330
1A
100
AcDbEntity
  8
0
100
AcDbLine
 10
366.5776927876942
 20
160.3064076418012
 30
0.0
 11
366.5776927876942
 21
158.3564076418012
 31
0.0
  0
LINE
  5
2471
330
1A
100
AcDbEntity
  8
0
100
AcDbLine
 10
366.5776927876942
 20
160.3064076418011
 30
0.0
 11
366.5776927876942
 21
158.3564076418011
 31
0.0
  0
LINE
  5
2472
330
1A
100
AcDbEntity
  8
0
100
AcDbLine
 10
367.8776927876942
 20
160.3064076418012
 30
0.0
 11
367.8776927876942
 21
153.9064076418012
 31
0.0
  0
LINE
  5
2473
330
1A
100
AcDbEntity
  8
0
100
AcDbLine
 10
366.3776927876942
 20
160.3064076418012
 30
0.0
 11
366.3776927876942
 21
153.9064076418012
 31
0.0
  0
LINE
  5
2474
330
1A
100
AcDbEntity
  8
0
100
AcDbLine
 10
367.8776927876942
 20
160.3064076418012
 30
0.0
 11
367.8776927876942
 21
153.9064076418012
 31
0.0
  0
LINE
  5
2475
330
1A
100
AcDbEntity
  8
0
100
AcDbLine
 10
366.3776927876942
 20
160.3064076418012
 30
0.0
 11
366.3776927876942
 21
153.9064076418012
 31
0.0
  0
LINE
  5
2476
330
1A
100
AcDbEntity
  8
0
100
AcDbLine
 10
366.3776927876942
 20
160.3064076418011
 30
0.0
 11
366.3776927876942
 21
153.9064076418011
 31
0.0
  0
LINE
  5
2477
330
1A
100
AcDbEntity
  8
0
100
AcDbLine
 10
367.8776927876942
 20
160.3064076418011
 30
0.0
 11
367.8776927876942
 21
153.9064076418012
 31
0.0
  0
LINE
  5
2478
330
1A
100
AcDbEntity
  8
0
100
AcDbLine
 10
366.5776927876942
 20
155.8564076418012
 30
0.0
 11
366.5776927876942
 21
153.9064076418012
 31
0.0
  0
LINE
  5
2479
330
1A
100
AcDbEntity
  8
0
100
AcDbLine
 10
366.5776927876942
 20
155.8564076418012
 30
0.0
 11
366.5776927876942
 21
153.9064076418012
 31
0.0
  0
LINE
  5
247A
330
1A
100
AcDbEntity
  8
0
100
AcDbLine
 10
366.5776927876942
 20
155.8564076418011
 30
0.0
 11
366.5776927876942
 21
153.9064076418011
 31
0.0
  0
LINE
  5
247B
330
1A
100
AcDbEntity
  8
0
100
AcDbLine
 10
367.3776927876942
 20
150.7364076418011
 30
0.0
 11
366.5776927876942
 21
150.7364076418011
 31
0.0
  0
LINE
  5
247C
330
1A
100
AcDbEntity
  8
0
100
AcDbLine
 10
366.5776927876942
 20
152.6864076418011
 30
0.0
 11
366.5776927876942
 21
150.7364076418011
 31
0.0
  0
LINE
  5
247D
330
1A
100
AcDbEntity
  8
0
100
AcDbLine
 10
367.3776927876942
 20
158.3564076418012
 30
0.0
 11
367.3776927876942
 21
155.8564076418012
 31
0.0
  0
LINE
  5
247E
330
1A
100
AcDbEntity
  8
0
100
AcDbLine
 10
367.3776927876942
 20
158.3564076418012
 30
0.0
 11
367.3776927876942
 21
155.8564076418012
 31
0.0
  0
LINE
  5
247F
330
1A
100
AcDbEntity
  8
0
100
AcDbLine
 10
367.3776927876942
 20
158.3564076418011
 30
0.0
 11
367.3776927876942
 21
155.8564076418011
 31
0.0
  0
LINE
  5
2480
330
1A
100
AcDbEntity
  8
0
100
AcDbLine
 10
367.3776927876942
 20
155.8564076418012
 30
0.0
 11
366.5776927876942
 21
155.8564076418012
 31
0.0
  0
LINE
  5
2481
330
1A
100
AcDbEntity
  8
0
100
AcDbLine
 10
367.3776927876942
 20
155.8564076418012
 30
0.0
 11
366.5776927876942
 21
155.8564076418012
 31
0.0
  0
LINE
  5
2482
330
1A
100
AcDbEntity
  8
0
100
AcDbLine
 10
367.3776927876942
 20
155.8564076418011
 30
0.0
 11
366.5776927876942
 21
155.8564076418011
 31
0.0
  0
LINE
  5
2483
330
1A
100
AcDbEntity
  8
0
100
AcDbLine
 10
367.3776927876942
 20
158.3564076418012
 30
0.0
 11
366.5776927876942
 21
158.3564076418012
 31
0.0
  0
LINE
  5
2484
330
1A
100
AcDbEntity
  8
0
100
AcDbLine
 10
367.3776927876942
 20
158.3564076418012
 30
0.0
 11
366.5776927876942
 21
158.3564076418012
 31
0.0
  0
LINE
  5
2485
330
1A
100
AcDbEntity
  8
0
100
AcDbLine
 10
367.3776927876942
 20
158.3564076418011
 30
0.0
 11
366.5776927876942
 21
158.3564076418011
 31
0.0
  0
LINE
  5
2486
330
1A
100
AcDbEntity
  8
0
100
AcDbLine
 10
367.304013330828
 20
165.9493568075121
 30
0.0
 11
367.304013330828
 21
163.4493568075121
 31
0.0
  0
LINE
  5
2487
330
1A
100
AcDbEntity
  8
0
100
AcDbLine
 10
367.304013330828
 20
165.9493568075121
 30
0.0
 11
367.304013330828
 21
163.4493568075121
 31
0.0
  0
LINE
  5
2488
330
1A
100
AcDbEntity
  8
0
100
AcDbLine
 10
367.304013330828
 20
165.9493568075121
 30
0.0
 11
367.304013330828
 21
163.4493568075121
 31
0.0
  0
LINE
  5
2489
330
1A
100
AcDbEntity
  8
0
100
AcDbLine
 10
366.304013330828
 20
167.8993568075121
 30
0.0
 11
366.304013330828
 21
161.4993568075121
 31
0.0
  0
LINE
  5
248A
330
1A
100
AcDbEntity
  8
0
100
AcDbLine
 10
366.304013330828
 20
167.8993568075121
 30
0.0
 11
366.304013330828
 21
161.4993568075121
 31
0.0
  0
LINE
  5
248B
330
1A
100
AcDbEntity
  8
0
100
AcDbLine
 10
366.304013330828
 20
167.8993568075121
 30
0.0
 11
366.304013330828
 21
161.4993568075121
 31
0.0
  0
LINE
  5
248C
330
1A
100
AcDbEntity
  8
0
100
AcDbLine
 10
367.804013330828
 20
167.8993568075121
 30
0.0
 11
367.804013330828
 21
161.4993568075122
 31
0.0
  0
LINE
  5
248D
330
1A
100
AcDbEntity
  8
0
100
AcDbLine
 10
367.804013330828
 20
167.8993568075121
 30
0.0
 11
367.804013330828
 21
161.4993568075122
 31
0.0
  0
LINE
  5
248E
330
1A
100
AcDbEntity
  8
0
100
AcDbLine
 10
367.804013330828
 20
167.8993568075121
 30
0.0
 11
367.804013330828
 21
161.4993568075121
 31
0.0
  0
LINE
  5
248F
330
1A
100
AcDbEntity
  8
0
100
AcDbLine
 10
367.304013330828
 20
163.4493568075121
 30
0.0
 11
366.504013330828
 21
163.4493568075121
 31
0.0
  0
LINE
  5
2490
330
1A
100
AcDbEntity
  8
0
100
AcDbLine
 10
367.304013330828
 20
163.4493568075121
 30
0.0
 11
366.504013330828
 21
163.4493568075121
 31
0.0
  0
LINE
  5
2491
330
1A
100
AcDbEntity
  8
0
100
AcDbLine
 10
367.304013330828
 20
163.4493568075121
 30
0.0
 11
366.504013330828
 21
163.4493568075121
 31
0.0
  0
LINE
  5
2492
330
1A
100
AcDbEntity
  8
0
100
AcDbLine
 10
366.504013330828
 20
163.4493568075121
 30
0.0
 11
366.504013330828
 21
161.4993568075121
 31
0.0
  0
LINE
  5
2493
330
1A
100
AcDbEntity
  8
0
100
AcDbLine
 10
366.504013330828
 20
163.4493568075121
 30
0.0
 11
366.504013330828
 21
161.4993568075121
 31
0.0
  0
LINE
  5
2494
330
1A
100
AcDbEntity
  8
0
100
AcDbLine
 10
366.504013330828
 20
163.4493568075121
 30
0.0
 11
366.504013330828
 21
161.4993568075121
 31
0.0
  0
LINE
  5
2495
330
1A
100
AcDbEntity
  8
0
100
AcDbLine
 10
367.3408530592612
 20
171.1160243306807
 30
0.0
 11
366.5408530592612
 21
171.1160243306807
 31
0.0
  0
LINE
  5
2496
330
1A
100
AcDbEntity
  8
0
100
AcDbLine
 10
367.3408530592612
 20
171.1160243306807
 30
0.0
 11
366.5408530592612
 21
171.1160243306807
 31
0.0
  0
LINE
  5
2497
330
1A
100
AcDbEntity
  8
0
100
AcDbLine
 10
367.3408530592612
 20
171.1160243306807
 30
0.0
 11
366.5408530592612
 21
171.1160243306807
 31
0.0
  0
LINE
  5
2498
330
1A
100
AcDbEntity
  8
0
100
AcDbLine
 10
366.5408530592612
 20
171.1160243306807
 30
0.0
 11
366.5408530592612
 21
169.1660243306807
 31
0.0
  0
LINE
  5
2499
330
1A
100
AcDbEntity
  8
0
100
AcDbLine
 10
366.5408530592612
 20
171.1160243306807
 30
0.0
 11
366.5408530592612
 21
169.1660243306807
 31
0.0
  0
LINE
  5
249A
330
1A
100
AcDbEntity
  8
0
100
AcDbLine
 10
366.5408530592612
 20
171.1160243306807
 30
0.0
 11
366.5408530592612
 21
169.1660243306807
 31
0.0
  0
LINE
  5
249B
330
1A
100
AcDbEntity
  8
0
100
AcDbLine
 10
367.304013330828
 20
165.9493568075121
 30
0.0
 11
366.504013330828
 21
165.9493568075121
 31
0.0
  0
LINE
  5
249C
330
1A
100
AcDbEntity
  8
0
100
AcDbLine
 10
367.304013330828
 20
165.9493568075121
 30
0.0
 11
366.504013330828
 21
165.9493568075121
 31
0.0
  0
LINE
  5
249D
330
1A
100
AcDbEntity
  8
0
100
AcDbLine
 10
367.304013330828
 20
165.9493568075121
 30
0.0
 11
366.504013330828
 21
165.9493568075121
 31
0.0
  0
LINE
  5
249E
330
1A
100
AcDbEntity
  8
0
100
AcDbLine
 10
366.504013330828
 20
167.8993568075121
 30
0.0
 11
366.504013330828
 21
165.9493568075121
 31
0.0
  0
LINE
  5
249F
330
1A
100
AcDbEntity
  8
0
100
AcDbLine
 10
366.504013330828
 20
167.8993568075121
 30
0.0
 11
366.504013330828
 21
165.9493568075121
 31
0.0
  0
LINE
  5
24A0
330
1A
100
AcDbEntity
  8
0
100
AcDbLine
 10
366.504013330828
 20
167.8993568075121
 30
0.0
 11
366.504013330828
 21
165.9493568075121
 31
0.0
  0
LINE
  5
24A1
330
1A
100
AcDbEntity
  8
0
100
AcDbLine
 10
366.467173602395
 20
178.7458326751206
 30
0.0
 11
366.467173602395
 21
176.7958326751206
 31
0.0
  0
LINE
  5
24A2
330
1A
100
AcDbEntity
  8
0
100
AcDbLine
 10
366.467173602395
 20
178.7458326751206
 30
0.0
 11
366.467173602395
 21
176.7958326751206
 31
0.0
  0
LINE
  5
24A3
330
1A
100
AcDbEntity
  8
0
100
AcDbLine
 10
366.467173602395
 20
178.7458326751205
 30
0.0
 11
366.467173602395
 21
176.7958326751205
 31
0.0
  0
LINE
  5
24A4
330
1A
100
AcDbEntity
  8
0
100
AcDbLine
 10
367.7671736023949
 20
183.1958326751206
 30
0.0
 11
367.7671736023949
 21
176.7958326751206
 31
0.0
  0
LINE
  5
24A5
330
1A
100
AcDbEntity
  8
0
100
AcDbLine
 10
366.267173602395
 20
183.1958326751206
 30
0.0
 11
366.267173602395
 21
176.7958326751206
 31
0.0
  0
LINE
  5
24A6
330
1A
100
AcDbEntity
  8
0
100
AcDbLine
 10
367.7671736023949
 20
183.1958326751206
 30
0.0
 11
367.7671736023949
 21
176.7958326751206
 31
0.0
  0
LINE
  5
24A7
330
1A
100
AcDbEntity
  8
0
100
AcDbLine
 10
366.267173602395
 20
183.1958326751206
 30
0.0
 11
366.267173602395
 21
176.7958326751206
 31
0.0
  0
LINE
  5
24A8
330
1A
100
AcDbEntity
  8
0
100
AcDbLine
 10
366.267173602395
 20
183.1958326751205
 30
0.0
 11
366.267173602395
 21
176.7958326751205
 31
0.0
  0
LINE
  5
24A9
330
1A
100
AcDbEntity
  8
0
100
AcDbLine
 10
367.7671736023949
 20
183.1958326751205
 30
0.0
 11
367.7671736023949
 21
176.7958326751206
 31
0.0
  0
LINE
  5
24AA
330
1A
100
AcDbEntity
  8
0
100
AcDbLine
 10
367.3408530592612
 20
173.6160243306807
 30
0.0
 11
366.5408530592612
 21
173.6160243306807
 31
0.0
  0
LINE
  5
24AB
330
1A
100
AcDbEntity
  8
0
100
AcDbLine
 10
367.3408530592612
 20
173.6160243306807
 30
0.0
 11
366.5408530592612
 21
173.6160243306807
 31
0.0
  0
LINE
  5
24AC
330
1A
100
AcDbEntity
  8
0
100
AcDbLine
 10
367.3408530592612
 20
173.6160243306807
 30
0.0
 11
366.5408530592612
 21
173.6160243306807
 31
0.0
  0
LINE
  5
24AD
330
1A
100
AcDbEntity
  8
0
100
AcDbLine
 10
366.5408530592612
 20
175.5660243306807
 30
0.0
 11
366.5408530592612
 21
173.6160243306807
 31
0.0
  0
LINE
  5
24AE
330
1A
100
AcDbEntity
  8
0
100
AcDbLine
 10
366.5408530592612
 20
175.5660243306807
 30
0.0
 11
366.5408530592612
 21
173.6160243306807
 31
0.0
  0
LINE
  5
24AF
330
1A
100
AcDbEntity
  8
0
100
AcDbLine
 10
366.5408530592612
 20
175.5660243306806
 30
0.0
 11
366.5408530592612
 21
173.6160243306807
 31
0.0
  0
LINE
  5
24B0
330
1A
100
AcDbEntity
  8
0
100
AcDbLine
 10
366.467173602395
 20
183.1958326751206
 30
0.0
 11
366.467173602395
 21
181.2458326751206
 31
0.0
  0
LINE
  5
24B1
330
1A
100
AcDbEntity
  8
0
100
AcDbLine
 10
366.467173602395
 20
183.1958326751206
 30
0.0
 11
366.467173602395
 21
181.2458326751206
 31
0.0
  0
LINE
  5
24B2
330
1A
100
AcDbEntity
  8
0
100
AcDbLine
 10
366.467173602395
 20
183.1958326751205
 30
0.0
 11
366.467173602395
 21
181.2458326751205
 31
0.0
  0
LINE
  5
24B3
330
1A
100
AcDbEntity
  8
0
100
AcDbLine
 10
367.267173602395
 20
181.2458326751206
 30
0.0
 11
366.467173602395
 21
181.2458326751206
 31
0.0
  0
LINE
  5
24B4
330
1A
100
AcDbEntity
  8
0
100
AcDbLine
 10
367.267173602395
 20
181.2458326751206
 30
0.0
 11
366.467173602395
 21
181.2458326751206
 31
0.0
  0
LINE
  5
24B5
330
1A
100
AcDbEntity
  8
0
100
AcDbLine
 10
367.267173602395
 20
181.2458326751205
 30
0.0
 11
366.467173602395
 21
181.2458326751205
 31
0.0
  0
LINE
  5
24B6
330
1A
100
AcDbEntity
  8
0
100
AcDbLine
 10
367.267173602395
 20
178.7458326751206
 30
0.0
 11
366.467173602395
 21
178.7458326751206
 31
0.0
  0
LINE
  5
24B7
330
1A
100
AcDbEntity
  8
0
100
AcDbLine
 10
367.267173602395
 20
178.7458326751206
 30
0.0
 11
366.467173602395
 21
178.7458326751206
 31
0.0
  0
LINE
  5
24B8
330
1A
100
AcDbEntity
  8
0
100
AcDbLine
 10
367.267173602395
 20
178.7458326751205
 30
0.0
 11
366.467173602395
 21
178.7458326751205
 31
0.0
  0
LINE
  5
24B9
330
1A
100
AcDbEntity
  8
0
100
AcDbLine
 10
367.267173602395
 20
181.2458326751206
 30
0.0
 11
367.267173602395
 21
178.7458326751206
 31
0.0
  0
LINE
  5
24BA
330
1A
100
AcDbEntity
  8
0
100
AcDbLine
 10
367.267173602395
 20
181.2458326751206
 30
0.0
 11
367.267173602395
 21
178.7458326751206
 31
0.0
  0
LINE
  5
24BB
330
1A
100
AcDbEntity
  8
0
100
AcDbLine
 10
367.267173602395
 20
181.2458326751205
 30
0.0
 11
367.267173602395
 21
178.7458326751205
 31
0.0
  0
LINE
  5
24BC
330
1A
100
AcDbEntity
  8
0
100
AcDbLine
 10
366.5040133308279
 20
190.7887818408319
 30
0.0
 11
366.5040133308279
 21
188.838781840832
 31
0.0
  0
LINE
  5
24BD
330
1A
100
AcDbEntity
  8
0
100
AcDbLine
 10
366.5040133308279
 20
190.7887818408319
 30
0.0
 11
366.5040133308279
 21
188.838781840832
 31
0.0
  0
LINE
  5
24BE
330
1A
100
AcDbEntity
  8
0
100
AcDbLine
 10
366.5040133308279
 20
190.7887818408319
 30
0.0
 11
366.5040133308279
 21
188.8387818408319
 31
0.0
  0
LINE
  5
24BF
330
1A
100
AcDbEntity
  8
0
100
AcDbLine
 10
366.3040133308279
 20
190.7887818408319
 30
0.0
 11
366.3040133308279
 21
184.388781840832
 31
0.0
  0
LINE
  5
24C0
330
1A
100
AcDbEntity
  8
0
100
AcDbLine
 10
366.3040133308279
 20
190.7887818408319
 30
0.0
 11
366.3040133308279
 21
184.388781840832
 31
0.0
  0
LINE
  5
24C1
330
1A
100
AcDbEntity
  8
0
100
AcDbLine
 10
366.3040133308279
 20
190.7887818408319
 30
0.0
 11
366.3040133308279
 21
184.3887818408319
 31
0.0
  0
LINE
  5
24C2
330
1A
100
AcDbEntity
  8
0
100
AcDbLine
 10
367.8040133308279
 20
190.7887818408319
 30
0.0
 11
367.8040133308279
 21
184.388781840832
 31
0.0
  0
LINE
  5
24C3
330
1A
100
AcDbEntity
  8
0
100
AcDbLine
 10
367.8040133308279
 20
190.7887818408319
 30
0.0
 11
367.8040133308279
 21
184.388781840832
 31
0.0
  0
LINE
  5
24C4
330
1A
100
AcDbEntity
  8
0
100
AcDbLine
 10
367.8040133308279
 20
190.7887818408319
 30
0.0
 11
367.8040133308279
 21
184.388781840832
 31
0.0
  0
LINE
  5
24C5
330
1A
100
AcDbEntity
  8
0
100
AcDbLine
 10
367.3040133308279
 20
188.838781840832
 30
0.0
 11
366.5040133308279
 21
188.838781840832
 31
0.0
  0
LINE
  5
24C6
330
1A
100
AcDbEntity
  8
0
100
AcDbLine
 10
367.3040133308279
 20
186.338781840832
 30
0.0
 11
366.5040133308279
 21
186.338781840832
 31
0.0
  0
LINE
  5
24C7
330
1A
100
AcDbEntity
  8
0
100
AcDbLine
 10
367.3040133308279
 20
188.838781840832
 30
0.0
 11
366.5040133308279
 21
188.838781840832
 31
0.0
  0
LINE
  5
24C8
330
1A
100
AcDbEntity
  8
0
100
AcDbLine
 10
367.3040133308279
 20
186.338781840832
 30
0.0
 11
366.5040133308279
 21
186.338781840832
 31
0.0
  0
LINE
  5
24C9
330
1A
100
AcDbEntity
  8
0
100
AcDbLine
 10
367.3040133308279
 20
186.3387818408319
 30
0.0
 11
366.5040133308279
 21
186.3387818408319
 31
0.0
  0
LINE
  5
24CA
330
1A
100
AcDbEntity
  8
0
100
AcDbLine
 10
367.3040133308279
 20
188.8387818408319
 30
0.0
 11
366.5040133308279
 21
188.8387818408319
 31
0.0
  0
LINE
  5
24CB
330
1A
100
AcDbEntity
  8
0
100
AcDbLine
 10
367.3040133308279
 20
188.838781840832
 30
0.0
 11
367.3040133308279
 21
186.338781840832
 31
0.0
  0
LINE
  5
24CC
330
1A
100
AcDbEntity
  8
0
100
AcDbLine
 10
367.3040133308279
 20
188.838781840832
 30
0.0
 11
367.3040133308279
 21
186.338781840832
 31
0.0
  0
LINE
  5
24CD
330
1A
100
AcDbEntity
  8
0
100
AcDbLine
 10
367.3040133308279
 20
188.8387818408319
 30
0.0
 11
367.3040133308279
 21
186.3387818408319
 31
0.0
  0
LINE
  5
24CE
330
1A
100
AcDbEntity
  8
0
100
AcDbLine
 10
366.5040133308279
 20
186.338781840832
 30
0.0
 11
366.5040133308279
 21
184.388781840832
 31
0.0
  0
LINE
  5
24CF
330
1A
100
AcDbEntity
  8
0
100
AcDbLine
 10
366.5040133308279
 20
186.338781840832
 30
0.0
 11
366.5040133308279
 21
184.388781840832
 31
0.0
  0
LINE
  5
24D0
330
1A
100
AcDbEntity
  8
0
100
AcDbLine
 10
366.5040133308279
 20
186.3387818408319
 30
0.0
 11
366.5040133308279
 21
184.3887818408319
 31
0.0
  0
LINE
  5
24D1
330
1A
100
AcDbEntity
  8
0
100
AcDbLine
 10
367.3040133308279
 20
193.9685901852718
 30
0.0
 11
366.5040133308279
 21
193.9685901852718
 31
0.0
  0
LINE
  5
24D2
330
1A
100
AcDbEntity
  8
0
100
AcDbLine
 10
367.3040133308279
 20
193.9685901852718
 30
0.0
 11
366.5040133308279
 21
193.9685901852718
 31
0.0
  0
LINE
  5
24D3
330
1A
100
AcDbEntity
  8
0
100
AcDbLine
 10
367.3040133308279
 20
193.9685901852718
 30
0.0
 11
366.5040133308279
 21
193.9685901852718
 31
0.0
  0
LINE
  5
24D4
330
1A
100
AcDbEntity
  8
0
100
AcDbLine
 10
366.5040133308279
 20
193.9685901852718
 30
0.0
 11
366.5040133308279
 21
192.0185901852718
 31
0.0
  0
LINE
  5
24D5
330
1A
100
AcDbEntity
  8
0
100
AcDbLine
 10
366.5040133308279
 20
193.9685901852718
 30
0.0
 11
366.5040133308279
 21
192.0185901852718
 31
0.0
  0
LINE
  5
24D6
330
1A
100
AcDbEntity
  8
0
100
AcDbLine
 10
366.5040133308279
 20
193.9685901852718
 30
0.0
 11
366.5040133308279
 21
192.0185901852718
 31
0.0
  0
LINE
  5
24D7
330
1A
100
AcDbEntity
  8
0
100
AcDbLine
 10
369.3
 20
199.63
 30
0.0
 11
357.3
 21
199.63
 31
0.0
  0
LINE
  5
24D8
330
1A
100
AcDbEntity
  8
0
100
AcDbLine
 10
369.3
 20
206.03
 30
0.0
 11
357.3
 21
206.03
 31
0.0
  0
LINE
  5
24D9
330
1A
100
AcDbEntity
  8
0
100
AcDbLine
 10
369.3
 20
198.41
 30
0.0
 11
357.3
 21
198.41
 31
0.0
  0
LINE
  5
24DA
330
1A
100
AcDbEntity
  8
0
100
AcDbLine
 10
369.3
 20
199.63
 30
0.0
 11
357.3
 21
199.63
 31
0.0
  0
LINE
  5
24DB
330
1A
100
AcDbEntity
  8
0
100
AcDbLine
 10
369.3
 20
206.03
 30
0.0
 11
357.3
 21
206.03
 31
0.0
  0
LINE
  5
24DC
330
1A
100
AcDbEntity
  8
0
100
AcDbLine
 10
369.3
 20
198.41
 30
0.0
 11
357.3
 21
198.41
 31
0.0
  0
LINE
  5
24DD
330
1A
100
AcDbEntity
  8
0
100
AcDbLine
 10
369.3
 20
198.41
 30
0.0
 11
357.3
 21
198.41
 31
0.0
  0
LINE
  5
24DE
330
1A
100
AcDbEntity
  8
0
100
AcDbLine
 10
369.3
 20
206.03
 30
0.0
 11
357.3
 21
206.03
 31
0.0
  0
LINE
  5
24DF
330
1A
100
AcDbEntity
  8
0
100
AcDbLine
 10
369.3
 20
199.63
 30
0.0
 11
357.3
 21
199.63
 31
0.0
  0
LINE
  5
24E0
330
1A
100
AcDbEntity
  8
0
100
AcDbLine
 10
360.3408530592611
 20
205.8483985297115
 30
0.0
 11
366.3408530592611
 21
205.8483985297115
 31
0.0
  0
LINE
  5
24E1
330
1A
100
AcDbEntity
  8
0
100
AcDbLine
 10
366.3408530592611
 20
199.8483985297115
 30
0.0
 11
360.3408530592611
 21
199.8483985297115
 31
0.0
  0
CIRCLE
  5
24E2
330
1A
100
AcDbEntity
  8
0
100
AcDbCircle
 10
363.3408530592611
 20
202.8483985297115
 30
0.0
 40
2.75
  0
LINE
  5
24E3
330
1A
100
AcDbEntity
  8
0
100
AcDbLine
 10
360.3040133308279
 20
198.2185901852718
 30
0.0
 11
366.3040133308279
 21
198.2185901852718
 31
0.0
  0
LINE
  5
24E4
330
1A
100
AcDbEntity
  8
0
100
AcDbLine
 10
360.3408530592611
 20
205.8483985297115
 30
0.0
 11
366.3408530592611
 21
205.8483985297115
 31
0.0
  0
LINE
  5
24E5
330
1A
100
AcDbEntity
  8
0
100
AcDbLine
 10
366.3408530592611
 20
199.8483985297115
 30
0.0
 11
360.3408530592611
 21
199.8483985297115
 31
0.0
  0
CIRCLE
  5
24E6
330
1A
100
AcDbEntity
  8
0
100
AcDbCircle
 10
363.3408530592611
 20
202.8483985297115
 30
0.0
 40
2.75
  0
LINE
  5
24E7
330
1A
100
AcDbEntity
  8
0
100
AcDbLine
 10
360.3040133308279
 20
198.2185901852718
 30
0.0
 11
366.3040133308279
 21
198.2185901852718
 31
0.0
  0
LINE
  5
24E8
330
1A
100
AcDbEntity
  8
0
100
AcDbLine
 10
360.3040133308279
 20
198.2185901852718
 30
0.0
 11
366.3040133308279
 21
198.2185901852718
 31
0.0
  0
CIRCLE
  5
24E9
330
1A
100
AcDbEntity
  8
0
100
AcDbCircle
 10
363.3408530592611
 20
202.8483985297115
 30
0.0
 40
2.75
  0
LINE
  5
24EA
330
1A
100
AcDbEntity
  8
0
100
AcDbLine
 10
366.3408530592611
 20
199.8483985297115
 30
0.0
 11
360.3408530592611
 21
199.8483985297115
 31
0.0
  0
LINE
  5
24EB
330
1A
100
AcDbEntity
  8
0
100
AcDbLine
 10
360.3408530592611
 20
205.8483985297115
 30
0.0
 11
366.3408530592611
 21
205.8483985297115
 31
0.0
  0
LINE
  5
24EC
330
1A
100
AcDbEntity
  8
0
100
AcDbLine
 10
369.3
 20
215.85
 30
0.0
 11
357.3
 21
215.85
 31
0.0
  0
LINE
  5
24ED
330
1A
100
AcDbEntity
  8
0
100
AcDbLine
 10
369.3
 20
207.2500000000001
 30
0.0
 11
357.3
 21
207.2500000000001
 31
0.0
  0
LINE
  5
24EE
330
1A
100
AcDbEntity
  8
0
100
AcDbLine
 10
369.3
 20
214.85
 30
0.0
 11
357.3
 21
214.85
 31
0.0
  0
LINE
  5
24EF
330
1A
100
AcDbEntity
  8
0
100
AcDbLine
 10
369.3
 20
213.65
 30
0.0
 11
357.3
 21
213.65
 31
0.0
  0
LINE
  5
24F0
330
1A
100
AcDbEntity
  8
0
100
AcDbLine
 10
369.3
 20
207.2500000000001
 30
0.0
 11
357.3
 21
207.2500000000001
 31
0.0
  0
LINE
  5
24F1
330
1A
100
AcDbEntity
  8
0
100
AcDbLine
 10
369.3
 20
214.85
 30
0.0
 11
357.3
 21
214.85
 31
0.0
  0
LINE
  5
24F2
330
1A
100
AcDbEntity
  8
0
100
AcDbLine
 10
369.3
 20
213.65
 30
0.0
 11
357.3
 21
213.65
 31
0.0
  0
LINE
  5
24F3
330
1A
100
AcDbEntity
  8
0
100
AcDbLine
 10
369.3
 20
207.25
 30
0.0
 11
357.3
 21
207.25
 31
0.0
  0
LINE
  5
24F4
330
1A
100
AcDbEntity
  8
0
100
AcDbLine
 10
369.3
 20
213.65
 30
0.0
 11
357.3
 21
213.65
 31
0.0
  0
LINE
  5
24F5
330
1A
100
AcDbEntity
  8
0
100
AcDbLine
 10
369.3
 20
214.85
 30
0.0
 11
357.3
 21
214.85
 31
0.0
  0
LINE
  5
24F6
330
1A
100
AcDbEntity
  8
0
100
AcDbLine
 10
360.4882119729934
 20
213.4782052721356
 30
0.0
 11
366.4882119729934
 21
213.4782052721356
 31
0.0
  0
LINE
  5
24F7
330
1A
100
AcDbEntity
  8
0
100
AcDbLine
 10
366.4882119729934
 20
207.4782052721356
 30
0.0
 11
360.4882119729934
 21
207.4782052721356
 31
0.0
  0
CIRCLE
  5
24F8
330
1A
100
AcDbEntity
  8
0
100
AcDbCircle
 10
363.4882119729934
 20
210.4782052721356
 30
0.0
 40
2.75
  0
LINE
  5
24F9
330
1A
100
AcDbEntity
  8
0
100
AcDbLine
 10
360.4882119729934
 20
213.4782052721356
 30
0.0
 11
366.4882119729934
 21
213.4782052721356
 31
0.0
  0
LINE
  5
24FA
330
1A
100
AcDbEntity
  8
0
100
AcDbLine
 10
366.4882119729934
 20
207.4782052721356
 30
0.0
 11
360.4882119729934
 21
207.4782052721356
 31
0.0
  0
CIRCLE
  5
24FB
330
1A
100
AcDbEntity
  8
0
100
AcDbCircle
 10
363.4882119729934
 20
210.4782052721356
 30
0.0
 40
2.75
  0
CIRCLE
  5
24FC
330
1A
100
AcDbEntity
  8
0
100
AcDbCircle
 10
363.4882119729934
 20
210.4782052721356
 30
0.0
 40
2.75
  0
LINE
  5
24FD
330
1A
100
AcDbEntity
  8
0
100
AcDbLine
 10
366.4882119729934
 20
207.4782052721356
 30
0.0
 11
360.4882119729934
 21
207.4782052721356
 31
0.0
  0
LINE
  5
24FE
330
1A
100
AcDbEntity
  8
0
100
AcDbLine
 10
360.4882119729934
 20
213.4782052721356
 30
0.0
 11
366.4882119729934
 21
213.4782052721356
 31
0.0
  0
LINE
  5
253E
330
1A
100
AcDbEntity
  8
0
100
AcDbLine
 10
358.8408530592611
 20
206.0483985297115
 30
0.0
 11
358.8408530592611
 21
199.6483985297115
 31
0.0
  0
LINE
  5
253F
330
1A
100
AcDbEntity
  8
0
100
AcDbLine
 10
358.8408530592611
 20
206.0483985297115
 30
0.0
 11
358.8408530592611
 21
199.6483985297115
 31
0.0
  0
LINE
  5
2540
330
1A
100
AcDbEntity
  8
0
100
AcDbLine
 10
358.8408530592611
 20
206.0483985297114
 30
0.0
 11
358.8408530592611
 21
199.6483985297115
 31
0.0
  0
LINE
  5
2541
330
1A
100
AcDbEntity
  8
0
100
AcDbLine
 10
360.3408530592611
 20
199.6483985297115
 30
0.0
 11
360.3408530592611
 21
206.0483985297115
 31
0.0
  0
LINE
  5
2542
330
1A
100
AcDbEntity
  8
0
100
AcDbLine
 10
360.3408530592611
 20
199.6483985297115
 30
0.0
 11
360.3408530592611
 21
206.0483985297115
 31
0.0
  0
LINE
  5
2543
330
1A
100
AcDbEntity
  8
0
100
AcDbLine
 10
360.3408530592611
 20
199.6483985297115
 30
0.0
 11
360.3408530592611
 21
206.0483985297115
 31
0.0
  0
LINE
  5
2544
330
1A
100
AcDbEntity
  8
0
100
AcDbLine
 10
364.8408530592611
 20
204.3483985297115
 30
0.0
 11
361.8408530592611
 21
201.3483985297115
 31
0.0
  0
LINE
  5
2545
330
1A
100
AcDbEntity
  8
0
100
AcDbLine
 10
364.8408530592611
 20
201.3483985297115
 30
0.0
 11
361.8408530592611
 21
204.3483985297115
 31
0.0
  0
LINE
  5
2546
330
1A
100
AcDbEntity
  8
0
100
AcDbLine
 10
364.8408530592611
 20
204.3483985297115
 30
0.0
 11
361.8408530592611
 21
201.3483985297115
 31
0.0
  0
LINE
  5
2547
330
1A
100
AcDbEntity
  8
0
100
AcDbLine
 10
364.8408530592611
 20
201.3483985297115
 30
0.0
 11
361.8408530592611
 21
204.3483985297115
 31
0.0
  0
LINE
  5
2548
330
1A
100
AcDbEntity
  8
0
100
AcDbLine
 10
364.8408530592611
 20
201.3483985297115
 30
0.0
 11
361.8408530592611
 21
204.3483985297115
 31
0.0
  0
LINE
  5
2549
330
1A
100
AcDbEntity
  8
0
100
AcDbLine
 10
364.8408530592611
 20
204.3483985297115
 30
0.0
 11
361.8408530592611
 21
201.3483985297115
 31
0.0
  0
LINE
  5
254A
330
1A
100
AcDbEntity
  8
0
100
AcDbLine
 10
358.9882119729934
 20
213.6782052721355
 30
0.0
 11
358.9882119729934
 21
207.2782052721356
 31
0.0
  0
LINE
  5
254B
330
1A
100
AcDbEntity
  8
0
100
AcDbLine
 10
358.9882119729934
 20
213.6782052721355
 30
0.0
 11
358.9882119729934
 21
207.2782052721356
 31
0.0
  0
LINE
  5
254C
330
1A
100
AcDbEntity
  8
0
100
AcDbLine
 10
358.9882119729934
 20
213.6782052721355
 30
0.0
 11
358.9882119729934
 21
207.2782052721356
 31
0.0
  0
LINE
  5
254D
330
1A
100
AcDbEntity
  8
0
100
AcDbLine
 10
360.4882119729934
 20
207.2782052721356
 30
0.0
 11
360.4882119729934
 21
213.6782052721356
 31
0.0
  0
LINE
  5
254E
330
1A
100
AcDbEntity
  8
0
100
AcDbLine
 10
360.4882119729934
 20
207.2782052721356
 30
0.0
 11
360.4882119729934
 21
213.6782052721356
 31
0.0
  0
LINE
  5
254F
330
1A
100
AcDbEntity
  8
0
100
AcDbLine
 10
360.4882119729934
 20
207.2782052721356
 30
0.0
 11
360.4882119729934
 21
213.6782052721355
 31
0.0
  0
LINE
  5
2550
330
1A
100
AcDbEntity
  8
0
100
AcDbLine
 10
364.9882119729934
 20
211.9782052721356
 30
0.0
 11
361.9882119729934
 21
208.9782052721356
 31
0.0
  0
LINE
  5
2551
330
1A
100
AcDbEntity
  8
0
100
AcDbLine
 10
364.9882119729934
 20
208.9782052721356
 30
0.0
 11
361.9882119729934
 21
211.9782052721356
 31
0.0
  0
LINE
  5
2552
330
1A
100
AcDbEntity
  8
0
100
AcDbLine
 10
364.9882119729934
 20
211.9782052721356
 30
0.0
 11
361.9882119729934
 21
208.9782052721356
 31
0.0
  0
LINE
  5
2553
330
1A
100
AcDbEntity
  8
0
100
AcDbLine
 10
364.9882119729934
 20
208.9782052721356
 30
0.0
 11
361.9882119729934
 21
211.9782052721356
 31
0.0
  0
LINE
  5
2554
330
1A
100
AcDbEntity
  8
0
100
AcDbLine
 10
364.9882119729934
 20
208.9782052721356
 30
0.0
 11
361.9882119729934
 21
211.9782052721356
 31
0.0
  0
LINE
  5
2555
330
1A
100
AcDbEntity
  8
0
100
AcDbLine
 10
364.9882119729934
 20
211.9782052721356
 30
0.0
 11
361.9882119729934
 21
208.9782052721356
 31
0.0
  0
LINE
  5
2556
330
1A
100
AcDbEntity
  8
0
100
AcDbLine
 10
357.3
 20
213.65
 30
0.0
 11
357.3
 21
215.85
 31
0.0
  0
LINE
  5
2557
330
1A
100
AcDbEntity
  8
0
100
AcDbLine
 10
366.540853059261
 20
201.5983985297115
 30
0.0
 11
366.540853059261
 21
199.6483985297115
 31
0.0
  0
LINE
  5
2558
330
1A
100
AcDbEntity
  8
0
100
AcDbLine
 10
366.540853059261
 20
201.5983985297115
 30
0.0
 11
366.540853059261
 21
199.6483985297115
 31
0.0
  0
LINE
  5
2559
330
1A
100
AcDbEntity
  8
0
100
AcDbLine
 10
366.540853059261
 20
201.5983985297115
 30
0.0
 11
366.540853059261
 21
199.6483985297115
 31
0.0
  0
LINE
  5
255A
330
1A
100
AcDbEntity
  8
0
100
AcDbLine
 10
366.3408530592611
 20
206.0483985297115
 30
0.0
 11
366.3408530592611
 21
199.6483985297115
 31
0.0
  0
LINE
  5
255B
330
1A
100
AcDbEntity
  8
0
100
AcDbLine
 10
366.3408530592611
 20
206.0483985297115
 30
0.0
 11
366.3408530592611
 21
199.6483985297115
 31
0.0
  0
LINE
  5
255C
330
1A
100
AcDbEntity
  8
0
100
AcDbLine
 10
366.3408530592611
 20
206.0483985297115
 30
0.0
 11
366.3408530592611
 21
199.6483985297115
 31
0.0
  0
LINE
  5
255D
330
1A
100
AcDbEntity
  8
0
100
AcDbLine
 10
367.8408530592611
 20
206.0483985297115
 30
0.0
 11
367.8408530592611
 21
199.6483985297116
 31
0.0
  0
LINE
  5
255E
330
1A
100
AcDbEntity
  8
0
100
AcDbLine
 10
367.8408530592611
 20
206.0483985297115
 30
0.0
 11
367.8408530592611
 21
199.6483985297116
 31
0.0
  0
LINE
  5
255F
330
1A
100
AcDbEntity
  8
0
100
AcDbLine
 10
367.8408530592611
 20
206.0483985297115
 30
0.0
 11
367.8408530592611
 21
199.6483985297115
 31
0.0
  0
LINE
  5
2560
330
1A
100
AcDbEntity
  8
0
100
AcDbLine
 10
367.3040133308279
 20
196.4685901852718
 30
0.0
 11
366.5040133308279
 21
196.4685901852718
 31
0.0
  0
LINE
  5
2561
330
1A
100
AcDbEntity
  8
0
100
AcDbLine
 10
367.3040133308279
 20
196.4685901852718
 30
0.0
 11
366.5040133308279
 21
196.4685901852718
 31
0.0
  0
LINE
  5
2562
330
1A
100
AcDbEntity
  8
0
100
AcDbLine
 10
367.3040133308279
 20
196.4685901852718
 30
0.0
 11
366.5040133308279
 21
196.4685901852718
 31
0.0
  0
LINE
  5
2563
330
1A
100
AcDbEntity
  8
0
100
AcDbLine
 10
366.5040133308279
 20
198.4185901852718
 30
0.0
 11
366.5040133308279
 21
196.4685901852718
 31
0.0
  0
LINE
  5
2564
330
1A
100
AcDbEntity
  8
0
100
AcDbLine
 10
366.5040133308279
 20
198.4185901852718
 30
0.0
 11
366.5040133308279
 21
196.4685901852718
 31
0.0
  0
LINE
  5
2565
330
1A
100
AcDbEntity
  8
0
100
AcDbLine
 10
366.5040133308279
 20
198.4185901852718
 30
0.0
 11
366.5040133308279
 21
196.4685901852718
 31
0.0
  0
LINE
  5
2566
330
1A
100
AcDbEntity
  8
0
100
AcDbLine
 10
367.340853059261
 20
204.0983985297115
 30
0.0
 11
366.540853059261
 21
204.0983985297115
 31
0.0
  0
LINE
  5
2567
330
1A
100
AcDbEntity
  8
0
100
AcDbLine
 10
367.340853059261
 20
204.0983985297115
 30
0.0
 11
366.540853059261
 21
204.0983985297115
 31
0.0
  0
LINE
  5
2568
330
1A
100
AcDbEntity
  8
0
100
AcDbLine
 10
367.340853059261
 20
204.0983985297115
 30
0.0
 11
366.540853059261
 21
204.0983985297115
 31
0.0
  0
LINE
  5
2569
330
1A
100
AcDbEntity
  8
0
100
AcDbLine
 10
366.540853059261
 20
206.0483985297115
 30
0.0
 11
366.540853059261
 21
204.0983985297115
 31
0.0
  0
LINE
  5
256A
330
1A
100
AcDbEntity
  8
0
100
AcDbLine
 10
366.540853059261
 20
206.0483985297115
 30
0.0
 11
366.540853059261
 21
204.0983985297115
 31
0.0
  0
LINE
  5
256B
330
1A
100
AcDbEntity
  8
0
100
AcDbLine
 10
366.540853059261
 20
206.0483985297115
 30
0.0
 11
366.540853059261
 21
204.0983985297115
 31
0.0
  0
LINE
  5
256C
330
1A
100
AcDbEntity
  8
0
100
AcDbLine
 10
367.340853059261
 20
201.5983985297115
 30
0.0
 11
366.540853059261
 21
201.5983985297115
 31
0.0
  0
LINE
  5
256D
330
1A
100
AcDbEntity
  8
0
100
AcDbLine
 10
367.340853059261
 20
201.5983985297115
 30
0.0
 11
366.540853059261
 21
201.5983985297115
 31
0.0
  0
LINE
  5
256E
330
1A
100
AcDbEntity
  8
0
100
AcDbLine
 10
367.340853059261
 20
201.5983985297115
 30
0.0
 11
366.540853059261
 21
201.5983985297115
 31
0.0
  0
LINE
  5
256F
330
1A
100
AcDbEntity
  8
0
100
AcDbLine
 10
367.340853059261
 20
204.0983985297115
 30
0.0
 11
367.340853059261
 21
201.5983985297115
 31
0.0
  0
LINE
  5
2570
330
1A
100
AcDbEntity
  8
0
100
AcDbLine
 10
367.340853059261
 20
204.0983985297115
 30
0.0
 11
367.340853059261
 21
201.5983985297115
 31
0.0
  0
LINE
  5
2571
330
1A
100
AcDbEntity
  8
0
100
AcDbLine
 10
367.340853059261
 20
204.0983985297115
 30
0.0
 11
367.340853059261
 21
201.5983985297115
 31
0.0
  0
LINE
  5
2572
330
1A
100
AcDbEntity
  8
0
100
AcDbLine
 10
366.6882119729934
 20
213.6782052721356
 30
0.0
 11
366.6882119729934
 21
211.7282052721356
 31
0.0
  0
LINE
  5
2573
330
1A
100
AcDbEntity
  8
0
100
AcDbLine
 10
366.6882119729934
 20
213.6782052721356
 30
0.0
 11
366.6882119729934
 21
211.7282052721356
 31
0.0
  0
LINE
  5
2574
330
1A
100
AcDbEntity
  8
0
100
AcDbLine
 10
366.6882119729934
 20
213.6782052721355
 30
0.0
 11
366.6882119729934
 21
211.7282052721356
 31
0.0
  0
LINE
  5
2575
330
1A
100
AcDbEntity
  8
0
100
AcDbLine
 10
366.4882119729934
 20
213.6782052721356
 30
0.0
 11
366.4882119729934
 21
207.2782052721356
 31
0.0
  0
LINE
  5
2576
330
1A
100
AcDbEntity
  8
0
100
AcDbLine
 10
366.4882119729934
 20
213.6782052721356
 30
0.0
 11
366.4882119729934
 21
207.2782052721356
 31
0.0
  0
LINE
  5
2577
330
1A
100
AcDbEntity
  8
0
100
AcDbLine
 10
366.4882119729934
 20
213.6782052721355
 30
0.0
 11
366.4882119729934
 21
207.2782052721356
 31
0.0
  0
LINE
  5
2578
330
1A
100
AcDbEntity
  8
0
100
AcDbLine
 10
367.9882119729934
 20
213.6782052721356
 30
0.0
 11
367.9882119729934
 21
207.2782052721357
 31
0.0
  0
LINE
  5
2579
330
1A
100
AcDbEntity
  8
0
100
AcDbLine
 10
367.9882119729934
 20
213.6782052721356
 30
0.0
 11
367.9882119729934
 21
207.2782052721357
 31
0.0
  0
LINE
  5
257A
330
1A
100
AcDbEntity
  8
0
100
AcDbLine
 10
367.9882119729934
 20
213.6782052721355
 30
0.0
 11
367.9882119729934
 21
207.2782052721356
 31
0.0
  0
LINE
  5
257B
330
1A
100
AcDbEntity
  8
0
100
AcDbLine
 10
367.4882119729934
 20
211.7282052721356
 30
0.0
 11
366.6882119729934
 21
211.7282052721356
 31
0.0
  0
LINE
  5
257C
330
1A
100
AcDbEntity
  8
0
100
AcDbLine
 10
367.4882119729934
 20
209.2282052721356
 30
0.0
 11
366.6882119729934
 21
209.2282052721356
 31
0.0
  0
LINE
  5
257D
330
1A
100
AcDbEntity
  8
0
100
AcDbLine
 10
367.4882119729934
 20
211.7282052721356
 30
0.0
 11
366.6882119729934
 21
211.7282052721356
 31
0.0
  0
LINE
  5
257E
330
1A
100
AcDbEntity
  8
0
100
AcDbLine
 10
367.4882119729934
 20
209.2282052721356
 30
0.0
 11
366.6882119729934
 21
209.2282052721356
 31
0.0
  0
LINE
  5
257F
330
1A
100
AcDbEntity
  8
0
100
AcDbLine
 10
367.4882119729934
 20
209.2282052721356
 30
0.0
 11
366.6882119729934
 21
209.2282052721356
 31
0.0
  0
LINE
  5
2580
330
1A
100
AcDbEntity
  8
0
100
AcDbLine
 10
367.4882119729934
 20
211.7282052721356
 30
0.0
 11
366.6882119729934
 21
211.7282052721356
 31
0.0
  0
LINE
  5
2581
330
1A
100
AcDbEntity
  8
0
100
AcDbLine
 10
367.4882119729934
 20
211.7282052721356
 30
0.0
 11
367.4882119729934
 21
209.2282052721356
 31
0.0
  0
LINE
  5
2582
330
1A
100
AcDbEntity
  8
0
100
AcDbLine
 10
367.4882119729934
 20
211.7282052721356
 30
0.0
 11
367.4882119729934
 21
209.2282052721356
 31
0.0
  0
LINE
  5
2583
330
1A
100
AcDbEntity
  8
0
100
AcDbLine
 10
367.4882119729934
 20
211.7282052721356
 30
0.0
 11
367.4882119729934
 21
209.2282052721356
 31
0.0
  0
LINE
  5
2584
330
1A
100
AcDbEntity
  8
0
100
AcDbLine
 10
366.6882119729934
 20
209.2282052721356
 30
0.0
 11
366.6882119729934
 21
207.2782052721356
 31
0.0
  0
LINE
  5
2585
330
1A
100
AcDbEntity
  8
0
100
AcDbLine
 10
366.6882119729934
 20
209.2282052721356
 30
0.0
 11
366.6882119729934
 21
207.2782052721356
 31
0.0
  0
LINE
  5
2586
330
1A
100
AcDbEntity
  8
0
100
AcDbLine
 10
366.6882119729934
 20
209.2282052721356
 30
0.0
 11
366.6882119729934
 21
207.2782052721356
 31
0.0
  0
LINE
  5
2587
330
1A
100
AcDbEntity
  8
0
100
AcDbLine
 10
369.3
 20
215.85
 30
0.0
 11
369.3
 21
214.85
 31
0.0
  0
LINE
  5
258A
330
1A
100
AcDbEntity
  8
0
100
AcDbLine
 10
331.5
 20
216.5
 30
0.0
 11
331.5
 21
143.5
 31
0.0
  0
ELLIPSE
  5
2709
330
1A
100
AcDbEntity
  8
0
100
AcDbEllipse
 10
270.1
 20
157.25
 30
0.0
 11
0.0
 21
2.399999999999977
 31
0.0
210
0.0
220
0.0
230
1.0
 40
0.5416666666666529
 41
2.478718829939674
 42
6.946059130829726
  0
LINE
  5
270A
330
1A
100
AcDbEntity
  8
0
100
AcDbLine
 10
267.8000000000001
 20
154.55
 30
0.0
 11
267.8
 21
159.85
 31
0.0
  0
LINE
  5
270B
330
1A
100
AcDbEntity
  8
0
100
AcDbLine
 10
269.3000000000001
 20
154.55
 30
0.0
 11
269.3000000000001
 21
159.85
 31
0.0
  0
LINE
  5
270C
330
1A
100
AcDbEntity
  8
0
100
AcDbLine
 10
266.8000000000001
 20
153.9099999999999
 30
0.0
 11
266.8000000000001
 21
160.31
 31
0.0
  0
LINE
  5
270E
330
1A
100
AcDbEntity
  8
0
100
AcDbLine
 10
266.8000000000001
 20
144.13
 30
0.0
 11
260.0
 21
144.13
 31
0.0
  0
LINE
  5
2713
330
1A
100
AcDbEntity
  8
0
100
AcDbLine
 10
274.8
 20
145.1299999999999
 30
0.0
 11
260.0
 21
145.13
 31
0.0
  0
LINE
  5
2714
330
1A
100
AcDbEntity
  8
0
100
AcDbLine
 10
260.0
 20
70.70000000000004
 30
0.0
 11
269.8000000000001
 21
70.70000000000004
 31
0.0
  0
ELLIPSE
  5
2724
330
1A
100
AcDbEntity
  8
0
100
AcDbEllipse
 10
261.0134650233838
 20
79.50000000000001
 30
0.0
 11
0.0
 21
2.0
 31
0.0
210
0.0
220
0.0
230
1.0
 40
0.7905694150420949
 41
2.456873450587509
 42
6.967904510181938
  0
ELLIPSE
  5
272D
330
1A
100
AcDbEntity
  8
0
100
AcDbEllipse
 10
261.0134650233838
 20
101.5
 30
0.0
 11
0.0
 21
2.0
 31
0.0
210
0.0
220
0.0
230
1.0
 40
0.7905694150420949
 41
2.456873450587509
 42
6.967904510181938
  0
LINE
  5
2740
330
1A
100
AcDbEntity
  8
0
100
AcDbLine
 10
274.8
 20
152.6899999999999
 30
0.0
 11
266.8
 21
152.6899999999999
 31
0.0
  0
LINE
  5
2741
330
1A
100
AcDbEntity
  8
0
100
AcDbLine
 10
274.8
 20
146.2899999999999
 30
0.0
 11
266.8
 21
146.2899999999999
 31
0.0
  0
LINE
  5
2742
330
1A
100
AcDbEntity
  8
0
100
AcDbLine
 10
274.8
 20
153.9099999999999
 30
0.0
 11
266.8
 21
153.9099999999999
 31
0.0
  0
LINE
  5
2743
330
1A
100
AcDbEntity
  8
0
100
AcDbLine
 10
266.8000000000001
 20
145.1299999999999
 30
0.0
 11
266.8000000000001
 21
144.13
 31
0.0
  0
LINE
  5
2744
330
1A
100
AcDbEntity
  8
0
100
AcDbLine
 10
266.8000000000001
 20
152.23
 30
0.0
 11
269.3000000000001
 21
152.23
 31
0.0
  0
LINE
  5
2745
330
1A
100
AcDbEntity
  8
0
100
AcDbLine
 10
269.3000000000001
 20
146.93
 30
0.0
 11
266.8000000000001
 21
146.93
 31
0.0
  0
LINE
  5
2746
330
1A
100
AcDbEntity
  8
0
100
AcDbLine
 10
266.8000000000001
 20
146.2899999999999
 30
0.0
 11
266.8000000000001
 21
152.69
 31
0.0
  0
LINE
  5
2747
330
1A
100
AcDbEntity
  8
0
100
AcDbLine
 10
269.3000000000001
 20
146.93
 30
0.0
 11
269.3000000000001
 21
152.23
 31
0.0
  0
LINE
  5
2748
330
1A
100
AcDbEntity
  8
0
100
AcDbLine
 10
267.8000000000001
 20
146.93
 30
0.0
 11
267.8
 21
152.23
 31
0.0
  0
ELLIPSE
  5
2749
330
1A
100
AcDbEntity
  8
0
100
AcDbEllipse
 10
270.1
 20
149.63
 30
0.0
 11
0.0
 21
2.399999999999977
 31
0.0
210
0.0
220
0.0
230
1.0
 40
0.5416666666666529
 41
2.478718829939674
 42
6.946059130829726
  0
LINE
  5
274A
330
1A
100
AcDbEntity
  8
0
100
AcDbLine
 10
269.3000000000001
 20
154.55
 30
0.0
 11
266.8000000000001
 21
154.55
 31
0.0
  0
LINE
  5
274B
330
1A
100
AcDbEntity
  8
0
100
AcDbLine
 10
274.8
 20
145.13
 30
0.0
 11
274.8
 21
146.2899999999999
 31
0.0
  0
LINE
  5
274C
330
1A
100
AcDbEntity
  8
0
100
AcDbLine
 10
274.8
 20
152.75
 30
0.0
 11
274.8
 21
153.9099999999999
 31
0.0
  0
LINE
  5
274D
330
1A
100
AcDbEntity
  8
0
100
AcDbLine
 10
266.8
 20
215.85
 30
0.0
 11
260.0
 21
215.85
 31
0.0
  0
LINE
  5
274F
330
1A
100
AcDbEntity
  8
0
100
AcDbLine
 10
274.8
 20
214.85
 30
0.0
 11
260.0
 21
214.85
 31
0.0
  0
LINE
  5
2768
330
1A
100
AcDbEntity
  8
0
100
AcDbLine
 10
274.8
 20
206.03
 30
0.0
 11
274.8
 21
207.25
 31
0.0
  0
ELLIPSE
  5
2769
330
1A
100
AcDbEntity
  8
0
100
AcDbEllipse
 10
270.1
 20
180.05
 30
0.0
 11
0.0
 21
2.399999999999977
 31
0.0
210
0.0
220
0.0
230
1.0
 40
0.5416666666666529
 41
2.478718829939674
 42
6.946059130829726
  0
LINE
  5
276A
330
1A
100
AcDbEntity
  8
0
100
AcDbLine
 10
269.3000000000001
 20
177.35
 30
0.0
 11
269.3000000000001
 21
182.65
 31
0.0
  0
LINE
  5
276B
330
1A
100
AcDbEntity
  8
0
100
AcDbLine
 10
267.8000000000001
 20
177.35
 30
0.0
 11
267.8
 21
182.65
 31
0.0
  0
LINE
  5
276C
330
1A
100
AcDbEntity
  8
0
100
AcDbLine
 10
266.8
 20
176.7699999999999
 30
0.0
 11
266.8
 21
183.17
 31
0.0
  0
LINE
  5
276D
330
1A
100
AcDbEntity
  8
0
100
AcDbLine
 10
274.8
 20
161.53
 30
0.0
 11
266.8
 21
161.5299999999999
 31
0.0
  0
LINE
  5
276E
330
1A
100
AcDbEntity
  8
0
100
AcDbLine
 10
274.8
 20
169.15
 30
0.0
 11
266.8
 21
169.15
 31
0.0
  0
LINE
  5
276F
330
1A
100
AcDbEntity
  8
0
100
AcDbLine
 10
274.8
 20
176.77
 30
0.0
 11
266.8
 21
176.77
 31
0.0
  0
LINE
  5
2770
330
1A
100
AcDbEntity
  8
0
100
AcDbLine
 10
274.8
 20
160.3099999999999
 30
0.0
 11
266.8
 21
160.3099999999999
 31
0.0
  0
LINE
  5
2771
330
1A
100
AcDbEntity
  8
0
100
AcDbLine
 10
274.8
 20
167.93
 30
0.0
 11
266.8
 21
167.93
 31
0.0
  0
LINE
  5
2772
330
1A
100
AcDbEntity
  8
0
100
AcDbLine
 10
274.8
 20
175.5499999999999
 30
0.0
 11
266.8
 21
175.55
 31
0.0
  0
ELLIPSE
  5
2773
330
1A
100
AcDbEntity
  8
0
100
AcDbEllipse
 10
270.1
 20
164.85
 30
0.0
 11
0.0
 21
2.399999999999977
 31
0.0
210
0.0
220
0.0
230
1.0
 40
0.5416666666666529
 41
2.478718829939674
 42
6.946059130829726
  0
ELLIPSE
  5
2774
330
1A
100
AcDbEntity
  8
0
100
AcDbEllipse
 10
270.1
 20
172.45
 30
0.0
 11
0.0
 21
2.399999999999977
 31
0.0
210
0.0
220
0.0
230
1.0
 40
0.5416666666666529
 41
2.478718829939674
 42
6.946059130829726
  0
LINE
  5
2775
330
1A
100
AcDbEntity
  8
0
100
AcDbLine
 10
266.8000000000001
 20
159.85
 30
0.0
 11
269.3000000000001
 21
159.85
 31
0.0
  0
LINE
  5
2776
330
1A
100
AcDbEntity
  8
0
100
AcDbLine
 10
266.8000000000001
 20
167.45
 30
0.0
 11
269.3000000000001
 21
167.45
 31
0.0
  0
LINE
  5
2777
330
1A
100
AcDbEntity
  8
0
100
AcDbLine
 10
269.3000000000001
 20
162.15
 30
0.0
 11
266.8000000000001
 21
162.15
 31
0.0
  0
LINE
  5
2778
330
1A
100
AcDbEntity
  8
0
100
AcDbLine
 10
267.8000000000001
 20
162.15
 30
0.0
 11
267.8
 21
167.45
 31
0.0
  0
LINE
  5
2779
330
1A
100
AcDbEntity
  8
0
100
AcDbLine
 10
269.3000000000001
 20
162.15
 30
0.0
 11
269.3000000000001
 21
167.45
 31
0.0
  0
LINE
  5
277A
330
1A
100
AcDbEntity
  8
0
100
AcDbLine
 10
269.3000000000001
 20
169.75
 30
0.0
 11
269.3000000000001
 21
175.05
 31
0.0
  0
LINE
  5
277B
330
1A
100
AcDbEntity
  8
0
100
AcDbLine
 10
267.8000000000001
 20
169.75
 30
0.0
 11
267.8
 21
175.05
 31
0.0
  0
LINE
  5
277C
330
1A
100
AcDbEntity
  8
0
100
AcDbLine
 10
266.8000000000001
 20
175.05
 30
0.0
 11
269.3000000000001
 21
175.05
 31
0.0
  0
LINE
  5
277D
330
1A
100
AcDbEntity
  8
0
100
AcDbLine
 10
269.3000000000001
 20
169.75
 30
0.0
 11
266.8000000000001
 21
169.7499999999999
 31
0.0
  0
LINE
  5
277E
330
1A
100
AcDbEntity
  8
0
100
AcDbLine
 10
269.3000000000001
 20
177.35
 30
0.0
 11
266.8000000000001
 21
177.35
 31
0.0
  0
LINE
  5
277F
330
1A
100
AcDbEntity
  8
0
100
AcDbLine
 10
266.8000000000001
 20
161.5299999999999
 30
0.0
 11
266.8
 21
167.93
 31
0.0
  0
LINE
  5
2780
330
1A
100
AcDbEntity
  8
0
100
AcDbLine
 10
266.8
 20
169.15
 30
0.0
 11
266.8
 21
175.55
 31
0.0
  0
LINE
  5
2781
330
1A
100
AcDbEntity
  8
0
100
AcDbLine
 10
274.8
 20
160.3099999999999
 30
0.0
 11
274.8
 21
161.5299999999999
 31
0.0
  0
LINE
  5
2782
330
1A
100
AcDbEntity
  8
0
100
AcDbLine
 10
274.8
 20
167.93
 30
0.0
 11
274.8
 21
169.15
 31
0.0
  0
LINE
  5
2783
330
1A
100
AcDbEntity
  8
0
100
AcDbLine
 10
274.8
 20
175.55
 30
0.0
 11
274.8
 21
176.77
 31
0.0
  0
LINE
  5
2784
330
1A
100
AcDbEntity
  8
0
100
AcDbLine
 10
274.8
 20
184.39
 30
0.0
 11
266.8
 21
184.39
 31
0.0
  0
LINE
  5
2785
330
1A
100
AcDbEntity
  8
0
100
AcDbLine
 10
274.8
 20
192.01
 30
0.0
 11
266.8
 21
192.01
 31
0.0
  0
LINE
  5
2786
330
1A
100
AcDbEntity
  8
0
100
AcDbLine
 10
274.8
 20
199.63
 30
0.0
 11
266.8
 21
199.63
 31
0.0
  0
LINE
  5
2787
330
1A
100
AcDbEntity
  8
0
100
AcDbLine
 10
274.8
 20
183.17
 30
0.0
 11
266.8
 21
183.17
 31
0.0
  0
LINE
  5
2788
330
1A
100
AcDbEntity
  8
0
100
AcDbLine
 10
274.8
 20
190.79
 30
0.0
 11
266.8
 21
190.79
 31
0.0
  0
LINE
  5
2789
330
1A
100
AcDbEntity
  8
0
100
AcDbLine
 10
274.8
 20
198.41
 30
0.0
 11
266.8
 21
198.41
 31
0.0
  0
LINE
  5
278A
330
1A
100
AcDbEntity
  8
0
100
AcDbLine
 10
274.8
 20
206.03
 30
0.0
 11
266.8
 21
206.03
 31
0.0
  0
ELLIPSE
  5
278B
330
1A
100
AcDbEntity
  8
0
100
AcDbEllipse
 10
270.1
 20
187.65
 30
0.0
 11
0.0
 21
2.399999999999977
 31
0.0
210
0.0
220
0.0
230
1.0
 40
0.5416666666666529
 41
2.478718829939674
 42
6.946059130829726
  0
ELLIPSE
  5
278C
330
1A
100
AcDbEntity
  8
0
100
AcDbEllipse
 10
270.1
 20
195.25
 30
0.0
 11
0.0
 21
2.399999999999977
 31
0.0
210
0.0
220
0.0
230
1.0
 40
0.5416666666666529
 41
2.478718829939674
 42
6.946059130829726
  0
ELLIPSE
  5
278D
330
1A
100
AcDbEntity
  8
0
100
AcDbEllipse
 10
270.1
 20
202.85
 30
0.0
 11
0.0
 21
2.399999999999977
 31
0.0
210
0.0
220
0.0
230
1.0
 40
0.5416666666666529
 41
2.478718829939674
 42
6.946059130829726
  0
LINE
  5
278E
330
1A
100
AcDbEntity
  8
0
100
AcDbLine
 10
266.8000000000001
 20
182.65
 30
0.0
 11
269.3000000000001
 21
182.65
 31
0.0
  0
LINE
  5
278F
330
1A
100
AcDbEntity
  8
0
100
AcDbLine
 10
269.3000000000001
 20
184.95
 30
0.0
 11
269.3000000000001
 21
190.25
 31
0.0
  0
LINE
  5
2790
330
1A
100
AcDbEntity
  8
0
100
AcDbLine
 10
267.8000000000001
 20
184.95
 30
0.0
 11
267.8
 21
190.25
 31
0.0
  0
LINE
  5
2791
330
1A
100
AcDbEntity
  8
0
100
AcDbLine
 10
266.8000000000001
 20
190.25
 30
0.0
 11
269.3000000000001
 21
190.25
 31
0.0
  0
LINE
  5
2792
330
1A
100
AcDbEntity
  8
0
100
AcDbLine
 10
269.3000000000001
 20
184.95
 30
0.0
 11
266.8000000000001
 21
184.95
 31
0.0
  0
LINE
  5
2793
330
1A
100
AcDbEntity
  8
0
100
AcDbLine
 10
269.3000000000001
 20
192.55
 30
0.0
 11
269.3000000000001
 21
197.85
 31
0.0
  0
LINE
  5
2794
330
1A
100
AcDbEntity
  8
0
100
AcDbLine
 10
267.8000000000001
 20
192.55
 30
0.0
 11
267.8
 21
197.85
 31
0.0
  0
LINE
  5
2795
330
1A
100
AcDbEntity
  8
0
100
AcDbLine
 10
269.3000000000001
 20
192.55
 30
0.0
 11
266.8000000000001
 21
192.55
 31
0.0
  0
LINE
  5
2796
330
1A
100
AcDbEntity
  8
0
100
AcDbLine
 10
266.8000000000001
 20
197.85
 30
0.0
 11
269.3000000000001
 21
197.85
 31
0.0
  0
LINE
  5
2797
330
1A
100
AcDbEntity
  8
0
100
AcDbLine
 10
269.3000000000001
 20
200.15
 30
0.0
 11
269.3000000000001
 21
205.45
 31
0.0
  0
LINE
  5
2798
330
1A
100
AcDbEntity
  8
0
100
AcDbLine
 10
267.8000000000001
 20
200.15
 30
0.0
 11
267.8
 21
205.45
 31
0.0
  0
LINE
  5
2799
330
1A
100
AcDbEntity
  8
0
100
AcDbLine
 10
269.3000000000001
 20
200.15
 30
0.0
 11
266.8000000000001
 21
200.15
 31
0.0
  0
LINE
  5
279A
330
1A
100
AcDbEntity
  8
0
100
AcDbLine
 10
266.8000000000001
 20
205.45
 30
0.0
 11
269.3000000000001
 21
205.45
 31
0.0
  0
LINE
  5
279B
330
1A
100
AcDbEntity
  8
0
100
AcDbLine
 10
266.8
 20
184.3899999999999
 30
0.0
 11
266.8
 21
190.79
 31
0.0
  0
LINE
  5
279C
330
1A
100
AcDbEntity
  8
0
100
AcDbLine
 10
266.8000000000001
 20
192.01
 30
0.0
 11
266.8000000000001
 21
198.41
 31
0.0
  0
LINE
  5
279D
330
1A
100
AcDbEntity
  8
0
100
AcDbLine
 10
266.8000000000001
 20
199.63
 30
0.0
 11
266.8
 21
206.03
 31
0.0
  0
LINE
  5
279E
330
1A
100
AcDbEntity
  8
0
100
AcDbLine
 10
274.8
 20
183.17
 30
0.0
 11
274.8
 21
184.39
 31
0.0
  0
LINE
  5
279F
330
1A
100
AcDbEntity
  8
0
100
AcDbLine
 10
274.8
 20
190.79
 30
0.0
 11
274.8
 21
192.01
 31
0.0
  0
LINE
  5
27A0
330
1A
100
AcDbEntity
  8
0
100
AcDbLine
 10
274.8
 20
198.4099999999999
 30
0.0
 11
274.8
 21
199.63
 31
0.0
  0
LINE
  5
27A1
330
1A
100
AcDbEntity
  8
0
100
AcDbLine
 10
274.8
 20
207.25
 30
0.0
 11
266.8
 21
207.25
 31
0.0
  0
LINE
  5
27A2
330
1A
100
AcDbEntity
  8
0
100
AcDbLine
 10
274.8
 20
213.65
 30
0.0
 11
266.8
 21
213.65
 31
0.0
  0
LINE
  5
27A3
330
1A
100
AcDbEntity
  8
0
100
AcDbLine
 10
266.8
 20
214.85
 30
0.0
 11
266.8
 21
215.85
 31
0.0
  0
ELLIPSE
  5
27A4
330
1A
100
AcDbEntity
  8
0
100
AcDbEllipse
 10
270.1
 20
210.45
 30
0.0
 11
0.0
 21
2.399999999999977
 31
0.0
210
0.0
220
0.0
230
1.0
 40
0.5416666666666529
 41
2.478718829939674
 42
6.946059130829726
  0
LINE
  5
27A5
330
1A
100
AcDbEntity
  8
0
100
AcDbLine
 10
266.8000000000001
 20
213.05
 30
0.0
 11
269.3000000000001
 21
213.05
 31
0.0
  0
LINE
  5
27A6
330
1A
100
AcDbEntity
  8
0
100
AcDbLine
 10
269.3000000000001
 20
207.75
 30
0.0
 11
266.8000000000001
 21
207.75
 31
0.0
  0
LINE
  5
27A7
330
1A
100
AcDbEntity
  8
0
100
AcDbLine
 10
269.3000000000001
 20
207.75
 30
0.0
 11
269.3000000000001
 21
213.05
 31
0.0
  0
LINE
  5
27A8
330
1A
100
AcDbEntity
  8
0
100
AcDbLine
 10
267.8000000000001
 20
207.75
 30
0.0
 11
267.8
 21
213.05
 31
0.0
  0
LINE
  5
27A9
330
1A
100
AcDbEntity
  8
0
100
AcDbLine
 10
266.8
 20
207.25
 30
0.0
 11
266.8
 21
213.65
 31
0.0
  0
LINE
  5
27AA
330
1A
100
AcDbEntity
  8
0
100
AcDbLine
 10
274.8
 20
213.65
 30
0.0
 11
274.8
 21
214.85
 31
0.0
  0
LINE
  5
28E2
330
1A
100
AcDbEntity
  8
SUNPOU
100
AcDbLine
 10
276.2
 20
107.1
 30
0.0
 11
276.2
 21
97.10000000000002
 31
0.0
  0
LINE
  5
28E3
330
1A
100
AcDbEntity
  8
SUNPOU
100
AcDbLine
 10
276.6
 20
107.1
 30
0.0
 11
276.6
 21
97.10000000000002
 31
0.0
  0
LINE
  5
28E4
330
1A
100
AcDbEntity
  8
0
100
AcDbLine
 10
265.7999999999999
 20
106.6
 30
0.0
 11
265.7999999999999
 21
97.60000000000003
 31
0.0
  0
LINE
  5
28E5
330
1A
100
AcDbEntity
  8
0
100
AcDbLine
 10
260.0
 20
108.1
 30
0.0
 11
259.9999999999999
 21
97.5
 31
0.0
  0
LINE
  5
28E6
330
1A
100
AcDbEntity
  8
0
100
AcDbLine
 10
274.8
 20
108.1
 30
0.0
 11
274.8
 21
96.10000000000002
 31
0.0
  0
LINE
  5
28E9
330
1A
100
AcDbEntity
  8
0
100
AcDbLine
 10
261.8
 20
108.1
 30
0.0
 11
263.3
 21
106.6
 31
0.0
  0
ARC
  5
28EA
330
1A
100
AcDbEntity
  8
SUNPOU
100
AcDbCircle
 10
274.6999999999999
 20
107.1
 30
0.0
 40
1.5
100
AcDbArc
 50
0.0
 51
172.0605795160218
  0
ARC
  5
28EB
330
1A
100
AcDbEntity
  8
SUNPOU
100
AcDbCircle
 10
274.6999999999999
 20
107.1
 30
0.0
 40
1.9
100
AcDbArc
 50
0.0
 51
180.0
  0
LINE
  5
28EC
330
1A
100
AcDbEntity
  8
0
100
AcDbLine
 10
272.8
 20
107.1
 30
0.0
 11
274.8
 21
108.1
 31
0.0
  0
LINE
  5
28ED
330
1A
100
AcDbEntity
  8
0
100
AcDbLine
 10
272.8
 20
108.1
 30
0.0
 11
272.8
 21
107.1
 31
0.0
  0
LINE
  5
28EE
330
1A
100
AcDbEntity
  8
0
100
AcDbLine
 10
260.0
 20
108.1
 30
0.0
 11
272.8
 21
108.1
 31
0.0
  0
LINE
  5
28EF
330
1A
100
AcDbEntity
  8
0
100
AcDbLine
 10
263.3
 20
106.6
 30
0.0
 11
265.7999999999999
 21
106.6
 31
0.0
  0
LINE
  5
28F1
330
1A
100
AcDbEntity
  8
0
100
AcDbLine
 10
261.7999999999999
 20
96.10000000000002
 30
0.0
 11
263.3
 21
97.60000000000003
 31
0.0
  0
LINE
  5
28F2
330
1A
100
AcDbEntity
  8
0
100
AcDbLine
 10
263.3
 20
97.60000000000003
 30
0.0
 11
265.7999999999999
 21
97.60000000000003
 31
0.0
  0
ARC
  5
28F3
330
1A
100
AcDbEntity
  8
SUNPOU
100
AcDbCircle
 10
274.6999999999999
 20
97.10000000000002
 30
0.0
 40
1.5
100
AcDbArc
 50
187.9394204839792
 51
0.0000000000010051
  0
ARC
  5
28F4
330
1A
100
AcDbEntity
  8
SUNPOU
100
AcDbCircle
 10
274.6999999999999
 20
97.10000000000002
 30
0.0
 40
1.9
100
AcDbArc
 50
179.9999999999992
 51
0.0000000000017175
  0
LINE
  5
28F5
330
1A
100
AcDbEntity
  8
0
100
AcDbLine
 10
272.8
 20
97.10000000000002
 30
0.0
 11
272.8
 21
96.10000000000002
 31
0.0
  0
LINE
  5
28F6
330
1A
100
AcDbEntity
  8
0
100
AcDbLine
 10
272.8
 20
97.10000000000002
 30
0.0
 11
274.8
 21
96.10000000000002
 31
0.0
  0
LINE
  5
28F7
330
1A
100
AcDbEntity
  8
0
100
AcDbLine
 10
260.8
 20
96.10000000000002
 30
0.0
 11
272.8
 21
96.10000000000002
 31
0.0
  0
POINT
  5
28FE
330
1A
100
AcDbEntity
  8
SUNPOU
  6
ByBlock
 62
     0
100
AcDbPoint
 10
276.6
 20
71.69999999999999
 30
0.0
  0
POINT
  5
28FF
330
1A
100
AcDbEntity
  8
DEFPOINTS
  6
ByBlock
 62
     0
100
AcDbPoint
 10
305.0
 20
68.5
 30
0.0
  0
LINE
  5
2901
330
1A
100
AcDbEntity
  8
SUNPOU
100
AcDbLine
 10
276.2
 20
71.69999999999999
 30
0.0
 11
276.2
 21
81.69999999999999
 31
0.0
  0
LINE
  5
2902
330
1A
100
AcDbEntity
  8
SUNPOU
100
AcDbLine
 10
276.6
 20
71.69999999999999
 30
0.0
 11
276.6
 21
81.69999999999999
 31
0.0
  0
LINE
  5
2903
330
1A
100
AcDbEntity
  8
0
100
AcDbLine
 10
265.7999999999999
 20
72.19999999999998
 30
0.0
 11
265.7999999999999
 21
81.19999999999999
 31
0.0
  0
LINE
  5
2904
330
1A
100
AcDbEntity
  8
0
100
AcDbLine
 10
260.0
 20
70.69999999999999
 30
0.0
 11
260.0
 21
82.5
 31
0.0
  0
LINE
  5
2905
330
1A
100
AcDbEntity
  8
0
100
AcDbLine
 10
274.8
 20
70.69999999999999
 30
0.0
 11
274.8
 21
82.69999999999999
 31
0.0
  0
LINE
  5
2908
330
1A
100
AcDbEntity
  8
0
100
AcDbLine
 10
261.8
 20
70.69999999999999
 30
0.0
 11
263.3
 21
72.19999999999998
 31
0.0
  0
ARC
  5
2909
330
1A
100
AcDbEntity
  8
SUNPOU
100
AcDbCircle
 10
274.7
 20
71.69999999999999
 30
0.0
 40
1.5
100
AcDbArc
 50
187.9394204839782
 51
0.0
  0
ARC
  5
290A
330
1A
100
AcDbEntity
  8
SUNPOU
100
AcDbCircle
 10
274.7
 20
71.69999999999999
 30
0.0
 40
1.9
100
AcDbArc
 50
180.0
 51
0.0
  0
LINE
  5
290B
330
1A
100
AcDbEntity
  8
0
100
AcDbLine
 10
272.8
 20
71.69999999999999
 30
0.0
 11
274.8
 21
70.69999999999999
 31
0.0
  0
LINE
  5
290C
330
1A
100
AcDbEntity
  8
0
100
AcDbLine
 10
272.8
 20
70.69999999999999
 30
0.0
 11
272.8
 21
71.69999999999999
 31
0.0
  0
LINE
  5
290D
330
1A
100
AcDbEntity
  8
0
100
AcDbLine
 10
260.0
 20
70.7
 30
0.0
 11
272.8
 21
70.69999999999999
 31
0.0
  0
LINE
  5
290E
330
1A
100
AcDbEntity
  8
0
100
AcDbLine
 10
263.3
 20
72.19999999999998
 30
0.0
 11
265.7999999999999
 21
72.19999999999998
 31
0.0
  0
LINE
  5
2910
330
1A
100
AcDbEntity
  8
0
100
AcDbLine
 10
262.0
 20
82.5
 30
0.0
 11
263.3
 21
81.19999999999999
 31
0.0
  0
LINE
  5
2911
330
1A
100
AcDbEntity
  8
0
100
AcDbLine
 10
263.3
 20
81.19999999999999
 30
0.0
 11
265.7999999999999
 21
81.19999999999999
 31
0.0
  0
ARC
  5
2912
330
1A
100
AcDbEntity
  8
SUNPOU
100
AcDbCircle
 10
274.7
 20
81.69999999999999
 30
0.0
 40
1.5
100
AcDbArc
 50
359.9999999999989
 51
172.0605795160207
  0
ARC
  5
2913
330
1A
100
AcDbEntity
  8
SUNPOU
100
AcDbCircle
 10
274.7
 20
81.69999999999999
 30
0.0
 40
1.9
100
AcDbArc
 50
359.9999999999983
 51
180.0000000000009
  0
LINE
  5
2914
330
1A
100
AcDbEntity
  8
0
100
AcDbLine
 10
272.8
 20
81.69999999999999
 30
0.0
 11
272.8
 21
82.69999999999999
 31
0.0
  0
LINE
  5
2915
330
1A
100
AcDbEntity
  8
0
100
AcDbLine
 10
272.8
 20
81.69999999999999
 30
0.0
 11
274.8
 21
82.69999999999999
 31
0.0
  0
LINE
  5
2916
330
1A
100
AcDbEntity
  8
0
100
AcDbLine
 10
262.0
 20
82.69999999999999
 30
0.0
 11
272.8
 21
82.69999999999999
 31
0.0
  0
LINE
  5
2918
330
1A
100
AcDbEntity
  8
0
100
AcDbLine
 10
260.0
 20
75.60000000000002
 30
0.0
 11
260.0
 21
74.0
 31
0.0
  0
DIMENSION
  5
293B
330
1A
100
AcDbEntity
  8
SUNPOU
100
AcDbDimension
  2
*D7
 10
276.6
 20
120.0
 30
0.0
 11
268.2999999999999
 21
122.0
 31
0.0
 70
    32
 71
     5
 42
-1.0
  3
STANDARD
100
AcDbAlignedDimension
 13
260.0
 23
111.5
 33
0.0
 14
276.6
 24
107.1
 34
0.0
100
AcDbRotatedDimension
1001
ACAD
1000
DSTYLE
1002
{
1070
   140
1040
3.0
1070
    74
1070
     0
1070
    73
1070
     0
1070
   272
1070
     0
1070
    77
1070
     1
1070
   173
1070
     1
1070
   147
1040
0.5
1070
    42
1040
0.5
1070
    44
1040
0.5
1070
    43
1040
10.0
1070
   271
1070
     0
1070
   141
1040
0.0
1070
     7
1000
_OPEN
1070
     6
1000
_OPEN
1070
    41
1040
2.5
1002
}
  0
LINE
  5
293E
330
1A
100
AcDbEntity
  8
0
100
AcDbLine
 10
331.9040133308281
 20
214.8682052721356
 30
0.0
 11
343.904013330828
 21
214.8682052721356
 31
0.0
  0
LINE
  5
293F
330
1A
100
AcDbEntity
  8
0
100
AcDbLine
 10
331.9040133308281
 20
215.8682052721356
 30
0.0
 11
343.904013330828
 21
215.8682052721356
 31
0.0
  0
LINE
  5
2940
330
1A
100
AcDbEntity
  8
0
100
AcDbLine
 10
340.9000000000002
 20
213.4469871129676
 30
0.0
 11
334.9000000000001
 21
213.4469871129676
 31
0.0
  0
LINE
  5
2941
330
1A
100
AcDbEntity
  8
0
100
AcDbLine
 10
340.936839728433
 20
205.8540379472562
 30
0.0
 11
334.936839728433
 21
205.8540379472562
 31
0.0
  0
LINE
  5
2942
330
1A
100
AcDbEntity
  8
0
100
AcDbLine
 10
334.9000000000001
 20
207.4469871129676
 30
0.0
 11
340.9000000000001
 21
207.4469871129676
 31
0.0
  0
LINE
  5
2943
330
1A
100
AcDbEntity
  8
0
100
AcDbLine
 10
331.9040133308281
 20
213.6482052721356
 30
0.0
 11
343.904013330828
 21
213.6482052721356
 31
0.0
  0
LINE
  5
2944
330
1A
100
AcDbEntity
  8
0
100
AcDbLine
 10
331.904013330828
 20
206.0282052721356
 30
0.0
 11
343.904013330828
 21
206.0282052721356
 31
0.0
  0
LINE
  5
2945
330
1A
100
AcDbEntity
  8
0
100
AcDbLine
 10
331.904013330828
 20
207.2482052721356
 30
0.0
 11
343.904013330828
 21
207.2482052721356
 31
0.0
  0
LINE
  5
2946
330
1A
100
AcDbEntity
  8
0
100
AcDbLine
 10
331.904013330828
 20
190.7882052721356
 30
0.0
 11
343.904013330828
 21
190.7882052721356
 31
0.0
  0
LINE
  5
2947
330
1A
100
AcDbEntity
  8
0
100
AcDbLine
 10
340.8631602715668
 20
198.2242296028163
 30
0.0
 11
334.8631602715668
 21
198.2242296028163
 31
0.0
  0
LINE
  5
2948
330
1A
100
AcDbEntity
  8
0
100
AcDbLine
 10
334.8631602715668
 20
192.2242296028163
 30
0.0
 11
340.8631602715668
 21
192.2242296028163
 31
0.0
  0
LINE
  5
2949
330
1A
100
AcDbEntity
  8
0
100
AcDbLine
 10
334.936839728433
 20
199.8540379472561
 30
0.0
 11
340.936839728433
 21
199.8540379472561
 31
0.0
  0
LINE
  5
294A
330
1A
100
AcDbEntity
  8
0
100
AcDbLine
 10
331.904013330828
 20
198.4082052721356
 30
0.0
 11
343.904013330828
 21
198.4082052721356
 31
0.0
  0
LINE
  5
294B
330
1A
100
AcDbEntity
  8
0
100
AcDbLine
 10
331.904013330828
 20
192.0082052721356
 30
0.0
 11
343.904013330828
 21
192.0082052721356
 31
0.0
  0
LINE
  5
294C
330
1A
100
AcDbEntity
  8
0
100
AcDbLine
 10
331.904013330828
 20
199.6282052721356
 30
0.0
 11
343.904013330828
 21
199.6282052721356
 31
0.0
  0
LINE
  5
294D
330
1A
100
AcDbEntity
  8
0
100
AcDbLine
 10
340.9
 20
190.5575620796477
 30
0.0
 11
334.9
 21
190.5575620796477
 31
0.0
  0
LINE
  5
294E
330
1A
100
AcDbEntity
  8
0
100
AcDbLine
 10
334.9
 20
184.5575620796477
 30
0.0
 11
340.9
 21
184.5575620796477
 31
0.0
  0
LINE
  5
294F
330
1A
100
AcDbEntity
  8
0
100
AcDbLine
 10
334.936839728433
 20
206.0540379472561
 30
0.0
 11
334.936839728433
 21
199.6540379472562
 31
0.0
  0
LINE
  5
2950
330
1A
100
AcDbEntity
  8
0
100
AcDbLine
 10
333.436839728433
 20
206.0540379472561
 30
0.0
 11
333.436839728433
 21
199.6540379472562
 31
0.0
  0
LINE
  5
2951
330
1A
100
AcDbEntity
  8
0
100
AcDbLine
 10
333.936839728433
 20
204.1040379472562
 30
0.0
 11
333.936839728433
 21
201.6040379472562
 31
0.0
  0
CIRCLE
  5
2952
330
1A
100
AcDbEntity
  8
0
100
AcDbCircle
 10
337.936839728433
 20
202.8540379472562
 30
0.0
 40
2.75
  0
LINE
  5
2953
330
1A
100
AcDbEntity
  8
0
100
AcDbLine
 10
336.4368397284331
 20
204.3540379472561
 30
0.0
 11
339.436839728433
 21
201.3540379472562
 31
0.0
  0
LINE
  5
2954
330
1A
100
AcDbEntity
  8
0
100
AcDbLine
 10
336.4368397284331
 20
201.3540379472562
 30
0.0
 11
339.436839728433
 21
204.3540379472561
 31
0.0
  0
LINE
  5
2955
330
1A
100
AcDbEntity
  8
0
100
AcDbLine
 10
334.7
 20
190.7575620796476
 30
0.0
 11
334.7
 21
188.8075620796477
 31
0.0
  0
CIRCLE
  5
2956
330
1A
100
AcDbEntity
  8
0
100
AcDbCircle
 10
337.9
 20
187.5575620796477
 30
0.0
 40
2.75
  0
LINE
  5
2957
330
1A
100
AcDbEntity
  8
0
100
AcDbLine
 10
336.4
 20
189.0575620796477
 30
0.0
 11
339.4
 21
186.0575620796477
 31
0.0
  0
LINE
  5
2958
330
1A
100
AcDbEntity
  8
0
100
AcDbLine
 10
336.4
 20
186.0575620796477
 30
0.0
 11
339.4
 21
189.0575620796477
 31
0.0
  0
LINE
  5
2959
330
1A
100
AcDbEntity
  8
0
100
AcDbLine
 10
333.9
 20
188.8075620796477
 30
0.0
 11
334.7
 21
188.8075620796477
 31
0.0
  0
LINE
  5
295A
330
1A
100
AcDbEntity
  8
0
100
AcDbLine
 10
333.9
 20
186.3075620796477
 30
0.0
 11
334.7
 21
186.3075620796477
 31
0.0
  0
LINE
  5
295B
330
1A
100
AcDbEntity
  8
0
100
AcDbLine
 10
333.9
 20
188.8075620796477
 30
0.0
 11
333.9
 21
186.3075620796477
 31
0.0
  0
LINE
  5
295C
330
1A
100
AcDbEntity
  8
0
100
AcDbLine
 10
334.8631602715668
 20
198.4242296028162
 30
0.0
 11
334.8631602715668
 21
192.0242296028163
 31
0.0
  0
LINE
  5
295D
330
1A
100
AcDbEntity
  8
0
100
AcDbLine
 10
333.3631602715668
 20
198.4242296028162
 30
0.0
 11
333.3631602715668
 21
192.0242296028163
 31
0.0
  0
LINE
  5
295E
330
1A
100
AcDbEntity
  8
0
100
AcDbLine
 10
333.8631602715668
 20
196.4742296028163
 30
0.0
 11
333.8631602715668
 21
193.9742296028163
 31
0.0
  0
CIRCLE
  5
295F
330
1A
100
AcDbEntity
  8
0
100
AcDbCircle
 10
337.8631602715668
 20
195.2242296028163
 30
0.0
 40
2.75
  0
LINE
  5
2960
330
1A
100
AcDbEntity
  8
0
100
AcDbLine
 10
336.3631602715668
 20
196.7242296028162
 30
0.0
 11
339.3631602715668
 21
193.7242296028163
 31
0.0
  0
LINE
  5
2961
330
1A
100
AcDbEntity
  8
0
100
AcDbLine
 10
336.3631602715668
 20
193.7242296028163
 30
0.0
 11
339.3631602715668
 21
196.7242296028162
 31
0.0
  0
LINE
  5
2962
330
1A
100
AcDbEntity
  8
0
100
AcDbLine
 10
334.6631602715668
 20
193.9742296028163
 30
0.0
 11
334.6631602715668
 21
192.0242296028163
 31
0.0
  0
LINE
  5
2963
330
1A
100
AcDbEntity
  8
0
100
AcDbLine
 10
333.8631602715668
 20
193.9742296028163
 30
0.0
 11
334.6631602715668
 21
193.9742296028163
 31
0.0
  0
LINE
  5
2964
330
1A
100
AcDbEntity
  8
0
100
AcDbLine
 10
334.6631602715668
 20
198.4242296028162
 30
0.0
 11
334.6631602715668
 21
196.4742296028163
 31
0.0
  0
LINE
  5
2965
330
1A
100
AcDbEntity
  8
0
100
AcDbLine
 10
333.8631602715668
 20
196.4742296028163
 30
0.0
 11
334.6631602715668
 21
196.4742296028163
 31
0.0
  0
LINE
  5
2966
330
1A
100
AcDbEntity
  8
0
100
AcDbLine
 10
334.7368397284331
 20
201.6040379472562
 30
0.0
 11
334.7368397284331
 21
199.6540379472562
 31
0.0
  0
LINE
  5
2967
330
1A
100
AcDbEntity
  8
0
100
AcDbLine
 10
333.936839728433
 20
201.6040379472562
 30
0.0
 11
334.7368397284331
 21
201.6040379472562
 31
0.0
  0
LINE
  5
2968
330
1A
100
AcDbEntity
  8
0
100
AcDbLine
 10
333.4000000000001
 20
213.6469871129675
 30
0.0
 11
333.4000000000001
 21
207.2469871129676
 31
0.0
  0
LINE
  5
2969
330
1A
100
AcDbEntity
  8
0
100
AcDbLine
 10
334.9000000000001
 20
213.6469871129675
 30
0.0
 11
334.9000000000001
 21
207.2469871129676
 31
0.0
  0
LINE
  5
296A
330
1A
100
AcDbEntity
  8
0
100
AcDbLine
 10
334.7000000000001
 20
209.1969871129676
 30
0.0
 11
334.7000000000001
 21
207.2469871129676
 31
0.0
  0
CIRCLE
  5
296B
330
1A
100
AcDbEntity
  8
0
100
AcDbCircle
 10
337.9000000000001
 20
210.4469871129675
 30
0.0
 40
2.75
  0
LINE
  5
296C
330
1A
100
AcDbEntity
  8
0
100
AcDbLine
 10
334.7368397284331
 20
206.0540379472561
 30
0.0
 11
334.7368397284331
 21
204.1040379472562
 31
0.0
  0
LINE
  5
296D
330
1A
100
AcDbEntity
  8
0
100
AcDbLine
 10
333.936839728433
 20
204.1040379472562
 30
0.0
 11
334.7368397284331
 21
204.1040379472562
 31
0.0
  0
LINE
  5
296E
330
1A
100
AcDbEntity
  8
0
100
AcDbLine
 10
336.4000000000001
 20
208.9469871129675
 30
0.0
 11
339.4000000000001
 21
211.9469871129675
 31
0.0
  0
LINE
  5
296F
330
1A
100
AcDbEntity
  8
0
100
AcDbLine
 10
336.4000000000002
 20
211.9469871129675
 30
0.0
 11
339.4000000000001
 21
208.9469871129675
 31
0.0
  0
LINE
  5
2970
330
1A
100
AcDbEntity
  8
0
100
AcDbLine
 10
333.9000000000002
 20
211.6969871129676
 30
0.0
 11
333.9000000000001
 21
209.1969871129676
 31
0.0
  0
LINE
  5
2971
330
1A
100
AcDbEntity
  8
0
100
AcDbLine
 10
333.9000000000001
 20
209.1969871129676
 30
0.0
 11
334.7000000000001
 21
209.1969871129676
 31
0.0
  0
LINE
  5
2972
330
1A
100
AcDbEntity
  8
0
100
AcDbLine
 10
333.9000000000002
 20
211.6969871129676
 30
0.0
 11
334.7000000000002
 21
211.6969871129676
 31
0.0
  0
LINE
  5
2973
330
1A
100
AcDbEntity
  8
0
100
AcDbLine
 10
334.7000000000002
 20
213.6469871129675
 30
0.0
 11
334.7000000000002
 21
211.6969871129676
 31
0.0
  0
LINE
  5
2974
330
1A
100
AcDbEntity
  8
0
100
AcDbLine
 10
331.9040133308281
 20
214.8682052721356
 30
0.0
 11
331.9040133308281
 21
215.8682052721356
 31
0.0
  0
LINE
  5
2975
330
1A
100
AcDbEntity
  8
0
100
AcDbLine
 10
340.936839728433
 20
199.6540379472562
 30
0.0
 11
340.936839728433
 21
206.0540379472561
 31
0.0
  0
LINE
  5
2976
330
1A
100
AcDbEntity
  8
0
100
AcDbLine
 10
342.436839728433
 20
206.0540379472561
 30
0.0
 11
342.436839728433
 21
199.6540379472562
 31
0.0
  0
LINE
  5
2977
330
1A
100
AcDbEntity
  8
0
100
AcDbLine
 10
340.8631602715668
 20
192.0242296028163
 30
0.0
 11
340.8631602715668
 21
198.4242296028162
 31
0.0
  0
LINE
  5
2978
330
1A
100
AcDbEntity
  8
0
100
AcDbLine
 10
342.3631602715668
 20
198.4242296028162
 30
0.0
 11
342.3631602715668
 21
192.0242296028163
 31
0.0
  0
LINE
  5
2979
330
1A
100
AcDbEntity
  8
0
100
AcDbLine
 10
342.4000000000002
 20
213.6469871129675
 30
0.0
 11
342.4000000000001
 21
207.2469871129676
 31
0.0
  0
LINE
  5
297A
330
1A
100
AcDbEntity
  8
0
100
AcDbLine
 10
340.9000000000001
 20
207.2469871129676
 30
0.0
 11
340.9000000000002
 21
213.6469871129675
 31
0.0
  0
LINE
  5
297B
330
1A
100
AcDbEntity
  8
0
100
AcDbLine
 10
343.904013330828
 20
214.8682052721356
 30
0.0
 11
343.904013330828
 21
215.8682052721356
 31
0.0
  0
LINE
  5
297C
330
1A
100
AcDbEntity
  8
0
100
AcDbLine
 10
334.9
 20
190.7575620796476
 30
0.0
 11
334.9
 21
184.3575620796477
 31
0.0
  0
LINE
  5
297D
330
1A
100
AcDbEntity
  8
0
100
AcDbLine
 10
334.7
 20
186.3075620796477
 30
0.0
 11
334.7
 21
184.3575620796477
 31
0.0
  0
LINE
  5
297E
330
1A
100
AcDbEntity
  8
0
100
AcDbLine
 10
340.9
 20
184.3575620796477
 30
0.0
 11
340.9
 21
190.7575620796476
 31
0.0
  0
LINE
  5
297F
330
1A
100
AcDbEntity
  8
0
100
AcDbLine
 10
342.4
 20
190.7575620796476
 30
0.0
 11
342.4
 21
184.3575620796477
 31
0.0
  0
LINE
  5
2981
330
1A
100
AcDbEntity
  8
0
100
AcDbLine
 10
333.4
 20
190.7575620796476
 30
0.0
 11
333.4
 21
184.3575620796477
 31
0.0
  0
LINE
  5
2983
330
1A
100
AcDbEntity
  8
0
100
AcDbLine
 10
357.5
 20
142.5
 30
0.0
 11
357.5
 21
132.0
 31
0.0
  0
LINE
  5
298A
330
1A
100
AcDbEntity
  8
0
100
AcDbLine
 10
357.5
 20
217.5
 30
0.0
 11
357.0
 21
217.0
 31
0.0
  0
LINE
  5
298C
330
1A
100
AcDbEntity
  8
0
100
AcDbLine
 10
342.5
 20
217.5
 30
0.0
 11
343.0
 21
217.0
 31
0.0
  0
LINE
  5
298D
330
1A
100
AcDbEntity
  8
0
100
AcDbLine
 10
344.4040133308281
 20
216.5
 30
0.0
 11
328.5
 21
216.5
 31
0.0
  0
LINE
  5
298E
330
1A
100
AcDbEntity
  8
0
100
AcDbLine
 10
344.404013330828
 20
143.5
 30
0.0
 11
328.5000000000001
 21
143.5
 31
0.0
  0
LINE
  5
298F
330
1A
100
AcDbEntity
  8
0
100
AcDbLine
 10
342.5
 20
142.5
 30
0.0
 11
343.0
 21
143.0
 31
0.0
  0
LINE
  5
2990
330
1A
100
AcDbEntity
  8
0
100
AcDbLine
 10
357.0
 20
143.0
 30
0.0
 11
357.5
 21
142.5
 31
0.0
  0
LINE
  5
2991
330
1A
100
AcDbEntity
  8
0
100
AcDbLine
 10
262.0
 20
143.0
 30
0.0
 11
260.0
 21
143.0
 31
0.0
  0
LINE
  5
2992
330
1A
100
AcDbEntity
  8
0
100
AcDbLine
 10
262.0
 20
217.0
 30
0.0
 11
260.0
 21
216.9999999999999
 31
0.0
  0
LINE
  5
2993
330
1A
100
AcDbEntity
  8
0
100
AcDbLine
 10
262.0
 20
143.0
 30
0.0
 11
262.0
 21
141.549193338483
 31
0.0
  0
LINE
  5
299C
330
1A
100
AcDbEntity
  8
SUNPOU
100
AcDbLine
 10
276.6
 20
214.85
 30
0.0
 11
276.6
 21
145.1299999999999
 31
0.0
  0
LINE
  5
299D
330
1A
100
AcDbEntity
  8
SUNPOU
100
AcDbLine
 10
272.8
 20
214.85
 30
0.0
 11
272.8
 21
145.1299999999999
 31
0.0
  0
LINE
  5
299E
330
1A
100
AcDbEntity
  8
SUNPOU
100
AcDbLine
 10
276.6
 20
214.85
 30
0.0
 11
272.8
 21
214.85
 31
0.0
  0
LINE
  5
299F
330
1A
100
AcDbEntity
  8
SUNPOU
100
AcDbLine
 10
276.6
 20
145.1299999999999
 30
0.0
 11
272.8
 21
145.1299999999999
 31
0.0
  0
LINE
  5
29C7
330
1A
100
AcDbEntity
  8
0
100
AcDbLine
 10
344.4040133308281
 20
216.5
 30
0.0
 11
344.404013330828
 21
143.5
 31
0.0
  0
LINE
  5
29C8
330
1A
100
AcDbEntity
  8
0
100
AcDbLine
 10
356.8000000000001
 20
216.5
 30
0.0
 11
356.8
 21
143.5
 31
0.0
  0
TEXT
  5
2C23
330
1A
100
AcDbEntity
  8
0
100
AcDbText
 10
71.0
 20
139.5
 30
0.0
 40
3.0
  1
LO
 50
270.0
 41
0.8
100
AcDbText
  0
TEXT
  5
2C24
330
1A
100
AcDbEntity
  8
0
100
AcDbText
 10
87.0
 20
139.5
 30
0.0
 40
3.0
  1
HI
 50
270.0
100
AcDbText
  0
TEXT
  5
2CCC
330
1A
100
AcDbEntity
  8
0
100
AcDbText
 10
98.50000000000001
 20
159.5
 30
0.0
 40
3.0
  1
DLS-5029
 50
270.0
100
AcDbText
  0
TEXT
  5
2CCD
330
1A
100
AcDbEntity
  8
0
100
AcDbText
 10
58.5
 20
162.0
 30
0.0
 40
3.0
  1
TOYO SOKKI
 50
270.0
100
AcDbText
  0
LINE
  5
2CF3
330
1A
100
AcDbEntity
  8
0
100
AcDbLine
 10
95.50000000000002
 20
219.0
 30
0.0
 11
71.50000000000002
 21
219.0
 31
0.0
  0
LINE
  5
2CF4
330
1A
100
AcDbEntity
  8
0
100
AcDbLine
 10
71.50000000000002
 20
173.5
 30
0.0
 11
95.50000000000002
 21
173.5
 31
0.0
  0
INSERT
  5
2CFD
330
1A
100
AcDbEntity
  8
0
100
AcDbBlockReference
  2
A$C2AB22391
 10
74.09999965635098
 20
194.0200000285846
 30
0.0
  0
LINE
  5
2CFE
330
1A
100
AcDbEntity
  8
0
100
AcDbLine
 10
71.50000000000002
 20
219.0
 30
0.0
 11
71.50000000000002
 21
173.5
 31
0.0
  0
TEXT
  5
2D00
330
1A
100
AcDbEntity
  8
0
100
AcDbText
 10
59.5
 20
197.0
 30
0.0
 40
2.0
  1
FUNC
 50
270.0
100
AcDbText
  0
CIRCLE
  5
2D01
330
1A
100
AcDbEntity
  8
0
100
AcDbCircle
 10
64.8
 20
193.5
 30
0.0
 40
1.5
  0
TEXT
  5
2D04
330
1A
100
AcDbEntity
  8
0
100
AcDbText
 10
65.5
 20
180.0
 30
0.0
 40
4.0
  1
kg
 50
270.0
100
AcDbText
  0
INSERT
  5
2D07
330
1A
100
AcDbEntity
  8
0
100
AcDbBlockReference
  2
A$C2AB22391
 10
74.09999965635098
 20
173.7000000285847
 30
0.0
  0
INSERT
  5
2D09
330
1A
100
AcDbEntity
  8
0
100
AcDbBlockReference
  2
A$C2AB22391
 10
74.09999965635098
 20
183.8600000285847
 30
0.0
  0
LINE
  5
2D0A
330
1A
100
AcDbEntity
  8
0
100
AcDbLine
 10
81.60000000000001
 20
213.78
 30
0.0
 11
81.60000000000001
 21
218.78
 31
0.0
  0
LINE
  5
2D0B
330
1A
100
AcDbEntity
  8
0
100
AcDbLine
 10
79.60000000000002
 20
213.78
 30
0.0
 11
79.60000000000002
 21
218.78
 31
0.0
  0
TEXT
  5
2D0C
330
1A
100
AcDbEntity
  8
0
100
AcDbText
 10
59.5
 20
219.5
 30
0.0
 40
2.0
  1
ZERO
 50
270.0
100
AcDbText
  0
TEXT
  5
2D0F
330
1A
100
AcDbEntity
  8
0
100
AcDbText
 10
59.5
 20
208.0
 30
0.0
 40
2.0
  1
SPAN
 50
270.0
100
AcDbText
  0
CIRCLE
  5
2D10
330
1A
100
AcDbEntity
  8
0
100
AcDbCircle
 10
64.8
 20
204.5
 30
0.0
 40
1.5
  0
CIRCLE
  5
2D11
330
1A
100
AcDbEntity
  8
0
100
AcDbCircle
 10
64.8
 20
215.5
 30
0.0
 40
1.5
  0
LINE
  5
2D12
330
1A
100
AcDbEntity
  8
0
100
AcDbLine
 10
59.29999999999999
 20
215.7
 30
0.0
 11
60.09999999999998
 21
215.7
 31
0.0
  0
INSERT
  5
2D14
330
1A
100
AcDbEntity
  8
0
100
AcDbBlockReference
  2
A$C2AB22391
 10
74.09999965635098
 20
204.1800000285847
 30
0.0
  0
LINE
  5
2D15
330
1A
100
AcDbEntity
  8
0
100
AcDbLine
 10
79.60000000000002
 20
213.78
 30
0.0
 11
81.60000000000003
 21
213.78
 31
0.0
  0
LINE
  5
2D1B
330
1A
100
AcDbEntity
  8
0
100
AcDbLine
 10
79.60000000000004
 20
218.78
 30
0.0
 11
81.60000000000003
 21
218.78
 31
0.0
  0
LINE
  5
2D1C
330
1A
100
AcDbEntity
  8
0
100
AcDbLine
 10
95.50000000000002
 20
173.5
 30
0.0
 11
95.50000000000002
 21
219.0
 31
0.0
  0
TEXT
  5
2D1E
330
1A
100
AcDbEntity
  8
0
100
AcDbText
 10
96.5
 20
180.5
 30
0.0
 40
2.0
  1
PH
 50
270.0
100
AcDbText
  0
CIRCLE
  5
2D1F
330
1A
100
AcDbEntity
  8
0
100
AcDbCircle
 10
92.0
 20
178.5
 30
0.0
 40
1.5
  0
TEXT
  5
2D20
330
1A
100
AcDbEntity
  8
0
100
AcDbText
 10
96.5
 20
190.5
 30
0.0
 40
2.0
  1
AZ
 50
270.0
100
AcDbText
  0
CIRCLE
  5
2D21
330
1A
100
AcDbEntity
  8
0
100
AcDbCircle
 10
92.0
 20
188.66
 30
0.0
 40
1.5
  0
TEXT
  5
2D22
330
1A
100
AcDbEntity
  8
0
100
AcDbText
 10
96.5
 20
200.32
 30
0.0
 40
2.0
  1
HI
 50
270.0
100
AcDbText
  0
CIRCLE
  5
2D23
330
1A
100
AcDbEntity
  8
0
100
AcDbCircle
 10
92.0
 20
198.82
 30
0.0
 40
1.5
  0
TEXT
  5
2D24
330
1A
100
AcDbEntity
  8
0
100
AcDbText
 10
96.5
 20
211.0
 30
0.0
 40
2.0
  1
LO
 50
270.0
100
AcDbText
  0
CIRCLE
  5
2D25
330
1A
100
AcDbEntity
  8
0
100
AcDbCircle
 10
92.0
 20
208.98
 30
0.0
 40
1.5
  0
LINE
  5
2D2C
330
1A
100
AcDbEntity
  8
0
100
AcDbLine
 10
93.60000000000002
 20
168.5
 30
0.0
 11
93.60000000000002
 21
143.5
 31
0.0
  0
LINE
  5
2D2D
330
1A
100
AcDbEntity
  8
0
100
AcDbLine
 10
83.60000000000002
 20
168.5
 30
0.0
 11
83.60000000000002
 21
143.5
 31
0.0
  0
LINE
  5
2D2E
330
1A
100
AcDbEntity
  8
0
100
AcDbLine
 10
82.60000000000003
 20
169.0
 30
0.0
 11
82.60000000000003
 21
143.0
 31
0.0
  0
LINE
  5
2D2F
330
1A
100
AcDbEntity
  8
0
100
AcDbLine
 10
81.70000000000001
 20
170.0
 30
0.0
 11
81.70000000000001
 21
142.0
 31
0.0
  0
LINE
  5
2D31
330
1A
100
AcDbEntity
  8
0
100
AcDbLine
 10
94.60000000000002
 20
143.0
 30
0.0
 11
94.60000000000002
 21
169.0
 31
0.0
  0
LINE
  5
2D32
330
1A
100
AcDbEntity
  8
0
100
AcDbLine
 10
95.50000000000002
 20
170.0
 30
0.0
 11
95.50000000000002
 21
142.0
 31
0.0
  0
LINE
  5
2D34
330
1A
100
AcDbEntity
  8
0
100
AcDbLine
 10
91.10000000000002
 20
155.5
 30
0.0
 11
91.10000000000002
 21
158.0
 31
0.0
  0
LINE
  5
2D35
330
1A
100
AcDbEntity
  8
0
100
AcDbLine
 10
86.10000000000002
 20
158.0
 30
0.0
 11
86.10000000000002
 21
155.5
 31
0.0
  0
TEXT
  5
2D36
330
1A
100
AcDbEntity
  8
0
100
AcDbText
 10
87.60000000000003
 20
168.0
 30
0.0
 40
2.0
  1
+
 50
270.0
100
AcDbText
  0
LINE
  5
2D37
330
1A
100
AcDbEntity
  8
0
100
AcDbLine
 10
93.60000000000002
 20
165.0
 30
0.0
 11
83.60000000000002
 21
165.0
 31
0.0
  0
LINE
  5
2D38
330
1A
100
AcDbEntity
  8
0
100
AcDbLine
 10
83.60000000000002
 20
165.5
 30
0.0
 11
93.60000000000002
 21
165.5
 31
0.0
  0
LINE
  5
2D39
330
1A
100
AcDbEntity
  8
0
100
AcDbLine
 10
91.10000000000002
 20
168.0
 30
0.0
 11
86.10000000000002
 21
168.0
 31
0.0
  0
LINE
  5
2D3A
330
1A
100
AcDbEntity
  8
0
100
AcDbLine
 10
95.50000000000002
 20
168.5
 30
0.0
 11
81.70000000000001
 21
168.5
 31
0.0
  0
LINE
  5
2D3C
330
1A
100
AcDbEntity
  8
0
100
AcDbLine
 10
95.50000000000002
 20
170.0
 30
0.0
 11
81.70000000000001
 21
170.0
 31
0.0
  0
LINE
  5
2D3D
330
1A
100
AcDbEntity
  8
0
100
AcDbLine
 10
94.60000000000002
 20
169.0
 30
0.0
 11
82.60000000000003
 21
169.0
 31
0.0
  0
LINE
  5
2D3E
330
1A
100
AcDbEntity
  8
0
100
AcDbLine
 10
91.10000000000002
 20
158.0
 30
0.0
 11
86.10000000000002
 21
158.0
 31
0.0
  0
TEXT
  5
2D3F
330
1A
100
AcDbEntity
  8
0
100
AcDbText
 10
87.60000000000003
 20
162.5
 30
0.0
 40
2.0
  1
1
 50
270.0
100
AcDbText
  0
LINE
  5
2D40
330
1A
100
AcDbEntity
  8
0
100
AcDbLine
 10
91.10000000000002
 20
163.0
 30
0.0
 11
86.10000000000002
 21
163.0
 31
0.0
  0
LINE
  5
2D41
330
1A
100
AcDbEntity
  8
0
100
AcDbLine
 10
83.60000000000002
 20
160.5
 30
0.0
 11
93.60000000000002
 21
160.5
 31
0.0
  0
LINE
  5
2D42
330
1A
100
AcDbEntity
  8
0
100
AcDbLine
 10
93.60000000000002
 20
160.0
 30
0.0
 11
83.60000000000002
 21
160.0
 31
0.0
  0
LINE
  5
2D43
330
1A
100
AcDbEntity
  8
0
100
AcDbLine
 10
95.50000000000002
 20
158.5
 30
0.0
 11
81.70000000000001
 21
158.5
 31
0.0
  0
LINE
  5
2D44
330
1A
100
AcDbEntity
  8
0
100
AcDbLine
 10
95.50000000000002
 20
163.5
 30
0.0
 11
81.70000000000001
 21
163.5
 31
0.0
  0
LINE
  5
2D45
330
1A
100
AcDbEntity
  8
0
100
AcDbLine
 10
86.10000000000002
 20
168.0
 30
0.0
 11
86.10000000000002
 21
165.5
 31
0.0
  0
LINE
  5
2D46
330
1A
100
AcDbEntity
  8
0
100
AcDbLine
 10
86.10000000000002
 20
163.0
 30
0.0
 11
86.10000000000002
 21
160.5
 31
0.0
  0
LINE
  5
2D47
330
1A
100
AcDbEntity
  8
0
100
AcDbLine
 10
84.10000000000001
 20
165.5
 30
0.0
 11
84.10000000000001
 21
165.0
 31
0.0
  0
LINE
  5
2D48
330
1A
100
AcDbEntity
  8
0
100
AcDbLine
 10
84.10000000000001
 20
160.5
 30
0.0
 11
84.10000000000001
 21
160.0
 31
0.0
  0
LINE
  5
2D49
330
1A
100
AcDbEntity
  8
0
100
AcDbLine
 10
91.10000000000002
 20
165.5
 30
0.0
 11
91.10000000000002
 21
168.0
 31
0.0
  0
LINE
  5
2D4A
330
1A
100
AcDbEntity
  8
0
100
AcDbLine
 10
91.10000000000002
 20
160.5
 30
0.0
 11
91.10000000000002
 21
163.0
 31
0.0
  0
LINE
  5
2D4B
330
1A
100
AcDbEntity
  8
0
100
AcDbLine
 10
93.10000000000002
 20
165.5
 30
0.0
 11
93.10000000000002
 21
165.0
 31
0.0
  0
LINE
  5
2D4C
330
1A
100
AcDbEntity
  8
0
100
AcDbLine
 10
93.10000000000002
 20
160.5
 30
0.0
 11
93.10000000000002
 21
160.0
 31
0.0
  0
LINE
  5
2D4D
330
1A
100
AcDbEntity
  8
0
100
AcDbLine
 10
83.60000000000002
 20
150.5
 30
0.0
 11
93.60000000000002
 21
150.5
 31
0.0
  0
LINE
  5
2D4E
330
1A
100
AcDbEntity
  8
0
100
AcDbLine
 10
91.10000000000002
 20
153.0
 30
0.0
 11
86.10000000000002
 21
153.0
 31
0.0
  0
TEXT
  5
2D4F
330
1A
100
AcDbEntity
  8
0
100
AcDbText
 10
87.60000000000003
 20
152.5
 30
0.0
 40
2.0
  1
3
 50
270.0
100
AcDbText
  0
LINE
  5
2D50
330
1A
100
AcDbEntity
  8
0
100
AcDbLine
 10
93.60000000000002
 20
150.0
 30
0.0
 11
83.60000000000002
 21
150.0
 31
0.0
  0
LINE
  5
2D51
330
1A
100
AcDbEntity
  8
0
100
AcDbLine
 10
93.60000000000002
 20
145.0
 30
0.0
 11
83.60000000000002
 21
145.0
 31
0.0
  0
TEXT
  5
2D52
330
1A
100
AcDbEntity
  8
0
100
AcDbText
 10
87.60000000000003
 20
147.5
 30
0.0
 40
2.0
  1
4
 50
270.0
100
AcDbText
  0
LINE
  5
2D53
330
1A
100
AcDbEntity
  8
0
100
AcDbLine
 10
83.60000000000002
 20
145.5
 30
0.0
 11
93.60000000000002
 21
145.5
 31
0.0
  0
LINE
  5
2D54
330
1A
100
AcDbEntity
  8
0
100
AcDbLine
 10
91.10000000000002
 20
148.0
 30
0.0
 11
86.10000000000002
 21
148.0
 31
0.0
  0
LINE
  5
2D55
330
1A
100
AcDbEntity
  8
0
100
AcDbLine
 10
83.60000000000002
 20
155.5
 30
0.0
 11
93.60000000000002
 21
155.5
 31
0.0
  0
TEXT
  5
2D56
330
1A
100
AcDbEntity
  8
0
100
AcDbText
 10
87.60000000000003
 20
157.5
 30
0.0
 40
2.0
  1
2
 50
270.0
100
AcDbText
  0
LINE
  5
2D57
330
1A
100
AcDbEntity
  8
0
100
AcDbLine
 10
93.60000000000002
 20
155.0
 30
0.0
 11
83.60000000000002
 21
155.0
 31
0.0
  0
LINE
  5
2D58
330
1A
100
AcDbEntity
  8
0
100
AcDbLine
 10
82.60000000000003
 20
143.0
 30
0.0
 11
94.60000000000002
 21
143.0
 31
0.0
  0
LINE
  5
2D59
330
1A
100
AcDbEntity
  8
0
100
AcDbLine
 10
95.50000000000002
 20
142.0
 30
0.0
 11
81.70000000000001
 21
142.0
 31
0.0
  0
LINE
  5
2D5A
330
1A
100
AcDbEntity
  8
0
100
AcDbLine
 10
95.50000000000002
 20
143.5
 30
0.0
 11
81.70000000000001
 21
143.5
 31
0.0
  0
LINE
  5
2D5B
330
1A
100
AcDbEntity
  8
0
100
AcDbLine
 10
95.50000000000002
 20
148.5
 30
0.0
 11
81.70000000000001
 21
148.5
 31
0.0
  0
LINE
  5
2D5C
330
1A
100
AcDbEntity
  8
0
100
AcDbLine
 10
95.50000000000002
 20
153.5
 30
0.0
 11
81.70000000000001
 21
153.5
 31
0.0
  0
LINE
  5
2D5D
330
1A
100
AcDbEntity
  8
0
100
AcDbLine
 10
84.10000000000001
 20
155.5
 30
0.0
 11
84.10000000000001
 21
155.0
 31
0.0
  0
LINE
  5
2D5E
330
1A
100
AcDbEntity
  8
0
100
AcDbLine
 10
84.10000000000001
 20
150.5
 30
0.0
 11
84.10000000000001
 21
150.0
 31
0.0
  0
LINE
  5
2D5F
330
1A
100
AcDbEntity
  8
0
100
AcDbLine
 10
86.10000000000002
 20
153.0
 30
0.0
 11
86.10000000000002
 21
150.5
 31
0.0
  0
LINE
  5
2D60
330
1A
100
AcDbEntity
  8
0
100
AcDbLine
 10
84.10000000000001
 20
145.5
 30
0.0
 11
84.10000000000001
 21
145.0
 31
0.0
  0
LINE
  5
2D61
330
1A
100
AcDbEntity
  8
0
100
AcDbLine
 10
86.10000000000002
 20
148.0
 30
0.0
 11
86.10000000000002
 21
145.5
 31
0.0
  0
LINE
  5
2D62
330
1A
100
AcDbEntity
  8
0
100
AcDbLine
 10
93.10000000000002
 20
155.5
 30
0.0
 11
93.10000000000002
 21
155.0
 31
0.0
  0
LINE
  5
2D63
330
1A
100
AcDbEntity
  8
0
100
AcDbLine
 10
93.10000000000002
 20
150.5
 30
0.0
 11
93.10000000000002
 21
150.0
 31
0.0
  0
LINE
  5
2D64
330
1A
100
AcDbEntity
  8
0
100
AcDbLine
 10
91.10000000000002
 20
150.5
 30
0.0
 11
91.10000000000002
 21
153.0
 31
0.0
  0
LINE
  5
2D65
330
1A
100
AcDbEntity
  8
0
100
AcDbLine
 10
93.10000000000002
 20
145.5
 30
0.0
 11
93.10000000000002
 21
145.0
 31
0.0
  0
LINE
  5
2D66
330
1A
100
AcDbEntity
  8
0
100
AcDbLine
 10
91.10000000000002
 20
145.5
 30
0.0
 11
91.10000000000002
 21
148.0
 31
0.0
  0
LINE
  5
2D68
330
1A
100
AcDbEntity
  8
0
100
AcDbLine
 10
77.60000000000002
 20
168.5
 30
0.0
 11
77.60000000000002
 21
143.5
 31
0.0
  0
LINE
  5
2D69
330
1A
100
AcDbEntity
  8
0
100
AcDbLine
 10
67.60000000000002
 20
168.5
 30
0.0
 11
67.60000000000002
 21
143.5
 31
0.0
  0
LINE
  5
2D6A
330
1A
100
AcDbEntity
  8
0
100
AcDbLine
 10
66.60000000000002
 20
169.0
 30
0.0
 11
66.60000000000002
 21
143.0
 31
0.0
  0
LINE
  5
2D6B
330
1A
100
AcDbEntity
  8
0
100
AcDbLine
 10
65.70000000000002
 20
170.0
 30
0.0
 11
65.70000000000002
 21
142.0
 31
0.0
  0
LINE
  5
2D6D
330
1A
100
AcDbEntity
  8
0
100
AcDbLine
 10
78.60000000000002
 20
143.0
 30
0.0
 11
78.60000000000002
 21
169.0
 31
0.0
  0
LINE
  5
2D6E
330
1A
100
AcDbEntity
  8
0
100
AcDbLine
 10
79.50000000000002
 20
170.0
 30
0.0
 11
79.50000000000002
 21
142.0
 31
0.0
  0
LINE
  5
2D70
330
1A
100
AcDbEntity
  8
0
100
AcDbLine
 10
75.10000000000002
 20
155.5
 30
0.0
 11
75.10000000000002
 21
158.0
 31
0.0
  0
LINE
  5
2D71
330
1A
100
AcDbEntity
  8
0
100
AcDbLine
 10
70.10000000000002
 20
158.0
 30
0.0
 11
70.10000000000002
 21
155.5
 31
0.0
  0
TEXT
  5
2D72
330
1A
100
AcDbEntity
  8
0
100
AcDbText
 10
71.60000000000002
 20
168.0
 30
0.0
 40
2.0
  1
+
 50
270.0
100
AcDbText
  0
LINE
  5
2D73
330
1A
100
AcDbEntity
  8
0
100
AcDbLine
 10
77.60000000000002
 20
165.0
 30
0.0
 11
67.60000000000002
 21
165.0
 31
0.0
  0
LINE
  5
2D74
330
1A
100
AcDbEntity
  8
0
100
AcDbLine
 10
67.60000000000002
 20
165.5
 30
0.0
 11
77.60000000000002
 21
165.5
 31
0.0
  0
LINE
  5
2D75
330
1A
100
AcDbEntity
  8
0
100
AcDbLine
 10
75.10000000000002
 20
168.0
 30
0.0
 11
70.10000000000002
 21
168.0
 31
0.0
  0
LINE
  5
2D76
330
1A
100
AcDbEntity
  8
0
100
AcDbLine
 10
79.50000000000002
 20
168.5
 30
0.0
 11
65.70000000000002
 21
168.5
 31
0.0
  0
LINE
  5
2D78
330
1A
100
AcDbEntity
  8
0
100
AcDbLine
 10
79.50000000000002
 20
170.0
 30
0.0
 11
65.70000000000002
 21
170.0
 31
0.0
  0
LINE
  5
2D79
330
1A
100
AcDbEntity
  8
0
100
AcDbLine
 10
78.60000000000002
 20
169.0
 30
0.0
 11
66.60000000000002
 21
169.0
 31
0.0
  0
LINE
  5
2D7A
330
1A
100
AcDbEntity
  8
0
100
AcDbLine
 10
75.10000000000002
 20
158.0
 30
0.0
 11
70.10000000000002
 21
158.0
 31
0.0
  0
TEXT
  5
2D7B
330
1A
100
AcDbEntity
  8
0
100
AcDbText
 10
71.60000000000002
 20
162.5
 30
0.0
 40
2.0
  1
1
 50
270.0
100
AcDbText
  0
LINE
  5
2D7C
330
1A
100
AcDbEntity
  8
0
100
AcDbLine
 10
75.10000000000002
 20
163.0
 30
0.0
 11
70.10000000000002
 21
163.0
 31
0.0
  0
LINE
  5
2D7D
330
1A
100
AcDbEntity
  8
0
100
AcDbLine
 10
67.60000000000002
 20
160.5
 30
0.0
 11
77.60000000000002
 21
160.5
 31
0.0
  0
LINE
  5
2D7E
330
1A
100
AcDbEntity
  8
0
100
AcDbLine
 10
77.60000000000002
 20
160.0
 30
0.0
 11
67.60000000000002
 21
160.0
 31
0.0
  0
LINE
  5
2D7F
330
1A
100
AcDbEntity
  8
0
100
AcDbLine
 10
79.50000000000002
 20
158.5
 30
0.0
 11
65.70000000000002
 21
158.5
 31
0.0
  0
LINE
  5
2D80
330
1A
100
AcDbEntity
  8
0
100
AcDbLine
 10
79.50000000000002
 20
163.5
 30
0.0
 11
65.70000000000002
 21
163.5
 31
0.0
  0
LINE
  5
2D81
330
1A
100
AcDbEntity
  8
0
100
AcDbLine
 10
70.10000000000002
 20
168.0
 30
0.0
 11
70.10000000000002
 21
165.5
 31
0.0
  0
LINE
  5
2D82
330
1A
100
AcDbEntity
  8
0
100
AcDbLine
 10
70.10000000000002
 20
163.0
 30
0.0
 11
70.10000000000002
 21
160.5
 31
0.0
  0
LINE
  5
2D83
330
1A
100
AcDbEntity
  8
0
100
AcDbLine
 10
68.10000000000002
 20
165.5
 30
0.0
 11
68.10000000000002
 21
165.0
 31
0.0
  0
LINE
  5
2D84
330
1A
100
AcDbEntity
  8
0
100
AcDbLine
 10
68.10000000000002
 20
160.5
 30
0.0
 11
68.10000000000002
 21
160.0
 31
0.0
  0
LINE
  5
2D85
330
1A
100
AcDbEntity
  8
0
100
AcDbLine
 10
75.10000000000002
 20
165.5
 30
0.0
 11
75.10000000000002
 21
168.0
 31
0.0
  0
LINE
  5
2D86
330
1A
100
AcDbEntity
  8
0
100
AcDbLine
 10
75.10000000000002
 20
160.5
 30
0.0
 11
75.10000000000002
 21
163.0
 31
0.0
  0
LINE
  5
2D87
330
1A
100
AcDbEntity
  8
0
100
AcDbLine
 10
77.10000000000002
 20
165.5
 30
0.0
 11
77.10000000000002
 21
165.0
 31
0.0
  0
LINE
  5
2D88
330
1A
100
AcDbEntity
  8
0
100
AcDbLine
 10
77.10000000000002
 20
160.5
 30
0.0
 11
77.10000000000002
 21
160.0
 31
0.0
  0
LINE
  5
2D89
330
1A
100
AcDbEntity
  8
0
100
AcDbLine
 10
67.60000000000002
 20
150.5
 30
0.0
 11
77.60000000000002
 21
150.5
 31
0.0
  0
LINE
  5
2D8A
330
1A
100
AcDbEntity
  8
0
100
AcDbLine
 10
75.10000000000002
 20
153.0
 30
0.0
 11
70.10000000000002
 21
153.0
 31
0.0
  0
TEXT
  5
2D8B
330
1A
100
AcDbEntity
  8
0
100
AcDbText
 10
71.60000000000002
 20
152.5
 30
0.0
 40
2.0
  1
3
 50
270.0
100
AcDbText
  0
LINE
  5
2D8C
330
1A
100
AcDbEntity
  8
0
100
AcDbLine
 10
77.60000000000002
 20
150.0
 30
0.0
 11
67.60000000000002
 21
150.0
 31
0.0
  0
LINE
  5
2D8D
330
1A
100
AcDbEntity
  8
0
100
AcDbLine
 10
77.60000000000002
 20
145.0
 30
0.0
 11
67.60000000000002
 21
145.0
 31
0.0
  0
TEXT
  5
2D8E
330
1A
100
AcDbEntity
  8
0
100
AcDbText
 10
71.60000000000002
 20
147.5
 30
0.0
 40
2.0
  1
4
 50
270.0
100
AcDbText
  0
LINE
  5
2D8F
330
1A
100
AcDbEntity
  8
0
100
AcDbLine
 10
67.60000000000002
 20
145.5
 30
0.0
 11
77.60000000000002
 21
145.5
 31
0.0
  0
LINE
  5
2D90
330
1A
100
AcDbEntity
  8
0
100
AcDbLine
 10
75.10000000000002
 20
148.0
 30
0.0
 11
70.10000000000002
 21
148.0
 31
0.0
  0
LINE
  5
2D91
330
1A
100
AcDbEntity
  8
0
100
AcDbLine
 10
67.60000000000002
 20
155.5
 30
0.0
 11
77.60000000000002
 21
155.5
 31
0.0
  0
TEXT
  5
2D92
330
1A
100
AcDbEntity
  8
0
100
AcDbText
 10
71.60000000000002
 20
157.5
 30
0.0
 40
2.0
  1
2
 50
270.0
100
AcDbText
  0
LINE
  5
2D93
330
1A
100
AcDbEntity
  8
0
100
AcDbLine
 10
77.60000000000002
 20
155.0
 30
0.0
 11
67.60000000000002
 21
155.0
 31
0.0
  0
LINE
  5
2D94
330
1A
100
AcDbEntity
  8
0
100
AcDbLine
 10
66.60000000000002
 20
143.0
 30
0.0
 11
78.60000000000002
 21
143.0
 31
0.0
  0
LINE
  5
2D95
330
1A
100
AcDbEntity
  8
0
100
AcDbLine
 10
79.50000000000002
 20
142.0
 30
0.0
 11
65.70000000000002
 21
142.0
 31
0.0
  0
LINE
  5
2D96
330
1A
100
AcDbEntity
  8
0
100
AcDbLine
 10
79.50000000000002
 20
143.5
 30
0.0
 11
65.70000000000002
 21
143.5
 31
0.0
  0
LINE
  5
2D97
330
1A
100
AcDbEntity
  8
0
100
AcDbLine
 10
79.50000000000002
 20
148.5
 30
0.0
 11
65.70000000000002
 21
148.5
 31
0.0
  0
LINE
  5
2D98
330
1A
100
AcDbEntity
  8
0
100
AcDbLine
 10
79.50000000000002
 20
153.5
 30
0.0
 11
65.70000000000002
 21
153.5
 31
0.0
  0
LINE
  5
2D99
330
1A
100
AcDbEntity
  8
0
100
AcDbLine
 10
68.10000000000002
 20
155.5
 30
0.0
 11
68.10000000000002
 21
155.0
 31
0.0
  0
LINE
  5
2D9A
330
1A
100
AcDbEntity
  8
0
100
AcDbLine
 10
68.10000000000002
 20
150.5
 30
0.0
 11
68.10000000000002
 21
150.0
 31
0.0
  0
LINE
  5
2D9B
330
1A
100
AcDbEntity
  8
0
100
AcDbLine
 10
70.10000000000002
 20
153.0
 30
0.0
 11
70.10000000000002
 21
150.5
 31
0.0
  0
LINE
  5
2D9C
330
1A
100
AcDbEntity
  8
0
100
AcDbLine
 10
68.10000000000002
 20
145.5
 30
0.0
 11
68.10000000000002
 21
145.0
 31
0.0
  0
LINE
  5
2D9D
330
1A
100
AcDbEntity
  8
0
100
AcDbLine
 10
70.10000000000002
 20
148.0
 30
0.0
 11
70.10000000000002
 21
145.5
 31
0.0
  0
LINE
  5
2D9E
330
1A
100
AcDbEntity
  8
0
100
AcDbLine
 10
77.10000000000002
 20
155.5
 30
0.0
 11
77.10000000000002
 21
155.0
 31
0.0
  0
LINE
  5
2D9F
330
1A
100
AcDbEntity
  8
0
100
AcDbLine
 10
77.10000000000002
 20
150.5
 30
0.0
 11
77.10000000000002
 21
150.0
 31
0.0
  0
LINE
  5
2DA0
330
1A
100
AcDbEntity
  8
0
100
AcDbLine
 10
75.10000000000002
 20
150.5
 30
0.0
 11
75.10000000000002
 21
153.0
 31
0.0
  0
LINE
  5
2DA1
330
1A
100
AcDbEntity
  8
0
100
AcDbLine
 10
77.10000000000002
 20
145.5
 30
0.0
 11
77.10000000000002
 21
145.0
 31
0.0
  0
LINE
  5
2DA2
330
1A
100
AcDbEntity
  8
0
100
AcDbLine
 10
75.10000000000002
 20
145.5
 30
0.0
 11
75.10000000000002
 21
148.0
 31
0.0
  0
TEXT
  5
2DBF
330
1A
100
AcDbEntity
  8
WAKU
100
AcDbText
 10
301.0
 20
15.03689667871303
 30
0.0
 40
2.0
  1
99.06.29
100
AcDbText
  0
TEXT
  5
2DC0
330
1A
100
AcDbEntity
  8
WAKU
100
AcDbText
 10
303.2668582879964
 20
20.03689667871304
 30
0.0
 40
4.0
  1
横山
100
AcDbText
  0
TEXT
  5
2DC1
330
1A
100
AcDbEntity
  8
WAKU
100
AcDbText
 10
333.2668582879964
 20
20.03689667871304
 30
0.0
 40
4.0
  1
串田
100
AcDbText
  0
TEXT
  5
2DC2
330
1A
100
AcDbEntity
  8
WAKU
100
AcDbText
 10
331.0
 20
15.03689667871303
 30
0.0
 40
2.0
  1
99.06.29
100
AcDbText
  0
TEXT
  5
2DCD
330
1A
100
AcDbEntity
  8
0
100
AcDbText
 10
233.5
 20
14.0
 30
0.0
 40
2.0
  1
99.06.29
 41
0.9
100
AcDbText
  0
TEXT
  5
2DCE
330
1A
100
AcDbEntity
  8
0
100
AcDbText
 10
247.0
 20
13.5
 30
0.0
 40
3.0
  1
大野
100
AcDbText
  0
VIEWPORT
  5
22
102
{ACAD_XDICTIONARY
360
2DDE
102
}
330
17
100
AcDbEntity
 67
     1
  8
0
100
AcDbViewport
 10
261.5176991150442
 20
154.7242978687078
 30
0.0
 40
523.0353982300885
 41
309.4485957374157
 68
     1
 69
     1
 12
261.5176991150442
 22
154.7242978687078
 13
0.0
 23
0.0
 14
1.0
 24
1.0
 15
10.0
 25
10.0
 16
0.0
 26
0.0
 36
1.0
 17
0.0
 27
0.0
 37
0.0
 42
50.0
 43
0.0
 44
0.0
 45
309.4485957374157
 50
0.0
 51
0.0
 72
   100
 90
    32768
  1

281
     0
 71
     1
 74
     0
110
0.0
120
0.0
130
0.0
111
1.0
121
0.0
131
0.0
112
0.0
122
1.0
132
0.0
 79
     0
146
0.0
  0
ENDSEC
  0
SECTION
  2
OBJECTS
  0
DICTIONARY
  5
C
330
0
100
AcDbDictionary
281
     1
  3
ACAD_COLOR
350
2DAF
  3
ACAD_GROUP
350
D
  3
ACAD_LAYOUT
350
2DB0
  3
ACAD_MATERIAL
350
2DAE
  3
ACAD_MLINESTYLE
350
E
  3
ACAD_PLOTSETTINGS
350
2DB1
  3
ACAD_PLOTSTYLENAME
350
2DAC
  3
ACDBHEADERROUNDTRIPXREC
350
2DDB
  3
AcDbVariableDictionary
350
2DD7
  0
DICTIONARY
  5
2DDE
330
22
100
AcDbDictionary
280
     1
281
     1
  3
ACAD_XREC_ROUNDTRIP
360
2DDF
  0
DICTIONARY
  5
2DAF
102
{ACAD_REACTORS
330
C
102
}
330
C
100
AcDbDictionary
281
     1
  0
DICTIONARY
  5
D
102
{ACAD_REACTORS
330
C
102
}
330
C
100
AcDbDictionary
281
     1
  0
DICTIONARY
  5
2DB0
102
{ACAD_REACTORS
330
C
102
}
330
C
100
AcDbDictionary
281
     1
  3
Model
350
2DB2
  3
レイアウト1
350
2DB3
  0
DICTIONARY
  5
2DAE
102
{ACAD_REACTORS
330
C
102
}
330
C
100
AcDbDictionary
281
     1
  0
DICTIONARY
  5
E
102
{ACAD_REACTORS
330
C
102
}
330
C
100
AcDbDictionary
281
     1
  3
STANDARD
350
13
  0
DICTIONARY
  5
2DB1
102
{ACAD_REACTORS
330
C
102
}
330
C
100
AcDbDictionary
281
     1
  0
ACDBDICTIONARYWDFLT
  5
2DAC
102
{ACAD_REACTORS
330
C
102
}
330
C
100
AcDbDictionary
281
     1
  3
Normal
350
2DAD
100
AcDbDictionaryWithDefault
340
2DAD
  0
DICTIONARY
  5
2DDB
102
{ACAD_REACTORS
330
C
102
}
330
C
100
AcDbDictionary
281
     1
  3
COLORDICT
350
2DDD
  3
MATERIALDICT
350
2DDC
  0
DICTIONARY
  5
2DD7
102
{ACAD_REACTORS
330
C
102
}
330
C
100
AcDbDictionary
281
     1
  3
DIMASSOC
350
2DD8
  3
PROJECTNAME
350
2DD9
  0
XRECORD
  5
2DDF
102
{ACAD_REACTORS
330
2DDE
102
}
330
2DDE
100
AcDbXrecord
280
     1
102
SHADEPLOT
 70
     0
  0
LAYOUT
  5
2DB2
102
{ACAD_XDICTIONARY
360
2DE0
102
}
102
{ACAD_REACTORS
330
2DB0
102
}
330
2DB0
100
AcDbPlotSettings
  1

  2
Adobe PDF A3横.pc3
  4
A3
  6

 40
3.174999952316284
 41
3.174999952316284
 42
3.17498779296875
 43
3.17498779296875
 44
420.1583251953125
 45
297.0530090332031
 46
0.0
 47
0.0
 48
0.0
 49
0.0
140
0.0
141
0.0
142
1.0
143
1.0
 70
 11952
 72
     1
 73
     0
 74
     2
  7
tmi_penstyle.ctb
 75
    16
147
1.0
148
0.0
149
0.0
100
AcDbLayout
  1
Model
 70
     1
 71
     0
 10
0.0
 20
0.0
 11
12.0
 21
9.0
 12
0.0
 22
0.0
 32
0.0
 14
0.0
 24
0.0
 34
0.0
 15
0.0
 25
0.0
 35
0.0
146
0.0
 13
0.0
 23
0.0
 33
0.0
 16
1.0
 26
0.0
 36
0.0
 17
0.0
 27
1.0
 37
0.0
 76
     0
330
1A
  0
LAYOUT
  5
2DB3
102
{ACAD_XDICTIONARY
360
2DE2
102
}
102
{ACAD_REACTORS
330
2DB0
102
}
330
2DB0
100
AcDbPlotSettings
  1

  2
Adobe PDF
  4

  6

 40
0.0
 41
0.0
 42
0.0
 43
0.0
 44
0.0
 45
0.0
 46
0.0
 47
0.0
 48
0.0
 49
0.0
140
0.0
141
0.0
142
1.0
143
1.0
 70
   688
 72
     0
 73
     0
 74
     5
  7
tmi_penstyle.ctb
 75
    16
147
1.0
148
0.0
149
0.0
100
AcDbLayout
  1
レイアウト1
 70
     1
 71
     1
 10
0.0
 20
0.0
 11
420.0
 21
297.0
 12
0.0
 22
0.0
 32
0.0
 14
1.000000000000000E+20
 24
1.000000000000000E+20
 34
1.000000000000000E+20
 15
-1.000000000000000E+20
 25
-1.000000000000000E+20
 35
-1.000000000000000E+20
146
0.0
 13
0.0
 23
0.0
 33
0.0
 16
1.0
 26
0.0
 36
0.0
 17
0.0
 27
1.0
 37
0.0
 76
     0
330
17
331
22
  0
MLINESTYLE
  5
13
102
{ACAD_REACTORS
330
E
102
}
330
E
100
AcDbMlineStyle
  2
STANDARD
 70
     0
  3

 62
     0
 51
90.0
 52
90.0
 71
     2
 49
0.5
 62
   256
  6
BYLAYER
 49
-0.5
 62
   256
  6
BYLAYER
  0
ACDBPLACEHOLDER
  5
2DAD
102
{ACAD_REACTORS
330
2DAC
102
}
330
2DAC
  0
XRECORD
  5
2DDD
102
{ACAD_REACTORS
330
2DDB
102
}
330
2DDB
100
AcDbXrecord
280
     1
340
2DAF
  0
XRECORD
  5
2DDC
102
{ACAD_REACTORS
330
2DDB
102
}
330
2DDB
100
AcDbXrecord
280
     1
340
2DAE
  0
DICTIONARYVAR
  5
2DD8
102
{ACAD_REACTORS
330
2DD7
102
}
330
2DD7
100
DictionaryVariables
280
     0
  1
1
  0
DICTIONARYVAR
  5
2DD9
102
{ACAD_REACTORS
330
2DD7
102
}
330
2DD7
100
DictionaryVariables
280
     0
  1

  0
DICTIONARY
  5
2DE0
330
2DB2
100
AcDbDictionary
280
     1
281
     1
  3
ACAD_XREC_ROUNDTRIP
360
2DE1
  0
DICTIONARY
  5
2DE2
330
2DB3
100
AcDbDictionary
280
     1
281
     1
  3
ACAD_XREC_ROUNDTRIP
360
2DE3
  0
XRECORD
  5
2DE1
102
{ACAD_REACTORS
330
2DE0
102
}
330
2DE0
100
AcDbXrecord
280
     1
102
SHADEPLOT
 70
     0
102
SHADEPLOTRESLEVEL
 70
     2
102
SHADEPLOTCUSTOMDPI
 70
   300
  0
XRECORD
  5
2DE3
102
{ACAD_REACTORS
330
2DE2
102
}
330
2DE2
100
AcDbXrecord
280
     1
102
SHADEPLOT
 70
     0
102
SHADEPLOTRESLEVEL
 70
     2
102
SHADEPLOTCUSTOMDPI
 70
   300
  0
ENDSEC
  0
EOF
