  0
SECTION
  2
HEADER
  9
$ACADVER
  1
AC1015
  9
$ACADMAINTVER
 70
    20
  9
$DWGCODEPAGE
  3
ANSI_932
  9
$INSBASE
 10
0.0
 20
0.0
 30
0.0
  9
$EXTMIN
 10
20.0
 20
5.0
 30
0.0
  9
$EXTMAX
 10
405.0
 20
280.0
 30
0.0
  9
$LIMMIN
 10
0.0
 20
0.0
  9
$LIMMAX
 10
420.0
 20
297.0
  9
$ORTHOMODE
 70
     0
  9
$REGENMODE
 70
     1
  9
$FILLMODE
 70
     1
  9
$QTEXTMODE
 70
     0
  9
$MIRRTEXT
 70
     1
  9
$LTSCALE
 40
15.0
  9
$ATTMODE
 70
     1
  9
$TEXTSIZE
 40
1.199999999999999
  9
$TRACEWID
 40
1.0
  9
$TEXTSTYLE
  7
STANDARD
  9
$CLAYER
  8
0
  9
$CELTYPE
  6
BYLAYER
  9
$CECOLOR
 62
   256
  9
$CELTSCALE
 40
1.0
  9
$DISPSILH
 70
     0
  9
$DIMSCALE
 40
0.0
  9
$DIMASZ
 40
2.5
  9
$DIMEXO
 40
0.5
  9
$DIMDLI
 40
10.0
  9
$DIMRND
 40
0.0
  9
$DIMDLE
 40
0.0
  9
$DIMEXE
 40
0.5
  9
$DIMTP
 40
0.0
  9
$DIMTM
 40
0.0
  9
$DIMTXT
 40
2.5
  9
$DIMCEN
 40
0.0
  9
$DIMTSZ
 40
0.0
  9
$DIMTOL
 70
     0
  9
$DIMLIM
 70
     0
  9
$DIMTIH
 70
     0
  9
$DIMTOH
 70
     0
  9
$DIMSE1
 70
     0
  9
$DIMSE2
 70
     0
  9
$DIMTAD
 70
     1
  9
$DIMZIN
 70
     0
  9
$DIMBLK
  1

  9
$DIMASO
 70
     1
  9
$DIMSHO
 70
     1
  9
$DIMPOST
  1

  9
$DIMAPOST
  1

  9
$DIMALT
 70
     0
  9
$DIMALTD
 70
     2
  9
$DIMALTF
 40
25.4
  9
$DIMLFAC
 40
1.0
  9
$DIMTOFL
 70
     0
  9
$DIMTVP
 40
0.0
  9
$DIMTIX
 70
     0
  9
$DIMSOXD
 70
     0
  9
$DIMSAH
 70
     1
  9
$DIMBLK1
  1
OPEN
  9
$DIMBLK2
  1
OPEN
  9
$DIMSTYLE
  2
STANDARD
  9
$DIMCLRD
 70
     0
  9
$DIMCLRE
 70
     0
  9
$DIMCLRT
 70
     0
  9
$DIMTFAC
 40
1.0
  9
$DIMGAP
 40
0.5
  9
$DIMJUST
 70
     0
  9
$DIMSD1
 70
     0
  9
$DIMSD2
 70
     0
  9
$DIMTOLJ
 70
     1
  9
$DIMTZIN
 70
     0
  9
$DIMALTZ
 70
     0
  9
$DIMALTTZ
 70
     0
  9
$DIMUPT
 70
     0
  9
$DIMDEC
 70
     2
  9
$DIMTDEC
 70
     0
  9
$DIMALTU
 70
     2
  9
$DIMALTTD
 70
     2
  9
$DIMTXSTY
  7
STANDARD
  9
$DIMAUNIT
 70
     0
  9
$DIMADEC
 70
     0
  9
$DIMALTRND
 40
0.0
  9
$DIMAZIN
 70
     0
  9
$DIMDSEP
 70
    46
  9
$DIMATFIT
 70
     3
  9
$DIMFRAC
 70
     0
  9
$DIMLDRBLK
  1

  9
$DIMLUNIT
 70
     2
  9
$DIMLWD
 70
    -2
  9
$DIMLWE
 70
    -2
  9
$DIMTMOVE
 70
     0
  9
$LUNITS
 70
     2
  9
$LUPREC
 70
     4
  9
$SKETCHINC
 40
1.0
  9
$FILLETRAD
 40
1.0
  9
$AUNITS
 70
     0
  9
$AUPREC
 70
     0
  9
$MENU
  1
.
  9
$ELEVATION
 40
0.0
  9
$PELEVATION
 40
0.0
  9
$THICKNESS
 40
0.0
  9
$LIMCHECK
 70
     0
  9
$CHAMFERA
 40
1.0
  9
$CHAMFERB
 40
1.0
  9
$CHAMFERC
 40
20.0
  9
$CHAMFERD
 40
0.0
  9
$SKPOLY
 70
     0
  9
$TDCREATE
 40
2450857.620429745
  9
$TDUCREATE
 40
2450857.245429745
  9
$TDUPDATE
 40
2455394.447626227
  9
$TDUUPDATE
 40
2455394.072626227
  9
$TDINDWG
 40
11.1271317477
  9
$TDUSRTIMER
 40
11.1271317477
  9
$USRTIMER
 70
     1
  9
$ANGBASE
 50
0.0
  9
$ANGDIR
 70
     0
  9
$PDMODE
 70
     0
  9
$PDSIZE
 40
0.0
  9
$PLINEWID
 40
0.0
  9
$SPLFRAME
 70
     0
  9
$SPLINETYPE
 70
     6
  9
$SPLINESEGS
 70
     8
  9
$HANDSEED
  5
17AB0
  9
$SURFTAB1
 70
     6
  9
$SURFTAB2
 70
     6
  9
$SURFTYPE
 70
     6
  9
$SURFU
 70
     6
  9
$SURFV
 70
     6
  9
$UCSBASE
  2

  9
$UCSNAME
  2

  9
$UCSORG
 10
0.0
 20
0.0
 30
0.0
  9
$UCSXDIR
 10
1.0
 20
0.0
 30
0.0
  9
$UCSYDIR
 10
0.0
 20
1.0
 30
0.0
  9
$UCSORTHOREF
  2

  9
$UCSORTHOVIEW
 70
     0
  9
$UCSORGTOP
 10
0.0
 20
0.0
 30
0.0
  9
$UCSORGBOTTOM
 10
0.0
 20
0.0
 30
0.0
  9
$UCSORGLEFT
 10
0.0
 20
0.0
 30
0.0
  9
$UCSORGRIGHT
 10
0.0
 20
0.0
 30
0.0
  9
$UCSORGFRONT
 10
0.0
 20
0.0
 30
0.0
  9
$UCSORGBACK
 10
0.0
 20
0.0
 30
0.0
  9
$PUCSBASE
  2

  9
$PUCSNAME
  2

  9
$PUCSORG
 10
0.0
 20
0.0
 30
0.0
  9
$PUCSXDIR
 10
1.0
 20
0.0
 30
0.0
  9
$PUCSYDIR
 10
0.0
 20
1.0
 30
0.0
  9
$PUCSORTHOREF
  2

  9
$PUCSORTHOVIEW
 70
     0
  9
$PUCSORGTOP
 10
0.0
 20
0.0
 30
0.0
  9
$PUCSORGBOTTOM
 10
0.0
 20
0.0
 30
0.0
  9
$PUCSORGLEFT
 10
0.0
 20
0.0
 30
0.0
  9
$PUCSORGRIGHT
 10
0.0
 20
0.0
 30
0.0
  9
$PUCSORGFRONT
 10
0.0
 20
0.0
 30
0.0
  9
$PUCSORGBACK
 10
0.0
 20
0.0
 30
0.0
  9
$USERI1
 70
     0
  9
$USERI2
 70
     0
  9
$USERI3
 70
     0
  9
$USERI4
 70
     0
  9
$USERI5
 70
     0
  9
$USERR1
 40
0.0
  9
$USERR2
 40
0.0
  9
$USERR3
 40
0.0
  9
$USERR4
 40
0.0
  9
$USERR5
 40
0.0
  9
$WORLDVIEW
 70
     1
  9
$SHADEDGE
 70
     3
  9
$SHADEDIF
 70
    70
  9
$TILEMODE
 70
     1
  9
$MAXACTVP
 70
    16
  9
$PINSBASE
 10
0.0
 20
0.0
 30
0.0
  9
$PLIMCHECK
 70
     0
  9
$PEXTMIN
 10
1.000000000000000E+20
 20
1.000000000000000E+20
 30
1.000000000000000E+20
  9
$PEXTMAX
 10
-1.000000000000000E+20
 20
-1.000000000000000E+20
 30
-1.000000000000000E+20
  9
$PLIMMIN
 10
0.0
 20
0.0
  9
$PLIMMAX
 10
420.0
 20
297.0
  9
$UNITMODE
 70
     0
  9
$VISRETAIN
 70
     0
  9
$PLINEGEN
 70
     0
  9
$PSLTSCALE
 70
     1
  9
$TREEDEPTH
 70
  3020
  9
$CMLSTYLE
  2
STANDARD
  9
$CMLJUST
 70
     0
  9
$CMLSCALE
 40
1.0
  9
$PROXYGRAPHICS
 70
     1
  9
$MEASUREMENT
 70
     0
  9
$CELWEIGHT
370
    -1
  9
$ENDCAPS
280
     0
  9
$JOINSTYLE
280
     0
  9
$LWDISPLAY
290
     0
  9
$INSUNITS
 70
     0
  9
$HYPERLINKBASE
  1

  9
$STYLESHEET
  1
tmi_penstyle.ctb
  9
$XEDIT
290
     1
  9
$CEPSNTYPE
380
     0
  9
$PSTYLEMODE
290
     1
  9
$FINGERPRINTGUID
  2
{9E812FB4-4DE1-419C-9AF7-57D773F18DF4}
  9
$VERSIONGUID
  2
{0A1E5B6C-DD00-4BF4-A0D9-FFBA63D1BF57}
  9
$EXTNAMES
290
     1
  9
$PSVPSCALE
 40
0.0
  9
$OLESTARTUP
290
     0
  0
ENDSEC
  0
SECTION
  2
CLASSES
  0
CLASS
  1
DICTIONARYVAR
  2
AcDbDictionaryVar
  3
ObjectDBX Classes
 90
        0
280
     0
281
     0
  0
CLASS
  1
ACDBDICTIONARYWDFLT
  2
AcDbDictionaryWithDefault
  3
ObjectDBX Classes
 90
        0
280
     0
281
     0
  0
CLASS
  1
ACDBPLACEHOLDER
  2
AcDbPlaceHolder
  3
ObjectDBX Classes
 90
        0
280
     0
281
     0
  0
CLASS
  1
LAYOUT
  2
AcDbLayout
  3
ObjectDBX Classes
 90
        0
280
     0
281
     0
  0
ENDSEC
  0
SECTION
  2
TABLES
  0
TABLE
  2
VPORT
  5
8
330
0
100
AcDbSymbolTable
 70
     2
  0
VPORT
  5
17AA6
330
8
100
AcDbSymbolTableRecord
100
AcDbViewportTableRecord
  2
*Active
 70
     0
 10
0.0
 20
0.0
 11
1.0
 21
1.0
 12
212.499390629236
 22
150.4214186171549
 13
0.0
 23
0.0
 14
0.5
 24
0.5
 15
5.0
 25
5.0
 16
0.0
 26
0.0
 36
1.0
 17
0.0
 27
0.0
 37
0.0
 40
293.9589399653443
 41
1.632958801498127
 42
50.0
 43
0.0
 44
0.0
 50
0.0
 51
0.0
 71
     0
 72
   100
 73
     1
 74
     0
 75
     1
 76
     1
 77
     0
 78
     0
281
     0
 65
     1
110
0.0
120
0.0
130
0.0
111
1.0
121
0.0
131
0.0
112
0.0
122
1.0
132
0.0
 79
     0
146
0.0
  0
ENDTAB
  0
TABLE
  2
LTYPE
  5
5
330
0
100
AcDbSymbolTable
 70
     3
  0
LTYPE
  5
14
330
5
100
AcDbSymbolTableRecord
100
AcDbLinetypeTableRecord
  2
BYBLOCK
 70
     0
  3

 72
    65
 73
     0
 40
0.0
  0
LTYPE
  5
15
330
5
100
AcDbSymbolTableRecord
100
AcDbLinetypeTableRecord
  2
BYLAYER
 70
     0
  3

 72
    65
 73
     0
 40
0.0
  0
LTYPE
  5
16
330
5
100
AcDbSymbolTableRecord
100
AcDbLinetypeTableRecord
  2
CONTINUOUS
 70
     0
  3
Solid line
 72
    65
 73
     0
 40
0.0
  0
LTYPE
  5
61
330
5
100
AcDbSymbolTableRecord
100
AcDbLinetypeTableRecord
  2
CENTER2
 70
     0
  3
___ _ ___ _ ___ _ ___ _ ___ _ ___ _ ___ _ ___ _
 72
    65
 73
     4
 40
1.125
 49
0.75
 74
     0
 49
-0.125
 74
     0
 49
0.125
 74
     0
 49
-0.125
 74
     0
  0
LTYPE
  5
62
330
5
100
AcDbSymbolTableRecord
100
AcDbLinetypeTableRecord
  2
DASHED2
 70
     0
  3
_ _ _ _ _ _ _ _ _ _ _ _ _ _ _ _ _ _ _ _ _ _ _ _
 72
    65
 73
     2
 40
0.375
 49
0.25
 74
     0
 49
-0.125
 74
     0
  0
ENDTAB
  0
TABLE
  2
LAYER
  5
2
330
0
100
AcDbSymbolTable
 70
     6
  0
LAYER
  5
F
330
2
100
AcDbSymbolTableRecord
100
AcDbLayerTableRecord
  2
0
 70
     0
 62
     7
  6
CONTINUOUS
370
    -3
390
8869
  0
LAYER
  5
63
330
2
100
AcDbSymbolTableRecord
100
AcDbLayerTableRecord
  2
WAKU
 70
     0
 62
     7
  6
CONTINUOUS
370
    -3
390
8869
  0
LAYER
  5
64
330
2
100
AcDbSymbolTableRecord
100
AcDbLayerTableRecord
  2
SUNPOU
 70
     0
 62
     5
  6
CONTINUOUS
370
    -3
390
8869
  0
LAYER
  5
65
330
2
100
AcDbSymbolTableRecord
100
AcDbLayerTableRecord
  2
CENTER
 70
     0
 62
    14
  6
CENTER2
370
    -3
390
8869
  0
LAYER
  5
66
330
2
100
AcDbSymbolTableRecord
100
AcDbLayerTableRecord
  2
KAGESEN
 70
     0
 62
     5
  6
DASHED2
370
    -3
390
8869
  0
LAYER
  5
7DC
330
2
100
AcDbSymbolTableRecord
100
AcDbLayerTableRecord
  2
DEFPOINTS
 70
     0
 62
     7
  6
CONTINUOUS
290
     0
370
    -3
390
8869
  0
ENDTAB
  0
TABLE
  2
STYLE
  5
3
330
0
100
AcDbSymbolTable
 70
     1
  0
STYLE
  5
10
330
3
100
AcDbSymbolTableRecord
100
AcDbTextStyleTableRecord
  2
STANDARD
 70
     0
 40
0.0
 41
1.0
 50
0.0
 71
     0
 42
1.199999999999999
  3
C:\Program Files\AutoCAD LT\romans.shx
  4
C:\Program Files\AutoCAD LT\extfont.shx
  0
ENDTAB
  0
TABLE
  2
VIEW
  5
6
330
0
100
AcDbSymbolTable
 70
     0
  0
ENDTAB
  0
TABLE
  2
UCS
  5
7
330
0
100
AcDbSymbolTable
 70
     0
  0
ENDTAB
  0
TABLE
  2
APPID
  5
9
330
0
100
AcDbSymbolTable
 70
     3
  0
APPID
  5
11
330
9
100
AcDbSymbolTableRecord
100
AcDbRegAppTableRecord
  2
ACAD
 70
     0
  0
APPID
  5
4211
330
9
100
AcDbSymbolTableRecord
100
AcDbRegAppTableRecord
  2
CONTENTTABDATA
 70
     0
  0
APPID
  5
4212
330
9
100
AcDbSymbolTableRecord
100
AcDbRegAppTableRecord
  2
CONTENTCURRENTTAB
 70
     0
  0
ENDTAB
  0
TABLE
  2
DIMSTYLE
  5
A
330
0
100
AcDbSymbolTable
 70
     8
100
AcDbDimStyleTable
 71
     1
340
1D
  0
DIMSTYLE
105
1D
102
{ACAD_REACTORS
330
138A7
330
138A8
330
138AB
330
138AC
330
13902
330
13904
330
13905
330
1729A
330
17662
102
}
330
A
100
AcDbSymbolTableRecord
100
AcDbDimStyleTableRecord
  2
STANDARD
 70
     0
340
10
  0
DIMSTYLE
105
24
330
A
100
AcDbSymbolTableRecord
100
AcDbDimStyleTableRecord
  2
ISO-25
 70
     0
 41
2.5
 42
0.625
 43
3.75
 44
1.25
 74
     0
 77
     1
 78
     8
140
2.5
141
2.5
143
0.0394
145
1.0
147
0.625
172
     1
340
10
  0
DIMSTYLE
105
25
330
A
100
AcDbSymbolTableRecord
100
AcDbDimStyleTableRecord
  2
ISO-35
 70
     0
 41
3.5
 42
0.875
 43
5.25
 44
1.75
 74
     0
 77
     1
 78
     8
140
3.5
141
3.5
143
0.0394
145
1.399999999999999
147
0.875
172
     1
340
10
  0
DIMSTYLE
105
26
330
A
100
AcDbSymbolTableRecord
100
AcDbDimStyleTableRecord
  2
ISO-5
 70
     0
 41
5.0
 42
1.25
 43
7.5
 44
2.5
 74
     0
 77
     1
 78
     8
140
5.0
141
5.0
143
0.0394
145
2.0
147
1.25
172
     1
340
10
  0
DIMSTYLE
105
27
330
A
100
AcDbSymbolTableRecord
100
AcDbDimStyleTableRecord
  2
ISO-7
 70
     0
 41
7.0
 42
1.75
 43
10.5
 44
3.5
 74
     0
 77
     1
 78
     8
140
7.0
141
7.0
143
0.0394
145
2.799999999999999
147
1.75
172
     1
340
10
  0
DIMSTYLE
105
28
330
A
100
AcDbSymbolTableRecord
100
AcDbDimStyleTableRecord
  2
ISO1
 70
     0
 41
10.0
 42
2.5
 43
15.0
 44
5.0
 74
     0
 77
     1
 78
     8
140
10.0
141
10.0
143
0.0394
145
4.0
147
2.5
172
     1
340
10
  0
DIMSTYLE
105
29
330
A
100
AcDbSymbolTableRecord
100
AcDbDimStyleTableRecord
  2
ISO1-4
 70
     0
 41
14.0
 42
3.5
 43
21.0
 44
7.0
 74
     0
 77
     1
 78
     8
140
14.0
141
14.0
143
0.0394
145
5.599999999999999
147
3.5
172
     1
340
10
  0
DIMSTYLE
105
2A
330
A
100
AcDbSymbolTableRecord
100
AcDbDimStyleTableRecord
  2
ISO2
 70
     0
 41
20.0
 42
5.0
 43
30.0
 44
10.0
 74
     0
 77
     1
 78
     8
140
20.0
141
20.0
143
0.0394
145
8.0
147
5.0
172
     1
340
10
  0
ENDTAB
  0
TABLE
  2
BLOCK_RECORD
  5
1
330
0
100
AcDbSymbolTable
 70
    15
  0
BLOCK_RECORD
  5
1A
330
1
100
AcDbSymbolTableRecord
100
AcDbBlockTableRecord
  2
*MODEL_SPACE
340
886E
  0
BLOCK_RECORD
  5
17
330
1
100
AcDbSymbolTableRecord
100
AcDbBlockTableRecord
  2
*PAPER_SPACE
340
886F
  0
BLOCK_RECORD
  5
BA
330
1
100
AcDbSymbolTableRecord
100
AcDbBlockTableRecord
  2
_OPEN
340
0
102
{BLKREFS
331
1730E
331
1730F
331
17317
331
17318
331
17320
331
17321
331
17329
331
1732A
331
17331
331
17332
331
1733B
331
1733C
331
17344
331
17345
331
17397
331
17398
331
1767E
331
1767F
102
}
  0
BLOCK_RECORD
  5
E2AE
330
1
100
AcDbSymbolTableRecord
100
AcDbBlockTableRecord
  2
A$C38FE6D9A
340
0
102
{BLKREFS
331
138F8
331
138F9
331
138FA
102
}
  0
BLOCK_RECORD
  5
13509
330
1
100
AcDbSymbolTableRecord
100
AcDbBlockTableRecord
  2
A$C78786D43
340
0
102
{BLKREFS
331
13895
331
13896
331
13897
331
13898
331
1389F
331
138A0
102
}
  0
BLOCK_RECORD
  5
1391A
330
1
100
AcDbSymbolTableRecord
100
AcDbBlockTableRecord
  2
*D3
340
0
  0
BLOCK_RECORD
  5
13926
330
1
100
AcDbSymbolTableRecord
100
AcDbBlockTableRecord
  2
*D4
340
0
  0
BLOCK_RECORD
  5
13932
330
1
100
AcDbSymbolTableRecord
100
AcDbBlockTableRecord
  2
*D5
340
0
  0
BLOCK_RECORD
  5
1393E
330
1
100
AcDbSymbolTableRecord
100
AcDbBlockTableRecord
  2
*D6
340
0
  0
BLOCK_RECORD
  5
1394A
330
1
100
AcDbSymbolTableRecord
100
AcDbBlockTableRecord
  2
*D7
340
0
  0
BLOCK_RECORD
  5
13956
330
1
100
AcDbSymbolTableRecord
100
AcDbBlockTableRecord
  2
*D8
340
0
  0
BLOCK_RECORD
  5
13963
330
1
100
AcDbSymbolTableRecord
100
AcDbBlockTableRecord
  2
*D9
340
0
  0
BLOCK_RECORD
  5
1725D
330
1
100
AcDbSymbolTableRecord
100
AcDbBlockTableRecord
  2
Side-plate
340
0
310
2800000020000000200000000100080000000000000400000000000000000000000000000000000000000000000080000080000000808000800000008000800080800000C0C0C000C0DCC000F0CAA6000020400000206000002080000020A0000020C0000020E00000400000004020000040400000406000004080000040A0
310
000040C0000040E00000600000006020000060400000606000006080000060A0000060C0000060E00000800000008020000080400000806000008080000080A0000080C0000080E00000A0000000A0200000A0400000A0600000A0800000A0A00000A0C00000A0E00000C0000000C0200000C0400000C0600000C0800000C0
310
A00000C0C00000C0E00000E0000000E0200000E0400000E0600000E0800000E0A00000E0C00000E0E00040000000400020004000400040006000400080004000A0004000C0004000E00040200000402020004020400040206000402080004020A0004020C0004020E000404000004040200040404000404060004040800040
310
40A0004040C0004040E00040600000406020004060400040606000406080004060A0004060C0004060E00040800000408020004080400040806000408080004080A0004080C0004080E00040A0000040A0200040A0400040A0600040A0800040A0A00040A0C00040A0E00040C0000040C0200040C0400040C0600040C08000
310
40C0A00040C0C00040C0E00040E0000040E0200040E0400040E0600040E0800040E0A00040E0C00040E0E00080000000800020008000400080006000800080008000A0008000C0008000E00080200000802020008020400080206000802080008020A0008020C0008020E00080400000804020008040400080406000804080
310
008040A0008040C0008040E00080600000806020008060400080606000806080008060A0008060C0008060E00080800000808020008080400080806000808080008080A0008080C0008080E00080A0000080A0200080A0400080A0600080A0800080A0A00080A0C00080A0E00080C0000080C0200080C0400080C0600080C0
310
800080C0A00080C0C00080C0E00080E0000080E0200080E0400080E0600080E0800080E0A00080E0C00080E0E000C0000000C0002000C0004000C0006000C0008000C000A000C000C000C000E000C0200000C0202000C0204000C0206000C0208000C020A000C020C000C020E000C0400000C0402000C0404000C0406000C0
310
408000C040A000C040C000C040E000C0600000C0602000C0604000C0606000C0608000C060A000C060C000C060E000C0800000C0802000C0804000C0806000C0808000C080A000C080C000C080E000C0A00000C0A02000C0A04000C0A06000C0A08000C0A0A000C0A0C000C0A0E000C0C00000C0C02000C0C04000C0C06000
310
C0C08000C0C0A000F0FBFF00A4A0A000808080000000FF0000FF000000FFFF00FF000000FF00FF00FFFF0000FFFFFF00FFFFFFFFFFFFFFFFFFFFFFFFFFFFFFFFFFFFFFFFFFFFFFFFFFFFFFFFFFFFFFFFFFFFFFFFFFFFFFFFFFFFFFFFFFFFFFFFFFFFFFFFFFFFFFFFFFFFFFFFFFFFFFFFFFFFFFFFFFFFFFFFFFFFFFFFFFFFFF
310
FFFFFFFFFFFFFFFFFFFFFFFFFFFFFFFFFFFFFFFFFFFFFFFFFFFFFFFFFFFFFFFFFFFFFFFFFFFFFFFFFFFFFFFFFFFFFFFFFFFFFFFFFFFFFFFFFFFFFFFFFFFFFFFFFFFFFFFFFFFFFFFFFFFFFFFFFFFFFFFFFFFFFFFFFFFFFFFFFFFFFFFFFFFFFFFFFFFFFFFFFFFFFFFFFFFFFFFFFFFFFFFFFFFFFFFFFFFFFFFFFFFFFFFFFFFFFF
310
FFFFFFFFFFFFFFFFFFFFFFFFFFFFFFFFFFFFFFFFFFFFFFFFFFFFFFFFFFFFFFFFFFFFFFFFFFFFFFFFFFFFFFFFFFFFFFFFFFFFFFFFFFFFFFFFFFFFFFFFFFFFFFFFFFFFFFFFFFFFFFFFFFFFFFFFFFFFFFFFFFFFFFFFFFFFFFFFFFFFFFFFFFFFFFFFFFFFFFFFFFFFFFFFFFFFFFFFFFFFFFFFFFFFFFFFFFFFFFFFFFFFFFFFFFFFFF
310
FFFFFFFFFFFFFFFFFFFFFFFFFFFFFFFFFFFFFFFFFFFFFFFFFFFFFFFFFFFFFFFFFFFFFFFFFFFFFFFFFFFFFFFFFFFFFFFFFFFFFFFFFFFFFFFFFFFFFFFFFFFFFFFFFFFFFFFFFFFFFFFFFFFFFFFFFFFFFFFFFFFFFFFFFFFFFFFFFFFFFFFFFFFFFFFFFFFFFFFFFFFFFFFFFFFFFFFFFFFFFFFFFFFFFFFF0000000000000000000000
310
000000000000000000000000000000000000FFFFFF000000000000000000000000000000000000000000000000000000000000FFFFFFFFFFFFFFFFFFFFFFFFFFFFFFFFFFFFFFFFFFFFFFFFFFFFFFFFFFFF0000FFFFFFFFFFFFFFFFFFFFFFFFFFFFFFFFFFFFFFFFFFFFFFFFFFFFFFFFFFFF0000FFFFFFFFFFFFFFFFFFFFFFFF
310
FFFFFFFFFFFFFFFFFFFFFFFFFFFFFFFFFFFFFFFFFFFFFFFFFFFFFFFFFFFFFFFFFFFFFFFFFFFFFFFFFFFFFFFFFFFFFFFFFFFFFFFFFFFFFFFFFFFFFFFFFFFFFFFFFFFFFFFFFFFFFFFFFFFFFFFFFFFFFFFFFFFFFFFFFFFFFFFFFFFFFFFFFFFFFFFFFFFFFFFFFFFFFFFFFFFFFFFFFFFFFFFFFFFFFFFFFFFFFFFFFFFFFFFFFFFFFF
310
FFFFFFFFFFFFFFFFFFFFFFFFFFFFFFFFFFFFFFFFFFFFFFFFFFFFFFFFFFFFFFFFFFFFFFFFFFFFFFFFFFFFFFFFFFFFFFFFFFFFFFFFFFFFFFFFFFFFFFFFFFFFFFFFFFFFFFFFFFFFFFFFFFFFFFFFFFFFFFFFFFFFFFFFFFFFFFFFFFFFFFFFFFFFFFFFFFFFFFFFFFFFFFFFFFFFFFFFFFFFFFFFFFFFFFFFFFFFFFFFFFFFFFFFFFFFFF
310
FFFFFFFFFFFFFFFFFFFFFFFFFFFFFFFFFFFFFFFFFFFFFFFFFFFFFFFFFFFFFFFFFFFFFFFFFFFFFFFFFFFFFFFFFFFFFFFFFFFFFFFFFFFFFFFFFFFFFFFFFFFFFFFFFFFFFFFFFFFFFFFFFFFFFFFFFFFFFFFFFFFFFFFFFFFFFFFFFFFFFFFFFFFFFFFFFFFFFFFFFFFFFFFFFFFFFFFFFFFFFFFFFFFFFFFFFFFFFFFFFFFFFFFFFFFFFF
310
FFFFFFFFFFFFFFFFFFFFFFFFFFFFFFFFFFFFFFFFFFFFFFFFFFFFFFFFFFFFFFFFFFFFFFFFFFFFFFFFFFFFFFFFFFFFFFFFFFFFFFFFFFFFFFFF
102
{BLKREFS
331
1726A
331
1726B
102
}
  0
BLOCK_RECORD
  5
172A2
330
1
100
AcDbSymbolTableRecord
100
AcDbBlockTableRecord
  2
*D11
340
0
  0
BLOCK_RECORD
  5
17666
330
1
100
AcDbSymbolTableRecord
100
AcDbBlockTableRecord
  2
*D12
340
0
  0
BLOCK_RECORD
  5
17964
330
1
100
AcDbSymbolTableRecord
100
AcDbBlockTableRecord
  2
F2361AX-5P
340
0
310
2800000020000000200000000100080000000000000400000000000000000000000000000000000000000000000080000080000000808000800000008000800080800000C0C0C000C0DCC000F0CAA6000020400000206000002080000020A0000020C0000020E00000400000004020000040400000406000004080000040A0
310
000040C0000040E00000600000006020000060400000606000006080000060A0000060C0000060E00000800000008020000080400000806000008080000080A0000080C0000080E00000A0000000A0200000A0400000A0600000A0800000A0A00000A0C00000A0E00000C0000000C0200000C0400000C0600000C0800000C0
310
A00000C0C00000C0E00000E0000000E0200000E0400000E0600000E0800000E0A00000E0C00000E0E00040000000400020004000400040006000400080004000A0004000C0004000E00040200000402020004020400040206000402080004020A0004020C0004020E000404000004040200040404000404060004040800040
310
40A0004040C0004040E00040600000406020004060400040606000406080004060A0004060C0004060E00040800000408020004080400040806000408080004080A0004080C0004080E00040A0000040A0200040A0400040A0600040A0800040A0A00040A0C00040A0E00040C0000040C0200040C0400040C0600040C08000
310
40C0A00040C0C00040C0E00040E0000040E0200040E0400040E0600040E0800040E0A00040E0C00040E0E00080000000800020008000400080006000800080008000A0008000C0008000E00080200000802020008020400080206000802080008020A0008020C0008020E00080400000804020008040400080406000804080
310
008040A0008040C0008040E00080600000806020008060400080606000806080008060A0008060C0008060E00080800000808020008080400080806000808080008080A0008080C0008080E00080A0000080A0200080A0400080A0600080A0800080A0A00080A0C00080A0E00080C0000080C0200080C0400080C0600080C0
310
800080C0A00080C0C00080C0E00080E0000080E0200080E0400080E0600080E0800080E0A00080E0C00080E0E000C0000000C0002000C0004000C0006000C0008000C000A000C000C000C000E000C0200000C0202000C0204000C0206000C0208000C020A000C020C000C020E000C0400000C0402000C0404000C0406000C0
310
408000C040A000C040C000C040E000C0600000C0602000C0604000C0606000C0608000C060A000C060C000C060E000C0800000C0802000C0804000C0806000C0808000C080A000C080C000C080E000C0A00000C0A02000C0A04000C0A06000C0A08000C0A0A000C0A0C000C0A0E000C0C00000C0C02000C0C04000C0C06000
310
C0C08000C0C0A000F0FBFF00A4A0A000808080000000FF0000FF000000FFFF00FF000000FF00FF00FFFF0000FFFFFF00FFFFFFFFFFFFFFFFFFFFFFFFFFFFFFFFFFFFFFFFFFFFFFFFFFFFFFFFFFFFFFFFFFFFFFFFFFFFFFFFFFFFFFFFFFFFFFFFFFFFFFFFFFFFFFFFFFFFFFFFFFFFFFFFFFFFFFFFFFFFFFFFFFFFFFFFFFFFFF
310
FFFFFFFFFFFFFFFFFFFFFFFFFFFFFFFFFFFFFFFFFFFFFFFFFFFFFFFFFFFFFFFFFFFFFFFFFFFFFFFFFFFFFFFFFFFFFFFFFFFFFFFFFFFFFFFFFFFFFFFFFFFFFFFFFFFFFFFFFFFFFFFFFFFFFFFFFFFFFFFFFFFFFFFFFFFFFFFFFFFFFFFFFFFFFFFFFFFFFFFFFFFFFFFFFFFFFFFFFFFFFFFFFFFFFFFFFFFFFFFFFFFFFFFFFFFFFF
310
FFFFFFFFFFFFFFFFFFFFFFFFFFFFFFFFFFFFFFFFFFFFFFFFFFFFFFFFFFFFFFFFFFFFFFFFFFFFFFFFFFFFFFFFFFFFFFFFFFFFFFFFFFFFFFFFFFFFFFFFFFFFFFFFFFFFFFFFFFFFFFFFFFFFFFFFFFFFFFFFFFFFFFFFFFFFFFFFFFFFFFFFFFFFFFFFFFFFFFFFFFFFFFFFFFFFFFFFFFFFFFFFFFFFFFFFFFFFFFFFFFFFFFFFFFFFFF
310
FFFFFFFFFFFFFFFFFFFFFFFFFFFFFFFFFFFFFFFF000000000000000000000000000000000000000000000000000000000000FFFF000000000000000000000000000000000000000000000000000000000000FFFF000000000000000000000000000000000000000000000000000000000000FFFF0000000000000000000000
310
00000000000000000000000000000000000000FFFF000000000000000000000000000000000000000000000000000000000000FFFF000000000000000000000000000000000000000000000000000000000000FFFF000000000000000000000000000000000000000000000000000000000000FFFF00000000000000000000
310
0000000000000000000000000000000000000000FFFF000000FFFFFF0000FFFFFF0000FFFFFFFF0000FFFFFF0000FFFFFF000000FFFF000000000000000000000000000000000000000000000000000000000000FFFFFFFFFFFFFFFFFFFFFFFFFFFFFFFFFFFFFFFFFFFFFFFFFFFFFFFFFFFFFFFFFFFFFFFFFFFFFFFFFFFFFF
310
FFFFFFFFFFFFFFFFFFFFFFFFFFFFFFFFFFFFFFFFFFFFFFFFFFFFFFFFFFFFFFFFFFFFFFFFFFFFFFFFFFFFFFFFFFFFFFFFFFFFFFFFFFFFFFFFFFFFFFFFFFFFFFFFFFFFFFFFFFFFFFFFFFFFFFFFFFFFFFFFFFFFFFFFFFFFFFFFFFFFFFFFFFFFFFFFFFFFFFFFFFFFFFFFFFFFFFFFFFFFFFFFFFFFFFFFFFFFFFFFFFFFFFFFFFFFFF
310
FFFFFFFFFFFFFFFFFFFFFFFFFFFFFFFFFFFFFFFFFFFFFFFFFFFFFFFFFFFFFFFFFFFFFFFFFFFFFFFFFFFFFFFFFFFFFFFFFFFFFFFFFFFFFFFFFFFFFFFFFFFFFFFFFFFFFFFFFFFFFFFFFFFFFFFFFFFFFFFFFFFFFFFFFFFFFFFFFFFFFFFFFFFFFFFFFFFFFFFFFFFFFFFFFFFFFFFFFFFFFFFFFFFFFFFFFFFFFFFFFFFFFFFFFFFFFF
310
FFFFFFFFFFFFFFFFFFFFFFFFFFFFFFFFFFFFFFFFFFFFFFFFFFFFFFFFFFFFFFFFFFFFFFFFFFFFFFFFFFFFFFFFFFFFFFFFFFFFFFFFFFFFFFFF
102
{BLKREFS
331
179D0
102
}
  0
BLOCK_RECORD
  5
17A50
330
1
100
AcDbSymbolTableRecord
100
AcDbBlockTableRecord
  2
UF2361-AX-3P
340
0
310
2800000020000000200000000100080000000000000400000000000000000000000000000000000000000000000080000080000000808000800000008000800080800000C0C0C000C0DCC000F0CAA6000020400000206000002080000020A0000020C0000020E00000400000004020000040400000406000004080000040A0
310
000040C0000040E00000600000006020000060400000606000006080000060A0000060C0000060E00000800000008020000080400000806000008080000080A0000080C0000080E00000A0000000A0200000A0400000A0600000A0800000A0A00000A0C00000A0E00000C0000000C0200000C0400000C0600000C0800000C0
310
A00000C0C00000C0E00000E0000000E0200000E0400000E0600000E0800000E0A00000E0C00000E0E00040000000400020004000400040006000400080004000A0004000C0004000E00040200000402020004020400040206000402080004020A0004020C0004020E000404000004040200040404000404060004040800040
310
40A0004040C0004040E00040600000406020004060400040606000406080004060A0004060C0004060E00040800000408020004080400040806000408080004080A0004080C0004080E00040A0000040A0200040A0400040A0600040A0800040A0A00040A0C00040A0E00040C0000040C0200040C0400040C0600040C08000
310
40C0A00040C0C00040C0E00040E0000040E0200040E0400040E0600040E0800040E0A00040E0C00040E0E00080000000800020008000400080006000800080008000A0008000C0008000E00080200000802020008020400080206000802080008020A0008020C0008020E00080400000804020008040400080406000804080
310
008040A0008040C0008040E00080600000806020008060400080606000806080008060A0008060C0008060E00080800000808020008080400080806000808080008080A0008080C0008080E00080A0000080A0200080A0400080A0600080A0800080A0A00080A0C00080A0E00080C0000080C0200080C0400080C0600080C0
310
800080C0A00080C0C00080C0E00080E0000080E0200080E0400080E0600080E0800080E0A00080E0C00080E0E000C0000000C0002000C0004000C0006000C0008000C000A000C000C000C000E000C0200000C0202000C0204000C0206000C0208000C020A000C020C000C020E000C0400000C0402000C0404000C0406000C0
310
408000C040A000C040C000C040E000C0600000C0602000C0604000C0606000C0608000C060A000C060C000C060E000C0800000C0802000C0804000C0806000C0808000C080A000C080C000C080E000C0A00000C0A02000C0A04000C0A06000C0A08000C0A0A000C0A0C000C0A0E000C0C00000C0C02000C0C04000C0C06000
310
C0C08000C0C0A000F0FBFF00A4A0A000808080000000FF0000FF000000FFFF00FF000000FF00FF00FFFF0000FFFFFF00FFFFFFFFFFFFFFFFFFFFFFFFFFFFFFFFFFFFFFFFFFFFFFFFFFFFFFFFFFFFFFFFFFFFFFFFFFFFFFFFFFFFFFFFFFFFFFFFFFFFFFFFFFFFFFFFFFFFFFFFFFFFFFFFFFFFFFFFFFFFFFFFFFFFFFFFFFFFFF
310
FFFFFFFFFFFFFFFFFFFFFFFFFFFFFFFFFFFFFFFFFFFFFFFFFFFFFFFFFFFFFFFFFFFFFFFFFFFFFFFFFFFFFFFFFFFFFFFFFFFFFFFFFFFFFFFFFFFFFFFFFFFFFFFFFFFFFFFFFFFFFFFFFFFFFFFFFFFFFFFFFFFFFFFFFFFFFFFFFFFFFFFFFFFFFFFFFFFFFFFFFFFFFFFFFFFFFFFFFFFFFFFFFFFFFFFFFFFFFFFFFFFFFFFFFFFFFF
310
FFFFFFFFFFFFFFFFFFFFFFFFFFFFFFFFFFFFFFFFFFFFFFFFFFFFFFFFFFFFFFFFFFFFFFFFFFFFFFFFFFFFFFFFFFFFFFFFFFFFFFFFFFFFFFFFFFFFFFFFFFFFFFFFFFFFFFFFFFFFFFFFFFFFFFFFFFFFFFFFFFFFFF000000000000000000000000000000000000000000000000000000000000FFFF0000FF000000000000000000
310
000000000000000000000000000000FF0000FFFF0000FF00FF00000000FF0000FF00000000FF0000FF00000000FF00FF0000FFFF0000FF000000000000000000000000000000000000000000000000FF0000FFFF0000FF0000FF000000FF0000FF00000000FF0000FF000000FF0000FF0000FFFF0000FF0000000000000000
310
00000000000000000000000000000000FF0000FFFF0000FF0000FFFFFF000000000000FFFF000000000000FFFFFF0000FF0000FFFF0000FF000000000000000000000000000000000000000000000000FF0000FFFF0000FF0000FF000000FF0000FF00000000FF0000FF000000FF0000FF0000FFFF0000FF00000000000000
310
0000000000000000000000000000000000FF0000FFFF0000FF00FF00000000FF0000FF00000000FF0000FF00000000FF00FF0000FFFF0000FF000000000000000000000000000000000000000000000000FF0000FFFF0000FF00FFFFFFFFFFFF0000FFFFFFFFFFFF0000FFFFFFFFFFFF00FF0000FFFF000000000000000000
310
000000000000000000000000000000000000000000FFFFFFFFFFFFFFFFFFFFFFFFFFFFFFFFFFFFFFFFFFFFFFFFFFFFFFFFFFFFFFFFFFFFFFFFFFFFFFFFFFFFFFFFFFFFFFFFFFFFFFFFFFFFFFFFFFFFFFFFFFFFFFFFFFFFFFFFFFFFFFFFFFFFFFFFFFFFFFFFFFFFFFFFFFFFFFFFFFFFFFFFFFFFFFFFFFFFFFFFFFFFFFFFFFFF
310
FFFFFFFFFFFFFFFFFFFFFFFFFFFFFFFFFFFFFFFFFFFFFFFFFFFFFFFFFFFFFFFFFFFFFFFFFFFFFFFFFFFFFFFFFFFFFFFFFFFFFFFFFFFFFFFFFFFFFFFFFFFFFFFFFFFFFFFFFFFFFFFFFFFFFFFFFFFFFFFFFFFFFFFFFFFFFFFFFFFFFFFFFFFFFFFFFFFFFFFFFFFFFFFFFFFFFFFFFFFFFFFFFFFFFFFFFFFFFFFFFFFFFFFFFFFFFF
310
FFFFFFFFFFFFFFFFFFFFFFFFFFFFFFFFFFFFFFFFFFFFFFFFFFFFFFFFFFFFFFFFFFFFFFFFFFFFFFFFFFFFFFFFFFFFFFFFFFFFFFFFFFFFFFFF
102
{BLKREFS
331
17A90
102
}
  0
ENDTAB
  0
ENDSEC
  0
SECTION
  2
BLOCKS
  0
BLOCK
  5
1B
330
1A
100
AcDbEntity
  8
0
100
AcDbBlockBegin
  2
*MODEL_SPACE
 70
     0
 10
0.0
 20
0.0
 30
0.0
  3
*MODEL_SPACE
  1

  0
ENDBLK
  5
1C
330
1A
100
AcDbEntity
  8
0
100
AcDbBlockEnd
  0
BLOCK
  5
18
330
17
100
AcDbEntity
 67
     1
  8
0
100
AcDbBlockBegin
  2
*PAPER_SPACE
 70
     0
 10
0.0
 20
0.0
 30
0.0
  3
*PAPER_SPACE
  1

  0
ENDBLK
  5
19
330
17
100
AcDbEntity
 67
     1
  8
0
100
AcDbBlockEnd
  0
BLOCK
  5
BB
330
BA
100
AcDbEntity
  8
0
100
AcDbBlockBegin
  2
_OPEN
 70
     0
 10
0.0
 20
0.0
 30
0.0
  3
_OPEN
  1

  0
LINE
  5
BC
330
BA
100
AcDbEntity
  8
0
  6
ByBlock
 62
     0
100
AcDbLine
 10
-1.0
 20
0.1666666666666666
 30
0.0
 11
0.0
 21
0.0
 31
0.0
  0
LINE
  5
BD
330
BA
100
AcDbEntity
  8
0
  6
ByBlock
 62
     0
100
AcDbLine
 10
0.0
 20
0.0
 30
0.0
 11
-1.0
 21
-0.1666666666666666
 31
0.0
  0
LINE
  5
BE
330
BA
100
AcDbEntity
  8
0
  6
ByBlock
 62
     0
100
AcDbLine
 10
0.0
 20
0.0
 30
0.0
 11
-1.0
 21
0.0
 31
0.0
  0
ENDBLK
  5
BF
330
BA
100
AcDbEntity
  8
0
100
AcDbBlockEnd
  0
BLOCK
  5
E2AF
330
E2AE
100
AcDbEntity
  8
0
100
AcDbBlockBegin
  2
A$C38FE6D9A
 70
     0
 10
0.0
 20
0.0
 30
0.0
  3
A$C38FE6D9A
  1

  0
LINE
  5
E2B0
330
E2AE
100
AcDbEntity
  8
0
100
AcDbLine
 10
1.25000010593709
 20
5.550000314267094
 30
0.0
 11
0.5000001059370334
 21
5.550000314267094
 31
0.0
  0
LINE
  5
E2B1
330
E2AE
100
AcDbEntity
  8
0
100
AcDbLine
 10
1.25000010593709
 20
0.2500003142671403
 30
0.0
 11
0.5000001059370334
 21
0.2500003142671119
 31
0.0
  0
LINE
  5
E2B2
330
E2AE
100
AcDbEntity
  8
0
100
AcDbLine
 10
0.5000001059370903
 20
2.678751248413959
 30
0.0
 11
1.25000010593709
 21
3.428751248414044
 31
0.0
  0
LINE
  5
E2B3
330
E2AE
100
AcDbEntity
  8
0
100
AcDbLine
 10
0.5000001059370903
 20
2.325197857820739
 30
0.0
 11
1.25000010593709
 21
3.075197857820796
 31
0.0
  0
LINE
  5
E2B4
330
E2AE
100
AcDbEntity
  8
0
100
AcDbLine
 10
0.0000001059370902
 20
0.0000003142671119
 30
0.0
 11
0.0000001059370902
 21
5.800000314267123
 31
0.0
  0
LINE
  5
E2B5
330
E2AE
100
AcDbEntity
  8
0
100
AcDbLine
 10
0.5000001059370334
 20
0.0000003142670835
 30
0.0
 11
0.5000001059370903
 21
5.800000314267094
 31
0.0
  0
LINE
  5
E2B6
330
E2AE
100
AcDbEntity
  8
0
100
AcDbLine
 10
0.5000001059370334
 20
0.0000003142670835
 30
0.0
 11
0.0000001059371471
 21
0.0000003142670835
 31
0.0
  0
LINE
  5
E2B7
330
E2AE
100
AcDbEntity
  8
0
100
AcDbLine
 10
0.5000001059370903
 20
5.800000314267094
 30
0.0
 11
0.0000001059370902
 21
5.800000314267123
 31
0.0
  0
LINE
  5
E2B8
330
E2AE
100
AcDbEntity
  8
0
100
AcDbLine
 10
1.250000105937147
 20
0.2500003142671119
 30
0.0
 11
1.25000010593709
 21
5.550000314267094
 31
0.0
  0
ELLIPSE
  5
E2B9
330
E2AE
100
AcDbEntity
  8
0
100
AcDbEllipse
 10
1.74999998983992
 20
2.900000314267117
 30
0.0
 11
0.0
 21
2.650000000000005
 31
0.0
210
0.0
220
0.0
230
1.0
 40
0.596226458904585
 41
2.81960193203065
 42
6.605176028738728
  0
ENDBLK
  5
E2BA
330
E2AE
100
AcDbEntity
  8
0
100
AcDbBlockEnd
  0
BLOCK
  5
1350A
330
13509
100
AcDbEntity
  8
0
100
AcDbBlockBegin
  2
A$C78786D43
 70
     0
 10
0.0
 20
0.0
 30
0.0
  3
A$C78786D43
  1

  0
LWPOLYLINE
  5
1350B
330
13509
100
AcDbEntity
  8
0
100
AcDbPolyline
 90
       13
 70
     0
 43
0.0
 10
3.354999994991857
 20
3.354999900568259
 10
4.574999994991856
 20
3.354999900568259
 10
4.574999994991856
 20
2.13499990056826
 10
3.354999994991857
 20
2.13499990056826
 10
3.354999994991857
 20
0.9149999005682332
 10
2.134999994991858
 20
0.9149999005682332
 10
2.134999994991858
 20
2.13499990056826
 10
0.9149999949918594
 20
2.13499990056826
 10
0.9149999949918594
 20
3.354999900568259
 10
2.134999994991858
 20
3.354999900568259
 10
2.134999994991858
 20
4.574999900568258
 10
3.354999994991857
 20
4.574999900568258
 10
3.354999994991857
 20
3.354999900568259
  0
CIRCLE
  5
1350C
330
13509
100
AcDbEntity
  8
0
100
AcDbCircle
 10
2.744999994991871
 20
2.744999900568245
 30
0.0
 40
2.745
  0
ENDBLK
  5
1350D
330
13509
100
AcDbEntity
  8
0
100
AcDbBlockEnd
  0
BLOCK
  5
13924
330
1391A
100
AcDbEntity
  8
0
100
AcDbBlockBegin
  2
*D3
 70
     1
 10
0.0
 20
0.0
 30
0.0
  3
*D3
  1

  0
LINE
  5
17326
330
1391A
100
AcDbEntity
  8
SUNPOU
 62
     0
370
    -2
100
AcDbLine
 10
132.9999998943629
 20
226.5
 30
0.0
 11
147.5634917681636
 21
226.5
 31
0.0
  0
LINE
  5
17327
330
1391A
100
AcDbEntity
  8
SUNPOU
 62
     0
370
    -2
100
AcDbLine
 10
132.9999998943629
 20
178.5000000932087
 30
0.0
 11
147.5634917681636
 21
178.5000000932087
 31
0.0
  0
LINE
  5
17328
330
1391A
100
AcDbEntity
  8
SUNPOU
 62
     0
370
    -2
100
AcDbLine
 10
147.0634917681637
 20
224.0
 30
0.0
 11
147.0634917681636
 21
181.0000000932087
 31
0.0
  0
INSERT
  5
17329
330
1391A
100
AcDbEntity
  8
SUNPOU
 62
     0
370
    -2
100
AcDbBlockReference
  2
_OPEN
 10
147.0634917681637
 20
226.5
 30
0.0
 41
2.5
 42
2.5
 43
2.5
 50
90.0
  0
INSERT
  5
1732A
330
1391A
100
AcDbEntity
  8
SUNPOU
 62
     0
370
    -2
100
AcDbBlockReference
  2
_OPEN
 10
147.0634917681636
 20
178.5000000932087
 30
0.0
 41
2.5
 42
2.5
 43
2.5
 50
270.0
  0
MTEXT
  5
1732B
330
1391A
100
AcDbEntity
  8
SUNPOU
 62
     0
100
AcDbMText
 10
144.0634917681636
 20
202.5000000466044
 30
0.0
 40
5.0
 41
0.0
 71
     5
 72
     1
  1
\A1;48
 11
0.0000000000000001
 21
1.0
 31
0.0
 73
     1
 44
1.0
1001
ACAD
1000
MTEXTBEGIN
1070
    73
1070
     1
1070
    44
1040
1.0
1070
    74
1070
     0
1000
MTEXTEND
  0
POINT
  5
1732C
330
1391A
100
AcDbEntity
  8
DEFPOINTS
 62
     0
100
AcDbPoint
 10
132.4999998943628
 20
226.5
 30
0.0
  0
POINT
  5
1732D
330
1391A
100
AcDbEntity
  8
DEFPOINTS
 62
     0
100
AcDbPoint
 10
132.4999998943628
 20
178.5000000932087
 30
0.0
  0
POINT
  5
1732E
330
1391A
100
AcDbEntity
  8
DEFPOINTS
 62
     0
100
AcDbPoint
 10
147.0634917681636
 20
178.5000000932087
 30
0.0
  0
ENDBLK
  5
13925
330
1391A
100
AcDbEntity
  8
0
100
AcDbBlockEnd
  0
BLOCK
  5
13930
330
13926
100
AcDbEntity
  8
0
100
AcDbBlockBegin
  2
*D4
 70
     1
 10
0.0
 20
0.0
 30
0.0
  3
*D4
  1

  0
LINE
  5
1731D
330
13926
100
AcDbEntity
  8
SUNPOU
 62
     0
370
    -2
100
AcDbLine
 10
130.4999998992175
 20
137.0000001737955
 30
0.0
 11
147.5634917681636
 21
137.0000001737955
 31
0.0
  0
LINE
  5
1731E
330
13926
100
AcDbEntity
  8
SUNPOU
 62
     0
370
    -2
100
AcDbLine
 10
130.4999998992175
 20
94.00000025729509
 30
0.0
 11
147.5634917681636
 21
94.00000025729509
 31
0.0
  0
LINE
  5
1731F
330
13926
100
AcDbEntity
  8
SUNPOU
 62
     0
370
    -2
100
AcDbLine
 10
147.0634917681636
 20
134.5000001737955
 30
0.0
 11
147.0634917681636
 21
96.50000025729509
 31
0.0
  0
INSERT
  5
17320
330
13926
100
AcDbEntity
  8
SUNPOU
 62
     0
370
    -2
100
AcDbBlockReference
  2
_OPEN
 10
147.0634917681636
 20
137.0000001737955
 30
0.0
 41
2.5
 42
2.5
 43
2.5
 50
90.0
  0
INSERT
  5
17321
330
13926
100
AcDbEntity
  8
SUNPOU
 62
     0
370
    -2
100
AcDbBlockReference
  2
_OPEN
 10
147.0634917681636
 20
94.00000025729509
 30
0.0
 41
2.5
 42
2.5
 43
2.5
 50
270.0
  0
MTEXT
  5
17322
330
13926
100
AcDbEntity
  8
SUNPOU
 62
     0
100
AcDbMText
 10
144.0634917681636
 20
115.5000002155453
 30
0.0
 40
5.0
 41
0.0
 71
     5
 72
     1
  1
\A1;43
 11
0.0000000000000001
 21
1.0
 31
0.0
 73
     1
 44
1.0
1001
ACAD
1000
MTEXTBEGIN
1070
    73
1070
     1
1070
    44
1040
1.0
1070
    74
1070
     0
1000
MTEXTEND
  0
POINT
  5
17323
330
13926
100
AcDbEntity
  8
DEFPOINTS
 62
     0
100
AcDbPoint
 10
129.9999998992174
 20
137.0000001737955
 30
0.0
  0
POINT
  5
17324
330
13926
100
AcDbEntity
  8
DEFPOINTS
 62
     0
100
AcDbPoint
 10
129.9999998992174
 20
94.00000025729509
 30
0.0
  0
POINT
  5
17325
330
13926
100
AcDbEntity
  8
DEFPOINTS
 62
     0
100
AcDbPoint
 10
147.0634917681636
 20
94.00000025729509
 30
0.0
  0
ENDBLK
  5
13931
330
13926
100
AcDbEntity
  8
0
100
AcDbBlockEnd
  0
BLOCK
  5
1393C
330
13932
100
AcDbEntity
  8
0
100
AcDbBlockBegin
  2
*D5
 70
     1
 10
0.0
 20
0.0
 30
0.0
  3
*D5
  1

  0
LINE
  5
17314
330
13932
100
AcDbEntity
  8
SUNPOU
 62
     0
370
    -2
100
AcDbLine
 10
39.00000007592576
 20
137.5000001737956
 30
0.0
 11
39.00000007592576
 21
155.5569964685319
 31
0.0
  0
LINE
  5
17315
330
13932
100
AcDbEntity
  8
SUNPOU
 62
     0
370
    -2
100
AcDbLine
 10
129.9999998992174
 20
137.5000001737956
 30
0.0
 11
129.9999998992174
 21
155.5569964685319
 31
0.0
  0
LINE
  5
17316
330
13932
100
AcDbEntity
  8
SUNPOU
 62
     0
370
    -2
100
AcDbLine
 10
41.50000007592575
 20
155.0569964685319
 30
0.0
 11
127.4999998992174
 21
155.0569964685319
 31
0.0
  0
INSERT
  5
17317
330
13932
100
AcDbEntity
  8
SUNPOU
 62
     0
370
    -2
100
AcDbBlockReference
  2
_OPEN
 10
39.00000007592576
 20
155.0569964685319
 30
0.0
 41
2.5
 42
2.5
 43
2.5
 50
180.0
  0
INSERT
  5
17318
330
13932
100
AcDbEntity
  8
SUNPOU
 62
     0
370
    -2
100
AcDbBlockReference
  2
_OPEN
 10
129.9999998992174
 20
155.0569964685319
 30
0.0
 41
2.5
 42
2.5
 43
2.5
  0
MTEXT
  5
17319
330
13932
100
AcDbEntity
  8
SUNPOU
 62
     0
100
AcDbMText
 10
84.49999998757162
 20
158.0569964685319
 30
0.0
 40
5.0
 41
0.0
 71
     5
 72
     1
  1
\A1;91
 73
     1
 44
1.0
1001
ACAD
1000
MTEXTBEGIN
1070
    73
1070
     1
1070
    44
1040
1.0
1070
    74
1070
     0
1000
MTEXTEND
  0
POINT
  5
1731A
330
13932
100
AcDbEntity
  8
DEFPOINTS
 62
     0
100
AcDbPoint
 10
39.00000007592576
 20
137.0000001737955
 30
0.0
  0
POINT
  5
1731B
330
13932
100
AcDbEntity
  8
DEFPOINTS
 62
     0
100
AcDbPoint
 10
129.9999998992174
 20
137.0000001737955
 30
0.0
  0
POINT
  5
1731C
330
13932
100
AcDbEntity
  8
DEFPOINTS
 62
     0
100
AcDbPoint
 10
129.9999998992174
 20
155.0569964685319
 30
0.0
  0
ENDBLK
  5
1393D
330
13932
100
AcDbEntity
  8
0
100
AcDbBlockEnd
  0
BLOCK
  5
13948
330
1393E
100
AcDbEntity
  8
0
100
AcDbBlockBegin
  2
*D6
 70
     1
 10
0.0
 20
0.0
 30
0.0
  3
*D6
  1

  0
LINE
  5
1730B
330
1393E
100
AcDbEntity
  8
SUNPOU
 62
     0
370
    -2
100
AcDbLine
 10
36.50000008078041
 20
227.0
 30
0.0
 11
36.50000008078041
 21
237.9604615161373
 31
0.0
  0
LINE
  5
1730C
330
1393E
100
AcDbEntity
  8
SUNPOU
 62
     0
370
    -2
100
AcDbLine
 10
132.4999998943628
 20
227.0
 30
0.0
 11
132.4999998943628
 21
237.9604615161373
 31
0.0
  0
LINE
  5
1730D
330
1393E
100
AcDbEntity
  8
SUNPOU
 62
     0
370
    -2
100
AcDbLine
 10
39.00000008078041
 20
237.4604615161373
 30
0.0
 11
129.9999998943629
 21
237.4604615161373
 31
0.0
  0
INSERT
  5
1730E
330
1393E
100
AcDbEntity
  8
SUNPOU
 62
     0
370
    -2
100
AcDbBlockReference
  2
_OPEN
 10
36.50000008078041
 20
237.4604615161373
 30
0.0
 41
2.5
 42
2.5
 43
2.5
 50
180.0
  0
INSERT
  5
1730F
330
1393E
100
AcDbEntity
  8
SUNPOU
 62
     0
370
    -2
100
AcDbBlockReference
  2
_OPEN
 10
132.4999998943628
 20
237.4604615161373
 30
0.0
 41
2.5
 42
2.5
 43
2.5
  0
MTEXT
  5
17310
330
1393E
100
AcDbEntity
  8
SUNPOU
 62
     0
100
AcDbMText
 10
84.49999998757164
 20
240.4604615161373
 30
0.0
 40
5.0
 41
0.0
 71
     5
 72
     1
  1
\A1;96
 73
     1
 44
1.0
1001
ACAD
1000
MTEXTBEGIN
1070
    73
1070
     1
1070
    44
1040
1.0
1070
    74
1070
     0
1000
MTEXTEND
  0
POINT
  5
17311
330
1393E
100
AcDbEntity
  8
DEFPOINTS
 62
     0
100
AcDbPoint
 10
36.50000008078041
 20
226.5
 30
0.0
  0
POINT
  5
17312
330
1393E
100
AcDbEntity
  8
DEFPOINTS
 62
     0
100
AcDbPoint
 10
132.4999998943628
 20
226.5
 30
0.0
  0
POINT
  5
17313
330
1393E
100
AcDbEntity
  8
DEFPOINTS
 62
     0
100
AcDbPoint
 10
132.4999998943628
 20
237.4604615161373
 30
0.0
  0
ENDBLK
  5
13949
330
1393E
100
AcDbEntity
  8
0
100
AcDbBlockEnd
  0
BLOCK
  5
13954
330
1394A
100
AcDbEntity
  8
0
100
AcDbBlockBegin
  2
*D7
 70
     1
 10
0.0
 20
0.0
 30
0.0
  3
*D7
  1

  0
LINE
  5
17341
330
1394A
100
AcDbEntity
  8
SUNPOU
 62
     0
370
    -2
100
AcDbLine
 10
270.0
 20
224.5
 30
0.0
 11
270.0
 21
237.9604615161373
 31
0.0
  0
LINE
  5
17342
330
1394A
100
AcDbEntity
  8
SUNPOU
 62
     0
370
    -2
100
AcDbLine
 10
286.5
 20
220.1
 30
0.0
 11
286.5
 21
237.9604615161373
 31
0.0
  0
LINE
  5
17343
330
1394A
100
AcDbEntity
  8
SUNPOU
 62
     0
370
    -2
100
AcDbLine
 10
272.5
 20
237.4604615161373
 30
0.0
 11
284.0
 21
237.4604615161373
 31
0.0
  0
INSERT
  5
17344
330
1394A
100
AcDbEntity
  8
SUNPOU
 62
     0
370
    -2
100
AcDbBlockReference
  2
_OPEN
 10
270.0
 20
237.4604615161373
 30
0.0
 41
2.5
 42
2.5
 43
2.5
 50
180.0
  0
INSERT
  5
17345
330
1394A
100
AcDbEntity
  8
SUNPOU
 62
     0
370
    -2
100
AcDbBlockReference
  2
_OPEN
 10
286.5
 20
237.4604615161373
 30
0.0
 41
2.5
 42
2.5
 43
2.5
  0
MTEXT
  5
17346
330
1394A
100
AcDbEntity
  8
SUNPOU
 62
     0
100
AcDbMText
 10
278.25
 20
240.4604615161373
 30
0.0
 40
5.0
 41
0.0
 71
     5
 72
     1
  1
\A1;17
 73
     1
 44
1.0
1001
ACAD
1000
MTEXTBEGIN
1070
    73
1070
     1
1070
    44
1040
1.0
1070
    74
1070
     0
1000
MTEXTEND
  0
POINT
  5
17347
330
1394A
100
AcDbEntity
  8
DEFPOINTS
 62
     0
100
AcDbPoint
 10
270.0
 20
224.0
 30
0.0
  0
POINT
  5
17348
330
1394A
100
AcDbEntity
  8
DEFPOINTS
 62
     0
100
AcDbPoint
 10
286.5
 20
219.6
 30
0.0
  0
POINT
  5
17349
330
1394A
100
AcDbEntity
  8
DEFPOINTS
 62
     0
100
AcDbPoint
 10
286.5
 20
237.4604615161373
 30
0.0
  0
ENDBLK
  5
13955
330
1394A
100
AcDbEntity
  8
0
100
AcDbBlockEnd
  0
BLOCK
  5
13961
330
13956
100
AcDbEntity
  8
0
100
AcDbBlockBegin
  2
*D8
 70
     1
 10
0.0
 20
0.0
 30
0.0
  3
*D8
  1

  0
LINE
  5
17337
330
13956
100
AcDbEntity
  8
SUNPOU
 62
     0
370
    -2
100
AcDbLine
 10
160.0000000110686
 20
226.0000000019418
 30
0.0
 11
160.0000000110686
 21
237.9604615161373
 31
0.0
  0
LINE
  5
17338
330
13956
100
AcDbEntity
  8
SUNPOU
 62
     0
370
    -2
100
AcDbLine
 10
165.7
 20
227.0
 30
0.0
 11
165.7
 21
237.9604615161373
 31
0.0
  0
LINE
  5
17339
330
13956
100
AcDbEntity
  8
SUNPOU
 62
     0
370
    -2
100
AcDbLine
 10
157.5000000110686
 20
237.4604615161373
 30
0.0
 11
155.0000000110686
 21
237.4604615161373
 31
0.0
  0
LINE
  5
1733A
330
13956
100
AcDbEntity
  8
SUNPOU
 62
     0
370
    -2
100
AcDbLine
 10
168.2
 20
237.4604615161373
 30
0.0
 11
170.7
 21
237.4604615161373
 31
0.0
  0
INSERT
  5
1733B
330
13956
100
AcDbEntity
  8
SUNPOU
 62
     0
370
    -2
100
AcDbBlockReference
  2
_OPEN
 10
160.0000000110686
 20
237.4604615161373
 30
0.0
 41
2.5
 42
2.5
 43
2.5
  0
INSERT
  5
1733C
330
13956
100
AcDbEntity
  8
SUNPOU
 62
     0
370
    -2
100
AcDbBlockReference
  2
_OPEN
 10
165.7
 20
237.4604615161373
 30
0.0
 41
2.5
 42
2.5
 43
2.5
 50
180.0
  0
MTEXT
  5
1733D
330
13956
100
AcDbEntity
  8
SUNPOU
 62
     0
100
AcDbMText
 10
162.8500000055343
 20
240.4604615161373
 30
0.0
 40
5.0
 41
0.0
 71
     5
 72
     1
  1
\A1;6
 73
     1
 44
1.0
1001
ACAD
1000
MTEXTBEGIN
1070
    73
1070
     1
1070
    44
1040
1.0
1070
    74
1070
     0
1000
MTEXTEND
  0
POINT
  5
1733E
330
13956
100
AcDbEntity
  8
DEFPOINTS
 62
     0
100
AcDbPoint
 10
160.0000000110686
 20
225.5000000019418
 30
0.0
  0
POINT
  5
1733F
330
13956
100
AcDbEntity
  8
DEFPOINTS
 62
     0
100
AcDbPoint
 10
165.7
 20
226.5
 30
0.0
  0
POINT
  5
17340
330
13956
100
AcDbEntity
  8
DEFPOINTS
 62
     0
100
AcDbPoint
 10
165.7
 20
237.4604615161373
 30
0.0
  0
ENDBLK
  5
13962
330
13956
100
AcDbEntity
  8
0
100
AcDbBlockEnd
  0
BLOCK
  5
1396C
330
13963
100
AcDbEntity
  8
0
100
AcDbBlockBegin
  2
*D9
 70
     1
 10
0.0
 20
0.0
 30
0.0
  3
*D9
  1

  0
LINE
  5
1732F
330
13963
100
AcDbEntity
  8
SUNPOU
 62
     0
370
    -2
100
AcDbLine
 10
270.0
 20
224.5000000048547
 30
0.0
 11
270.0
 21
237.9604615161373
 31
0.0
  0
LINE
  5
17330
330
13963
100
AcDbEntity
  8
SUNPOU
 62
     0
370
    -2
100
AcDbLine
 10
168.2
 20
237.4604615161373
 30
0.0
 11
267.5
 21
237.4604615161373
 31
0.0
  0
INSERT
  5
17331
330
13963
100
AcDbEntity
  8
SUNPOU
 62
     0
370
    -2
100
AcDbBlockReference
  2
_OPEN
 10
165.7
 20
237.4604615161373
 30
0.0
 41
2.5
 42
2.5
 43
2.5
 50
180.0
  0
INSERT
  5
17332
330
13963
100
AcDbEntity
  8
SUNPOU
 62
     0
370
    -2
100
AcDbBlockReference
  2
_OPEN
 10
270.0
 20
237.4604615161373
 30
0.0
 41
2.5
 42
2.5
 43
2.5
  0
MTEXT
  5
17333
330
13963
100
AcDbEntity
  8
SUNPOU
 62
     0
100
AcDbMText
 10
217.85
 20
240.4604615161373
 30
0.0
 40
5.0
 41
0.0
 71
     5
 72
     1
  1
\A1;104
 73
     1
 44
1.0
1001
ACAD
1000
MTEXTBEGIN
1070
    73
1070
     1
1070
    44
1040
1.0
1070
    74
1070
     0
1000
MTEXTEND
  0
POINT
  5
17334
330
13963
100
AcDbEntity
  8
DEFPOINTS
 62
     0
100
AcDbPoint
 10
165.7
 20
226.5
 30
0.0
  0
POINT
  5
17335
330
13963
100
AcDbEntity
  8
DEFPOINTS
 62
     0
100
AcDbPoint
 10
270.0
 20
224.0000000048547
 30
0.0
  0
POINT
  5
17336
330
13963
100
AcDbEntity
  8
DEFPOINTS
 62
     0
100
AcDbPoint
 10
270.0
 20
237.4604615161373
 30
0.0
  0
ENDBLK
  5
1396D
330
13963
100
AcDbEntity
  8
0
100
AcDbBlockEnd
  0
BLOCK
  5
1725E
330
1725D
100
AcDbEntity
  8
0
100
AcDbBlockBegin
  2
Side-plate
 70
     0
 10
0.0
 20
0.0
 30
0.0
  3
Side-plate
  1

  0
LINE
  5
17260
330
1725D
100
AcDbEntity
  8
0
100
AcDbLine
 10
0.0
 20
9.0
 30
0.0
 11
0.0
 21
0.0
 31
0.0
  0
LINE
  5
17261
330
1725D
100
AcDbEntity
  8
0
100
AcDbLine
 10
2.0
 20
9.0
 30
0.0
 11
2.0
 21
0.0
 31
0.0
  0
LINE
  5
17262
330
1725D
100
AcDbEntity
  8
0
100
AcDbLine
 10
-103.5
 20
0.0
 30
0.0
 11
0.0
 21
0.0
 31
0.0
  0
LINE
  5
17263
330
1725D
100
AcDbEntity
  8
0
100
AcDbLine
 10
-103.5
 20
-2.0
 30
0.0
 11
0.0
 21
-2.0
 31
0.0
  0
ARC
  5
17264
330
1725D
100
AcDbEntity
  8
0
100
AcDbCircle
 10
0.0
 20
0.0
 30
0.0
 40
2.0
100
AcDbArc
 50
270.0
 51
0.0
  0
LINE
  5
17265
330
1725D
100
AcDbEntity
  8
0
100
AcDbLine
 10
-103.5
 20
0.0
 30
0.0
 11
0.0
 21
0.0
 31
0.0
  0
LINE
  5
17266
330
1725D
100
AcDbEntity
  8
0
100
AcDbLine
 10
-103.5
 20
-2.0
 30
0.0
 11
-103.5
 21
0.0
 31
0.0
  0
LINE
  5
17267
330
1725D
100
AcDbEntity
  8
0
100
AcDbLine
 10
2.0
 20
9.0
 30
0.0
 11
0.0
 21
9.0
 31
0.0
  0
LINE
  5
17268
330
1725D
100
AcDbEntity
  8
0
100
AcDbLine
 10
2.0
 20
8.5
 30
0.0
 11
0.0
 21
8.5
 31
0.0
  0
LINE
  5
17269
330
1725D
100
AcDbEntity
  8
0
100
AcDbLine
 10
-103.0
 20
-2.0
 30
0.0
 11
-103.0
 21
0.0
 31
0.0
  0
ENDBLK
  5
1725F
330
1725D
100
AcDbEntity
  8
0
100
AcDbBlockEnd
  0
BLOCK
  5
172AC
330
172A2
100
AcDbEntity
  8
0
100
AcDbBlockBegin
  2
*D11
 70
     1
 10
0.0
 20
0.0
 30
0.0
  3
*D11
  1

  0
LINE
  5
17394
330
172A2
100
AcDbEntity
  8
SUNPOU
 62
     0
370
    -2
100
AcDbLine
 10
258.19999982135
 20
137.5000001262203
 30
0.0
 11
269.6693717610903
 21
137.5000001262203
 31
0.0
  0
LINE
  5
17395
330
172A2
100
AcDbEntity
  8
SUNPOU
 62
     0
370
    -2
100
AcDbLine
 10
258.19999982135
 20
93.50000021166165
 30
0.0
 11
269.6693717610902
 21
93.50000021166165
 31
0.0
  0
LINE
  5
17396
330
172A2
100
AcDbEntity
  8
SUNPOU
 62
     0
370
    -2
100
AcDbLine
 10
269.1693717610903
 20
135.0000001262202
 30
0.0
 11
269.1693717610903
 21
96.00000021166167
 31
0.0
  0
INSERT
  5
17397
330
172A2
100
AcDbEntity
  8
SUNPOU
 62
     0
370
    -2
100
AcDbBlockReference
  2
_OPEN
 10
269.1693717610903
 20
137.5000001262203
 30
0.0
 41
2.5
 42
2.5
 43
2.5
 50
90.0
  0
INSERT
  5
17398
330
172A2
100
AcDbEntity
  8
SUNPOU
 62
     0
370
    -2
100
AcDbBlockReference
  2
_OPEN
 10
269.1693717610903
 20
93.50000021166165
 30
0.0
 41
2.5
 42
2.5
 43
2.5
 50
270.0
  0
MTEXT
  5
17399
330
172A2
100
AcDbEntity
  8
SUNPOU
 62
     0
100
AcDbMText
 10
266.1693717610902
 20
115.500000168941
 30
0.0
 40
5.0
 41
0.0
 71
     5
 72
     1
  1
\A1;44
 11
0.0000000000000001
 21
1.0
 31
0.0
 73
     1
 44
1.0
1001
ACAD
1000
MTEXTBEGIN
1070
    73
1070
     1
1070
    44
1040
1.0
1070
    74
1070
     0
1000
MTEXTEND
  0
POINT
  5
1739A
330
172A2
100
AcDbEntity
  8
DEFPOINTS
 62
     0
100
AcDbPoint
 10
257.6999998213499
 20
137.5000001262203
 30
0.0
  0
POINT
  5
1739B
330
172A2
100
AcDbEntity
  8
DEFPOINTS
 62
     0
100
AcDbPoint
 10
257.6999998213499
 20
93.50000021166165
 30
0.0
  0
POINT
  5
1739C
330
172A2
100
AcDbEntity
  8
DEFPOINTS
 62
     0
100
AcDbPoint
 10
269.1693717610903
 20
93.50000021166165
 30
0.0
  0
ENDBLK
  5
172AD
330
172A2
100
AcDbEntity
  8
0
100
AcDbBlockEnd
  0
BLOCK
  5
17670
330
17666
100
AcDbEntity
  8
0
100
AcDbBlockBegin
  2
*D12
 70
     1
 10
0.0
 20
0.0
 30
0.0
  3
*D12
  1

  0
LINE
  5
1767B
330
17666
100
AcDbEntity
  8
SUNPOU
 62
     0
370
    -2
100
AcDbLine
 10
257.6999998213499
 20
138.0000001262202
 30
0.0
 11
257.6999998213499
 21
148.157900409533
 31
0.0
  0
LINE
  5
1767C
330
17666
100
AcDbEntity
  8
SUNPOU
 62
     0
370
    -2
100
AcDbLine
 10
165.7
 20
138.0000001262202
 30
0.0
 11
165.7
 21
148.157900409533
 31
0.0
  0
LINE
  5
1767D
330
17666
100
AcDbEntity
  8
SUNPOU
 62
     0
370
    -2
100
AcDbLine
 10
255.1999998213499
 20
147.6579004095329
 30
0.0
 11
168.2
 21
147.6579004095329
 31
0.0
  0
INSERT
  5
1767E
330
17666
100
AcDbEntity
  8
SUNPOU
 62
     0
370
    -2
100
AcDbBlockReference
  2
_OPEN
 10
257.6999998213499
 20
147.6579004095329
 30
0.0
 41
2.5
 42
2.5
 43
2.5
  0
INSERT
  5
1767F
330
17666
100
AcDbEntity
  8
SUNPOU
 62
     0
370
    -2
100
AcDbBlockReference
  2
_OPEN
 10
165.7
 20
147.6579004095329
 30
0.0
 41
2.5
 42
2.5
 43
2.5
 50
180.0
  0
MTEXT
  5
17680
330
17666
100
AcDbEntity
  8
SUNPOU
 62
     0
100
AcDbMText
 10
211.8937225810901
 20
150.6579004095329
 30
0.0
 40
5.0
 41
0.0
 71
     5
 72
     1
  1
\A1;92
 73
     1
 44
1.0
1001
ACAD
1000
MTEXTBEGIN
1070
    73
1070
     1
1070
    44
1040
1.0
1070
    74
1070
     0
1000
MTEXTEND
  0
POINT
  5
17681
330
17666
100
AcDbEntity
  8
DEFPOINTS
 62
     0
100
AcDbPoint
 10
257.6999998213499
 20
137.5000001262203
 30
0.0
  0
POINT
  5
17682
330
17666
100
AcDbEntity
  8
DEFPOINTS
 62
     0
100
AcDbPoint
 10
165.7
 20
137.5000001262203
 30
0.0
  0
POINT
  5
17683
330
17666
100
AcDbEntity
  8
DEFPOINTS
 62
     0
100
AcDbPoint
 10
165.7
 20
147.6579004095329
 30
0.0
  0
ENDBLK
  5
17671
330
17666
100
AcDbEntity
  8
0
100
AcDbBlockEnd
  0
BLOCK
  5
17965
330
17964
100
AcDbEntity
  8
0
100
AcDbBlockBegin
  2
F2361AX-5P
 70
     0
 10
0.0
 20
0.0
 30
0.0
  3
F2361AX-5P
  1

  0
LWPOLYLINE
  5
17966
330
17964
100
AcDbEntity
  8
0
100
AcDbPolyline
 90
       13
 70
     0
 43
0.0
 10
4.789999999999963
 20
-7.109999999999985
 10
4.789999999999963
 20
-8.329999999999984
 10
6.009999999999962
 20
-8.329999999999984
 10
6.009999999999962
 20
-7.109999999999985
 10
7.229999999999989
 20
-7.109999999999985
 10
7.229999999999989
 20
-5.889999999999986
 10
6.009999999999962
 20
-5.889999999999986
 10
6.009999999999962
 20
-4.669999999999987
 10
4.789999999999963
 20
-4.669999999999987
 10
4.789999999999963
 20
-5.889999999999986
 10
3.569999999999964
 20
-5.889999999999986
 10
3.569999999999964
 20
-7.109999999999985
 10
4.789999999999963
 20
-7.109999999999985
  0
LWPOLYLINE
  5
17967
330
17964
100
AcDbEntity
  8
0
100
AcDbPolyline
 90
       13
 70
     0
 43
0.0
 10
20.02999999999997
 20
-7.109999999999985
 10
20.02999999999997
 20
-8.329999999999984
 10
21.24999999999997
 20
-8.329999999999984
 10
21.24999999999997
 20
-7.109999999999985
 10
22.47
 20
-7.109999999999985
 10
22.47
 20
-5.889999999999986
 10
21.24999999999997
 20
-5.889999999999986
 10
21.24999999999997
 20
-4.669999999999987
 10
20.02999999999997
 20
-4.669999999999987
 10
20.02999999999997
 20
-5.889999999999986
 10
18.80999999999997
 20
-5.889999999999986
 10
18.80999999999997
 20
-7.109999999999985
 10
20.02999999999997
 20
-7.109999999999985
  0
LWPOLYLINE
  5
17968
330
17964
100
AcDbEntity
  8
0
100
AcDbPolyline
 90
       13
 70
     0
 43
0.0
 10
12.40999999999997
 20
-7.109999999999985
 10
12.40999999999997
 20
-8.329999999999984
 10
13.62999999999997
 20
-8.329999999999984
 10
13.62999999999997
 20
-7.109999999999985
 10
14.84999999999999
 20
-7.109999999999985
 10
14.84999999999999
 20
-5.889999999999986
 10
13.62999999999997
 20
-5.889999999999986
 10
13.62999999999997
 20
-4.669999999999987
 10
12.40999999999997
 20
-4.669999999999987
 10
12.40999999999997
 20
-5.889999999999986
 10
11.18999999999997
 20
-5.889999999999986
 10
11.18999999999997
 20
-7.109999999999985
 10
12.40999999999997
 20
-7.109999999999985
  0
LWPOLYLINE
  5
17969
330
17964
100
AcDbEntity
  8
0
100
AcDbPolyline
 90
       13
 70
     0
 43
0.0
 10
27.64999999999992
 20
-7.109999999999992
 10
27.64999999999992
 20
-8.329999999999991
 10
28.86999999999992
 20
-8.329999999999991
 10
28.86999999999992
 20
-7.109999999999992
 10
30.08999999999995
 20
-7.109999999999992
 10
30.08999999999995
 20
-5.889999999999993
 10
28.86999999999992
 20
-5.889999999999993
 10
28.86999999999992
 20
-4.669999999999994
 10
27.64999999999992
 20
-4.669999999999994
 10
27.64999999999992
 20
-5.889999999999993
 10
26.42999999999992
 20
-5.889999999999993
 10
26.42999999999992
 20
-7.109999999999992
 10
27.64999999999992
 20
-7.109999999999992
  0
LWPOLYLINE
  5
1796A
330
17964
100
AcDbEntity
  8
0
100
AcDbPolyline
 90
       13
 70
     0
 43
0.0
 10
35.26999999999993
 20
-7.109999999999992
 10
35.26999999999993
 20
-8.329999999999991
 10
36.48999999999992
 20
-8.329999999999991
 10
36.48999999999992
 20
-7.109999999999992
 10
37.70999999999995
 20
-7.109999999999992
 10
37.70999999999995
 20
-5.889999999999993
 10
36.48999999999992
 20
-5.889999999999993
 10
36.48999999999992
 20
-4.669999999999994
 10
35.26999999999993
 20
-4.669999999999994
 10
35.26999999999993
 20
-5.889999999999993
 10
34.04999999999993
 20
-5.889999999999993
 10
34.04999999999993
 20
-7.109999999999992
 10
35.26999999999993
 20
-7.109999999999992
  0
LINE
  5
1796B
330
17964
100
AcDbEntity
  8
0
100
AcDbLine
 10
37.37999999999999
 20
-9.500000000000007
 30
0.0
 11
37.37999999999999
 21
-10.30000000000002
 31
0.0
  0
LINE
  5
1796C
330
17964
100
AcDbEntity
  8
0
100
AcDbLine
 10
36.63000000000006
 20
-2.500000000000063
 30
0.0
 11
36.63
 21
-3.300000000000018
 31
0.0
  0
LINE
  5
1796D
330
17964
100
AcDbEntity
  8
0
100
AcDbLine
 10
37.37999999999999
 20
-2.700000000000052
 30
0.0
 11
37.37999999999999
 21
-3.500000000000007
 31
0.0
  0
LINE
  5
1796E
330
17964
100
AcDbEntity
  8
0
100
AcDbLine
 10
40.30000000000007
 20
-0.0000000000000071
 30
0.0
 11
40.30000000000001
 21
-12.00000000000001
 31
0.0
  0
LINE
  5
1796F
330
17964
100
AcDbEntity
  8
0
100
AcDbLine
 10
39.10000000000002
 20
-0.0000000000000071
 30
0.0
 11
39.10000000000002
 21
-12.00000000000001
 31
0.0
  0
LINE
  5
17970
330
17964
100
AcDbEntity
  8
0
100
AcDbLine
 10
25.05999999999995
 20
-9.500000000000007
 30
0.0
 11
31.46000000000004
 21
-9.500000000000007
 31
0.0
  0
LINE
  5
17971
330
17964
100
AcDbEntity
  8
0
100
AcDbLine
 10
25.05999999999995
 20
-11.09999999999997
 30
0.0
 11
31.46000000000004
 21
-11.10000000000003
 31
0.0
  0
LINE
  5
17972
330
17964
100
AcDbEntity
  8
0
100
AcDbLine
 10
26.75999999999999
 20
-10.30000000000002
 30
0.0
 11
29.75999999999999
 21
-10.30000000000002
 31
0.0
  0
LINE
  5
17973
330
17964
100
AcDbEntity
  8
0
100
AcDbLine
 10
29.75999999999999
 20
-9.500000000000007
 30
0.0
 11
29.75999999999999
 21
-10.30000000000002
 31
0.0
  0
LINE
  5
17974
330
17964
100
AcDbEntity
  8
0
100
AcDbLine
 10
34.38
 20
-9.500000000000007
 30
0.0
 11
34.38
 21
-10.30000000000002
 31
0.0
  0
LINE
  5
17975
330
17964
100
AcDbEntity
  8
0
100
AcDbLine
 10
26.75999999999999
 20
-9.500000000000007
 30
0.0
 11
26.75999999999999
 21
-10.30000000000002
 31
0.0
  0
LINE
  5
17976
330
17964
100
AcDbEntity
  8
0
100
AcDbLine
 10
25.06
 20
-3.500000000000007
 30
0.0
 11
31.45999999999992
 21
-3.500000000000007
 31
0.0
  0
LINE
  5
17977
330
17964
100
AcDbEntity
  8
0
100
AcDbLine
 10
25.06
 20
-1.900000000000041
 30
0.0
 11
31.45999999999992
 21
-1.900000000000041
 31
0.0
  0
LINE
  5
17978
330
17964
100
AcDbEntity
  8
0
100
AcDbLine
 10
27.50999999999999
 20
-2.500000000000063
 30
0.0
 11
29.00999999999999
 21
-2.500000000000063
 31
0.0
  0
LINE
  5
17979
330
17964
100
AcDbEntity
  8
0
100
AcDbLine
 10
27.50999999999999
 20
-3.300000000000018
 30
0.0
 11
29.00999999999999
 21
-3.300000000000018
 31
0.0
  0
LINE
  5
1797A
330
17964
100
AcDbEntity
  8
0
100
AcDbLine
 10
26.75999999999999
 20
-2.699999999999995
 30
0.0
 11
29.75999999999999
 21
-2.699999999999995
 31
0.0
  0
LINE
  5
1797B
330
17964
100
AcDbEntity
  8
0
100
AcDbLine
 10
29.75999999999999
 20
-2.699999999999995
 30
0.0
 11
29.75999999999999
 21
-3.500000000000007
 31
0.0
  0
LINE
  5
1797C
330
17964
100
AcDbEntity
  8
0
100
AcDbLine
 10
29.01000000000005
 20
-2.500000000000063
 30
0.0
 11
29.00999999999999
 21
-3.300000000000018
 31
0.0
  0
LINE
  5
1797D
330
17964
100
AcDbEntity
  8
0
100
AcDbLine
 10
35.13
 20
-2.500000000000063
 30
0.0
 11
35.13
 21
-3.300000000000018
 31
0.0
  0
LINE
  5
1797E
330
17964
100
AcDbEntity
  8
0
100
AcDbLine
 10
34.38
 20
-2.699999999999995
 30
0.0
 11
34.38
 21
-3.500000000000007
 31
0.0
  0
LINE
  5
1797F
330
17964
100
AcDbEntity
  8
0
100
AcDbLine
 10
26.75999999999999
 20
-2.699999999999995
 30
0.0
 11
26.75999999999999
 21
-3.500000000000007
 31
0.0
  0
LINE
  5
17980
330
17964
100
AcDbEntity
  8
0
100
AcDbLine
 10
27.50999999999999
 20
-2.500000000000063
 30
0.0
 11
27.50999999999999
 21
-3.300000000000018
 31
0.0
  0
CIRCLE
  5
17981
330
17964
100
AcDbEntity
  8
0
100
AcDbCircle
 10
28.25999999999993
 20
-6.500000000000007
 30
0.0
 40
2.75
  0
LINE
  5
17982
330
17964
100
AcDbEntity
  8
0
100
AcDbLine
 10
31.45999999999992
 20
-0.0000000000000071
 30
0.0
 11
31.45999999999998
 21
-12.00000000000001
 31
0.0
  0
LINE
  5
17983
330
17964
100
AcDbEntity
  8
0
100
AcDbLine
 10
32.68000000000006
 20
-0.0000000000000071
 30
0.0
 11
32.68000000000001
 21
-12.00000000000001
 31
0.0
  0
LINE
  5
17984
330
17964
100
AcDbEntity
  8
0
100
AcDbLine
 10
25.06000000000006
 20
-0.0000000000000071
 30
0.0
 11
25.06
 21
-12.00000000000001
 31
0.0
  0
LINE
  5
17985
330
17964
100
AcDbEntity
  8
0
100
AcDbLine
 10
32.68000000000001
 20
-3.500000000000007
 30
0.0
 11
39.08000000000004
 21
-3.500000000000007
 31
0.0
  0
LINE
  5
17986
330
17964
100
AcDbEntity
  8
0
100
AcDbLine
 10
32.67999999999995
 20
-9.500000000000007
 30
0.0
 11
39.08000000000004
 21
-9.500000000000007
 31
0.0
  0
LINE
  5
17987
330
17964
100
AcDbEntity
  8
0
100
AcDbLine
 10
32.68000000000001
 20
-1.900000000000041
 30
0.0
 11
39.07999999999993
 21
-1.900000000000041
 31
0.0
  0
LINE
  5
17988
330
17964
100
AcDbEntity
  8
0
100
AcDbLine
 10
32.67999999999995
 20
-9.500000000000007
 30
0.0
 11
39.08000000000004
 21
-9.500000000000007
 31
0.0
  0
LINE
  5
17989
330
17964
100
AcDbEntity
  8
0
100
AcDbLine
 10
32.67999999999995
 20
-11.10000000000003
 30
0.0
 11
39.08000000000004
 21
-11.10000000000003
 31
0.0
  0
CIRCLE
  5
1798A
330
17964
100
AcDbEntity
  8
0
100
AcDbCircle
 10
35.87999999999994
 20
-6.500000000000007
 30
0.0
 40
2.75
  0
LINE
  5
1798B
330
17964
100
AcDbEntity
  8
0
100
AcDbLine
 10
34.38
 20
-10.30000000000002
 30
0.0
 11
37.37999999999999
 21
-10.30000000000002
 31
0.0
  0
LINE
  5
1798C
330
17964
100
AcDbEntity
  8
0
100
AcDbLine
 10
35.13
 20
-2.500000000000063
 30
0.0
 11
36.63
 21
-2.500000000000063
 31
0.0
  0
LINE
  5
1798D
330
17964
100
AcDbEntity
  8
0
100
AcDbLine
 10
35.13
 20
-3.300000000000018
 30
0.0
 11
36.63
 21
-3.300000000000018
 31
0.0
  0
LINE
  5
1798E
330
17964
100
AcDbEntity
  8
0
100
AcDbLine
 10
34.38
 20
-2.699999999999995
 30
0.0
 11
37.37999999999999
 21
-2.699999999999995
 31
0.0
  0
LINE
  5
1798F
330
17964
100
AcDbEntity
  8
0
100
AcDbLine
 10
17.43999999999994
 20
-9.5
 30
0.0
 11
23.84000000000003
 21
-9.5
 31
0.0
  0
LINE
  5
17990
330
17964
100
AcDbEntity
  8
0
100
AcDbLine
 10
17.43999999999994
 20
-11.09999999999996
 30
0.0
 11
23.84000000000003
 21
-11.09999999999996
 31
0.0
  0
LINE
  5
17991
330
17964
100
AcDbEntity
  8
0
100
AcDbLine
 10
19.13999999999998
 20
-9.5
 30
0.0
 11
19.13999999999998
 21
-10.30000000000001
 31
0.0
  0
LINE
  5
17992
330
17964
100
AcDbEntity
  8
0
100
AcDbLine
 10
22.13999999999999
 20
-9.5
 30
0.0
 11
22.13999999999999
 21
-10.30000000000001
 31
0.0
  0
LINE
  5
17993
330
17964
100
AcDbEntity
  8
0
100
AcDbLine
 10
19.13999999999998
 20
-10.30000000000001
 30
0.0
 11
22.13999999999999
 21
-10.30000000000001
 31
0.0
  0
LINE
  5
17994
330
17964
100
AcDbEntity
  8
0
100
AcDbLine
 10
14.51999999999998
 20
-9.5
 30
0.0
 11
14.51999999999998
 21
-10.30000000000001
 31
0.0
  0
LINE
  5
17995
330
17964
100
AcDbEntity
  8
0
100
AcDbLine
 10
17.43999999999994
 20
-3.5
 30
0.0
 11
23.83999999999998
 21
-3.500000000000007
 31
0.0
  0
LINE
  5
17996
330
17964
100
AcDbEntity
  8
0
100
AcDbLine
 10
17.43999999999994
 20
-1.900000000000034
 30
0.0
 11
23.83999999999992
 21
-1.900000000000041
 31
0.0
  0
LINE
  5
17997
330
17964
100
AcDbEntity
  8
0
100
AcDbLine
 10
19.13999999999998
 20
-2.699999999999988
 30
0.0
 11
19.13999999999998
 21
-3.5
 31
0.0
  0
LINE
  5
17998
330
17964
100
AcDbEntity
  8
0
100
AcDbLine
 10
19.88999999999998
 20
-2.500000000000056
 30
0.0
 11
19.88999999999998
 21
-3.300000000000011
 31
0.0
  0
LINE
  5
17999
330
17964
100
AcDbEntity
  8
0
100
AcDbLine
 10
22.13999999999999
 20
-2.699999999999995
 30
0.0
 11
22.13999999999999
 21
-3.500000000000007
 31
0.0
  0
LINE
  5
1799A
330
17964
100
AcDbEntity
  8
0
100
AcDbLine
 10
21.38999999999999
 20
-2.500000000000063
 30
0.0
 11
21.38999999999999
 21
-3.300000000000018
 31
0.0
  0
LINE
  5
1799B
330
17964
100
AcDbEntity
  8
0
100
AcDbLine
 10
19.13999999999998
 20
-2.699999999999988
 30
0.0
 11
22.13999999999999
 21
-2.699999999999995
 31
0.0
  0
LINE
  5
1799C
330
17964
100
AcDbEntity
  8
0
100
AcDbLine
 10
19.88999999999998
 20
-2.500000000000056
 30
0.0
 11
21.38999999999999
 21
-2.500000000000063
 31
0.0
  0
LINE
  5
1799D
330
17964
100
AcDbEntity
  8
0
100
AcDbLine
 10
19.88999999999998
 20
-3.300000000000011
 30
0.0
 11
21.38999999999999
 21
-3.300000000000018
 31
0.0
  0
LINE
  5
1799E
330
17964
100
AcDbEntity
  8
0
100
AcDbLine
 10
14.51999999999998
 20
-2.699999999999988
 30
0.0
 11
14.51999999999998
 21
-3.5
 31
0.0
  0
LINE
  5
1799F
330
17964
100
AcDbEntity
  8
0
100
AcDbLine
 10
17.44000000000005
 20
0.0
 30
0.0
 11
17.43999999999994
 21
-12.0
 31
0.0
  0
LINE
  5
179A0
330
17964
100
AcDbEntity
  8
0
100
AcDbLine
 10
16.24000000000001
 20
0.0
 30
0.0
 11
16.24000000000001
 21
-12.0
 31
0.0
  0
LINE
  5
179A1
330
17964
100
AcDbEntity
  8
0
100
AcDbLine
 10
23.83999999999992
 20
-0.0000000000000071
 30
0.0
 11
23.83999999999998
 21
-12.0
 31
0.0
  0
CIRCLE
  5
179A2
330
17964
100
AcDbEntity
  8
0
100
AcDbCircle
 10
20.63999999999999
 20
-6.5
 30
0.0
 40
2.75
  0
LINE
  5
179A3
330
17964
100
AcDbEntity
  8
0
100
AcDbLine
 10
11.51999999999998
 20
-9.5
 30
0.0
 11
11.51999999999998
 21
-10.30000000000001
 31
0.0
  0
LINE
  5
179A4
330
17964
100
AcDbEntity
  8
0
100
AcDbLine
 10
3.899999999999977
 20
-10.30000000000001
 30
0.0
 11
6.899999999999977
 21
-10.30000000000001
 31
0.0
  0
LINE
  5
179A5
330
17964
100
AcDbEntity
  8
0
100
AcDbLine
 10
3.899999999999977
 20
-9.5
 30
0.0
 11
3.899999999999977
 21
-10.30000000000001
 31
0.0
  0
LINE
  5
179A6
330
17964
100
AcDbEntity
  8
0
100
AcDbLine
 10
6.899999999999977
 20
-9.5
 30
0.0
 11
6.899999999999977
 21
-10.30000000000001
 31
0.0
  0
LINE
  5
179A7
330
17964
100
AcDbEntity
  8
0
100
AcDbLine
 10
11.51999999999998
 20
-2.699999999999988
 30
0.0
 11
11.51999999999998
 21
-3.5
 31
0.0
  0
LINE
  5
179A8
330
17964
100
AcDbEntity
  8
0
100
AcDbLine
 10
13.77000000000009
 20
-2.500000000000056
 30
0.0
 11
13.76999999999998
 21
-3.300000000000011
 31
0.0
  0
LINE
  5
179A9
330
17964
100
AcDbEntity
  8
0
100
AcDbLine
 10
12.26999999999998
 20
-2.500000000000056
 30
0.0
 11
12.26999999999998
 21
-3.300000000000011
 31
0.0
  0
LINE
  5
179AA
330
17964
100
AcDbEntity
  8
0
100
AcDbLine
 10
12.26999999999998
 20
-2.500000000000056
 30
0.0
 11
13.76999999999998
 21
-2.500000000000056
 31
0.0
  0
LINE
  5
179AB
330
17964
100
AcDbEntity
  8
0
100
AcDbLine
 10
12.26999999999998
 20
-3.300000000000011
 30
0.0
 11
13.76999999999998
 21
-3.300000000000011
 31
0.0
  0
LINE
  5
179AC
330
17964
100
AcDbEntity
  8
0
100
AcDbLine
 10
4.649999999999977
 20
-2.500000000000056
 30
0.0
 11
6.149999999999977
 21
-2.500000000000056
 31
0.0
  0
LINE
  5
179AD
330
17964
100
AcDbEntity
  8
0
100
AcDbLine
 10
4.649999999999977
 20
-3.300000000000011
 30
0.0
 11
6.149999999999977
 21
-3.300000000000011
 31
0.0
  0
LINE
  5
179AE
330
17964
100
AcDbEntity
  8
0
100
AcDbLine
 10
3.899999999999977
 20
-2.699999999999988
 30
0.0
 11
6.899999999999977
 21
-2.699999999999988
 31
0.0
  0
LINE
  5
179AF
330
17964
100
AcDbEntity
  8
0
100
AcDbLine
 10
3.899999999999977
 20
-2.699999999999988
 30
0.0
 11
3.899999999999977
 21
-3.5
 31
0.0
  0
LINE
  5
179B0
330
17964
100
AcDbEntity
  8
0
100
AcDbLine
 10
4.649999999999977
 20
-2.500000000000056
 30
0.0
 11
4.649999999999977
 21
-3.300000000000011
 31
0.0
  0
LINE
  5
179B1
330
17964
100
AcDbEntity
  8
0
100
AcDbLine
 10
6.899999999999977
 20
-2.699999999999988
 30
0.0
 11
6.899999999999977
 21
-3.5
 31
0.0
  0
LINE
  5
179B2
330
17964
100
AcDbEntity
  8
0
100
AcDbLine
 10
6.149999999999977
 20
-2.500000000000056
 30
0.0
 11
6.149999999999977
 21
-3.300000000000011
 31
0.0
  0
LINE
  5
179B3
330
17964
100
AcDbEntity
  8
0
100
AcDbLine
 10
8.599999999999909
 20
0.0
 30
0.0
 11
8.600000000000022
 21
-12.0
 31
0.0
  0
LINE
  5
179B4
330
17964
100
AcDbEntity
  8
0
100
AcDbLine
 10
9.82000000000005
 20
0.0
 30
0.0
 11
9.82000000000005
 21
-12.0
 31
0.0
  0
CIRCLE
  5
179B5
330
17964
100
AcDbEntity
  8
0
100
AcDbCircle
 10
13.01999999999998
 20
-6.5
 30
0.0
 40
2.75
  0
LINE
  5
179B6
330
17964
100
AcDbEntity
  8
0
100
AcDbLine
 10
9.819999999999936
 20
-9.5
 30
0.0
 11
16.22000000000002
 21
-9.5
 31
0.0
  0
LINE
  5
179B7
330
17964
100
AcDbEntity
  8
0
100
AcDbLine
 10
9.819999999999936
 20
-9.5
 30
0.0
 11
16.22000000000002
 21
-9.5
 31
0.0
  0
LINE
  5
179B8
330
17964
100
AcDbEntity
  8
0
100
AcDbLine
 10
9.819999999999936
 20
-11.09999999999996
 30
0.0
 11
16.22000000000002
 21
-11.09999999999996
 31
0.0
  0
LINE
  5
179B9
330
17964
100
AcDbEntity
  8
0
100
AcDbLine
 10
11.51999999999998
 20
-10.30000000000001
 30
0.0
 11
14.51999999999998
 21
-10.30000000000001
 31
0.0
  0
LINE
  5
179BA
330
17964
100
AcDbEntity
  8
0
100
AcDbLine
 10
9.82000000000005
 20
-3.5
 30
0.0
 11
16.22000000000002
 21
-3.5
 31
0.0
  0
LINE
  5
179BB
330
17964
100
AcDbEntity
  8
0
100
AcDbLine
 10
9.82000000000005
 20
-1.900000000000034
 30
0.0
 11
16.21999999999991
 21
-1.900000000000034
 31
0.0
  0
LINE
  5
179BC
330
17964
100
AcDbEntity
  8
0
100
AcDbLine
 10
11.51999999999998
 20
-2.699999999999988
 30
0.0
 11
14.51999999999998
 21
-2.699999999999988
 31
0.0
  0
LINE
  5
179BD
330
17964
100
AcDbEntity
  8
0
100
AcDbLine
 10
2.200000000000045
 20
0.0
 30
0.0
 11
2.199999999999931
 21
-12.0
 31
0.0
  0
LINE
  5
179BE
330
17964
100
AcDbEntity
  8
0
100
AcDbLine
 10
1.0
 20
0.0
 30
0.0
 11
1.0
 21
-12.0
 31
0.0
  0
LINE
  5
179BF
330
17964
100
AcDbEntity
  8
0
100
AcDbLine
 10
0.0
 20
0.0
 30
0.0
 11
0.0
 21
-12.0
 31
0.0
  0
LINE
  5
179C0
330
17964
100
AcDbEntity
  8
0
100
AcDbLine
 10
2.199999999999931
 20
-9.5
 30
0.0
 11
8.600000000000022
 21
-9.5
 31
0.0
  0
LINE
  5
179C1
330
17964
100
AcDbEntity
  8
0
100
AcDbLine
 10
2.199999999999931
 20
-3.5
 30
0.0
 11
8.599999999999909
 21
-3.5
 31
0.0
  0
LINE
  5
179C2
330
17964
100
AcDbEntity
  8
0
100
AcDbLine
 10
2.199999999999931
 20
-1.900000000000034
 30
0.0
 11
8.599999999999909
 21
-1.900000000000034
 31
0.0
  0
LINE
  5
179C3
330
17964
100
AcDbEntity
  8
0
100
AcDbLine
 10
2.199999999999931
 20
-11.09999999999996
 30
0.0
 11
8.600000000000022
 21
-11.09999999999996
 31
0.0
  0
CIRCLE
  5
179C4
330
17964
100
AcDbEntity
  8
0
100
AcDbCircle
 10
5.399999999999977
 20
-6.5
 30
0.0
 40
2.75
  0
LINE
  5
179C5
330
17964
100
AcDbEntity
  8
0
100
AcDbLine
 10
0.0
 20
0.0
 30
0.0
 11
41.29999999999998
 21
0.0000000000000497
 31
0.0
  0
LINE
  5
179C6
330
17964
100
AcDbEntity
  8
0
100
AcDbLine
 10
0.0
 20
-12.00000000000005
 30
0.0
 11
41.29999999999998
 21
-12.00000000000001
 31
0.0
  0
LINE
  5
179C7
330
17964
100
AcDbEntity
  8
0
100
AcDbLine
 10
41.30000000000001
 20
-0.0000000000000639
 30
0.0
 11
41.30000000000001
 21
-12.00000000000006
 31
0.0
  0
ENDBLK
  5
179C8
330
17964
100
AcDbEntity
  8
0
100
AcDbBlockEnd
  0
BLOCK
  5
17A51
330
17A50
100
AcDbEntity
  8
0
100
AcDbBlockBegin
  2
UF2361-AX-3P
 70
     0
 10
0.0
 20
0.0
 30
0.0
  3
UF2361-AX-3P
  1

  0
LWPOLYLINE
  5
17A53
330
17A50
100
AcDbEntity
  8
0
100
AcDbPolyline
 90
       13
 70
     0
 43
0.0
 10
-8.229999999999961
 20
4.890000000000014
 10
-8.229999999999961
 20
3.670000000000015
 10
-7.009999999999962
 20
3.670000000000015
 10
-7.009999999999962
 20
4.890000000000014
 10
-5.789999999999935
 20
4.890000000000014
 10
-5.789999999999935
 20
6.110000000000013
 10
-7.009999999999962
 20
6.110000000000013
 10
-7.009999999999962
 20
7.330000000000012
 10
-8.229999999999961
 20
7.330000000000012
 10
-8.229999999999961
 20
6.110000000000013
 10
-9.44999999999996
 20
6.110000000000013
 10
-9.44999999999996
 20
4.890000000000014
 10
-8.229999999999961
 20
4.890000000000014
  0
LWPOLYLINE
  5
17A54
330
17A50
100
AcDbEntity
  8
0
100
AcDbPolyline
 90
       13
 70
     0
 43
0.0
 10
-0.6100000000000137
 20
4.890000000000014
 10
-0.6100000000000137
 20
3.670000000000015
 10
0.6099999999999853
 20
3.670000000000015
 10
0.6099999999999853
 20
4.890000000000014
 10
1.830000000000012
 20
4.890000000000014
 10
1.830000000000012
 20
6.110000000000013
 10
0.6099999999999853
 20
6.110000000000013
 10
0.6099999999999853
 20
7.330000000000012
 10
-0.6100000000000137
 20
7.330000000000012
 10
-0.6100000000000137
 20
6.110000000000013
 10
-1.830000000000012
 20
6.110000000000013
 10
-1.830000000000012
 20
4.890000000000014
 10
-0.6100000000000137
 20
4.890000000000014
  0
LWPOLYLINE
  5
17A55
330
17A50
100
AcDbEntity
  8
0
100
AcDbPolyline
 90
       13
 70
     0
 43
0.0
 10
7.00999999999999
 20
4.890000000000014
 10
7.00999999999999
 20
3.670000000000015
 10
8.229999999999989
 20
3.670000000000015
 10
8.229999999999989
 20
4.890000000000014
 10
9.450000000000017
 20
4.890000000000014
 10
9.450000000000017
 20
6.110000000000013
 10
8.229999999999989
 20
6.110000000000013
 10
8.229999999999989
 20
7.330000000000012
 10
7.00999999999999
 20
7.330000000000012
 10
7.00999999999999
 20
6.110000000000013
 10
5.789999999999992
 20
6.110000000000013
 10
5.789999999999992
 20
4.890000000000014
 10
7.00999999999999
 20
4.890000000000014
  0
LINE
  5
17A56
330
17A50
100
AcDbEntity
  8
0
100
AcDbLine
 10
9.120000000000061
 20
2.5
 30
0.0
 11
9.120000000000061
 21
1.699999999999988
 31
0.0
  0
LINE
  5
17A57
330
17A50
100
AcDbEntity
  8
0
100
AcDbLine
 10
8.370000000000118
 20
9.499999999999943
 30
0.0
 11
8.370000000000061
 21
8.699999999999988
 31
0.0
  0
LINE
  5
17A58
330
17A50
100
AcDbEntity
  8
0
100
AcDbLine
 10
9.120000000000061
 20
9.299999999999954
 30
0.0
 11
9.120000000000061
 21
8.5
 31
0.0
  0
LINE
  5
17A59
330
17A50
100
AcDbEntity
  8
0
100
AcDbLine
 10
12.04000000000013
 20
12.0
 30
0.0
 11
12.04000000000007
 21
0.0
 31
0.0
  0
LINE
  5
17A5A
330
17A50
100
AcDbEntity
  8
0
100
AcDbLine
 10
10.81999999999999
 20
12.00000000000005
 30
0.0
 11
10.81999999999999
 21
0.0000000000000568
 31
0.0
  0
LINE
  5
17A5B
330
17A50
100
AcDbEntity
  8
0
100
AcDbLine
 10
-3.199999999999988
 20
2.5
 30
0.0
 11
3.200000000000102
 21
2.5
 31
0.0
  0
LINE
  5
17A5C
330
17A50
100
AcDbEntity
  8
0
100
AcDbLine
 10
-3.199999999999988
 20
0.9000000000000341
 30
0.0
 11
3.200000000000102
 21
0.8999999999999772
 31
0.0
  0
LINE
  5
17A5D
330
17A50
100
AcDbEntity
  8
0
100
AcDbLine
 10
-1.499999999999943
 20
1.699999999999988
 30
0.0
 11
1.500000000000056
 21
1.699999999999988
 31
0.0
  0
LINE
  5
17A5E
330
17A50
100
AcDbEntity
  8
0
100
AcDbLine
 10
1.500000000000056
 20
2.5
 30
0.0
 11
1.500000000000056
 21
1.699999999999988
 31
0.0
  0
LINE
  5
17A5F
330
17A50
100
AcDbEntity
  8
0
100
AcDbLine
 10
6.120000000000061
 20
2.5
 30
0.0
 11
6.120000000000061
 21
1.699999999999988
 31
0.0
  0
LINE
  5
17A60
330
17A50
100
AcDbEntity
  8
0
100
AcDbLine
 10
-1.499999999999943
 20
2.5
 30
0.0
 11
-1.499999999999943
 21
1.699999999999988
 31
0.0
  0
LINE
  5
17A61
330
17A50
100
AcDbEntity
  8
0
100
AcDbLine
 10
-3.199999999999931
 20
8.5
 30
0.0
 11
3.199999999999988
 21
8.5
 31
0.0
  0
LINE
  5
17A62
330
17A50
100
AcDbEntity
  8
0
100
AcDbLine
 10
-3.199999999999931
 20
10.09999999999996
 30
0.0
 11
3.199999999999988
 21
10.09999999999996
 31
0.0
  0
LINE
  5
17A63
330
17A50
100
AcDbEntity
  8
0
100
AcDbLine
 10
-0.7499999999999432
 20
9.499999999999943
 30
0.0
 11
0.7500000000000569
 21
9.499999999999943
 31
0.0
  0
LINE
  5
17A64
330
17A50
100
AcDbEntity
  8
0
100
AcDbLine
 10
-0.7499999999999432
 20
8.699999999999988
 30
0.0
 11
0.7500000000000569
 21
8.699999999999988
 31
0.0
  0
LINE
  5
17A65
330
17A50
100
AcDbEntity
  8
0
100
AcDbLine
 10
-1.499999999999943
 20
9.300000000000011
 30
0.0
 11
1.500000000000056
 21
9.300000000000011
 31
0.0
  0
LINE
  5
17A66
330
17A50
100
AcDbEntity
  8
0
100
AcDbLine
 10
1.500000000000056
 20
9.300000000000011
 30
0.0
 11
1.500000000000056
 21
8.5
 31
0.0
  0
LINE
  5
17A67
330
17A50
100
AcDbEntity
  8
0
100
AcDbLine
 10
0.7500000000001137
 20
9.499999999999943
 30
0.0
 11
0.7500000000000569
 21
8.699999999999988
 31
0.0
  0
LINE
  5
17A68
330
17A50
100
AcDbEntity
  8
0
100
AcDbLine
 10
6.870000000000061
 20
9.499999999999943
 30
0.0
 11
6.870000000000061
 21
8.699999999999988
 31
0.0
  0
LINE
  5
17A69
330
17A50
100
AcDbEntity
  8
0
100
AcDbLine
 10
6.120000000000061
 20
9.300000000000011
 30
0.0
 11
6.120000000000061
 21
8.5
 31
0.0
  0
LINE
  5
17A6A
330
17A50
100
AcDbEntity
  8
0
100
AcDbLine
 10
-1.499999999999943
 20
9.300000000000011
 30
0.0
 11
-1.499999999999943
 21
8.5
 31
0.0
  0
LINE
  5
17A6B
330
17A50
100
AcDbEntity
  8
0
100
AcDbLine
 10
-0.7499999999999432
 20
9.499999999999943
 30
0.0
 11
-0.7499999999999432
 21
8.699999999999988
 31
0.0
  0
CIRCLE
  5
17A6C
330
17A50
100
AcDbEntity
  8
0
100
AcDbCircle
 10
0.0
 20
5.5
 30
0.0
 40
2.75
  0
LINE
  5
17A6D
330
17A50
100
AcDbEntity
  8
0
100
AcDbLine
 10
3.199999999999988
 20
12.0
 30
0.0
 11
3.200000000000045
 21
0.0
 31
0.0
  0
LINE
  5
17A6E
330
17A50
100
AcDbEntity
  8
0
100
AcDbLine
 10
4.420000000000129
 20
12.0
 30
0.0
 11
4.420000000000072
 21
0.0
 31
0.0
  0
LINE
  5
17A6F
330
17A50
100
AcDbEntity
  8
0
100
AcDbLine
 10
-3.199999999999874
 20
12.0
 30
0.0
 11
-3.199999999999931
 21
0.0
 31
0.0
  0
LINE
  5
17A70
330
17A50
100
AcDbEntity
  8
0
100
AcDbLine
 10
4.420000000000072
 20
8.5
 30
0.0
 11
10.8200000000001
 21
8.5
 31
0.0
  0
LINE
  5
17A71
330
17A50
100
AcDbEntity
  8
0
100
AcDbLine
 10
4.420000000000015
 20
2.5
 30
0.0
 11
10.8200000000001
 21
2.5
 31
0.0
  0
LINE
  5
17A72
330
17A50
100
AcDbEntity
  8
0
100
AcDbLine
 10
4.420000000000072
 20
10.09999999999996
 30
0.0
 11
10.81999999999999
 21
10.09999999999996
 31
0.0
  0
LINE
  5
17A73
330
17A50
100
AcDbEntity
  8
0
100
AcDbLine
 10
4.420000000000015
 20
2.5
 30
0.0
 11
10.8200000000001
 21
2.5
 31
0.0
  0
LINE
  5
17A74
330
17A50
100
AcDbEntity
  8
0
100
AcDbLine
 10
4.420000000000015
 20
0.8999999999999772
 30
0.0
 11
10.8200000000001
 21
0.8999999999999772
 31
0.0
  0
CIRCLE
  5
17A75
330
17A50
100
AcDbEntity
  8
0
100
AcDbCircle
 10
7.620000000000004
 20
5.5
 30
0.0
 40
2.75
  0
LINE
  5
17A76
330
17A50
100
AcDbEntity
  8
0
100
AcDbLine
 10
6.120000000000061
 20
1.699999999999988
 30
0.0
 11
9.120000000000061
 21
1.699999999999988
 31
0.0
  0
LINE
  5
17A77
330
17A50
100
AcDbEntity
  8
0
100
AcDbLine
 10
6.870000000000061
 20
9.499999999999943
 30
0.0
 11
8.370000000000061
 21
9.499999999999943
 31
0.0
  0
LINE
  5
17A78
330
17A50
100
AcDbEntity
  8
0
100
AcDbLine
 10
6.870000000000061
 20
8.699999999999988
 30
0.0
 11
8.370000000000061
 21
8.699999999999988
 31
0.0
  0
LINE
  5
17A79
330
17A50
100
AcDbEntity
  8
0
100
AcDbLine
 10
6.120000000000061
 20
9.300000000000011
 30
0.0
 11
9.120000000000061
 21
9.300000000000011
 31
0.0
  0
LINE
  5
17A7A
330
17A50
100
AcDbEntity
  8
0
100
AcDbLine
 10
-10.81999999999999
 20
2.5
 30
0.0
 11
-4.419999999999902
 21
2.5
 31
0.0
  0
LINE
  5
17A7B
330
17A50
100
AcDbEntity
  8
0
100
AcDbLine
 10
-10.81999999999999
 20
0.9000000000000341
 30
0.0
 11
-4.419999999999902
 21
0.9000000000000341
 31
0.0
  0
LINE
  5
17A7C
330
17A50
100
AcDbEntity
  8
0
100
AcDbLine
 10
-9.119999999999947
 20
2.5
 30
0.0
 11
-9.119999999999947
 21
1.699999999999988
 31
0.0
  0
LINE
  5
17A7D
330
17A50
100
AcDbEntity
  8
0
100
AcDbLine
 10
-6.119999999999947
 20
2.5
 30
0.0
 11
-6.119999999999947
 21
1.699999999999988
 31
0.0
  0
LINE
  5
17A7E
330
17A50
100
AcDbEntity
  8
0
100
AcDbLine
 10
-9.119999999999947
 20
1.699999999999988
 30
0.0
 11
-6.119999999999947
 21
1.699999999999988
 31
0.0
  0
LINE
  5
17A7F
330
17A50
100
AcDbEntity
  8
0
100
AcDbLine
 10
-10.81999999999999
 20
8.5
 30
0.0
 11
-4.419999999999959
 21
8.5
 31
0.0
  0
LINE
  5
17A80
330
17A50
100
AcDbEntity
  8
0
100
AcDbLine
 10
-10.81999999999999
 20
10.09999999999996
 30
0.0
 11
-4.420000000000015
 21
10.09999999999996
 31
0.0
  0
LINE
  5
17A81
330
17A50
100
AcDbEntity
  8
0
100
AcDbLine
 10
-9.119999999999947
 20
9.300000000000011
 30
0.0
 11
-9.119999999999947
 21
8.5
 31
0.0
  0
LINE
  5
17A82
330
17A50
100
AcDbEntity
  8
0
100
AcDbLine
 10
-8.369999999999947
 20
9.499999999999943
 30
0.0
 11
-8.369999999999947
 21
8.699999999999988
 31
0.0
  0
LINE
  5
17A83
330
17A50
100
AcDbEntity
  8
0
100
AcDbLine
 10
-6.119999999999947
 20
9.300000000000011
 30
0.0
 11
-6.119999999999947
 21
8.5
 31
0.0
  0
LINE
  5
17A84
330
17A50
100
AcDbEntity
  8
0
100
AcDbLine
 10
-6.869999999999947
 20
9.499999999999943
 30
0.0
 11
-6.869999999999947
 21
8.699999999999988
 31
0.0
  0
LINE
  5
17A85
330
17A50
100
AcDbEntity
  8
0
100
AcDbLine
 10
-9.119999999999947
 20
9.300000000000011
 30
0.0
 11
-6.119999999999947
 21
9.300000000000011
 31
0.0
  0
LINE
  5
17A86
330
17A50
100
AcDbEntity
  8
0
100
AcDbLine
 10
-8.369999999999947
 20
9.499999999999943
 30
0.0
 11
-6.869999999999947
 21
9.499999999999943
 31
0.0
  0
LINE
  5
17A87
330
17A50
100
AcDbEntity
  8
0
100
AcDbLine
 10
-8.369999999999947
 20
8.699999999999988
 30
0.0
 11
-6.869999999999947
 21
8.699999999999988
 31
0.0
  0
LINE
  5
17A88
330
17A50
100
AcDbEntity
  8
0
100
AcDbLine
 10
-10.81999999999988
 20
12.0
 30
0.0
 11
-10.81999999999999
 21
0.0
 31
0.0
  0
LINE
  5
17A89
330
17A50
100
AcDbEntity
  8
0
100
AcDbLine
 10
-4.420000000000015
 20
12.0
 30
0.0
 11
-4.419999999999959
 21
0.0
 31
0.0
  0
CIRCLE
  5
17A8A
330
17A50
100
AcDbEntity
  8
0
100
AcDbCircle
 10
-7.619999999999947
 20
5.5
 30
0.0
 40
2.75
  0
LINE
  5
17A8B
330
17A50
100
AcDbEntity
  8
0
100
AcDbLine
 10
-12.03999999999993
 20
12.0
 30
0.0
 11
-12.03999999999993
 21
0.0
 31
0.0
  0
LINE
  5
17A8C
330
17A50
100
AcDbEntity
  8
0
100
AcDbLine
 10
-13.0
 20
12.0
 30
0.0
 11
-13.0
 21
0.0
 31
0.0
  0
LINE
  5
17A8D
330
17A50
100
AcDbEntity
  8
0
100
AcDbLine
 10
-13.0
 20
12.0
 30
0.0
 11
13.0
 21
12.00000000000005
 31
0.0
  0
LINE
  5
17A8E
330
17A50
100
AcDbEntity
  8
0
100
AcDbLine
 10
-13.0
 20
0.0
 30
0.0
 11
13.0
 21
0.0
 31
0.0
  0
LINE
  5
17A8F
330
17A50
100
AcDbEntity
  8
0
100
AcDbLine
 10
13.0
 20
12.00000000000005
 30
0.0
 11
13.0
 21
0.0
 31
0.0
  0
ENDBLK
  5
17A52
330
17A50
100
AcDbEntity
  8
0
100
AcDbBlockEnd
  0
ENDSEC
  0
SECTION
  2
ENTITIES
  0
LINE
  5
C9
330
1A
100
AcDbEntity
  8
WAKU
 62
     7
100
AcDbLine
 10
405.0
 20
280.0
 30
0.0
 11
20.0
 21
280.0
 31
0.0
  0
LINE
  5
CB
330
1A
100
AcDbEntity
  8
WAKU
 62
     7
100
AcDbLine
 10
20.0
 20
5.0
 30
0.0
 11
405.0
 21
5.0
 31
0.0
  0
LINE
  5
D4
330
1A
100
AcDbEntity
  8
WAKU
100
AcDbLine
 10
405.0
 20
5.0
 30
0.0
 11
405.0
 21
280.0
 31
0.0
  0
LINE
  5
D5
330
1A
100
AcDbEntity
  8
WAKU
100
AcDbLine
 10
20.0
 20
280.0
 30
0.0
 11
20.0
 21
5.0
 31
0.0
  0
LINE
  5
D6
330
1A
100
AcDbEntity
  8
WAKU
 62
     7
100
AcDbLine
 10
225.0
 20
50.0
 30
0.0
 11
405.0
 21
50.0
 31
0.0
  0
LINE
  5
D7
330
1A
100
AcDbEntity
  8
WAKU
100
AcDbLine
 10
225.0
 20
5.0
 30
0.0
 11
225.0
 21
50.0
 31
0.0
  0
LINE
  5
D8
330
1A
100
AcDbEntity
  8
WAKU
100
AcDbLine
 10
345.0
 20
5.0
 30
0.0
 11
345.0
 21
50.0
 31
0.0
  0
LINE
  5
D9
330
1A
100
AcDbEntity
  8
WAKU
 62
     7
100
AcDbLine
 10
345.0
 20
15.0
 30
0.0
 11
405.0
 21
15.0
 31
0.0
  0
LINE
  5
DA
330
1A
100
AcDbEntity
  8
WAKU
 62
     7
100
AcDbLine
 10
345.0
 20
22.0
 30
0.0
 11
405.0
 21
22.0
 31
0.0
  0
LINE
  5
DB
330
1A
100
AcDbEntity
  8
WAKU
 62
     7
100
AcDbLine
 10
345.0
 20
29.0
 30
0.0
 11
405.0
 21
29.0
 31
0.0
  0
LINE
  5
DC
330
1A
100
AcDbEntity
  8
WAKU
 62
     7
100
AcDbLine
 10
345.0
 20
36.0
 30
0.0
 11
405.0
 21
36.0
 31
0.0
  0
LINE
  5
DD
330
1A
100
AcDbEntity
  8
WAKU
 62
     7
100
AcDbLine
 10
345.0
 20
43.0
 30
0.0
 11
405.0
 21
43.0
 31
0.0
  0
LINE
  5
DE
330
1A
100
AcDbEntity
  8
WAKU
100
AcDbLine
 10
360.0
 20
15.0
 30
0.0
 11
360.0
 21
50.0
 31
0.0
  0
LINE
  5
DF
330
1A
100
AcDbEntity
  8
WAKU
100
AcDbLine
 10
352.0
 20
5.0
 30
0.0
 11
352.0
 21
15.0
 31
0.0
  0
LINE
  5
E0
330
1A
100
AcDbEntity
  8
WAKU
100
AcDbLine
 10
330.0
 20
13.0
 30
0.0
 11
330.0
 21
28.0
 31
0.0
  0
LINE
  5
E1
330
1A
100
AcDbEntity
  8
WAKU
100
AcDbLine
 10
315.0
 20
13.0
 30
0.0
 11
315.0
 21
34.0
 31
0.0
  0
LINE
  5
E2
330
1A
100
AcDbEntity
  8
WAKU
100
AcDbLine
 10
300.0
 20
13.0
 30
0.0
 11
300.0
 21
50.0
 31
0.0
  0
LINE
  5
E3
330
1A
100
AcDbEntity
  8
WAKU
100
AcDbLine
 10
285.0
 20
13.0
 30
0.0
 11
285.0
 21
50.0
 31
0.0
  0
LINE
  5
E4
330
1A
100
AcDbEntity
  8
WAKU
100
AcDbLine
 10
345.0
 20
40.0
 30
0.0
 11
285.0
 21
40.0
 31
0.0
  0
LINE
  5
E5
330
1A
100
AcDbEntity
  8
WAKU
100
AcDbLine
 10
345.0
 20
34.0
 30
0.0
 11
285.0
 21
34.0
 31
0.0
  0
LINE
  5
E6
330
1A
100
AcDbEntity
  8
WAKU
100
AcDbLine
 10
345.0
 20
28.0
 30
0.0
 11
285.0
 21
28.0
 31
0.0
  0
LINE
  5
E7
330
1A
100
AcDbEntity
  8
WAKU
100
AcDbLine
 10
345.0
 20
13.0
 30
0.0
 11
225.0
 21
13.0
 31
0.0
  0
MTEXT
  5
E9
330
1A
100
AcDbEntity
  8
WAKU
100
AcDbMText
 10
345.0
 20
43.0
 30
0.0
 40
4.0
 41
15.0
 71
     1
 72
     5
  1

 73
     1
 44
1.0
1001
ACAD
1000
MTEXTBEGIN
1070
    73
1070
     1
1070
    44
1040
1.0
1070
    74
1070
     0
1000
MTEXTEND
  0
MTEXT
  5
EA
330
1A
100
AcDbEntity
  8
WAKU
100
AcDbMText
 10
345.0
 20
49.0
 30
0.0
 40
4.0
 41
14.0
 71
     1
 72
     5
  1

 73
     1
 44
1.0
1001
ACAD
1000
MTEXTBEGIN
1070
    73
1070
     1
1070
    44
1040
1.0
1070
    74
1070
     0
1000
MTEXTEND
  0
MTEXT
  5
ED
330
1A
100
AcDbEntity
  8
WAKU
100
AcDbMText
 10
347.3192310662242
 20
34.48051906497278
 30
0.0
 40
3.0
 41
11.0
 71
     1
 72
     5
  1
部品表
 73
     1
 44
1.0
1001
ACAD
1000
MTEXTBEGIN
1070
    73
1070
     1
1070
    44
1040
1.0
1070
    74
1070
     0
1000
MTEXTEND
  0
MTEXT
  5
EE
330
1A
100
AcDbEntity
  8
WAKU
100
AcDbMText
 10
327.0
 20
82.0
 30
0.0
 40
3.0
 41
37.0
 71
     1
 72
     5
  1

 73
     1
 44
1.0
1001
ACAD
1000
MTEXTBEGIN
1070
    73
1070
     1
1070
    44
1040
1.0
1070
    74
1070
     0
1000
MTEXTEND
  0
MTEXT
  5
F0
330
1A
100
AcDbEntity
  8
WAKU
100
AcDbMText
 10
347.2
 20
47.7
 30
0.0
 40
3.0
 41
10.0
 71
     1
 72
     5
  1
機種名
 73
     1
 44
1.0
1001
ACAD
1000
MTEXTBEGIN
1070
    73
1070
     1
1070
    44
1040
1.0
1070
    74
1070
     0
1000
MTEXTEND
  0
MTEXT
  5
F1
330
1A
100
AcDbEntity
  8
WAKU
100
AcDbMText
 10
347.2999999999999
 20
40.69999999999999
 30
0.0
 40
3.0
 41
10.0
 71
     1
 72
     5
  1
部　名
 73
     1
 44
1.0
1001
ACAD
1000
MTEXTBEGIN
1070
    73
1070
     1
1070
    44
1040
1.0
1070
    74
1070
     0
1000
MTEXTEND
  0
MTEXT
  5
F2
330
1A
100
AcDbEntity
  8
WAKU
100
AcDbMText
 10
346.0
 20
27.0
 30
0.0
 40
3.0
 41
10.0
 71
     1
 72
     5
  1
ｽﾄｯｸNo.
 73
     1
 44
1.0
1001
ACAD
1000
MTEXTBEGIN
1070
    73
1070
     1
1070
    44
1040
1.0
1070
    74
1070
     0
1000
MTEXTEND
  0
MTEXT
  5
F3
330
1A
100
AcDbEntity
  8
WAKU
100
AcDbMText
 10
347.0
 20
20.0
 30
0.0
 40
3.0
 41
12.0
 71
     1
 72
     5
  1
適用ﾛｯﾄ
 73
     1
 44
1.0
1001
ACAD
1000
MTEXTBEGIN
1070
    73
1070
     1
1070
    44
1040
1.0
1070
    74
1070
     0
1000
MTEXTEND
  0
MTEXT
  5
F5
330
1A
100
AcDbEntity
  8
WAKU
100
AcDbMText
 10
330.0
 20
85.0
 30
0.0
 40
3.0
 41
12.0
 71
     1
 72
     5
  1

 73
     1
 44
1.0
1001
ACAD
1000
MTEXTBEGIN
1070
    73
1070
     1
1070
    44
1040
1.0
1070
    74
1070
     0
1000
MTEXTEND
  0
MTEXT
  5
FF
330
1A
100
AcDbEntity
  8
WAKU
100
AcDbMText
 10
271.0
 20
82.0
 30
0.0
 40
3.0
 41
74.0
 71
     1
 72
     5
  1

 73
     1
 44
1.0
1001
ACAD
1000
MTEXTBEGIN
1070
    73
1070
     1
1070
    44
1040
1.0
1070
    74
1070
     0
1000
MTEXTEND
  0
LINE
  5
78B
330
1A
100
AcDbEntity
  8
WAKU
100
AcDbLine
 10
285.0
 20
17.0
 30
0.0
 11
225.0
 21
17.0
 31
0.0
  0
LINE
  5
78C
330
1A
100
AcDbEntity
  8
WAKU
100
AcDbLine
 10
285.0
 20
21.0
 30
0.0
 11
225.0
 21
21.0
 31
0.0
  0
LINE
  5
78D
330
1A
100
AcDbEntity
  8
WAKU
100
AcDbLine
 10
285.0
 20
25.0
 30
0.0
 11
225.0
 21
25.0
 31
0.0
  0
LINE
  5
78E
330
1A
100
AcDbEntity
  8
WAKU
100
AcDbLine
 10
285.0
 20
29.0
 30
0.0
 11
225.0
 21
29.0
 31
0.0
  0
LINE
  5
78F
330
1A
100
AcDbEntity
  8
WAKU
100
AcDbLine
 10
285.0
 20
33.0
 30
0.0
 11
225.0
 21
33.0
 31
0.0
  0
LINE
  5
790
330
1A
100
AcDbEntity
  8
WAKU
100
AcDbLine
 10
285.0
 20
37.0
 30
0.0
 11
225.0
 21
37.0
 31
0.0
  0
LINE
  5
791
330
1A
100
AcDbEntity
  8
WAKU
100
AcDbLine
 10
285.0
 20
41.0
 30
0.0
 11
225.0
 21
41.0
 31
0.0
  0
LINE
  5
792
330
1A
100
AcDbEntity
  8
WAKU
100
AcDbLine
 10
285.0
 20
45.0
 30
0.0
 11
225.0
 21
45.0
 31
0.0
  0
LINE
  5
794
330
1A
100
AcDbEntity
  8
WAKU
100
AcDbLine
 10
233.0
 20
13.0
 30
0.0
 11
233.0
 21
50.0
 31
0.0
  0
LINE
  5
795
330
1A
100
AcDbEntity
  8
WAKU
100
AcDbLine
 10
246.0
 20
13.0
 30
0.0
 11
246.0
 21
50.0
 31
0.0
  0
LINE
  5
796
330
1A
100
AcDbEntity
  8
WAKU
100
AcDbLine
 10
256.0
 20
13.0
 30
0.0
 11
256.0
 21
50.0
 31
0.0
  0
TEXT
  5
797
330
1A
100
AcDbEntity
  8
WAKU
100
AcDbText
 10
226.0
 20
46.0
 30
0.0
 40
3.0
  1
記号
100
AcDbText
  0
TEXT
  5
798
330
1A
100
AcDbEntity
  8
WAKU
100
AcDbText
 10
234.5
 20
46.0
 30
0.0
 40
3.0
  1
年月日
100
AcDbText
  0
TEXT
  5
799
330
1A
100
AcDbEntity
  8
WAKU
100
AcDbText
 10
248.0
 20
46.0
 30
0.0
 40
3.0
  1
担当
100
AcDbText
  0
TEXT
  5
79A
330
1A
100
AcDbEntity
  8
WAKU
100
AcDbText
 10
263.5
 20
46.0
 30
0.0
 40
3.0
  1
改連No.
100
AcDbText
  0
TEXT
  5
7CC
330
1A
100
AcDbEntity
  8
WAKU
100
AcDbText
 10
226.0
 20
13.5
 30
0.0
 40
3.0
  1
設置
100
AcDbText
  0
TEXT
  5
7CD
330
1A
100
AcDbEntity
  8
WAKU
100
AcDbText
 10
287.5
 20
35.5
 30
0.0
 40
3.0
  1
尺　度
 72
     4
 11
292.5
 21
37.0
 31
0.0
100
AcDbText
  0
LINE
  5
7CE
330
1A
100
AcDbEntity
  8
WAKU
100
AcDbLine
 10
298.0
 20
48.0
 30
0.0
 11
287.0
 21
42.0
 31
0.0
  0
TEXT
  5
7CF
330
1A
100
AcDbEntity
  8
WAKU
100
AcDbText
 10
346.5
 20
10.5
 30
0.0
 40
3.0
  1
図
100
AcDbText
  0
TEXT
  5
7D0
330
1A
100
AcDbEntity
  8
WAKU
100
AcDbText
 10
346.5
 20
6.0
 30
0.0
 40
3.0
  1
番
100
AcDbText
  0
TEXT
  5
7D1
330
1A
100
AcDbEntity
  8
WAKU
100
AcDbText
 10
256.5
 20
6.0
 30
0.0
 40
6.0
  1
東洋測器株式会社
100
AcDbText
  0
TEXT
  5
8C1
330
1A
100
AcDbEntity
  8
0
100
AcDbText
 10
293.0
 20
41.5
 30
0.0
 40
3.0
  1
1
100
AcDbText
  0
TEXT
  5
8C4
330
1A
100
AcDbEntity
  8
0
100
AcDbText
 10
311.5
 20
42.5
 30
0.0
 40
4.0
  1
外観図
100
AcDbText
  0
TEXT
  5
8C5
330
1A
100
AcDbEntity
  8
0
100
AcDbText
 10
361.6633838602885
 20
44.5
 30
0.0
 40
3.0
  1
DLS-5028A
100
AcDbText
  0
TEXT
  5
8C6
330
1A
100
AcDbEntity
  8
0
100
AcDbText
 10
287.5
 20
44.5
 30
0.0
 40
3.0
  1
1
100
AcDbText
  0
TEXT
  5
222A
330
1A
100
AcDbEntity
  8
0
100
AcDbText
 10
358.0
 20
7.5
 30
0.0
 40
3.0
  1
EA3-00077
100
AcDbText
  0
TEXT
  5
222B
330
1A
100
AcDbEntity
  8
WAKU
100
AcDbText
 10
286.0
 20
14.0
 30
0.0
 40
2.0
  1
07.12.25
100
AcDbText
  0
TEXT
  5
2240
330
1A
100
AcDbEntity
  8
WAKU
100
AcDbText
 10
288.0
 20
19.0
 30
0.0
 40
4.0
  1
大野
100
AcDbText
  0
TEXT
  5
52B1
330
1A
100
AcDbEntity
  8
WAKU
100
AcDbText
 10
234.0
 20
14.0
 30
0.0
 40
1.8
  1
07.12.25
 41
0.9
100
AcDbText
  0
TEXT
  5
52B2
330
1A
100
AcDbEntity
  8
WAKU
100
AcDbText
 10
248.0
 20
13.5
 30
0.0
 40
3.0
  1
大野
100
AcDbText
  0
LWPOLYLINE
  5
8846
330
1A
100
AcDbEntity
  8
0
100
AcDbPolyline
 90
        3
 70
     1
 43
0.0
 10
398.0002991937029
 20
13.75002575180714
 10
393.6701721747807
 20
6.250025751807143
 10
402.330426212625
 20
6.250025751807143
  0
LWPOLYLINE
  5
8847
330
1A
100
AcDbEntity
  8
0
100
AcDbPolyline
 90
        3
 70
     1
 43
0.0
 10
229.0
 20
37.0
 10
226.8349364905389
 20
33.25
 10
231.1650635094611
 20
33.25
  0
TEXT
  5
8848
330
1A
100
AcDbEntity
  8
WAKU
100
AcDbText
 10
228.0
 20
17.5
 30
0.0
 40
2.0
  1
1
100
AcDbText
  0
LWPOLYLINE
  5
8849
330
1A
100
AcDbEntity
  8
0
100
AcDbPolyline
 90
        3
 70
     1
 43
0.0
 10
229.0
 20
21.0
 10
226.8349364905389
 20
17.25
 10
231.1650635094611
 20
17.25
  0
LWPOLYLINE
  5
884A
330
1A
100
AcDbEntity
  8
0
100
AcDbPolyline
 90
        3
 70
     1
 43
0.0
 10
229.0
 20
25.0
 10
226.8349364905389
 20
21.25
 10
231.1650635094611
 20
21.25
  0
TEXT
  5
884B
330
1A
100
AcDbEntity
  8
WAKU
100
AcDbText
 10
228.0
 20
21.5
 30
0.0
 40
2.0
  1
2
100
AcDbText
  0
TEXT
  5
884C
330
1A
100
AcDbEntity
  8
WAKU
100
AcDbText
 10
228.0
 20
29.5
 30
0.0
 40
2.0
  1
4
100
AcDbText
  0
LWPOLYLINE
  5
884D
330
1A
100
AcDbEntity
  8
0
100
AcDbPolyline
 90
        3
 70
     1
 43
0.0
 10
229.0
 20
33.0
 10
226.8349364905389
 20
29.25
 10
231.1650635094611
 20
29.25
  0
LWPOLYLINE
  5
884E
330
1A
100
AcDbEntity
  8
0
100
AcDbPolyline
 90
        3
 70
     1
 43
0.0
 10
229.0
 20
29.0
 10
226.8349364905389
 20
25.25
 10
231.1650635094611
 20
25.25
  0
TEXT
  5
884F
330
1A
100
AcDbEntity
  8
WAKU
100
AcDbText
 10
228.0
 20
25.5
 30
0.0
 40
2.0
  1
3
100
AcDbText
  0
TEXT
  5
8850
330
1A
100
AcDbEntity
  8
WAKU
100
AcDbText
 10
228.0
 20
33.5
 30
0.0
 40
2.0
  1
5
100
AcDbText
  0
TEXT
  5
8851
330
1A
100
AcDbEntity
  8
WAKU
100
AcDbText
 10
228.0
 20
41.5
 30
0.0
 40
2.0
  1
7
100
AcDbText
  0
LWPOLYLINE
  5
8852
330
1A
100
AcDbEntity
  8
0
100
AcDbPolyline
 90
        3
 70
     1
 43
0.0
 10
229.0
 20
45.0
 10
226.8349364905389
 20
41.25
 10
231.1650635094611
 20
41.25
  0
LWPOLYLINE
  5
8853
330
1A
100
AcDbEntity
  8
0
100
AcDbPolyline
 90
        3
 70
     1
 43
0.0
 10
229.0
 20
41.0
 10
226.8349364905389
 20
37.25
 10
231.1650635094611
 20
37.25
  0
TEXT
  5
8854
330
1A
100
AcDbEntity
  8
WAKU
100
AcDbText
 10
228.0
 20
37.5
 30
0.0
 40
2.0
  1
6
100
AcDbText
  0
TEXT
  5
8855
330
1A
100
AcDbEntity
  8
0
100
AcDbText
 10
396.5
 20
7.5
 30
0.0
 40
3.0
  1
_
100
AcDbText
  0
LINE
  5
13869
330
1A
100
AcDbEntity
  8
0
100
AcDbLine
 10
38.99999998757164
 20
108.000000168941
 30
0.0
 11
38.99999998757164
 21
94.00000016894097
 31
0.0
  0
LINE
  5
1386A
330
1A
100
AcDbEntity
  8
0
100
AcDbLine
 10
129.9999999875716
 20
108.000000168941
 30
0.0
 11
129.9999999875716
 21
94.00000016894097
 31
0.0
  0
TEXT
  5
1386D
330
1A
100
AcDbEntity
  8
0
100
AcDbText
 10
119.250000211683
 20
141.5000001689409
 30
0.0
 40
2.5
  1
-OUT
 50
90.0
 41
0.7
 11
118.000000211683
 21
141.5000001689409
 31
0.0
100
AcDbText
 73
     2
  0
TEXT
  5
1386E
330
1A
100
AcDbEntity
  8
0
100
AcDbText
 10
114.250000211683
 20
141.5000001689409
 30
0.0
 40
2.5
  1
+OUT
 50
90.0
 41
0.7
 11
113.000000211683
 21
141.5000001689409
 31
0.0
100
AcDbText
 73
     2
  0
TEXT
  5
1386F
330
1A
100
AcDbEntity
  8
0
100
AcDbText
 10
104.250000211683
 20
141.5000001689409
 30
0.0
 40
2.5
  1
CMD
 50
90.0
 41
0.7
 11
103.000000211683
 21
141.5000001689409
 31
0.0
100
AcDbText
 73
     2
  0
TEXT
  5
13870
330
1A
100
AcDbEntity
  8
0
100
AcDbText
 10
109.250000211683
 20
141.5000001689409
 30
0.0
 40
2.5
  1
D.COM
 50
90.0
 41
0.7
 11
108.000000211683
 21
141.5000001689409
 31
0.0
100
AcDbText
 73
     2
  0
TEXT
  5
13871
330
1A
100
AcDbEntity
  8
0
100
AcDbText
 10
99.25000021168305
 20
141.5000001689409
 30
0.0
 40
2.5
  1
AZ.R
 50
90.0
 41
0.7
 11
98.00000021168305
 21
141.5000001689409
 31
0.0
100
AcDbText
 73
     2
  0
TEXT
  5
13872
330
1A
100
AcDbEntity
  8
0
100
AcDbText
 10
94.25000021168305
 20
141.5000001689409
 30
0.0
 40
2.5
  1
AZ
 50
90.0
 41
0.7
 11
93.00000021168305
 21
141.5000001689409
 31
0.0
100
AcDbText
 73
     2
  0
TEXT
  5
13874
330
1A
100
AcDbEntity
  8
0
100
AcDbText
 10
95.05499998757164
 20
87.0000002621497
 30
0.0
 40
2.5
  1
E
 41
0.7
 72
     1
 11
95.92999998757164
 21
89.5000002621497
 31
0.0
100
AcDbText
 73
     3
  0
TEXT
  5
13875
330
1A
100
AcDbEntity
  8
0
100
AcDbText
 10
115.4283333209048
 20
86.75
 30
0.0
 40
2.5
  1
AC model
 41
0.7
 72
     1
 11
121.3699999875714
 21
88.0
 31
0.0
100
AcDbText
 73
     2
  0
TEXT
  5
13876
330
1A
100
AcDbEntity
  8
0
100
AcDbText
 10
59.80952379709539
 20
87.00000016894099
 30
0.0
 40
2.5
  1
3
 72
     1
 11
60.99999998757159
 21
89.50000016894099
 31
0.0
100
AcDbText
 73
     3
  0
TEXT
  5
13877
330
1A
100
AcDbEntity
  8
0
100
AcDbText
 10
64.74999998757159
 20
87.00000016894099
 30
0.0
 40
2.5
  1
4
 72
     1
 11
65.99999998757159
 21
89.50000016894099
 31
0.0
100
AcDbText
 73
     3
  0
TEXT
  5
13878
330
1A
100
AcDbEntity
  8
0
100
AcDbText
 10
54.80952379709539
 20
87.00000016894099
 30
0.0
 40
2.5
  1
2
 72
     1
 11
55.99999998757159
 21
89.50000016894099
 31
0.0
100
AcDbText
 73
     3
  0
TEXT
  5
13879
330
1A
100
AcDbEntity
  8
0
100
AcDbText
 10
49.98809522566682
 20
87.00000016894099
 30
0.0
 40
2.5
  1
1
 72
     1
 11
50.99999998757159
 21
89.50000016894099
 31
0.0
100
AcDbText
 73
     3
  0
TEXT
  5
1387A
330
1A
100
AcDbEntity
  8
0
100
AcDbText
 10
58.01499998757162
 20
141.5000001689409
 30
0.0
 40
2.5
  1
-EXC
 41
0.7
 72
     1
 11
61.63999998757162
 21
141.5000001689409
 31
0.0
100
AcDbText
  0
TEXT
  5
1387B
330
1A
100
AcDbEntity
  8
0
100
AcDbText
 10
66.09333332090496
 20
141.5000001689409
 30
0.0
 40
2.5
  1
+SIG
 41
0.7
 72
     1
 11
69.25999998757163
 21
141.5000001689409
 31
0.0
100
AcDbText
  0
TEXT
  5
1387C
330
1A
100
AcDbEntity
  8
0
100
AcDbText
 10
73.71333332090491
 20
141.5000001689409
 30
0.0
 40
2.5
  1
-SIG
 41
0.7
 72
     1
 11
76.87999998757158
 21
141.5000001689409
 31
0.0
100
AcDbText
  0
TEXT
  5
1387D
330
1A
100
AcDbEntity
  8
0
100
AcDbText
 10
81.95833332090492
 20
141.5000001689409
 30
0.0
 40
2.5
  1
SHL
 41
0.7
 72
     1
 11
84.49999998757158
 21
141.5000001689409
 31
0.0
100
AcDbText
  0
TEXT
  5
1387E
330
1A
100
AcDbEntity
  8
0
100
AcDbText
 10
50.39499998757162
 20
141.5000001689409
 30
0.0
 40
2.5
  1
+EXC
 41
0.7
 72
     1
 11
54.01999998757162
 21
141.5000001689409
 31
0.0
100
AcDbText
  0
INSERT
  5
13895
330
1A
100
AcDbEntity
  8
0
100
AcDbBlockReference
  2
A$C78786D43
 10
42.12100009204578
 20
129.4790001463005
 30
0.0
 41
0.8666666600000212
 42
0.8666666600000212
 43
0.86666666
 50
270.0
  0
INSERT
  5
13896
330
1A
100
AcDbEntity
  8
0
100
AcDbBlockReference
  2
A$C78786D43
 10
128.7449998881399
 20
118.2450002105372
 30
0.0
 41
-1.0
 50
90.0
  0
INSERT
  5
13897
330
1A
100
AcDbEntity
  8
0
100
AcDbBlockReference
  2
A$C78786D43
 10
42.12100009204578
 20
107.4790001463006
 30
0.0
 41
0.8666666600000212
 42
0.8666666600000212
 43
0.86666666
 50
270.0
  0
INSERT
  5
13898
330
1A
100
AcDbEntity
  8
0
100
AcDbBlockReference
  2
A$C78786D43
 10
126.8789998830974
 20
129.4790001463005
 30
0.0
 41
-0.8666666600000212
 42
0.8666666600000212
 43
0.86666666
 50
90.0
  0
LINE
  5
13899
330
1A
100
AcDbEntity
  8
0
100
AcDbLine
 10
121.4999999875716
 20
108.5000001689409
 30
0.0
 11
121.9999999875716
 21
108.000000168941
 31
0.0
  0
LINE
  5
1389A
330
1A
100
AcDbEntity
  8
0
100
AcDbLine
 10
121.9999999875716
 20
108.000000168941
 30
0.0
 11
132.4999999875716
 21
108.000000168941
 31
0.0
  0
LINE
  5
1389B
330
1A
100
AcDbEntity
  8
0
100
AcDbLine
 10
121.9999999875716
 20
123.0000001689409
 30
0.0
 11
121.4999999875716
 21
122.500000168941
 31
0.0
  0
LINE
  5
1389C
330
1A
100
AcDbEntity
  8
0
100
AcDbLine
 10
121.9999999875716
 20
123.0000001689409
 30
0.0
 11
132.4999999875716
 21
123.0000001689409
 31
0.0
  0
LINE
  5
1389D
330
1A
100
AcDbEntity
  8
0
100
AcDbLine
 10
121.4999999875716
 20
108.5000001689409
 30
0.0
 11
121.4999999875716
 21
122.500000168941
 31
0.0
  0
LINE
  5
1389E
330
1A
100
AcDbEntity
  8
0
100
AcDbLine
 10
132.4999999875716
 20
123.0000001689409
 30
0.0
 11
132.4999999875716
 21
108.000000168941
 31
0.0
  0
INSERT
  5
1389F
330
1A
100
AcDbEntity
  8
0
100
AcDbBlockReference
  2
A$C78786D43
 10
126.8789998830974
 20
107.4790001463006
 30
0.0
 41
-0.8666666600000212
 42
0.8666666600000212
 43
0.86666666
 50
90.0
  0
INSERT
  5
138A0
330
1A
100
AcDbEntity
  8
0
100
AcDbBlockReference
  2
A$C78786D43
 10
40.2550000870034
 20
118.2450002105372
 30
0.0
 50
270.0
  0
LINE
  5
138A1
330
1A
100
AcDbEntity
  8
0
100
AcDbLine
 10
47.49999998757163
 20
108.5000001689409
 30
0.0
 11
46.99999998757164
 21
108.000000168941
 31
0.0
  0
LINE
  5
138A2
330
1A
100
AcDbEntity
  8
0
100
AcDbLine
 10
46.99999998757164
 20
108.000000168941
 30
0.0
 11
36.49999998757164
 21
108.000000168941
 31
0.0
  0
LINE
  5
138A3
330
1A
100
AcDbEntity
  8
0
100
AcDbLine
 10
46.99999998757164
 20
123.0000001689409
 30
0.0
 11
47.49999998757163
 21
122.500000168941
 31
0.0
  0
LINE
  5
138A4
330
1A
100
AcDbEntity
  8
0
100
AcDbLine
 10
46.99999998757164
 20
123.0000001689409
 30
0.0
 11
36.49999998757164
 21
123.0000001689409
 31
0.0
  0
LINE
  5
138A5
330
1A
100
AcDbEntity
  8
0
100
AcDbLine
 10
36.49999998757164
 20
123.0000001689409
 30
0.0
 11
36.49999998757164
 21
108.000000168941
 31
0.0
  0
LINE
  5
138A6
330
1A
100
AcDbEntity
  8
0
100
AcDbLine
 10
47.49999998757163
 20
108.5000001689409
 30
0.0
 11
47.49999998757163
 21
122.500000168941
 31
0.0
  0
DIMENSION
  5
138A7
330
1A
100
AcDbEntity
  8
SUNPOU
100
AcDbDimension
  2
*D3
 10
147.0634917681636
 20
178.5000000932087
 30
0.0
 11
144.0634917681636
 21
202.5000000466044
 31
0.0
 70
    32
  1
48
 71
     5
 42
47.99999990679123
  3
STANDARD
100
AcDbAlignedDimension
 13
132.4999998943628
 23
226.5
 33
0.0
 14
132.4999998943628
 24
178.5000000932087
 34
0.0
 50
90.0
100
AcDbRotatedDimension
1001
ACAD
1000
DSTYLE
1002
{
1070
   140
1040
5.0
1070
    74
1070
     0
1070
    73
1070
     0
1070
   272
1070
     0
1070
    77
1070
     1
1070
   173
1070
     1
1070
   147
1040
0.5
1070
    42
1040
0.5
1070
    44
1040
0.5
1070
    43
1040
10.0
1070
   271
1070
     0
1070
   141
1040
0.0
1070
     7
1000
_OPEN
1070
     6
1000
_OPEN
1070
    41
1040
2.5
1002
}
  0
DIMENSION
  5
138A8
330
1A
100
AcDbEntity
  8
SUNPOU
100
AcDbDimension
  2
*D4
 10
147.0634917681636
 20
94.00000025729509
 30
0.0
 11
144.0634917681636
 21
115.5000002155453
 31
0.0
 70
    32
  1
43
 71
     5
 42
42.99999991650048
  3
STANDARD
100
AcDbAlignedDimension
 13
129.9999998992174
 23
137.0000001737955
 33
0.0
 14
129.9999998992174
 24
94.00000025729509
 34
0.0
 50
90.0
100
AcDbRotatedDimension
1001
ACAD
1000
DSTYLE
1002
{
1070
   140
1040
5.0
1070
    74
1070
     0
1070
    73
1070
     0
1070
   272
1070
     0
1070
    77
1070
     1
1070
   173
1070
     1
1070
   147
1040
0.5
1070
    42
1040
0.5
1070
    44
1040
0.5
1070
    43
1040
10.0
1070
   271
1070
     0
1070
   141
1040
0.0
1070
     7
1000
_OPEN
1070
     6
1000
_OPEN
1070
    41
1040
2.5
1002
}
  0
TEXT
  5
138A9
330
1A
100
AcDbEntity
  8
0
100
AcDbText
 10
70.50000001475751
 20
168.0000001135982
 30
0.0
 40
3.999999992232601
  1
Front view
100
AcDbText
  0
TEXT
  5
138AA
330
1A
100
AcDbEntity
  8
0
100
AcDbText
 10
73.50000000893198
 20
73.00000028933562
 30
0.0
 40
3.999999992232601
  1
Rear view
100
AcDbText
  0
DIMENSION
  5
138AB
330
1A
100
AcDbEntity
  8
SUNPOU
100
AcDbDimension
  2
*D5
 10
129.9999998992174
 20
155.0569964685319
 30
0.0
 11
84.49999998757162
 21
158.0569964685319
 31
0.0
 70
    32
  1
91
 71
     5
 42
90.99999982329171
  3
STANDARD
100
AcDbAlignedDimension
 13
39.00000007592576
 23
137.0000001737955
 33
0.0
 14
129.9999998992174
 24
137.0000001737955
 34
0.0
100
AcDbRotatedDimension
1001
ACAD
1000
DSTYLE
1002
{
1070
   140
1040
5.0
1070
    74
1070
     0
1070
    73
1070
     0
1070
   272
1070
     0
1070
    77
1070
     1
1070
   173
1070
     1
1070
   147
1040
0.5
1070
    42
1040
0.5
1070
    44
1040
0.5
1070
    43
1040
10.0
1070
   271
1070
     0
1070
   141
1040
0.0
1070
     7
1000
_OPEN
1070
     6
1000
_OPEN
1070
    41
1040
2.5
1002
}
  0
DIMENSION
  5
138AC
330
1A
100
AcDbEntity
  8
SUNPOU
100
AcDbDimension
  2
*D6
 10
132.4999998943628
 20
237.4604615161373
 30
0.0
 11
84.49999998757164
 21
240.4604615161373
 31
0.0
 70
    32
  1
96
 71
     5
 42
95.99999981358246
  3
STANDARD
100
AcDbAlignedDimension
 13
36.50000008078041
 23
226.5
 33
0.0
 14
132.4999998943628
 24
226.5
 34
0.0
100
AcDbRotatedDimension
1001
ACAD
1000
DSTYLE
1002
{
1070
   140
1040
5.0
1070
    74
1070
     0
1070
    73
1070
     0
1070
   272
1070
     0
1070
    77
1070
     1
1070
   173
1070
     1
1070
   147
1040
0.5
1070
    42
1040
0.5
1070
    44
1040
0.5
1070
    43
1040
10.0
1070
   271
1070
     0
1070
   141
1040
0.0
1070
     7
1000
_OPEN
1070
     6
1000
_OPEN
1070
    41
1040
2.5
1002
}
  0
LINE
  5
138AD
330
1A
100
AcDbEntity
  8
0
100
AcDbLine
 10
36.49999998757164
 20
125.500000168941
 30
0.0
 11
36.49999998757164
 21
105.5000001689409
 31
0.0
  0
LINE
  5
138AE
330
1A
100
AcDbEntity
  8
0
100
AcDbLine
 10
129.9999999875716
 20
137.000000168941
 30
0.0
 11
38.99999998757164
 21
137.000000168941
 31
0.0
  0
LINE
  5
138AF
330
1A
100
AcDbEntity
  8
0
100
AcDbLine
 10
129.9999999875716
 20
137.000000168941
 30
0.0
 11
129.9999999875716
 21
123.000000168941
 31
0.0
  0
LINE
  5
138B0
330
1A
100
AcDbEntity
  8
0
100
AcDbLine
 10
38.99999998757164
 20
137.000000168941
 30
0.0
 11
38.99999998757164
 21
123.000000168941
 31
0.0
  0
LINE
  5
138B1
330
1A
100
AcDbEntity
  8
0
100
AcDbLine
 10
132.4999999875716
 20
125.500000168941
 30
0.0
 11
129.9999999875716
 21
125.500000168941
 31
0.0
  0
LINE
  5
138B2
330
1A
100
AcDbEntity
  8
0
100
AcDbLine
 10
38.99999998757164
 20
125.500000168941
 30
0.0
 11
36.49999998757164
 21
125.500000168941
 31
0.0
  0
LINE
  5
138B3
330
1A
100
AcDbEntity
  8
0
100
AcDbLine
 10
132.4999999875716
 20
105.5000001689409
 30
0.0
 11
129.9999999875716
 21
105.5000001689409
 31
0.0
  0
LINE
  5
138B4
330
1A
100
AcDbEntity
  8
0
100
AcDbLine
 10
38.99999998757164
 20
105.5000001689409
 30
0.0
 11
36.49999998757164
 21
105.5000001689409
 31
0.0
  0
LINE
  5
138B6
330
1A
100
AcDbEntity
  8
0
100
AcDbLine
 10
38.99999998757164
 20
94.00000016894097
 30
0.0
 11
129.9999999875716
 21
94.00000016894097
 31
0.0
  0
LINE
  5
138B9
330
1A
100
AcDbEntity
  8
0
100
AcDbLine
 10
132.4999999875716
 20
91.50000016894097
 30
0.0
 11
36.49999998757164
 21
91.500000168941
 31
0.0
  0
LINE
  5
138BA
330
1A
100
AcDbEntity
  8
0
100
AcDbLine
 10
132.4999999875716
 20
139.5000001689409
 30
0.0
 11
36.49999998757164
 21
139.5000001689409
 31
0.0
  0
LINE
  5
138BB
330
1A
100
AcDbEntity
  8
0
100
AcDbLine
 10
36.49999998757164
 20
125.500000168941
 30
0.0
 11
36.49999998757164
 21
139.5000001689409
 31
0.0
  0
LINE
  5
138BC
330
1A
100
AcDbEntity
  8
0
100
AcDbLine
 10
132.4999999875716
 20
92.30000016894093
 30
0.0
 11
36.49999998757164
 21
92.30000016894095
 31
0.0
  0
LINE
  5
138BD
330
1A
100
AcDbEntity
  8
0
100
AcDbLine
 10
132.4999999875716
 20
138.700000168941
 30
0.0
 11
36.49999998757164
 21
138.700000168941
 31
0.0
  0
LINE
  5
138BE
330
1A
100
AcDbEntity
  8
0
100
AcDbLine
 10
131.6999999875716
 20
92.30000016894104
 30
0.0
 11
131.6999999875716
 21
105.5000001689409
 31
0.0
  0
LINE
  5
138BF
330
1A
100
AcDbEntity
  8
0
100
AcDbLine
 10
37.2999999875716
 20
92.30000016894095
 30
0.0
 11
37.2999999875716
 21
105.5000001689409
 31
0.0
  0
LINE
  5
138C0
330
1A
100
AcDbEntity
  8
0
100
AcDbLine
 10
37.2999999875716
 20
125.500000168941
 30
0.0
 11
37.2999999875716
 21
138.700000168941
 31
0.0
  0
LINE
  5
138C1
330
1A
100
AcDbEntity
  8
0
100
AcDbLine
 10
131.6999999875716
 20
125.500000168941
 30
0.0
 11
131.6999999875716
 21
138.700000168941
 31
0.0
  0
LINE
  5
138C2
330
1A
100
AcDbEntity
  8
0
100
AcDbLine
 10
132.4999999875716
 20
125.500000168941
 30
0.0
 11
132.4999999875716
 21
105.5000001689409
 31
0.0
  0
LINE
  5
138C3
330
1A
100
AcDbEntity
  8
0
100
AcDbLine
 10
132.4999999875716
 20
139.5000001689409
 30
0.0
 11
132.4999999875716
 21
125.500000168941
 31
0.0
  0
LINE
  5
138C4
330
1A
100
AcDbEntity
  8
0
100
AcDbLine
 10
132.4999999875716
 20
91.50000016894097
 30
0.0
 11
132.4999999875716
 21
105.5000001689409
 31
0.0
  0
LINE
  5
138C5
330
1A
100
AcDbEntity
  8
0
100
AcDbLine
 10
36.49999998757164
 20
91.500000168941
 30
0.0
 11
36.49999998757164
 21
105.5000001689409
 31
0.0
  0
LINE
  5
138CE
330
1A
100
AcDbEntity
  8
0
100
AcDbLine
 10
161.0
 20
179.5
 30
0.0
 11
165.7
 21
179.5
 31
0.0
  0
LINE
  5
138CF
330
1A
100
AcDbEntity
  8
0
100
AcDbLine
 10
161.0
 20
225.5
 30
0.0
 11
165.7
 21
225.5
 31
0.0
  0
LINE
  5
138D0
330
1A
100
AcDbEntity
  8
0
100
AcDbLine
 10
272.0000000000001
 20
208.6
 30
0.0
 11
282.7
 21
208.6
 31
0.0
  0
LINE
  5
138D1
330
1A
100
AcDbEntity
  8
0
100
AcDbLine
 10
282.7
 20
209.6
 30
0.0
 11
284.7
 21
208.6
 31
0.0
  0
LINE
  5
138D2
330
1A
100
AcDbEntity
  8
0
100
AcDbLine
 10
282.7
 20
209.6
 30
0.0
 11
282.7
 21
208.6
 31
0.0
  0
ARC
  5
138D3
330
1A
100
AcDbEntity
  8
0
100
AcDbCircle
 10
284.6
 20
209.6
 30
0.0
 40
1.9
100
AcDbArc
 50
179.9999999999984
 51
0.0000000000016284
  0
ARC
  5
138D4
330
1A
100
AcDbEntity
  8
0
100
AcDbCircle
 10
284.6
 20
209.6
 30
0.0
 40
1.5
100
AcDbArc
 50
187.9394204839783
 51
0.0
  0
LINE
  5
138D5
330
1A
100
AcDbEntity
  8
0
100
AcDbLine
 10
273.2
 20
210.1
 30
0.0
 11
275.6999999999999
 21
210.1
 31
0.0
  0
LINE
  5
138D6
330
1A
100
AcDbEntity
  8
0
100
AcDbLine
 10
272.0000000000001
 20
208.9000000000001
 30
0.0
 11
273.2
 21
210.1
 31
0.0
  0
LINE
  5
138D7
330
1A
100
AcDbEntity
  8
0
100
AcDbLine
 10
273.2000000000001
 20
219.1
 30
0.0
 11
275.6999999999999
 21
219.1
 31
0.0
  0
LINE
  5
138D8
330
1A
100
AcDbEntity
  8
0
100
AcDbLine
 10
270.0
 20
220.6
 30
0.0
 11
282.7
 21
220.6
 31
0.0
  0
LINE
  5
138D9
330
1A
100
AcDbEntity
  8
0
100
AcDbLine
 10
282.7
 20
220.6
 30
0.0
 11
282.7
 21
219.6
 31
0.0
  0
LINE
  5
138DA
330
1A
100
AcDbEntity
  8
0
100
AcDbLine
 10
282.7
 20
219.6
 30
0.0
 11
284.7
 21
220.6
 31
0.0
  0
ARC
  5
138DB
330
1A
100
AcDbEntity
  8
0
100
AcDbCircle
 10
284.6
 20
219.6
 30
0.0
 40
1.9
100
AcDbArc
 50
0.0
 51
180.0
  0
ARC
  5
138DC
330
1A
100
AcDbEntity
  8
0
100
AcDbCircle
 10
284.6
 20
219.6
 30
0.0
 40
1.5
100
AcDbArc
 50
0.0
 51
172.0605795160216
  0
LINE
  5
138DD
330
1A
100
AcDbEntity
  8
0
100
AcDbLine
 10
271.7
 20
220.6
 30
0.0
 11
273.2000000000001
 21
219.1
 31
0.0
  0
LINE
  5
138DE
330
1A
100
AcDbEntity
  8
0
100
AcDbLine
 10
284.7
 20
220.6
 30
0.0
 11
284.7
 21
208.6
 31
0.0
  0
LINE
  5
138DF
330
1A
100
AcDbEntity
  8
0
100
AcDbLine
 10
268.7000000000001
 20
220.6
 30
0.0
 11
268.7
 21
210.0
 31
0.0
  0
LINE
  5
138E0
330
1A
100
AcDbEntity
  8
0
100
AcDbLine
 10
275.6999999999999
 20
219.1
 30
0.0
 11
275.6999999999999
 21
210.1
 31
0.0
  0
LINE
  5
138E1
330
1A
100
AcDbEntity
  8
0
100
AcDbLine
 10
286.5
 20
219.6
 30
0.0
 11
286.5
 21
209.6
 31
0.0
  0
LINE
  5
138E2
330
1A
100
AcDbEntity
  8
0
100
AcDbLine
 10
286.1
 20
219.6
 30
0.0
 11
286.1
 21
209.6
 31
0.0
  0
LINE
  5
138E3
330
1A
100
AcDbEntity
  8
0
100
AcDbLine
 10
272.0
 20
195.2
 30
0.0
 11
282.6999999999999
 21
195.2
 31
0.0
  0
LINE
  5
138E4
330
1A
100
AcDbEntity
  8
0
100
AcDbLine
 10
282.6999999999999
 20
194.2
 30
0.0
 11
284.6999999999999
 21
195.2
 31
0.0
  0
LINE
  5
138E5
330
1A
100
AcDbEntity
  8
0
100
AcDbLine
 10
282.6999999999999
 20
194.2
 30
0.0
 11
282.6999999999999
 21
195.2
 31
0.0
  0
ARC
  5
138E6
330
1A
100
AcDbEntity
  8
0
100
AcDbCircle
 10
284.5999999999999
 20
194.2
 30
0.0
 40
1.9
100
AcDbArc
 50
359.9999999999984
 51
180.0
  0
ARC
  5
138E7
330
1A
100
AcDbEntity
  8
0
100
AcDbCircle
 10
284.5999999999999
 20
194.2
 30
0.0
 40
1.5
100
AcDbArc
 50
359.9999999999984
 51
172.0605795160216
  0
LINE
  5
138E8
330
1A
100
AcDbEntity
  8
0
100
AcDbLine
 10
273.1999999999999
 20
193.7
 30
0.0
 11
275.6999999999998
 21
193.7
 31
0.0
  0
LINE
  5
138E9
330
1A
100
AcDbEntity
  8
0
100
AcDbLine
 10
271.8999999999999
 20
195.0
 30
0.0
 11
273.1999999999999
 21
193.7
 31
0.0
  0
LINE
  5
138EA
330
1A
100
AcDbEntity
  8
0
100
AcDbLine
 10
273.1999999999999
 20
184.7
 30
0.0
 11
275.6999999999998
 21
184.7
 31
0.0
  0
LINE
  5
138EB
330
1A
100
AcDbEntity
  8
0
100
AcDbLine
 10
270.0
 20
183.2
 30
0.0
 11
282.6999999999999
 21
183.2
 31
0.0
  0
LINE
  5
138EC
330
1A
100
AcDbEntity
  8
0
100
AcDbLine
 10
282.6999999999999
 20
183.2
 30
0.0
 11
282.6999999999999
 21
184.2
 31
0.0
  0
LINE
  5
138ED
330
1A
100
AcDbEntity
  8
0
100
AcDbLine
 10
282.6999999999999
 20
184.2
 30
0.0
 11
284.6999999999999
 21
183.2
 31
0.0
  0
ARC
  5
138EE
330
1A
100
AcDbEntity
  8
0
100
AcDbCircle
 10
284.5999999999999
 20
184.2
 30
0.0
 40
1.9
100
AcDbArc
 50
180.0
 51
0.0
  0
ARC
  5
138EF
330
1A
100
AcDbEntity
  8
0
100
AcDbCircle
 10
284.5999999999999
 20
184.2
 30
0.0
 40
1.5
100
AcDbArc
 50
187.9394204839783
 51
0.0
  0
LINE
  5
138F0
330
1A
100
AcDbEntity
  8
0
100
AcDbLine
 10
271.6999999999999
 20
183.2
 30
0.0
 11
273.1999999999999
 21
184.7
 31
0.0
  0
LINE
  5
138F1
330
1A
100
AcDbEntity
  8
0
100
AcDbLine
 10
284.6999999999999
 20
183.2
 30
0.0
 11
284.6999999999999
 21
195.2
 31
0.0
  0
LINE
  5
138F2
330
1A
100
AcDbEntity
  8
0
100
AcDbLine
 10
268.6999999999999
 20
183.2
 30
0.0
 11
268.6999999999999
 21
195.0
 31
0.0
  0
LINE
  5
138F3
330
1A
100
AcDbEntity
  8
0
100
AcDbLine
 10
275.6999999999998
 20
184.7
 30
0.0
 11
275.6999999999998
 21
193.7
 31
0.0
  0
LINE
  5
138F4
330
1A
100
AcDbEntity
  8
0
100
AcDbLine
 10
286.4999999999999
 20
184.2
 30
0.0
 11
286.4999999999999
 21
194.2
 31
0.0
  0
LINE
  5
138F5
330
1A
100
AcDbEntity
  8
0
100
AcDbLine
 10
286.0999999999999
 20
184.2
 30
0.0
 11
286.0999999999999
 21
194.2
 31
0.0
  0
LINE
  5
138F6
330
1A
100
AcDbEntity
  8
0
100
AcDbLine
 10
270.0
 20
195.0
 30
0.0
 11
270.0
 21
181.0
 31
0.0
  0
LINE
  5
138F7
330
1A
100
AcDbEntity
  8
0
100
AcDbLine
 10
268.7000000000001
 20
195.0
 30
0.0
 11
268.7000000000001
 21
181.0
 31
0.0
  0
INSERT
  5
138F8
330
1A
100
AcDbEntity
  8
0
100
AcDbBlockReference
  2
A$C38FE6D9A
 10
269.9999999082585
 20
189.5885997278447
 30
0.0
 41
0.8659999999999854
 42
0.8659999999999854
 43
0.866
  0
INSERT
  5
138F9
330
1A
100
AcDbEntity
  8
0
100
AcDbBlockReference
  2
A$C38FE6D9A
 10
269.9999999082585
 20
211.5885997278446
 30
0.0
 41
0.8659999999999854
 42
0.8659999999999854
 43
0.866
  0
INSERT
  5
138FA
330
1A
100
AcDbEntity
  8
0
100
AcDbBlockReference
  2
A$C38FE6D9A
 10
271.9999998940629
 20
199.5999996857328
 30
0.0
  0
LINE
  5
138FB
330
1A
100
AcDbEntity
  8
0
100
AcDbLine
 10
272.0
 20
210.0
 30
0.0
 11
272.0
 21
195.0
 31
0.0
  0
LINE
  5
138FC
330
1A
100
AcDbEntity
  8
0
100
AcDbLine
 10
167.0
 20
210.0
 30
0.0
 11
166.5
 21
209.5
 31
0.0
  0
LINE
  5
138FD
330
1A
100
AcDbEntity
  8
0
100
AcDbLine
 10
167.0
 20
195.0
 30
0.0
 11
166.5
 21
195.5
 31
0.0
  0
LINE
  5
138FE
330
1A
100
AcDbEntity
  8
0
100
AcDbLine
 10
166.5
 20
195.5
 30
0.0
 11
166.5
 21
209.5
 31
0.0
  0
LINE
  5
138FF
330
1A
100
AcDbEntity
  8
0
100
AcDbLine
 10
167.0
 20
210.0
 30
0.0
 11
272.0
 21
210.0
 31
0.0
  0
LINE
  5
13900
330
1A
100
AcDbEntity
  8
0
100
AcDbLine
 10
167.0
 20
195.0
 30
0.0
 11
272.0
 21
195.0
 31
0.0
  0
LWPOLYLINE
  5
13901
330
1A
100
AcDbEntity
  8
0
100
AcDbPolyline
 90
        4
 70
     0
 43
0.0
 10
160.0
 20
189.9111111111111
 10
158.0
 20
189.8000000000001
 10
158.0
 20
186.8000000000001
 10
160.0
 20
186.6888888888889
  0
DIMENSION
  5
13902
330
1A
100
AcDbEntity
  8
SUNPOU
100
AcDbDimension
  2
*D7
 10
286.5
 20
237.4604615161373
 30
0.0
 11
278.25
 21
240.4604615161373
 31
0.0
 70
    32
  1
17
 71
     5
 42
16.5
  3
STANDARD
100
AcDbAlignedDimension
 13
270.0
 23
224.0
 33
0.0
 14
286.5
 24
219.6
 34
0.0
100
AcDbRotatedDimension
1001
ACAD
1000
DSTYLE
1002
{
1070
   140
1040
5.0
1070
    74
1070
     0
1070
    73
1070
     0
1070
   272
1070
     0
1070
    77
1070
     1
1070
   173
1070
     1
1070
   147
1040
0.5
1070
    42
1040
0.5
1070
    44
1040
0.5
1070
    43
1040
10.0
1070
   271
1070
     0
1070
   141
1040
0.0
1070
     7
1000
_OPEN
1070
     6
1000
_OPEN
1070
    41
1040
2.5
1002
}
  0
TEXT
  5
13903
330
1A
100
AcDbEntity
  8
0
100
AcDbText
 10
201.7157286751391
 20
167.5000001145691
 30
0.0
 40
3.999999992232601
  1
Side view
100
AcDbText
  0
DIMENSION
  5
13904
330
1A
100
AcDbEntity
  8
SUNPOU
100
AcDbDimension
  2
*D8
 10
165.7
 20
237.4604615161373
 30
0.0
 11
162.8500000055343
 21
240.4604615161373
 31
0.0
 70
    32
  1
6
 71
     5
 42
5.699999988931438
  3
STANDARD
100
AcDbAlignedDimension
 13
160.0000000110686
 23
225.5000000019418
 33
0.0
 14
165.7
 24
226.5
 34
0.0
100
AcDbRotatedDimension
1001
ACAD
1000
DSTYLE
1002
{
1070
   140
1040
5.0
1070
    74
1070
     0
1070
    73
1070
     0
1070
   272
1070
     0
1070
    77
1070
     1
1070
   173
1070
     1
1070
   147
1040
0.5
1070
    42
1040
0.5
1070
    44
1040
0.5
1070
    43
1040
10.0
1070
   271
1070
     0
1070
   141
1040
0.0
1070
     7
1000
_OPEN
1070
     6
1000
_OPEN
1070
    41
1040
2.5
1002
}
  0
DIMENSION
  5
13905
330
1A
100
AcDbEntity
  8
SUNPOU
100
AcDbDimension
  2
*D9
 10
270.0
 20
237.4604615161373
 30
0.0
 11
217.85
 21
240.4604615161373
 31
0.0
 70
    32
  1
104
 71
     5
 42
104.2999999999999
  3
STANDARD
100
AcDbAlignedDimension
 13
165.7
 23
226.5
 33
0.0
 14
270.0
 24
224.0000000048547
 34
0.0
100
AcDbRotatedDimension
1001
ACAD
1000
DSTYLE
1002
{
1070
    41
1040
2.5
1070
    42
1040
0.5
1070
    43
1040
10.0
1070
    44
1040
0.5
1070
    73
1070
     0
1070
    74
1070
     0
1070
    75
1070
     1
1070
    77
1070
     1
1070
   140
1040
5.0
1070
   141
1040
0.0
1070
   147
1040
0.5
1070
   173
1070
     1
1070
   271
1070
     0
1070
   272
1070
     0
1070
   279
1070
     1
1070
   343
1005
BA
1070
   344
1005
BA
1002
}
  0
LINE
  5
13906
330
1A
100
AcDbEntity
  8
0
100
AcDbLine
 10
161.0
 20
226.5
 30
0.0
 11
165.7
 21
226.5
 31
0.0
  0
LINE
  5
13907
330
1A
100
AcDbEntity
  8
0
100
AcDbLine
 10
161.0
 20
178.5
 30
0.0
 11
165.7
 21
178.5
 31
0.0
  0
LINE
  5
13908
330
1A
100
AcDbEntity
  8
0
100
AcDbLine
 10
160.0
 20
225.5
 30
0.0
 11
160.0
 21
179.5
 31
0.0
  0
LINE
  5
13909
330
1A
100
AcDbEntity
  8
0
100
AcDbLine
 10
165.2
 20
213.0000000000001
 30
0.0
 11
165.2
 21
192.0
 31
0.0
  0
LINE
  5
1390A
330
1A
100
AcDbEntity
  8
0
100
AcDbLine
 10
270.0
 20
224.0
 30
0.0
 11
270.0
 21
210.0
 31
0.0
  0
LINE
  5
1390B
330
1A
100
AcDbEntity
  8
0
100
AcDbLine
 10
165.7
 20
224.0
 30
0.0
 11
268.7000000000001
 21
224.0
 31
0.0
  0
LINE
  5
1390C
330
1A
100
AcDbEntity
  8
0
100
AcDbLine
 10
165.7
 20
181.0
 30
0.0
 11
268.7000000000001
 21
181.0
 31
0.0
  0
LINE
  5
1390D
330
1A
100
AcDbEntity
  8
0
100
AcDbLine
 10
166.0
 20
212.5
 30
0.0
 11
166.0
 21
192.5
 31
0.0
  0
LINE
  5
1390E
330
1A
100
AcDbEntity
  8
0
100
AcDbLine
 10
165.2
 20
212.5
 30
0.0
 11
166.0
 21
212.5
 31
0.0
  0
LINE
  5
1390F
330
1A
100
AcDbEntity
  8
0
100
AcDbLine
 10
165.2
 20
192.5
 30
0.0
 11
166.0
 21
192.5
 31
0.0
  0
LINE
  5
13910
330
1A
100
AcDbEntity
  8
0
100
AcDbLine
 10
268.7000000000001
 20
224.0
 30
0.0
 11
268.7000000000001
 21
210.0
 31
0.0
  0
LINE
  5
13911
330
1A
100
AcDbEntity
  8
0
100
AcDbLine
 10
270.0
 20
224.0
 30
0.0
 11
268.7000000000001
 21
224.0
 31
0.0
  0
LINE
  5
13912
330
1A
100
AcDbEntity
  8
0
100
AcDbLine
 10
268.7000000000001
 20
181.0
 30
0.0
 11
270.0
 21
181.0
 31
0.0
  0
LINE
  5
13913
330
1A
100
AcDbEntity
  8
0
100
AcDbLine
 10
165.7
 20
226.5
 30
0.0
 11
165.7
 21
213.0
 31
0.0
  0
LINE
  5
13914
330
1A
100
AcDbEntity
  8
0
100
AcDbLine
 10
164.7
 20
213.0
 30
0.0
 11
164.7
 21
192.0
 31
0.0
  0
LINE
  5
13915
330
1A
100
AcDbEntity
  8
0
100
AcDbLine
 10
165.7
 20
213.0
 30
0.0
 11
164.7
 21
213.0
 31
0.0
  0
LINE
  5
13916
330
1A
100
AcDbEntity
  8
0
100
AcDbLine
 10
164.7
 20
192.0
 30
0.0
 11
165.7
 21
192.0
 31
0.0
  0
LINE
  5
13917
330
1A
100
AcDbEntity
  8
0
100
AcDbLine
 10
165.7
 20
192.0
 30
0.0
 11
165.7
 21
178.5
 31
0.0
  0
ARC
  5
13918
330
1A
100
AcDbEntity
  8
0
100
AcDbCircle
 10
161.0
 20
225.5
 30
0.0
 40
1.0
100
AcDbArc
 50
90.0
 51
180.0
  0
ARC
  5
13919
330
1A
100
AcDbEntity
  8
0
100
AcDbCircle
 10
161.0
 20
179.5
 30
0.0
 40
1.0
100
AcDbArc
 50
180.0
 51
270.0
  0
LINE
  5
13F6A
330
1A
100
AcDbEntity
  8
0
100
AcDbLine
 10
120.4999999875716
 20
125.2000001689409
 30
0.0
 11
89.91999998757169
 21
125.2000001689409
 31
0.0
  0
LINE
  5
13F6B
330
1A
100
AcDbEntity
  8
0
100
AcDbLine
 10
120.4999999875716
 20
129.6000001689409
 30
0.0
 11
89.91999998757169
 21
129.6000001689409
 31
0.0
  0
LINE
  5
13F6C
330
1A
100
AcDbEntity
  8
0
100
AcDbLine
 10
120.4999999875716
 20
131.1000001689409
 30
0.0
 11
89.91999998757169
 21
131.1000001689409
 31
0.0
  0
CIRCLE
  5
13F6D
330
1A
100
AcDbEntity
  8
0
100
AcDbCircle
 10
102.9999999875716
 20
127.4000001689409
 30
0.0
 40
1.7
  0
CIRCLE
  5
13F6E
330
1A
100
AcDbEntity
  8
0
100
AcDbCircle
 10
102.9999999875716
 20
127.4000001689409
 30
0.0
 40
1.0
  0
LINE
  5
13F6F
330
1A
100
AcDbEntity
  8
0
100
AcDbLine
 10
104.2999999875716
 20
123.2000001689409
 30
0.0
 11
100.4999999875716
 21
123.2000001689409
 31
0.0
  0
LINE
  5
13F70
330
1A
100
AcDbEntity
  8
0
100
AcDbLine
 10
103.7999999875716
 20
124.7000001689409
 30
0.0
 11
100.9999999875716
 21
124.7000001689409
 31
0.0
  0
LINE
  5
13F71
330
1A
100
AcDbEntity
  8
0
100
AcDbLine
 10
103.7999999875716
 20
123.7000001689409
 30
0.0
 11
100.9999999875716
 21
123.7000001689409
 31
0.0
  0
LINE
  5
13F72
330
1A
100
AcDbEntity
  8
0
100
AcDbLine
 10
90.49999998757167
 20
121.1000001689408
 30
0.0
 11
90.49999998757163
 21
131.1000001689409
 31
0.0
  0
LINE
  5
13F73
330
1A
100
AcDbEntity
  8
0
100
AcDbLine
 10
88.99999998757165
 20
121.1000001689408
 30
0.0
 11
88.99999998757165
 21
121.6000001689409
 31
0.0
  0
LINE
  5
13F74
330
1A
100
AcDbEntity
  8
0
100
AcDbLine
 10
95.49999998757167
 20
121.1000001689408
 30
0.0
 11
95.49999998757163
 21
131.1000001689409
 31
0.0
  0
LINE
  5
13F75
330
1A
100
AcDbEntity
  8
0
100
AcDbLine
 10
100.4999999875716
 20
121.1000001689408
 30
0.0
 11
100.4999999875716
 21
131.1000001689409
 31
0.0
  0
LINE
  5
13F76
330
1A
100
AcDbEntity
  8
0
100
AcDbLine
 10
94.29999998757166
 20
123.2000001689409
 30
0.0
 11
90.49999998757163
 21
123.200000168941
 31
0.0
  0
CIRCLE
  5
13F77
330
1A
100
AcDbEntity
  8
0
100
AcDbCircle
 10
97.99999998757165
 20
127.4000001689409
 30
0.0
 40
1.0
  0
CIRCLE
  5
13F78
330
1A
100
AcDbEntity
  8
0
100
AcDbCircle
 10
92.99999998757163
 20
127.4000001689409
 30
0.0
 40
1.0
  0
CIRCLE
  5
13F79
330
1A
100
AcDbEntity
  8
0
100
AcDbCircle
 10
92.99999998757163
 20
127.4000001689409
 30
0.0
 40
1.7
  0
CIRCLE
  5
13F7A
330
1A
100
AcDbEntity
  8
0
100
AcDbCircle
 10
97.99999998757165
 20
127.4000001689409
 30
0.0
 40
1.7
  0
LINE
  5
13F7B
330
1A
100
AcDbEntity
  8
0
100
AcDbLine
 10
98.79999998757165
 20
124.7000001689409
 30
0.0
 11
95.99999998757164
 21
124.7000001689409
 31
0.0
  0
LINE
  5
13F7C
330
1A
100
AcDbEntity
  8
0
100
AcDbLine
 10
98.79999998757165
 20
123.7000001689409
 30
0.0
 11
95.99999998757164
 21
123.7000001689409
 31
0.0
  0
LINE
  5
13F7D
330
1A
100
AcDbEntity
  8
0
100
AcDbLine
 10
99.29999998757166
 20
123.2000001689409
 30
0.0
 11
95.49999998757163
 21
123.2000001689409
 31
0.0
  0
LINE
  5
13F7E
330
1A
100
AcDbEntity
  8
0
100
AcDbLine
 10
90.99999998757164
 20
123.700000168941
 30
0.0
 11
90.99999998757164
 21
124.700000168941
 31
0.0
  0
LINE
  5
13F7F
330
1A
100
AcDbEntity
  8
0
100
AcDbLine
 10
95.99999998757164
 20
123.7000001689409
 30
0.0
 11
95.99999998757164
 21
124.7000001689409
 31
0.0
  0
LINE
  5
13F80
330
1A
100
AcDbEntity
  8
0
100
AcDbLine
 10
93.79999998757165
 20
123.7000001689409
 30
0.0
 11
93.79999998757165
 21
124.700000168941
 31
0.0
  0
LINE
  5
13F81
330
1A
100
AcDbEntity
  8
0
100
AcDbLine
 10
94.29999998757166
 20
123.200000168941
 30
0.0
 11
94.29999998757166
 21
125.2000001689409
 31
0.0
  0
LINE
  5
13F82
330
1A
100
AcDbEntity
  8
0
100
AcDbLine
 10
93.79999998757165
 20
124.700000168941
 30
0.0
 11
90.99999998757164
 21
124.7000001689409
 31
0.0
  0
LINE
  5
13F83
330
1A
100
AcDbEntity
  8
0
100
AcDbLine
 10
93.79999998757165
 20
123.7000001689409
 30
0.0
 11
90.99999998757164
 21
123.7000001689409
 31
0.0
  0
LINE
  5
13F84
330
1A
100
AcDbEntity
  8
0
100
AcDbLine
 10
98.79999998757165
 20
123.7000001689409
 30
0.0
 11
98.79999998757165
 21
124.7000001689409
 31
0.0
  0
LINE
  5
13F85
330
1A
100
AcDbEntity
  8
0
100
AcDbLine
 10
99.29999998757166
 20
123.2000001689409
 30
0.0
 11
99.29999998757166
 21
125.2000001689409
 31
0.0
  0
LINE
  5
13F86
330
1A
100
AcDbEntity
  8
0
100
AcDbLine
 10
100.9999999875716
 20
123.7000001689409
 30
0.0
 11
100.9999999875716
 21
124.7000001689409
 31
0.0
  0
LINE
  5
13F87
330
1A
100
AcDbEntity
  8
0
100
AcDbLine
 10
105.4999999875716
 20
121.1000001689408
 30
0.0
 11
105.4999999875716
 21
131.1000001689409
 31
0.0
  0
LINE
  5
13F88
330
1A
100
AcDbEntity
  8
0
100
AcDbLine
 10
115.4999999875716
 20
121.1000001689408
 30
0.0
 11
115.4999999875716
 21
131.1000001689409
 31
0.0
  0
LINE
  5
13F89
330
1A
100
AcDbEntity
  8
0
100
AcDbLine
 10
110.4999999875716
 20
121.1000001689408
 30
0.0
 11
110.4999999875716
 21
131.1000001689409
 31
0.0
  0
LINE
  5
13F8A
330
1A
100
AcDbEntity
  8
0
100
AcDbLine
 10
120.4999999875717
 20
121.1000001689408
 30
0.0
 11
120.4999999875716
 21
131.1000001689409
 31
0.0
  0
CIRCLE
  5
13F8B
330
1A
100
AcDbEntity
  8
0
100
AcDbCircle
 10
112.9999999875716
 20
127.4000001689409
 30
0.0
 40
1.0
  0
CIRCLE
  5
13F8C
330
1A
100
AcDbEntity
  8
0
100
AcDbCircle
 10
112.9999999875716
 20
127.4000001689409
 30
0.0
 40
1.7
  0
LINE
  5
13F8D
330
1A
100
AcDbEntity
  8
0
100
AcDbLine
 10
114.2999999875716
 20
123.2000001689409
 30
0.0
 11
110.4999999875716
 21
123.2000001689409
 31
0.0
  0
CIRCLE
  5
13F8E
330
1A
100
AcDbEntity
  8
0
100
AcDbCircle
 10
107.9999999875716
 20
127.4000001689409
 30
0.0
 40
1.7
  0
CIRCLE
  5
13F8F
330
1A
100
AcDbEntity
  8
0
100
AcDbCircle
 10
107.9999999875716
 20
127.4000001689409
 30
0.0
 40
1.0
  0
LINE
  5
13F90
330
1A
100
AcDbEntity
  8
0
100
AcDbLine
 10
108.7999999875716
 20
123.7000001689409
 30
0.0
 11
105.9999999875716
 21
123.7000001689409
 31
0.0
  0
LINE
  5
13F91
330
1A
100
AcDbEntity
  8
0
100
AcDbLine
 10
108.7999999875716
 20
124.7000001689409
 30
0.0
 11
105.9999999875716
 21
124.7000001689409
 31
0.0
  0
LINE
  5
13F92
330
1A
100
AcDbEntity
  8
0
100
AcDbLine
 10
109.2999999875716
 20
123.2000001689409
 30
0.0
 11
105.4999999875716
 21
123.2000001689409
 31
0.0
  0
LINE
  5
13F93
330
1A
100
AcDbEntity
  8
0
100
AcDbLine
 10
103.7999999875716
 20
123.7000001689409
 30
0.0
 11
103.7999999875716
 21
124.7000001689409
 31
0.0
  0
LINE
  5
13F94
330
1A
100
AcDbEntity
  8
0
100
AcDbLine
 10
104.2999999875716
 20
123.2000001689409
 30
0.0
 11
104.2999999875716
 21
125.2000001689409
 31
0.0
  0
LINE
  5
13F95
330
1A
100
AcDbEntity
  8
0
100
AcDbLine
 10
105.9999999875716
 20
123.7000001689409
 30
0.0
 11
105.9999999875716
 21
124.7000001689409
 31
0.0
  0
LINE
  5
13F96
330
1A
100
AcDbEntity
  8
0
100
AcDbLine
 10
108.7999999875716
 20
123.7000001689409
 30
0.0
 11
108.7999999875716
 21
124.7000001689409
 31
0.0
  0
LINE
  5
13F97
330
1A
100
AcDbEntity
  8
0
100
AcDbLine
 10
109.2999999875716
 20
123.2000001689409
 30
0.0
 11
109.2999999875716
 21
125.2000001689409
 31
0.0
  0
LINE
  5
13F98
330
1A
100
AcDbEntity
  8
0
100
AcDbLine
 10
110.9999999875716
 20
123.7000001689409
 30
0.0
 11
110.9999999875716
 21
124.7000001689409
 31
0.0
  0
LINE
  5
13F99
330
1A
100
AcDbEntity
  8
0
100
AcDbLine
 10
113.7999999875716
 20
123.7000001689409
 30
0.0
 11
113.7999999875716
 21
124.7000001689409
 31
0.0
  0
LINE
  5
13F9A
330
1A
100
AcDbEntity
  8
0
100
AcDbLine
 10
113.7999999875716
 20
124.7000001689409
 30
0.0
 11
110.9999999875716
 21
124.7000001689409
 31
0.0
  0
LINE
  5
13F9B
330
1A
100
AcDbEntity
  8
0
100
AcDbLine
 10
113.7999999875716
 20
123.7000001689409
 30
0.0
 11
110.9999999875716
 21
123.7000001689409
 31
0.0
  0
CIRCLE
  5
13F9C
330
1A
100
AcDbEntity
  8
0
100
AcDbCircle
 10
117.9999999875716
 20
127.4000001689409
 30
0.0
 40
1.0
  0
CIRCLE
  5
13F9D
330
1A
100
AcDbEntity
  8
0
100
AcDbCircle
 10
117.9999999875716
 20
127.4000001689409
 30
0.0
 40
1.7
  0
LINE
  5
13F9E
330
1A
100
AcDbEntity
  8
0
100
AcDbLine
 10
114.2999999875716
 20
123.2000001689409
 30
0.0
 11
114.2999999875716
 21
125.2000001689409
 31
0.0
  0
LINE
  5
13F9F
330
1A
100
AcDbEntity
  8
0
100
AcDbLine
 10
115.9999999875716
 20
123.7000001689409
 30
0.0
 11
115.9999999875716
 21
124.7000001689409
 31
0.0
  0
LINE
  5
13FA0
330
1A
100
AcDbEntity
  8
0
100
AcDbLine
 10
119.2999999875716
 20
123.2000001689409
 30
0.0
 11
119.2999999875716
 21
125.2000001689409
 31
0.0
  0
LINE
  5
13FA1
330
1A
100
AcDbEntity
  8
0
100
AcDbLine
 10
118.7999999875716
 20
123.7000001689409
 30
0.0
 11
118.7999999875716
 21
124.7000001689409
 31
0.0
  0
LINE
  5
13FA2
330
1A
100
AcDbEntity
  8
0
100
AcDbLine
 10
118.7999999875716
 20
124.7000001689409
 30
0.0
 11
115.9999999875716
 21
124.7000001689409
 31
0.0
  0
LINE
  5
13FA3
330
1A
100
AcDbEntity
  8
0
100
AcDbLine
 10
119.2999999875716
 20
123.2000001689409
 30
0.0
 11
115.4999999875716
 21
123.2000001689409
 31
0.0
  0
LINE
  5
13FA4
330
1A
100
AcDbEntity
  8
0
100
AcDbLine
 10
118.7999999875716
 20
123.7000001689409
 30
0.0
 11
115.9999999875716
 21
123.7000001689409
 31
0.0
  0
LINE
  5
13FFD
330
1A
100
AcDbEntity
  8
0
100
AcDbLine
 10
48.99999998757158
 20
86.70000016894073
 30
0.0
 11
48.99999998757158
 21
83.6005055589111
 31
0.0
  0
LINE
  5
13FFE
330
1A
100
AcDbEntity
  8
0
100
AcDbLine
 10
48.99999998757158
 20
83.6005055589111
 30
0.0
 11
53.0
 21
83.6005055589111
 31
0.0
  0
LINE
  5
13FFF
330
1A
100
AcDbEntity
  8
0
100
AcDbLine
 10
77.99999998757158
 20
83.6005055589111
 30
0.0
 11
75.0
 21
83.6005055589111
 31
0.0
  0
LINE
  5
14000
330
1A
100
AcDbEntity
  8
0
100
AcDbLine
 10
77.99999998757158
 20
86.70000016894073
 30
0.0
 11
77.99999998757158
 21
83.6005055589111
 31
0.0
  0
TEXT
  5
14001
330
1A
100
AcDbEntity
  8
0
100
AcDbText
 10
55.01190474947634
 20
82.500000168941
 30
0.0
 40
2.5
  1
Set Point
 72
     1
 11
63.49999998757159
 21
85.000000168941
 31
0.0
100
AcDbText
 73
     3
  0
LINE
  5
14005
330
1A
100
AcDbEntity
  8
0
100
AcDbLine
 10
78.49999998757152
 20
90.70000016894073
 30
0.0
 11
78.49999998757152
 21
87.6005055589111
 31
0.0
  0
LINE
  5
14006
330
1A
100
AcDbEntity
  8
0
100
AcDbLine
 10
78.49999998757152
 20
87.6005055589111
 30
0.0
 11
79.49999998757149
 21
87.6005055589111
 31
0.0
  0
LINE
  5
14007
330
1A
100
AcDbEntity
  8
0
100
AcDbLine
 10
88.49999998757153
 20
90.70000016894073
 30
0.0
 11
88.49999998757153
 21
87.6005055589111
 31
0.0
  0
LINE
  5
14008
330
1A
100
AcDbEntity
  8
0
100
AcDbLine
 10
88.49999998757153
 20
87.6005055589111
 30
0.0
 11
87.49999998757155
 21
87.6005055589111
 31
0.0
  0
TEXT
  5
14009
330
1A
100
AcDbEntity
  8
0
100
AcDbText
 10
79.6666666542382
 20
87.00000016894097
 30
0.0
 40
2.5
  1
S.OUT
 41
0.7
 72
     1
 11
83.49999998757153
 21
89.50000016894097
 31
0.0
100
AcDbText
 73
     3
  0
TEXT
  5
1400B
330
1A
100
AcDbEntity
  8
0
100
AcDbText
 10
74.03571427328587
 20
87.00000016894099
 30
0.0
 40
2.5
  1
COM
 41
0.5
 72
     1
 11
75.99999998757159
 21
89.50000016894099
 31
0.0
100
AcDbText
 73
     3
  0
TEXT
  5
1400C
330
1A
100
AcDbEntity
  8
0
100
AcDbText
 10
69.03571427328587
 20
87.00000016894099
 30
0.0
 40
2.5
  1
COM
 41
0.5
 72
     1
 11
70.99999998757159
 21
89.50000016894099
 31
0.0
100
AcDbText
 73
     3
  0
TEXT
  5
145E8
330
1A
100
AcDbEntity
  8
WAKU
100
AcDbText
 10
301.0
 20
14.0
 30
0.0
 40
2.0
  1
07.12.25
100
AcDbText
  0
TEXT
  5
145E9
330
1A
100
AcDbEntity
  8
WAKU
100
AcDbText
 10
303.0
 20
19.0
 30
0.0
 40
4.0
  1
横山
100
AcDbText
  0
TEXT
  5
145EA
330
1A
100
AcDbEntity
  8
WAKU
100
AcDbText
 10
331.0
 20
14.0
 30
0.0
 40
2.0
  1
07.12.25
100
AcDbText
  0
TEXT
  5
145EB
330
1A
100
AcDbEntity
  8
WAKU
100
AcDbText
 10
333.0
 20
19.0
 30
0.0
 40
4.0
  1
串田
100
AcDbText
  0
LINE
  5
1470F
330
1A
100
AcDbEntity
  8
0
100
AcDbLine
 10
47.99999998757164
 20
111.1000001689409
 30
0.0
 11
90.0399999875716
 21
111.1000001689409
 31
0.0
  0
LINE
  5
14711
330
1A
100
AcDbEntity
  8
0
100
AcDbLine
 10
47.99999998757164
 20
111.1000001689409
 30
0.0
 11
47.99999998757164
 21
100.1000002155452
 31
0.0
  0
LINE
  5
14718
330
1A
100
AcDbEntity
  8
0
100
AcDbLine
 10
120.9999999875716
 20
121.1000001689408
 30
0.0
 11
48.11999998757165
 21
121.1000001689409
 31
0.0
  0
LINE
  5
14719
330
1A
100
AcDbEntity
  8
0
100
AcDbLine
 10
48.11999998757165
 20
121.1000001689409
 30
0.0
 11
48.11999998757165
 21
134.1000001689409
 31
0.0
  0
LINE
  5
1471A
330
1A
100
AcDbEntity
  8
0
100
AcDbLine
 10
90.41999998757171
 20
134.1000001689409
 30
0.0
 11
48.11999998757165
 21
134.1000001689409
 31
0.0
  0
LINE
  5
1471B
330
1A
100
AcDbEntity
  8
0
100
AcDbLine
 10
120.9999999875716
 20
121.1000001689408
 30
0.0
 11
120.9999999875716
 21
131.6000002155453
 31
0.0
  0
LINE
  5
1471D
330
1A
100
AcDbEntity
  8
0
100
AcDbLine
 10
90.41999998757168
 20
131.6000002155453
 30
0.0
 11
90.41999998757171
 21
134.1000001689409
 31
0.0
  0
CIRCLE
  5
1471E
330
1A
100
AcDbEntity
  8
0
100
AcDbCircle
 10
55.99999998757152
 20
104.8000001689409
 30
0.0
 40
1.0
  0
CIRCLE
  5
1471F
330
1A
100
AcDbEntity
  8
0
100
AcDbCircle
 10
55.99999998757152
 20
104.8000001689409
 30
0.0
 40
1.7
  0
LINE
  5
14720
330
1A
100
AcDbEntity
  8
0
100
AcDbLine
 10
54.69999998757152
 20
109.0000001689409
 30
0.0
 11
58.49999998757152
 21
109.0000001689409
 31
0.0
  0
LINE
  5
14721
330
1A
100
AcDbEntity
  8
0
100
AcDbLine
 10
57.99999998757153
 20
108.5000001689409
 30
0.0
 11
57.99999998757153
 21
107.5000001689409
 31
0.0
  0
LINE
  5
14722
330
1A
100
AcDbEntity
  8
0
100
AcDbLine
 10
55.19999998757151
 20
108.5000001689409
 30
0.0
 11
55.19999998757151
 21
107.5000001689409
 31
0.0
  0
LINE
  5
14723
330
1A
100
AcDbEntity
  8
0
100
AcDbLine
 10
55.19999998757151
 20
107.5000001689409
 30
0.0
 11
57.99999998757153
 21
107.5000001689409
 31
0.0
  0
LINE
  5
14724
330
1A
100
AcDbEntity
  8
0
100
AcDbLine
 10
55.19999998757151
 20
108.5000001689409
 30
0.0
 11
57.99999998757153
 21
108.5000001689409
 31
0.0
  0
CIRCLE
  5
14725
330
1A
100
AcDbEntity
  8
0
100
AcDbCircle
 10
50.99999998757152
 20
104.8000001689409
 30
0.0
 40
1.0
  0
CIRCLE
  5
14726
330
1A
100
AcDbEntity
  8
0
100
AcDbCircle
 10
50.99999998757152
 20
104.8000001689409
 30
0.0
 40
1.7
  0
LINE
  5
14727
330
1A
100
AcDbEntity
  8
0
100
AcDbLine
 10
54.69999998757152
 20
109.0000001689409
 30
0.0
 11
54.69999998757152
 21
107.0000001689409
 31
0.0
  0
LINE
  5
14728
330
1A
100
AcDbEntity
  8
0
100
AcDbLine
 10
52.99999998757153
 20
108.5000001689409
 30
0.0
 11
52.99999998757153
 21
107.5000001689409
 31
0.0
  0
LINE
  5
14729
330
1A
100
AcDbEntity
  8
0
100
AcDbLine
 10
49.69999998757152
 20
109.0000001689409
 30
0.0
 11
49.69999998757152
 21
107.0000001689409
 31
0.0
  0
LINE
  5
1472A
330
1A
100
AcDbEntity
  8
0
100
AcDbLine
 10
50.19999998757151
 20
108.5000001689409
 30
0.0
 11
50.19999998757151
 21
107.5000001689409
 31
0.0
  0
LINE
  5
1472B
330
1A
100
AcDbEntity
  8
0
100
AcDbLine
 10
50.19999998757151
 20
107.5000001689409
 30
0.0
 11
52.99999998757153
 21
107.5000001689409
 31
0.0
  0
LINE
  5
1472C
330
1A
100
AcDbEntity
  8
0
100
AcDbLine
 10
49.69999998757152
 20
109.0000001689409
 30
0.0
 11
53.49999998757152
 21
109.0000001689409
 31
0.0
  0
LINE
  5
1472D
330
1A
100
AcDbEntity
  8
0
100
AcDbLine
 10
50.19999998757151
 20
108.5000001689409
 30
0.0
 11
52.99999998757153
 21
108.5000001689409
 31
0.0
  0
LINE
  5
1472E
330
1A
100
AcDbEntity
  8
0
100
AcDbLine
 10
53.49999998757152
 20
111.1000001689409
 30
0.0
 11
53.49999998757152
 21
101.1000001689409
 31
0.0
  0
LINE
  5
1472F
330
1A
100
AcDbEntity
  8
0
100
AcDbLine
 10
48.49999998757152
 20
111.1000001689409
 30
0.0
 11
48.49999998757152
 21
101.1000001689409
 31
0.0
  0
LINE
  5
14730
330
1A
100
AcDbEntity
  8
0
100
AcDbLine
 10
60.19999998757151
 20
108.5000001689409
 30
0.0
 11
62.99999998757153
 21
108.5000001689409
 31
0.0
  0
LINE
  5
14731
330
1A
100
AcDbEntity
  8
0
100
AcDbLine
 10
59.69999998757152
 20
109.0000001689409
 30
0.0
 11
63.49999998757152
 21
109.0000001689409
 31
0.0
  0
LINE
  5
14732
330
1A
100
AcDbEntity
  8
0
100
AcDbLine
 10
60.19999998757151
 20
107.5000001689409
 30
0.0
 11
62.99999998757153
 21
107.5000001689409
 31
0.0
  0
LINE
  5
14733
330
1A
100
AcDbEntity
  8
0
100
AcDbLine
 10
60.19999998757151
 20
108.5000001689409
 30
0.0
 11
60.19999998757151
 21
107.5000001689409
 31
0.0
  0
LINE
  5
14734
330
1A
100
AcDbEntity
  8
0
100
AcDbLine
 10
59.69999998757152
 20
109.0000001689409
 30
0.0
 11
59.69999998757152
 21
107.0000001689409
 31
0.0
  0
LINE
  5
14735
330
1A
100
AcDbEntity
  8
0
100
AcDbLine
 10
62.99999998757153
 20
108.5000001689409
 30
0.0
 11
62.99999998757153
 21
107.5000001689409
 31
0.0
  0
LINE
  5
14736
330
1A
100
AcDbEntity
  8
0
100
AcDbLine
 10
64.69999998757152
 20
109.0000001689409
 30
0.0
 11
64.69999998757152
 21
107.0000001689409
 31
0.0
  0
CIRCLE
  5
14737
330
1A
100
AcDbEntity
  8
0
100
AcDbCircle
 10
60.99999998757152
 20
104.8000001689409
 30
0.0
 40
1.7
  0
CIRCLE
  5
14738
330
1A
100
AcDbEntity
  8
0
100
AcDbCircle
 10
60.99999998757152
 20
104.8000001689409
 30
0.0
 40
1.0
  0
LINE
  5
14739
330
1A
100
AcDbEntity
  8
0
100
AcDbLine
 10
65.19999998757151
 20
108.5000001689409
 30
0.0
 11
67.99999998757153
 21
108.5000001689409
 31
0.0
  0
LINE
  5
1473A
330
1A
100
AcDbEntity
  8
0
100
AcDbLine
 10
65.19999998757151
 20
107.5000001689409
 30
0.0
 11
67.99999998757153
 21
107.5000001689409
 31
0.0
  0
LINE
  5
1473B
330
1A
100
AcDbEntity
  8
0
100
AcDbLine
 10
65.19999998757151
 20
108.5000001689409
 30
0.0
 11
65.19999998757151
 21
107.5000001689409
 31
0.0
  0
LINE
  5
1473C
330
1A
100
AcDbEntity
  8
0
100
AcDbLine
 10
67.99999998757153
 20
108.5000001689409
 30
0.0
 11
67.99999998757153
 21
107.5000001689409
 31
0.0
  0
LINE
  5
1473D
330
1A
100
AcDbEntity
  8
0
100
AcDbLine
 10
69.69999998757152
 20
109.0000001689409
 30
0.0
 11
69.69999998757152
 21
107.0000001689409
 31
0.0
  0
LINE
  5
1473E
330
1A
100
AcDbEntity
  8
0
100
AcDbLine
 10
70.19999998757151
 20
108.5000001689409
 30
0.0
 11
70.19999998757151
 21
107.5000001689409
 31
0.0
  0
LINE
  5
1473F
330
1A
100
AcDbEntity
  8
0
100
AcDbLine
 10
72.99999998757153
 20
108.5000001689409
 30
0.0
 11
72.99999998757153
 21
107.5000001689409
 31
0.0
  0
LINE
  5
14740
330
1A
100
AcDbEntity
  8
0
100
AcDbLine
 10
74.69999998757152
 20
109.0000001689409
 30
0.0
 11
74.69999998757152
 21
107.0000001689409
 31
0.0
  0
LINE
  5
14741
330
1A
100
AcDbEntity
  8
0
100
AcDbLine
 10
75.19999998757151
 20
108.5000001689409
 30
0.0
 11
75.19999998757151
 21
107.5000001689409
 31
0.0
  0
LINE
  5
14742
330
1A
100
AcDbEntity
  8
0
100
AcDbLine
 10
69.69999998757152
 20
109.0000001689409
 30
0.0
 11
73.49999998757152
 21
109.0000001689409
 31
0.0
  0
LINE
  5
14743
330
1A
100
AcDbEntity
  8
0
100
AcDbLine
 10
70.19999998757151
 20
107.5000001689409
 30
0.0
 11
72.99999998757153
 21
107.5000001689409
 31
0.0
  0
LINE
  5
14744
330
1A
100
AcDbEntity
  8
0
100
AcDbLine
 10
70.19999998757151
 20
108.5000001689409
 30
0.0
 11
72.99999998757153
 21
108.5000001689409
 31
0.0
  0
CIRCLE
  5
14745
330
1A
100
AcDbEntity
  8
0
100
AcDbCircle
 10
70.99999998757152
 20
104.8000001689409
 30
0.0
 40
1.0
  0
CIRCLE
  5
14746
330
1A
100
AcDbEntity
  8
0
100
AcDbCircle
 10
70.99999998757152
 20
104.8000001689409
 30
0.0
 40
1.7
  0
LINE
  5
14747
330
1A
100
AcDbEntity
  8
0
100
AcDbLine
 10
64.69999998757152
 20
109.0000001689409
 30
0.0
 11
68.49999998757152
 21
109.0000001689409
 31
0.0
  0
CIRCLE
  5
14748
330
1A
100
AcDbEntity
  8
0
100
AcDbCircle
 10
65.99999998757152
 20
104.8000001689409
 30
0.0
 40
1.7
  0
CIRCLE
  5
14749
330
1A
100
AcDbEntity
  8
0
100
AcDbCircle
 10
65.99999998757152
 20
104.8000001689409
 30
0.0
 40
1.0
  0
LINE
  5
1474A
330
1A
100
AcDbEntity
  8
0
100
AcDbLine
 10
58.49999998757152
 20
111.1000001689409
 30
0.0
 11
58.49999998757152
 21
101.1000001689409
 31
0.0
  0
LINE
  5
1474B
330
1A
100
AcDbEntity
  8
0
100
AcDbLine
 10
68.49999998757152
 20
111.1000001689409
 30
0.0
 11
68.49999998757152
 21
101.1000001689409
 31
0.0
  0
LINE
  5
1474C
330
1A
100
AcDbEntity
  8
0
100
AcDbLine
 10
63.49999998757152
 20
111.1000001689409
 30
0.0
 11
63.49999998757152
 21
101.1000001689409
 31
0.0
  0
LINE
  5
1474D
330
1A
100
AcDbEntity
  8
0
100
AcDbLine
 10
73.49999998757152
 20
111.1000001689409
 30
0.0
 11
73.49999998757152
 21
101.1000001689409
 31
0.0
  0
LINE
  5
1474E
330
1A
100
AcDbEntity
  8
0
100
AcDbLine
 10
77.99999998757153
 20
108.5000001689409
 30
0.0
 11
77.99999998757153
 21
107.5000001689409
 31
0.0
  0
LINE
  5
1474F
330
1A
100
AcDbEntity
  8
0
100
AcDbLine
 10
79.69999998757152
 20
109.0000001689409
 30
0.0
 11
79.69999998757152
 21
107.0000001689409
 31
0.0
  0
LINE
  5
14750
330
1A
100
AcDbEntity
  8
0
100
AcDbLine
 10
80.19999998757151
 20
108.5000001689409
 30
0.0
 11
80.19999998757151
 21
107.5000001689409
 31
0.0
  0
LINE
  5
14751
330
1A
100
AcDbEntity
  8
0
100
AcDbLine
 10
85.19999998757151
 20
108.5000001689409
 30
0.0
 11
87.99999998757153
 21
108.5000001689409
 31
0.0
  0
LINE
  5
14752
330
1A
100
AcDbEntity
  8
0
100
AcDbLine
 10
85.19999998757151
 20
107.5000001689408
 30
0.0
 11
87.99999998757153
 21
107.5000001689409
 31
0.0
  0
LINE
  5
14753
330
1A
100
AcDbEntity
  8
0
100
AcDbLine
 10
84.69999998757151
 20
109.0000001689408
 30
0.0
 11
84.69999998757151
 21
107.0000001689409
 31
0.0
  0
LINE
  5
14754
330
1A
100
AcDbEntity
  8
0
100
AcDbLine
 10
85.19999998757151
 20
108.5000001689409
 30
0.0
 11
85.19999998757151
 21
107.5000001689408
 31
0.0
  0
LINE
  5
14755
330
1A
100
AcDbEntity
  8
0
100
AcDbLine
 10
82.99999998757153
 20
108.5000001689409
 30
0.0
 11
82.99999998757153
 21
107.5000001689409
 31
0.0
  0
LINE
  5
14756
330
1A
100
AcDbEntity
  8
0
100
AcDbLine
 10
87.99999998757153
 20
108.5000001689408
 30
0.0
 11
87.99999998757153
 21
107.5000001689408
 31
0.0
  0
LINE
  5
14757
330
1A
100
AcDbEntity
  8
0
100
AcDbLine
 10
79.69999998757152
 20
109.0000001689409
 30
0.0
 11
83.49999998757153
 21
109.0000001689409
 31
0.0
  0
LINE
  5
14758
330
1A
100
AcDbEntity
  8
0
100
AcDbLine
 10
80.19999998757151
 20
108.5000001689409
 30
0.0
 11
82.99999998757153
 21
108.5000001689409
 31
0.0
  0
LINE
  5
14759
330
1A
100
AcDbEntity
  8
0
100
AcDbLine
 10
80.19999998757151
 20
107.5000001689409
 30
0.0
 11
82.99999998757153
 21
107.5000001689409
 31
0.0
  0
CIRCLE
  5
1475A
330
1A
100
AcDbEntity
  8
0
100
AcDbCircle
 10
80.99999998757153
 20
104.8000001689409
 30
0.0
 40
1.7
  0
CIRCLE
  5
1475B
330
1A
100
AcDbEntity
  8
0
100
AcDbCircle
 10
85.99999998757153
 20
104.8000001689409
 30
0.0
 40
1.7
  0
CIRCLE
  5
1475C
330
1A
100
AcDbEntity
  8
0
100
AcDbCircle
 10
85.99999998757153
 20
104.8000001689409
 30
0.0
 40
1.0
  0
CIRCLE
  5
1475D
330
1A
100
AcDbEntity
  8
0
100
AcDbCircle
 10
80.99999998757153
 20
104.8000001689409
 30
0.0
 40
1.0
  0
LINE
  5
1475E
330
1A
100
AcDbEntity
  8
0
100
AcDbLine
 10
84.69999998757151
 20
109.0000001689409
 30
0.0
 11
88.49999998757153
 21
109.0000001689408
 31
0.0
  0
LINE
  5
1475F
330
1A
100
AcDbEntity
  8
0
100
AcDbLine
 10
78.49999998757152
 20
111.1000001689409
 30
0.0
 11
78.49999998757152
 21
101.1000001689409
 31
0.0
  0
LINE
  5
14760
330
1A
100
AcDbEntity
  8
0
100
AcDbLine
 10
83.49999998757153
 20
111.1000001689409
 30
0.0
 11
83.49999998757153
 21
101.1000001689409
 31
0.0
  0
LINE
  5
14761
330
1A
100
AcDbEntity
  8
0
100
AcDbLine
 10
89.99999998757152
 20
111.1000001689409
 30
0.0
 11
89.99999998757152
 21
101.1000001689409
 31
0.0
  0
LINE
  5
14762
330
1A
100
AcDbEntity
  8
0
100
AcDbLine
 10
88.49999998757153
 20
111.1000001689409
 30
0.0
 11
88.49999998757153
 21
101.1000001689409
 31
0.0
  0
LINE
  5
14763
330
1A
100
AcDbEntity
  8
0
100
AcDbLine
 10
75.19999998757151
 20
108.5000001689409
 30
0.0
 11
77.99999998757153
 21
108.5000001689409
 31
0.0
  0
LINE
  5
14764
330
1A
100
AcDbEntity
  8
0
100
AcDbLine
 10
75.19999998757151
 20
107.5000001689409
 30
0.0
 11
77.99999998757153
 21
107.5000001689409
 31
0.0
  0
LINE
  5
14765
330
1A
100
AcDbEntity
  8
0
100
AcDbLine
 10
74.69999998757152
 20
109.0000001689409
 30
0.0
 11
78.49999998757152
 21
109.0000001689409
 31
0.0
  0
CIRCLE
  5
14766
330
1A
100
AcDbEntity
  8
0
100
AcDbCircle
 10
75.99999998757152
 20
104.8000001689409
 30
0.0
 40
1.0
  0
CIRCLE
  5
14767
330
1A
100
AcDbEntity
  8
0
100
AcDbCircle
 10
75.99999998757152
 20
104.8000001689409
 30
0.0
 40
1.7
  0
LINE
  5
14768
330
1A
100
AcDbEntity
  8
0
100
AcDbLine
 10
48.49999998757152
 20
101.1000001689409
 30
0.0
 11
89.9999999875715
 21
101.1000001689409
 31
0.0
  0
LINE
  5
14769
330
1A
100
AcDbEntity
  8
0
100
AcDbLine
 10
48.49999998757152
 20
102.6000001689409
 30
0.0
 11
89.9999999875715
 21
102.6000001689409
 31
0.0
  0
LINE
  5
1476A
330
1A
100
AcDbEntity
  8
0
100
AcDbLine
 10
48.49999998757152
 20
107.0000001689409
 30
0.0
 11
89.9999999875715
 21
107.0000001689409
 31
0.0
  0
LINE
  5
1476D
330
1A
100
AcDbEntity
  8
SUNPOU
100
AcDbLine
 10
90.41999998757171
 20
132.7000001689409
 30
0.0
 11
89.91999998757169
 21
132.7000001689409
 31
0.0
  0
LINE
  5
14770
330
1A
100
AcDbEntity
  8
SUNPOU
100
AcDbLine
 10
47.99999998757164
 20
101.1000001689409
 30
0.0
 11
48.49999998757152
 21
101.1000001689409
 31
0.0
  0
LINE
  5
14771
330
1A
100
AcDbEntity
  8
SUNPOU
100
AcDbLine
 10
120.4999999875716
 20
131.1000001689409
 30
0.0
 11
120.9999999875716
 21
131.1000001689409
 31
0.0
  0
LINE
  5
1479D
330
1A
100
AcDbEntity
  8
SUNPOU
100
AcDbLine
 10
120.4999999875716
 20
120.1000001689408
 30
0.0
 11
48.49999998757152
 21
120.1000001689409
 31
0.0
  0
LINE
  5
1479F
330
1A
100
AcDbEntity
  8
SUNPOU
100
AcDbLine
 10
48.49999998757152
 20
114.1000001689409
 30
0.0
 11
120.4999999875717
 21
114.1000001689409
 31
0.0
  0
LINE
  5
147A2
330
1A
100
AcDbEntity
  8
SUNPOU
100
AcDbLine
 10
48.49999998757152
 20
114.1000001689409
 30
0.0
 11
48.49999998757152
 21
120.1000001689409
 31
0.0
  0
LINE
  5
147A6
330
1A
100
AcDbEntity
  8
SUNPOU
100
AcDbLine
 10
120.4999999875716
 20
120.1000001689408
 30
0.0
 11
120.4999999875717
 21
114.1000001689409
 31
0.0
  0
TEXT
  5
147C4
330
1A
100
AcDbEntity
  8
0
100
AcDbText
 10
53.21047617804784
 20
117.3500001689409
 30
0.0
 40
2.0
  1
1
 72
     1
 11
54.01999998757165
 21
119.3500001689409
 31
0.0
100
AcDbText
 73
     3
  0
TEXT
  5
147C5
330
1A
100
AcDbEntity
  8
0
100
AcDbText
 10
60.68761903519071
 20
117.3500001689409
 30
0.0
 40
2.0
  1
2
 72
     1
 11
61.63999998757166
 21
119.3500001689409
 31
0.0
100
AcDbText
 73
     3
  0
TEXT
  5
147C6
330
1A
100
AcDbEntity
  8
0
100
AcDbText
 10
75.87999998757166
 20
117.3500001689409
 30
0.0
 40
2.0
  1
4
 72
     1
 11
76.87999998757167
 21
119.3500001689409
 31
0.0
100
AcDbText
 73
     3
  0
TEXT
  5
147C7
330
1A
100
AcDbEntity
  8
0
100
AcDbText
 10
68.30761903519071
 20
117.3500001689409
 30
0.0
 40
2.0
  1
3
 72
     1
 11
69.25999998757166
 21
119.3500001689409
 31
0.0
100
AcDbText
 73
     3
  0
TEXT
  5
147C8
330
1A
100
AcDbEntity
  8
0
100
AcDbText
 10
83.54761903519078
 20
117.3500001689409
 30
0.0
 40
2.0
  1
5
 72
     1
 11
84.49999998757173
 21
119.3500001689409
 31
0.0
100
AcDbText
 73
     3
  0
TEXT
  5
147C9
330
1A
100
AcDbEntity
  8
0
100
AcDbText
 10
49.36190474947629
 20
114.8500001689409
 30
0.0
 40
2.0
  1
12
 41
0.8
 72
     1
 11
50.99999998757152
 21
114.8500001689409
 31
0.0
100
AcDbText
 73
     1
  0
TEXT
  5
147CA
330
1A
100
AcDbEntity
  8
0
100
AcDbText
 10
54.36190474947629
 20
114.8500001689409
 30
0.0
 40
2.0
  1
13
 41
0.8
 72
     1
 11
55.99999998757152
 21
114.8500001689409
 31
0.0
100
AcDbText
 73
     1
  0
TEXT
  5
147CB
330
1A
100
AcDbEntity
  8
0
100
AcDbText
 10
64.36190474947629
 20
114.8500001689409
 30
0.0
 40
2.0
  1
15
 41
0.8
 72
     1
 11
65.99999998757152
 21
114.8500001689409
 31
0.0
100
AcDbText
 73
     1
  0
TEXT
  5
147CC
330
1A
100
AcDbEntity
  8
0
100
AcDbText
 10
59.32380951138105
 20
114.8500001689409
 30
0.0
 40
2.0
  1
14
 41
0.8
 72
     1
 11
60.99999998757152
 21
114.8500001689409
 31
0.0
100
AcDbText
 73
     1
  0
TEXT
  5
147CD
330
1A
100
AcDbEntity
  8
0
100
AcDbText
 10
79.36190474947629
 20
114.8500001689409
 30
0.0
 40
2.0
  1
18
 41
0.8
 72
     1
 11
80.99999998757153
 21
114.8500001689409
 31
0.0
100
AcDbText
 73
     1
  0
TEXT
  5
147CE
330
1A
100
AcDbEntity
  8
0
100
AcDbText
 10
84.39999998757153
 20
114.8500001689409
 30
0.0
 40
2.0
  1
19
 41
0.8
 72
     1
 11
85.99999998757153
 21
114.8500001689409
 31
0.0
100
AcDbText
 73
     1
  0
TEXT
  5
147CF
330
1A
100
AcDbEntity
  8
0
100
AcDbText
 10
74.36190474947629
 20
114.8500001689409
 30
0.0
 40
2.0
  1
17
 41
0.8
 72
     1
 11
75.99999998757152
 21
114.8500001689409
 31
0.0
100
AcDbText
 73
     1
  0
TEXT
  5
147D0
330
1A
100
AcDbEntity
  8
0
100
AcDbText
 10
69.36190474947629
 20
114.8500001689409
 30
0.0
 40
2.0
  1
16
 41
0.8
 72
     1
 11
70.99999998757152
 21
114.8500001689409
 31
0.0
100
AcDbText
 73
     1
  0
TEXT
  5
147D1
330
1A
100
AcDbEntity
  8
0
100
AcDbText
 10
92.19999998757165
 20
117.3500001689408
 30
0.0
 40
2.0
  1
6
 41
0.8
 72
     1
 11
92.99999998757163
 21
119.3500001689408
 31
0.0
100
AcDbText
 73
     3
  0
TEXT
  5
147D2
330
1A
100
AcDbEntity
  8
0
100
AcDbText
 10
97.23809522566689
 20
117.3500001689408
 30
0.0
 40
2.0
  1
7
 41
0.8
 72
     1
 11
97.99999998757165
 21
119.3500001689408
 31
0.0
100
AcDbText
 73
     3
  0
TEXT
  5
147D3
330
1A
100
AcDbEntity
  8
0
100
AcDbText
 10
107.2761904637621
 20
117.3500001689408
 30
0.0
 40
2.0
  1
9
 41
0.8
 72
     1
 11
107.9999999875716
 21
119.3500001689408
 31
0.0
100
AcDbText
 73
     3
  0
TEXT
  5
147D4
330
1A
100
AcDbEntity
  8
0
100
AcDbText
 10
102.2380952256669
 20
117.3500001689408
 30
0.0
 40
2.0
  1
8
 41
0.8
 72
     1
 11
102.9999999875716
 21
119.3500001689408
 31
0.0
100
AcDbText
 73
     3
  0
TEXT
  5
147D5
330
1A
100
AcDbEntity
  8
0
100
AcDbText
 10
116.5904761780478
 20
117.3500001689408
 30
0.0
 40
2.0
  1
11
 41
0.8
 72
     1
 11
117.9999999875716
 21
119.3500001689408
 31
0.0
100
AcDbText
 73
     3
  0
TEXT
  5
147D6
330
1A
100
AcDbEntity
  8
0
100
AcDbText
 10
111.3619047494764
 20
117.3500001689408
 30
0.0
 40
2.0
  1
10
 41
0.8
 72
     1
 11
112.9999999875716
 21
119.3500001689408
 31
0.0
100
AcDbText
 73
     3
  0
TEXT
  5
147D7
330
1A
100
AcDbEntity
  8
0
100
AcDbText
 10
94.91999998757163
 20
114.8500001689409
 30
0.0
 40
2.0
  1
E
 72
     1
 11
95.91999998757163
 21
114.8500001689409
 31
0.0
100
AcDbText
 73
     1
  0
TEXT
  5
147D8
330
1A
100
AcDbEntity
  8
0
100
AcDbText
 10
103.2357142732858
 20
114.8500001689409
 30
0.0
 40
2.0
  1
POWER
 41
0.8
 72
     1
 11
107.3499999875715
 21
114.8500001689409
 31
0.0
100
AcDbText
 73
     1
  0
LINE
  5
147D9
330
1A
100
AcDbEntity
  8
0
100
AcDbLine
 10
102.19
 20
116.25
 30
0.0
 11
100.3399999875717
 21
116.25
 31
0.0
  0
LINE
  5
147DA
330
1A
100
AcDbEntity
  8
0
100
AcDbLine
 10
112.19
 20
116.25
 30
0.0
 11
114.3799999875717
 21
116.25
 31
0.0
  0
LINE
  5
147DB
330
1A
100
AcDbEntity
  8
0
100
AcDbLine
 10
100.3399999875717
 20
114.8500001689409
 30
0.0
 11
100.3399999875717
 21
116.25
 31
0.0
  0
LINE
  5
147DC
330
1A
100
AcDbEntity
  8
0
100
AcDbLine
 10
114.3799999875717
 20
114.8500001689409
 30
0.0
 11
114.3799999875717
 21
116.25
 31
0.0
  0
LINE
  5
148F8
330
1A
100
AcDbEntity
  8
0
100
AcDbLine
 10
99.07999998757162
 20
94.50000016894097
 30
0.0
 11
115.5799999875716
 21
94.50000016894097
 31
0.0
  0
LINE
  5
148F9
330
1A
100
AcDbEntity
  8
0
100
AcDbLine
 10
99.07999998757162
 20
98.50000000000001
 30
0.0
 11
115.5799999875716
 21
98.50000000000001
 31
0.0
  0
LINE
  5
148FA
330
1A
100
AcDbEntity
  8
0
100
AcDbLine
 10
115.5799999875716
 20
98.50000000000001
 30
0.0
 11
115.5799999875716
 21
94.50000016894097
 31
0.0
  0
LINE
  5
148FB
330
1A
100
AcDbEntity
  8
0
100
AcDbLine
 10
99.07999998757162
 20
98.50000000000001
 30
0.0
 11
99.07999998757162
 21
94.50000016894097
 31
0.0
  0
TEXT
  5
148FC
330
1A
100
AcDbEntity
  8
0
100
AcDbText
 10
99.70499998757162
 20
95.25000008447049
 30
0.0
 40
2.5
  1
AC85-132V
 41
0.7
 72
     1
 11
107.3299999875716
 21
96.50000008447049
 31
0.0
100
AcDbText
 73
     2
  0
TEXT
  5
14911
330
1A
100
AcDbEntity
  8
0
100
AcDbText
 10
55.78571427328587
 20
79.000000168941
 30
0.0
 40
2.5
  1
(RY out)
 72
     1
 11
63.49999998757159
 21
81.500000168941
 31
0.0
100
AcDbText
 73
     3
  0
LINE
  5
14D05
330
1A
100
AcDbEntity
  8
0
100
AcDbLine
 10
350.42
 20
109.9000000000001
 30
0.0
 11
350.42
 21
116.5000000000002
 31
0.0
  0
LINE
  5
14D57
330
1A
100
AcDbEntity
  8
0
100
AcDbLine
 10
390.25
 20
116.5
 30
0.0
 11
390.25
 21
117.7000000000001
 31
0.0
  0
LINE
  5
14D58
330
1A
100
AcDbEntity
  8
0
100
AcDbLine
 10
299.75
 20
116.5
 30
0.0
 11
390.25
 21
116.5
 31
0.0
  0
LINE
  5
14D59
330
1A
100
AcDbEntity
  8
0
100
AcDbLine
 10
299.75
 20
117.7000000000001
 30
0.0
 11
299.75
 21
116.5
 31
0.0
  0
LINE
  5
14D5A
330
1A
100
AcDbEntity
  8
0
100
AcDbLine
 10
390.25
 20
117.7000000000001
 30
0.0
 11
299.75
 21
117.7000000000001
 31
0.0
  0
LINE
  5
14D5B
330
1A
100
AcDbEntity
  8
0
100
AcDbLine
 10
393.0
 20
226.5
 30
0.0
 11
297.0
 21
226.5
 31
0.0
  0
LINE
  5
14D5D
330
1A
100
AcDbEntity
  8
0
100
AcDbLine
 10
393.0
 20
226.5
 30
0.0
 11
393.0
 21
220.8
 31
0.0
  0
LINE
  5
14D5E
330
1A
100
AcDbEntity
  8
0
100
AcDbLine
 10
390.5
 20
220.8
 30
0.0
 11
390.5
 21
117.8
 31
0.0
  0
LINE
  5
14D5F
330
1A
100
AcDbEntity
  8
0
100
AcDbLine
 10
299.5
 20
220.8000000000001
 30
0.0
 11
299.5
 21
117.8
 31
0.0
  0
LINE
  5
14D60
330
1A
100
AcDbEntity
  8
0
100
AcDbLine
 10
297.0
 20
226.5
 30
0.0
 11
297.0
 21
220.8
 31
0.0
  0
LINE
  5
14D6B
330
1A
100
AcDbEntity
  8
0
100
AcDbLine
 10
393.0
 20
220.5
 30
0.0
 11
390.5
 21
220.5
 31
0.0
  0
LINE
  5
14D6C
330
1A
100
AcDbEntity
  8
0
100
AcDbLine
 10
393.0
 20
220.5
 30
0.0
 11
393.0
 21
221.3
 31
0.0
  0
LINE
  5
14D6D
330
1A
100
AcDbEntity
  8
0
100
AcDbLine
 10
297.0
 20
221.3
 30
0.0
 11
297.0
 21
220.5
 31
0.0
  0
LINE
  5
14D6F
330
1A
100
AcDbEntity
  8
0
100
AcDbLine
 10
299.5
 20
220.5
 30
0.0
 11
297.0
 21
220.5
 31
0.0
  0
LINE
  5
14D71
330
1A
100
AcDbEntity
  8
0
100
AcDbLine
 10
393.0
 20
220.8
 30
0.0
 11
297.0
 21
220.8
 31
0.0
  0
LINE
  5
14D72
330
1A
100
AcDbEntity
  8
0
100
AcDbLine
 10
390.5
 20
117.8000000000001
 30
0.0
 11
299.5
 21
117.8
 31
0.0
  0
LINE
  5
14DA7
330
1A
100
AcDbEntity
  8
SUNPOU
100
AcDbLine
 10
350.42
 20
99.10000000000009
 30
0.0
 11
350.42
 21
102.9000000000001
 31
0.0
  0
LWPOLYLINE
  5
14F9B
330
1A
100
AcDbEntity
  8
0
100
AcDbPolyline
 90
        4
 70
     0
 43
0.0
 10
382.1711111111112
 20
226.5
 10
382.06
 20
228.5
 10
379.06
 20
228.5
 10
378.9488888888889
 20
226.5
  0
ELLIPSE
  5
14FA5
330
1A
100
AcDbEntity
  8
0
100
AcDbEllipse
 10
304.9999999999999
 20
112.9833334456178
 30
0.0
 11
2.296666648999985
 21
-0.0000000000000004
 31
0.0
210
0.0
220
0.0
230
0.9999999999999998
 40
0.5962264589045851
 41
2.81960193203065
 42
6.605176028738728
  0
LINE
  5
14FA6
330
1A
100
AcDbEntity
  8
0
100
AcDbLine
 10
302.486666686
 20
114.5000000000002
 30
0.0
 11
307.513333314
 21
114.5000000000002
 31
0.0
  0
LINE
  5
14FA7
330
1A
100
AcDbEntity
  8
0
100
AcDbLine
 10
302.486666686
 20
114.0666666700002
 30
0.0
 11
307.513333314
 21
114.0666666700002
 31
0.0
  0
LINE
  5
14FA8
330
1A
100
AcDbEntity
  8
0
100
AcDbLine
 10
302.703333351
 20
113.416666675
 30
0.0
 11
307.2966666489999
 21
113.4166666750001
 31
0.0
  0
LINE
  5
14FA9
330
1A
100
AcDbEntity
  8
0
100
AcDbLine
 10
302.486666686
 20
114.0666666700002
 30
0.0
 11
302.486666686
 21
114.5
 31
0.0
  0
LINE
  5
14FAA
330
1A
100
AcDbEntity
  8
0
100
AcDbLine
 10
302.703333351
 20
113.4166666750001
 30
0.0
 11
302.703333351
 21
114.0666666700002
 31
0.0
  0
LINE
  5
14FB3
330
1A
100
AcDbEntity
  8
0
100
AcDbLine
 10
307.5133333139999
 20
114.0666666700002
 30
0.0
 11
307.513333314
 21
114.5000000000002
 31
0.0
  0
LINE
  5
14FB4
330
1A
100
AcDbEntity
  8
0
100
AcDbLine
 10
307.2966666489999
 20
113.4166666750001
 30
0.0
 11
307.2966666489999
 21
114.0666666700002
 31
0.0
  0
LINE
  5
14FB5
330
1A
100
AcDbEntity
  8
0
100
AcDbLine
 10
304.8082508110689
 20
114.0666666700002
 30
0.0
 11
305.4582508060689
 21
113.4166666750001
 31
0.0
  0
LINE
  5
14FB6
330
1A
100
AcDbEntity
  8
0
100
AcDbLine
 10
304.5018378749118
 20
114.0666666700002
 30
0.0
 11
305.1518378699118
 21
113.4166666750001
 31
0.0
  0
ELLIPSE
  5
14FB7
330
1A
100
AcDbEntity
  8
0
100
AcDbEllipse
 10
385.0
 20
112.9833334456178
 30
0.0
 11
2.296666649000042
 21
-0.0000000000000417
 31
0.0
210
0.0
220
0.0
230
-1.0
 40
0.5962264589045679
 41
-0.3219907215591469
 42
3.463583375148879
  0
LINE
  5
14FB8
330
1A
100
AcDbEntity
  8
0
100
AcDbLine
 10
387.5133333140001
 20
114.5
 30
0.0
 11
382.4866666859999
 21
114.5
 31
0.0
  0
LINE
  5
14FB9
330
1A
100
AcDbEntity
  8
0
100
AcDbLine
 10
387.5133333140001
 20
114.0666666700002
 30
0.0
 11
382.4866666859999
 21
114.0666666700002
 31
0.0
  0
LINE
  5
14FBA
330
1A
100
AcDbEntity
  8
0
100
AcDbLine
 10
387.296666649
 20
113.416666675
 30
0.0
 11
382.703333351
 21
113.4166666750001
 31
0.0
  0
LINE
  5
14FBB
330
1A
100
AcDbEntity
  8
0
100
AcDbLine
 10
387.5133333140001
 20
114.0666666700002
 30
0.0
 11
387.5133333140001
 21
114.5
 31
0.0
  0
LINE
  5
14FBC
330
1A
100
AcDbEntity
  8
0
100
AcDbLine
 10
387.296666649
 20
113.4166666750001
 30
0.0
 11
387.296666649
 21
114.0666666700002
 31
0.0
  0
LINE
  5
14FC5
330
1A
100
AcDbEntity
  8
0
100
AcDbLine
 10
382.4866666859999
 20
114.0666666700002
 30
0.0
 11
382.4866666859999
 21
114.5
 31
0.0
  0
LINE
  5
14FC6
330
1A
100
AcDbEntity
  8
0
100
AcDbLine
 10
382.703333351
 20
113.4166666750001
 30
0.0
 11
382.703333351
 21
114.0666666700002
 31
0.0
  0
LINE
  5
14FC7
330
1A
100
AcDbEntity
  8
0
100
AcDbLine
 10
385.191749188931
 20
114.0666666700002
 30
0.0
 11
384.541749193931
 21
113.4166666750001
 31
0.0
  0
LINE
  5
14FC8
330
1A
100
AcDbEntity
  8
0
100
AcDbLine
 10
385.4981621250881
 20
114.0666666700002
 30
0.0
 11
384.8481621300881
 21
113.4166666750001
 31
0.0
  0
LINE
  5
14FD1
330
1A
100
AcDbEntity
  8
0
100
AcDbLine
 10
374.87
 20
113.4
 30
0.0
 11
368.4700000000002
 21
113.4
 31
0.0
  0
LINE
  5
14FD4
330
1A
100
AcDbEntity
  8
0
100
AcDbLine
 10
367.2500000000001
 20
113.4
 30
0.0
 11
360.85
 21
113.4
 31
0.0
  0
LINE
  5
14FD6
330
1A
100
AcDbEntity
  8
0
100
AcDbLine
 10
361.45
 20
109.9
 30
0.0
 11
361.45
 21
107.4
 31
0.0
  0
LINE
  5
14FD7
330
1A
100
AcDbEntity
  8
0
100
AcDbLine
 10
352.03
 20
109.9
 30
0.0
 11
351.01
 21
109.9
 31
0.0
  0
LINE
  5
14FD8
330
1A
100
AcDbEntity
  8
0
100
AcDbLine
 10
360.85
 20
100.9
 30
0.0
 11
359.65
 21
100.9
 31
0.0
  0
LINE
  5
14FD9
330
1A
100
AcDbEntity
  8
SUNPOU
100
AcDbLine
 10
351.0299999999999
 20
102.9000000000001
 30
0.0
 11
351.0299999999999
 21
99.10000000000009
 31
0.0
  0
LINE
  5
14FDA
330
1A
100
AcDbEntity
  8
0
100
AcDbLine
 10
374.37
 20
107.4
 30
0.0
 11
369.07
 21
107.4
 31
0.0
  0
ELLIPSE
  5
14FDB
330
1A
100
AcDbEntity
  8
0
100
AcDbEllipse
 10
371.6699999999999
 20
106.6
 30
0.0
 11
-2.399999999999978
 21
0.0000000000000027
 31
0.0
210
0.0
220
0.0
230
-1.0
 40
0.5416666666666527
 41
2.478718829939671
 42
6.946059130829821
  0
LINE
  5
14FDC
330
1A
100
AcDbEntity
  8
0
100
AcDbLine
 10
374.37
 20
108.9
 30
0.0
 11
369.07
 21
108.9
 31
0.0
  0
LINE
  5
14FDD
330
1A
100
AcDbEntity
  8
0
100
AcDbLine
 10
374.87
 20
109.9
 30
0.0
 11
368.4700000000002
 21
109.9
 31
0.0
  0
LINE
  5
14FDE
330
1A
100
AcDbEntity
  8
0
100
AcDbLine
 10
369.07
 20
109.9
 30
0.0
 11
369.07
 21
107.4
 31
0.0
  0
LINE
  5
14FDF
330
1A
100
AcDbEntity
  8
0
100
AcDbLine
 10
374.37
 20
107.3999999999999
 30
0.0
 11
374.37
 21
109.9
 31
0.0
  0
LINE
  5
14FE0
330
1A
100
AcDbEntity
  8
0
100
AcDbLine
 10
366.7500000000001
 20
107.3999999999999
 30
0.0
 11
366.7500000000001
 21
109.9
 31
0.0
  0
LINE
  5
14FE1
330
1A
100
AcDbEntity
  8
0
100
AcDbLine
 10
368.4700000000002
 20
100.9
 30
0.0
 11
367.2500000000001
 21
100.9
 31
0.0
  0
LINE
  5
14FE2
330
1A
100
AcDbEntity
  8
0
100
AcDbLine
 10
366.7500000000001
 20
107.4
 30
0.0
 11
361.45
 21
107.4
 31
0.0
  0
ELLIPSE
  5
14FE3
330
1A
100
AcDbEntity
  8
0
100
AcDbEllipse
 10
364.0500000000001
 20
106.6
 30
0.0
 11
-2.399999999999978
 21
0.0000000000000027
 31
0.0
210
0.0
220
0.0
230
-1.0
 40
0.5416666666666527
 41
2.478718829939671
 42
6.946059130829821
  0
LINE
  5
14FE4
330
1A
100
AcDbEntity
  8
0
100
AcDbLine
 10
366.7500000000001
 20
108.9
 30
0.0
 11
361.45
 21
108.9
 31
0.0
  0
LINE
  5
14FE5
330
1A
100
AcDbEntity
  8
0
100
AcDbLine
 10
367.2500000000001
 20
109.9
 30
0.0
 11
360.85
 21
109.9
 31
0.0
  0
LINE
  5
14FE6
330
1A
100
AcDbEntity
  8
0
100
AcDbLine
 10
360.85
 20
100.9
 30
0.0
 11
360.85
 21
113.3999999999999
 31
0.0
  0
LINE
  5
14FE7
330
1A
100
AcDbEntity
  8
0
100
AcDbLine
 10
368.4700000000002
 20
100.9
 30
0.0
 11
368.47
 21
113.4000000000001
 31
0.0
  0
LINE
  5
14FE8
330
1A
100
AcDbEntity
  8
0
100
AcDbLine
 10
367.2500000000001
 20
100.9
 30
0.0
 11
367.2500000000001
 21
113.4
 31
0.0
  0
LINE
  5
14FE9
330
1A
100
AcDbEntity
  8
0
100
AcDbLine
 10
374.87
 20
100.9
 30
0.0
 11
374.87
 21
113.4
 31
0.0
  0
LINE
  5
14FEA
330
1A
100
AcDbEntity
  8
0
100
AcDbLine
 10
351.01
 20
116.5000000000002
 30
0.0
 11
351.01
 21
109.9
 31
0.0
  0
LINE
  5
14FEB
330
1A
100
AcDbEntity
  8
0
100
AcDbLine
 10
352.03
 20
100.9
 30
0.0
 11
352.03
 21
116.5000000000002
 31
0.0
  0
LINE
  5
14FEC
330
1A
100
AcDbEntity
  8
0
100
AcDbLine
 10
376.09
 20
109.9
 30
0.0
 11
377.0900000000001
 21
109.9
 31
0.0
  0
LINE
  5
14FED
330
1A
100
AcDbEntity
  8
0
100
AcDbLine
 10
376.09
 20
100.9
 30
0.0
 11
374.87
 21
100.9
 31
0.0
  0
LINE
  5
14FEE
330
1A
100
AcDbEntity
  8
SUNPOU
100
AcDbLine
 10
377.0699999999998
 20
102.9000000000001
 30
0.0
 11
377.0699999999998
 21
99.10000000000009
 31
0.0
  0
LINE
  5
14FEF
330
1A
100
AcDbEntity
  8
0
100
AcDbLine
 10
376.09
 20
100.9
 30
0.0
 11
376.09
 21
116.5000000000002
 31
0.0
  0
LINE
  5
14FF0
330
1A
100
AcDbEntity
  8
0
100
AcDbLine
 10
377.0900000000001
 20
116.5000000000002
 30
0.0
 11
377.0900000000001
 21
109.9
 31
0.0
  0
LINE
  5
14FF2
330
1A
100
AcDbEntity
  8
SUNPOU
100
AcDbLine
 10
351.0299999999999
 20
102.9
 30
0.0
 11
377.0699999999998
 21
102.9000000000001
 31
0.0
  0
LINE
  5
14FF3
330
1A
100
AcDbEntity
  8
SUNPOU
100
AcDbLine
 10
351.0299999999999
 20
99.10000000000009
 30
0.0
 11
377.0699999999998
 21
99.10000000000009
 31
0.0
  0
LINE
  5
14FF4
330
1A
100
AcDbEntity
  8
0
100
AcDbLine
 10
359.63
 20
100.9
 30
0.0
 11
359.63
 21
113.4
 31
0.0
  0
LINE
  5
14FF5
330
1A
100
AcDbEntity
  8
0
100
AcDbLine
 10
353.2300000000001
 20
100.9
 30
0.0
 11
353.2300000000001
 21
113.3999999999999
 31
0.0
  0
LINE
  5
14FF6
330
1A
100
AcDbEntity
  8
0
100
AcDbLine
 10
359.63
 20
109.9
 30
0.0
 11
353.2300000000001
 21
109.9
 31
0.0
  0
LINE
  5
14FF7
330
1A
100
AcDbEntity
  8
0
100
AcDbLine
 10
359.13
 20
108.9
 30
0.0
 11
353.83
 21
108.9
 31
0.0
  0
ELLIPSE
  5
14FF8
330
1A
100
AcDbEntity
  8
0
100
AcDbEllipse
 10
356.43
 20
106.6
 30
0.0
 11
-2.399999999999978
 21
0.0000000000000027
 31
0.0
210
0.0
220
0.0
230
-1.0
 40
0.5416666666666527
 41
2.478718829939671
 42
6.946059130829821
  0
LINE
  5
14FF9
330
1A
100
AcDbEntity
  8
0
100
AcDbLine
 10
359.13
 20
107.4
 30
0.0
 11
353.83
 21
107.4
 31
0.0
  0
LINE
  5
14FFA
330
1A
100
AcDbEntity
  8
0
100
AcDbLine
 10
359.13
 20
107.3999999999999
 30
0.0
 11
359.13
 21
109.9
 31
0.0
  0
LINE
  5
14FFB
330
1A
100
AcDbEntity
  8
0
100
AcDbLine
 10
353.83
 20
109.9
 30
0.0
 11
353.83
 21
107.4
 31
0.0
  0
LINE
  5
14FFC
330
1A
100
AcDbEntity
  8
0
100
AcDbLine
 10
359.63
 20
113.4
 30
0.0
 11
353.2300000000001
 21
113.4
 31
0.0
  0
LINE
  5
14FFD
330
1A
100
AcDbEntity
  8
0
100
AcDbLine
 10
353.23
 20
100.9
 30
0.0
 11
352.03
 21
100.9
 31
0.0
  0
LINE
  5
15007
330
1A
100
AcDbEntity
  8
0
100
AcDbLine
 10
311.32
 20
100.9000000000001
 30
0.0
 11
310.12
 21
100.9000000000001
 31
0.0
  0
LINE
  5
15008
330
1A
100
AcDbEntity
  8
0
100
AcDbLine
 10
317.72
 20
113.4000000000001
 30
0.0
 11
311.32
 21
113.4000000000001
 31
0.0
  0
LINE
  5
15009
330
1A
100
AcDbEntity
  8
0
100
AcDbLine
 10
311.92
 20
109.9000000000001
 30
0.0
 11
311.92
 21
107.4000000000001
 31
0.0
  0
LINE
  5
1500A
330
1A
100
AcDbEntity
  8
0
100
AcDbLine
 10
317.22
 20
107.3999999999999
 30
0.0
 11
317.22
 21
109.9000000000001
 31
0.0
  0
LINE
  5
1500B
330
1A
100
AcDbEntity
  8
0
100
AcDbLine
 10
317.22
 20
107.4000000000001
 30
0.0
 11
311.92
 21
107.4000000000001
 31
0.0
  0
ELLIPSE
  5
1500C
330
1A
100
AcDbEntity
  8
0
100
AcDbEllipse
 10
314.52
 20
106.6000000000002
 30
0.0
 11
-2.399999999999978
 21
0.0000000000000027
 31
0.0
210
0.0
220
0.0
230
-1.0
 40
0.5416666666666527
 41
2.478718829939671
 42
6.946059130829821
  0
LINE
  5
1500D
330
1A
100
AcDbEntity
  8
0
100
AcDbLine
 10
317.22
 20
108.9000000000001
 30
0.0
 11
311.92
 21
108.9000000000001
 31
0.0
  0
LINE
  5
1500E
330
1A
100
AcDbEntity
  8
0
100
AcDbLine
 10
317.72
 20
109.9000000000001
 30
0.0
 11
311.32
 21
109.9000000000001
 31
0.0
  0
LINE
  5
1500F
330
1A
100
AcDbEntity
  8
0
100
AcDbLine
 10
311.32
 20
100.9000000000001
 30
0.0
 11
311.32
 21
113.4
 31
0.0
  0
LINE
  5
15010
330
1A
100
AcDbEntity
  8
0
100
AcDbLine
 10
317.72
 20
100.9000000000001
 30
0.0
 11
317.72
 21
113.4000000000001
 31
0.0
  0
LINE
  5
15011
330
1A
100
AcDbEntity
  8
SUNPOU
100
AcDbLine
 10
309.1199999999999
 20
99.10000000000019
 30
0.0
 11
350.3999999999999
 21
99.10000000000019
 31
0.0
  0
LINE
  5
15012
330
1A
100
AcDbEntity
  8
SUNPOU
100
AcDbLine
 10
309.1199999999999
 20
102.9000000000001
 30
0.0
 11
350.3999999999999
 21
102.9000000000001
 31
0.0
  0
LINE
  5
15014
330
1A
100
AcDbEntity
  8
0
100
AcDbLine
 10
350.4200000000001
 20
116.5000000000002
 30
0.0
 11
350.4199999999999
 21
109.9000000000001
 31
0.0
  0
LINE
  5
15015
330
1A
100
AcDbEntity
  8
0
100
AcDbLine
 10
349.42
 20
100.9000000000001
 30
0.0
 11
349.4200000000001
 21
116.5000000000002
 31
0.0
  0
LINE
  5
15016
330
1A
100
AcDbEntity
  8
SUNPOU
100
AcDbLine
 10
350.3999999999999
 20
102.9000000000001
 30
0.0
 11
350.3999999999999
 21
99.10000000000009
 31
0.0
  0
LINE
  5
15017
330
1A
100
AcDbEntity
  8
0
100
AcDbLine
 10
349.42
 20
100.9000000000001
 30
0.0
 11
348.2000000000001
 21
100.9000000000001
 31
0.0
  0
LINE
  5
15018
330
1A
100
AcDbEntity
  8
0
100
AcDbLine
 10
348.2000000000001
 20
109.9000000000001
 30
0.0
 11
350.42
 21
109.9000000000001
 31
0.0
  0
LINE
  5
15019
330
1A
100
AcDbEntity
  8
0
100
AcDbLine
 10
310.1199999999999
 20
100.9000000000001
 30
0.0
 11
310.12
 21
116.5000000000002
 31
0.0
  0
LINE
  5
1501A
330
1A
100
AcDbEntity
  8
0
100
AcDbLine
 10
309.1
 20
116.5000000000002
 30
0.0
 11
309.1
 21
109.9000000000001
 31
0.0
  0
LINE
  5
1501B
330
1A
100
AcDbEntity
  8
0
100
AcDbLine
 10
332.9600000000001
 20
100.9000000000001
 30
0.0
 11
332.9600000000001
 21
113.4000000000001
 31
0.0
  0
LINE
  5
1501C
330
1A
100
AcDbEntity
  8
0
100
AcDbLine
 10
334.18
 20
100.9000000000001
 30
0.0
 11
334.18
 21
113.4000000000001
 31
0.0
  0
LINE
  5
1501D
330
1A
100
AcDbEntity
  8
0
100
AcDbLine
 10
325.34
 20
100.9000000000001
 30
0.0
 11
325.34
 21
113.4000000000001
 31
0.0
  0
LINE
  5
1501E
330
1A
100
AcDbEntity
  8
0
100
AcDbLine
 10
326.56
 20
100.9000000000001
 30
0.0
 11
326.56
 21
113.4000000000001
 31
0.0
  0
LINE
  5
1501F
330
1A
100
AcDbEntity
  8
0
100
AcDbLine
 10
318.94
 20
100.9000000000001
 30
0.0
 11
318.94
 21
113.4
 31
0.0
  0
LINE
  5
15020
330
1A
100
AcDbEntity
  8
0
100
AcDbLine
 10
348.2000000000001
 20
100.9000000000001
 30
0.0
 11
348.2000000000001
 21
113.4000000000001
 31
0.0
  0
LINE
  5
15021
330
1A
100
AcDbEntity
  8
0
100
AcDbLine
 10
341.8000000000001
 20
100.9000000000001
 30
0.0
 11
341.8000000000001
 21
113.4
 31
0.0
  0
LINE
  5
15022
330
1A
100
AcDbEntity
  8
0
100
AcDbLine
 10
340.5800000000001
 20
100.9000000000001
 30
0.0
 11
340.5800000000001
 21
113.4000000000001
 31
0.0
  0
LINE
  5
15023
330
1A
100
AcDbEntity
  8
0
100
AcDbLine
 10
340.5800000000001
 20
109.9000000000001
 30
0.0
 11
334.18
 21
109.9000000000001
 31
0.0
  0
LINE
  5
15024
330
1A
100
AcDbEntity
  8
0
100
AcDbLine
 10
340.0600000000001
 20
108.9000000000001
 30
0.0
 11
334.76
 21
108.9000000000001
 31
0.0
  0
ELLIPSE
  5
15025
330
1A
100
AcDbEntity
  8
0
100
AcDbEllipse
 10
337.36
 20
106.6000000000002
 30
0.0
 11
-2.399999999999985
 21
0.0000000000000094
 31
0.0
210
0.0
220
0.0
230
-1.0
 40
0.5416666666666511
 41
2.478718829939666
 42
6.946059130829823
  0
LINE
  5
15026
330
1A
100
AcDbEntity
  8
0
100
AcDbLine
 10
340.0600000000001
 20
107.4000000000001
 30
0.0
 11
334.76
 21
107.4
 31
0.0
  0
LINE
  5
15027
330
1A
100
AcDbEntity
  8
0
100
AcDbLine
 10
348.2000000000001
 20
109.9000000000001
 30
0.0
 11
341.8000000000001
 21
109.9000000000001
 31
0.0
  0
LINE
  5
15028
330
1A
100
AcDbEntity
  8
0
100
AcDbLine
 10
347.7
 20
108.9000000000001
 30
0.0
 11
342.4
 21
108.9000000000001
 31
0.0
  0
ELLIPSE
  5
15029
330
1A
100
AcDbEntity
  8
0
100
AcDbEllipse
 10
345.0
 20
106.6000000000002
 30
0.0
 11
-2.399999999999985
 21
0.0000000000000094
 31
0.0
210
0.0
220
0.0
230
-1.0
 40
0.5416666666666511
 41
2.478718829939666
 42
6.946059130829823
  0
LINE
  5
1502A
330
1A
100
AcDbEntity
  8
0
100
AcDbLine
 10
347.7
 20
107.4000000000001
 30
0.0
 11
342.4
 21
107.4000000000001
 31
0.0
  0
LINE
  5
1502B
330
1A
100
AcDbEntity
  8
0
100
AcDbLine
 10
347.7
 20
107.4
 30
0.0
 11
347.7
 21
109.9000000000001
 31
0.0
  0
LINE
  5
1502C
330
1A
100
AcDbEntity
  8
0
100
AcDbLine
 10
341.8000000000001
 20
100.9000000000001
 30
0.0
 11
340.5800000000001
 21
100.9000000000001
 31
0.0
  0
LINE
  5
1502D
330
1A
100
AcDbEntity
  8
0
100
AcDbLine
 10
342.4
 20
109.9000000000001
 30
0.0
 11
342.4
 21
107.4000000000001
 31
0.0
  0
LINE
  5
1502E
330
1A
100
AcDbEntity
  8
0
100
AcDbLine
 10
340.0600000000001
 20
107.4
 30
0.0
 11
340.0600000000001
 21
109.9000000000001
 31
0.0
  0
LINE
  5
1502F
330
1A
100
AcDbEntity
  8
0
100
AcDbLine
 10
325.34
 20
109.9000000000001
 30
0.0
 11
318.94
 21
109.9000000000001
 31
0.0
  0
LINE
  5
15030
330
1A
100
AcDbEntity
  8
0
100
AcDbLine
 10
324.84
 20
108.9000000000001
 30
0.0
 11
319.54
 21
108.9000000000001
 31
0.0
  0
ELLIPSE
  5
15031
330
1A
100
AcDbEntity
  8
0
100
AcDbEllipse
 10
322.14
 20
106.6000000000002
 30
0.0
 11
-2.399999999999978
 21
0.0000000000000027
 31
0.0
210
0.0
220
0.0
230
-1.0
 40
0.5416666666666527
 41
2.478718829939671
 42
6.946059130829821
  0
LINE
  5
15032
330
1A
100
AcDbEntity
  8
0
100
AcDbLine
 10
324.84
 20
107.4000000000001
 30
0.0
 11
319.54
 21
107.4000000000001
 31
0.0
  0
LINE
  5
15033
330
1A
100
AcDbEntity
  8
0
100
AcDbLine
 10
334.18
 20
100.9
 30
0.0
 11
332.9600000000001
 21
100.9000000000001
 31
0.0
  0
LINE
  5
15034
330
1A
100
AcDbEntity
  8
0
100
AcDbLine
 10
326.56
 20
100.9000000000001
 30
0.0
 11
325.34
 21
100.9000000000001
 31
0.0
  0
LINE
  5
15035
330
1A
100
AcDbEntity
  8
0
100
AcDbLine
 10
324.84
 20
107.3999999999999
 30
0.0
 11
324.84
 21
109.9000000000001
 31
0.0
  0
LINE
  5
15036
330
1A
100
AcDbEntity
  8
0
100
AcDbLine
 10
332.46
 20
107.3999999999999
 30
0.0
 11
332.46
 21
109.9000000000001
 31
0.0
  0
LINE
  5
15037
330
1A
100
AcDbEntity
  8
0
100
AcDbLine
 10
334.76
 20
109.9000000000001
 30
0.0
 11
334.76
 21
107.4
 31
0.0
  0
LINE
  5
15038
330
1A
100
AcDbEntity
  8
0
100
AcDbLine
 10
327.16
 20
109.9000000000001
 30
0.0
 11
327.16
 21
107.4000000000001
 31
0.0
  0
LINE
  5
15039
330
1A
100
AcDbEntity
  8
0
100
AcDbLine
 10
332.9600000000001
 20
109.9000000000001
 30
0.0
 11
326.56
 21
109.9000000000001
 31
0.0
  0
LINE
  5
1503A
330
1A
100
AcDbEntity
  8
0
100
AcDbLine
 10
332.46
 20
108.9000000000001
 30
0.0
 11
327.16
 21
108.9000000000001
 31
0.0
  0
ELLIPSE
  5
1503B
330
1A
100
AcDbEntity
  8
0
100
AcDbEllipse
 10
329.76
 20
106.6000000000002
 30
0.0
 11
-2.399999999999978
 21
0.0000000000000027
 31
0.0
210
0.0
220
0.0
230
-1.0
 40
0.5416666666666527
 41
2.478718829939671
 42
6.946059130829821
  0
LINE
  5
1503C
330
1A
100
AcDbEntity
  8
0
100
AcDbLine
 10
332.46
 20
107.4000000000001
 30
0.0
 11
327.16
 21
107.4000000000001
 31
0.0
  0
LINE
  5
1503D
330
1A
100
AcDbEntity
  8
SUNPOU
100
AcDbLine
 10
309.1199999999999
 20
102.9000000000001
 30
0.0
 11
309.1199999999999
 21
99.10000000000019
 31
0.0
  0
LINE
  5
1503E
330
1A
100
AcDbEntity
  8
0
100
AcDbLine
 10
318.94
 20
100.9000000000001
 30
0.0
 11
317.74
 21
100.9000000000001
 31
0.0
  0
LINE
  5
1503F
330
1A
100
AcDbEntity
  8
0
100
AcDbLine
 10
310.1199999999999
 20
109.9000000000001
 30
0.0
 11
309.1
 21
109.9000000000001
 31
0.0
  0
LINE
  5
15040
330
1A
100
AcDbEntity
  8
0
100
AcDbLine
 10
319.54
 20
109.9000000000001
 30
0.0
 11
319.54
 21
107.4000000000001
 31
0.0
  0
LINE
  5
15041
330
1A
100
AcDbEntity
  8
0
100
AcDbLine
 10
340.5800000000001
 20
113.4000000000001
 30
0.0
 11
334.18
 21
113.4000000000001
 31
0.0
  0
LINE
  5
15047
330
1A
100
AcDbEntity
  8
0
100
AcDbLine
 10
348.2000000000001
 20
113.4000000000001
 30
0.0
 11
341.8000000000001
 21
113.4000000000001
 31
0.0
  0
LINE
  5
15056
330
1A
100
AcDbEntity
  8
0
100
AcDbLine
 10
325.34
 20
113.4000000000001
 30
0.0
 11
318.94
 21
113.4000000000001
 31
0.0
  0
LINE
  5
15059
330
1A
100
AcDbEntity
  8
0
100
AcDbLine
 10
332.9600000000001
 20
113.4000000000001
 30
0.0
 11
326.56
 21
113.4000000000001
 31
0.0
  0
LINE
  5
16B84
330
1A
100
AcDbEntity
  8
0
100
AcDbLine
 10
90.41999998757168
 20
131.6000002155453
 30
0.0
 11
120.9999999875716
 21
131.6000002155453
 31
0.0
  0
LINE
  5
16B86
330
1A
100
AcDbEntity
  8
SUNPOU
100
AcDbLine
 10
89.9999999875717
 20
101.1000001689409
 30
0.0
 11
90.49999998757158
 21
101.1000001689409
 31
0.0
  0
LINE
  5
16B88
330
1A
100
AcDbEntity
  8
0
100
AcDbLine
 10
90.0399999875716
 20
113.6000002155453
 30
0.0
 11
117.0399999875716
 21
113.6000002155453
 31
0.0
  0
LINE
  5
16B89
330
1A
100
AcDbEntity
  8
0
100
AcDbLine
 10
90.0399999875716
 20
111.1000001689409
 30
0.0
 11
90.0399999875716
 21
113.6000002155453
 31
0.0
  0
LINE
  5
16B8A
330
1A
100
AcDbEntity
  8
0
100
AcDbLine
 10
117.0399999875716
 20
113.6000002155453
 30
0.0
 11
117.0399999875716
 21
99.00000021554527
 31
0.0
  0
LINE
  5
16B8B
330
1A
100
AcDbEntity
  8
SUNPOU
100
AcDbLine
 10
117.0399999875715
 20
101.1000002155452
 30
0.0
 11
116.5399999875715
 21
101.1000002155452
 31
0.0
  0
LINE
  5
16B9A
330
1A
100
AcDbEntity
  8
0
100
AcDbLine
 10
47.99999998757161
 20
100.1000002155452
 30
0.0
 11
90.0399999875716
 21
100.1000002155452
 31
0.0
  0
LINE
  5
16B9B
330
1A
100
AcDbEntity
  8
SUNPOU
100
AcDbLine
 10
90.53999998757152
 20
101.1000002155452
 30
0.0
 11
90.0399999875716
 21
101.1000002155453
 31
0.0
  0
TEXT
  5
16D22
330
1A
100
AcDbEntity
  8
0
100
AcDbText
 10
369.812380952381
 20
140.2285714285713
 30
0.0
 40
2.5
  1
-
 72
     4
 11
371.36
 21
141.2999999999999
 31
0.0
100
AcDbText
  0
TEXT
  5
16D23
330
1A
100
AcDbEntity
  8
0
100
AcDbText
 10
370.0504761904762
 20
144.5499999999999
 30
0.0
 40
2.5
  1
N
 72
     4
 11
371.36
 21
145.7999999999999
 31
0.0
100
AcDbText
  0
TEXT
  5
16D24
330
1A
100
AcDbEntity
  8
0
100
AcDbText
 10
363.1495238095238
 20
144.5499999999999
 30
0.0
 40
2.5
  1
L
 72
     4
 11
364.34
 21
145.7999999999999
 31
0.0
100
AcDbText
  0
TEXT
  5
16D25
330
1A
100
AcDbEntity
  8
0
100
AcDbText
 10
362.792380952381
 20
140.2285714285713
 30
0.0
 40
2.5
  1
+
 72
     4
 11
364.34
 21
141.2999999999999
 31
0.0
100
AcDbText
  0
LINE
  5
16D26
330
1A
100
AcDbEntity
  8
0
100
AcDbLine
 10
367.85
 20
139.05
 30
0.0
 11
367.85
 21
150.5491469407389
 31
0.0
  0
LINE
  5
16D27
330
1A
100
AcDbEntity
  8
0
100
AcDbLine
 10
374.87
 20
150.5491469407389
 30
0.0
 11
374.87
 21
139.05
 31
0.0
  0
LINE
  5
16D28
330
1A
100
AcDbEntity
  8
0
100
AcDbLine
 10
360.83
 20
150.5491469407389
 30
0.0
 11
360.83
 21
139.05
 31
0.0
  0
HATCH
  5
16D29
330
1A
100
AcDbEntity
  8
0
100
AcDbHatch
 10
0.0
 20
0.0
 30
0.0
210
0.0
220
0.0
230
1.0
  2
SOLID
 70
     1
 71
     1
 91
        1
 92
        7
 72
     0
 73
     1
 93
        4
 10
380.5
 20
184.3
 10
380.5
 20
189.2999999999999
 10
358.5
 20
189.2999999999999
 10
358.5
 20
184.3
 97
        4
330
16D31
330
16D34
330
16D33
330
16D32
 75
     0
 76
     1
 47
0.1980973278014328
 98
       39
 10
365.75
 20
185.55
 10
383.75
 20
188.55
 10
383.75
 20
188.55
 10
383.75
 20
188.55
 10
383.75
 20
188.55
 10
383.75
 20
188.55
 10
383.75
 20
188.55
 10
383.75
 20
188.55
 10
383.75
 20
188.55
 10
383.75
 20
188.55
 10
383.75
 20
188.55
 10
383.75
 20
188.55
 10
383.75
 20
188.55
 10
383.75
 20
188.55
 10
383.75
 20
188.55
 10
383.75
 20
188.55
 10
383.75
 20
188.55
 10
383.75
 20
188.55
 10
383.75
 20
188.55
 10
383.75
 20
188.55
 10
383.75
 20
188.55
 10
383.75
 20
188.55
 10
383.75
 20
188.55
 10
383.75
 20
188.55
 10
383.75
 20
188.55
 10
383.75
 20
188.55
 10
383.75
 20
188.55
 10
383.75
 20
188.55
 10
383.75
 20
188.55
 10
383.75
 20
188.55
 10
383.75
 20
188.55
 10
383.75
 20
188.55
 10
383.75
 20
188.55
 10
383.75
 20
188.55
 10
383.75
 20
188.55
 10
383.75
 20
188.55
 10
383.75
 20
188.55
 10
383.75
 20
188.55
 10
365.25
 20
186.3
  0
LINE
  5
16D2A
102
{ACAD_REACTORS
330
16EA3
102
}
330
1A
100
AcDbEntity
  8
0
100
AcDbLine
 10
383.0
 20
196.3
 30
0.0
 11
307.0
 21
196.3
 31
0.0
  0
LINE
  5
16D2B
102
{ACAD_REACTORS
330
16EA3
102
}
330
1A
100
AcDbEntity
  8
0
100
AcDbLine
 10
307.0
 20
196.3
 30
0.0
 11
307.0
 21
125.3
 31
0.0
  0
LINE
  5
16D2C
102
{ACAD_REACTORS
330
16EA3
102
}
330
1A
100
AcDbEntity
  8
0
100
AcDbLine
 10
383.0
 20
196.3
 30
0.0
 11
383.0
 21
125.3
 31
0.0
  0
LINE
  5
16D31
102
{ACAD_REACTORS
330
16D29
102
}
330
1A
100
AcDbEntity
  8
0
100
AcDbLine
 10
380.5
 20
189.3
 30
0.0
 11
358.5
 21
189.3
 31
0.0
  0
LINE
  5
16D32
102
{ACAD_REACTORS
330
16D29
102
}
330
1A
100
AcDbEntity
  8
0
100
AcDbLine
 10
380.5
 20
184.3
 30
0.0
 11
380.5
 21
189.3
 31
0.0
  0
LINE
  5
16D33
102
{ACAD_REACTORS
330
16D29
102
}
330
1A
100
AcDbEntity
  8
0
100
AcDbLine
 10
358.5
 20
184.3
 30
0.0
 11
380.5
 21
184.3
 31
0.0
  0
LINE
  5
16D34
102
{ACAD_REACTORS
330
16D29
102
}
330
1A
100
AcDbEntity
  8
0
100
AcDbLine
 10
358.5
 20
189.3
 30
0.0
 11
358.5
 21
184.3
 31
0.0
  0
TEXT
  5
16D35
330
1A
100
AcDbEntity
  8
0
100
AcDbText
 10
350.0
 20
185.2999999999999
 30
0.0
 40
3.0
  1
No.
 11
350.0
 21
186.7999999999999
 31
0.0
100
AcDbText
 73
     2
  0
TEXT
  5
16D36
330
1A
100
AcDbEntity
  8
0
100
AcDbText
 10
337.0785714285714
 20
191.5499999999999
 30
0.0
 40
3.0
  1
TOYO SOKKI CO.,LTD
 72
     2
 11
381.25
 21
194.5499999999999
 31
0.0
100
AcDbText
 73
     3
  0
TEXT
  5
16D37
330
1A
100
AcDbEntity
  8
0
100
AcDbText
 10
309.1100000000001
 20
185.049146940739
 30
0.0
 40
4.0
  1
DLS-5028A
100
AcDbText
  0
LINE
  5
16D38
102
{ACAD_REACTORS
330
16EA3
102
}
330
1A
100
AcDbEntity
  8
0
100
AcDbLine
 10
383.0
 20
125.3
 30
0.0
 11
307.0
 21
125.3
 31
0.0
  0
HATCH
  5
16D39
330
1A
100
AcDbEntity
  8
0
100
AcDbHatch
 10
0.0
 20
0.0
 30
0.0
210
0.0
220
0.0
230
1.0
  2
SOLID
 70
     1
 71
     0
 91
        1
 92
        7
 72
     0
 73
     1
 93
        4
 10
378.37
 20
138.55
 10
378.37
 20
143.05
 10
374.87
 20
143.05
 10
374.87
 20
138.55
 97
        0
 75
     0
 76
     1
 47
0.3512133351326896
 98
        1
 10
376.62
 20
140.05
  0
HATCH
  5
16D3A
330
1A
100
AcDbEntity
  8
0
100
AcDbHatch
 10
0.0
 20
0.0
 30
0.0
210
0.0
220
0.0
230
1.0
  2
SOLID
 70
     1
 71
     1
 91
        1
 92
        7
 72
     0
 73
     1
 93
        4
 10
378.37
 20
148.55
 10
374.8699999999999
 20
148.55
 10
374.8699999999999
 20
144.05
 10
378.37
 20
144.05
 97
        4
330
16D3B
330
16D3E
330
16D3C
330
16D3D
 75
     0
 76
     1
 47
0.3512133351326896
 98
        1
 10
376.62
 20
146.3
  0
LINE
  5
16D3B
102
{ACAD_REACTORS
330
16D3A
102
}
330
1A
100
AcDbEntity
  8
0
100
AcDbLine
 10
378.37
 20
148.55
 30
0.0
 11
374.87
 21
148.55
 31
0.0
  0
LINE
  5
16D3C
102
{ACAD_REACTORS
330
16D3A
102
}
330
1A
100
AcDbEntity
  8
0
100
AcDbLine
 10
374.87
 20
144.05
 30
0.0
 11
378.37
 21
144.05
 31
0.0
  0
LINE
  5
16D3D
102
{ACAD_REACTORS
330
16D3A
102
}
330
1A
100
AcDbEntity
  8
0
100
AcDbLine
 10
378.37
 20
144.05
 30
0.0
 11
378.37
 21
148.55
 31
0.0
  0
LINE
  5
16D3E
102
{ACAD_REACTORS
330
16D3A
102
}
330
1A
100
AcDbEntity
  8
0
100
AcDbLine
 10
374.87
 20
148.55
 30
0.0
 11
374.87
 21
144.05
 31
0.0
  0
LINE
  5
16D3F
330
1A
100
AcDbEntity
  8
0
100
AcDbLine
 10
374.87
 20
143.55
 30
0.0
 11
309.0
 21
143.55
 31
0.0
  0
LINE
  5
16D40
330
1A
100
AcDbEntity
  8
0
100
AcDbLine
 10
378.37
 20
143.05
 30
0.0
 11
374.87
 21
143.05
 31
0.0
  0
LINE
  5
16D41
330
1A
100
AcDbEntity
  8
0
100
AcDbLine
 10
374.87
 20
138.55
 30
0.0
 11
378.37
 21
138.55
 31
0.0
  0
LINE
  5
16D42
330
1A
100
AcDbEntity
  8
0
100
AcDbLine
 10
374.87
 20
143.05
 30
0.0
 11
374.87
 21
138.55
 31
0.0
  0
LINE
  5
16D43
330
1A
100
AcDbEntity
  8
0
100
AcDbLine
 10
378.37
 20
138.55
 30
0.0
 11
378.37
 21
143.05
 31
0.0
  0
TEXT
  5
16D44
330
1A
100
AcDbEntity
  8
0
100
AcDbText
 10
328.5119047619047
 20
171.9420040835962
 30
0.0
 40
2.0
  1
+
 72
     4
 11
329.7499999999999
 21
172.799146940739
 31
0.0
100
AcDbText
  0
TEXT
  5
16D45
330
1A
100
AcDbEntity
  8
0
100
AcDbText
 10
336.1319047619047
 20
171.9420040835962
 30
0.0
 40
2.0
  1
-
 72
     4
 11
337.3699999999999
 21
172.799146940739
 31
0.0
100
AcDbText
  0
TEXT
  5
16D46
330
1A
100
AcDbEntity
  8
0
100
AcDbText
 10
320.8919047619047
 20
171.9420040835962
 30
0.0
 40
2.0
  1
-
 72
     4
 11
322.1299999999999
 21
172.799146940739
 31
0.0
100
AcDbText
  0
TEXT
  5
16D47
330
1A
100
AcDbEntity
  8
0
100
AcDbText
 10
313.2719047619048
 20
171.9420040835962
 30
0.0
 40
2.0
  1
+
 72
     4
 11
314.5100000000001
 21
172.799146940739
 31
0.0
100
AcDbText
  0
LINE
  5
16D48
330
1A
100
AcDbEntity
  8
0
100
AcDbLine
 10
340.0699999999998
 20
170.5491469407389
 30
0.0
 11
340.0699999999998
 21
169.0491469407389
 31
0.0
  0
LINE
  5
16D49
330
1A
100
AcDbEntity
  8
0
100
AcDbLine
 10
340.0699999999998
 20
169.0491469407389
 30
0.0
 11
337.7799999999999
 21
169.0491469407389
 31
0.0
  0
LINE
  5
16D4A
330
1A
100
AcDbEntity
  8
0
100
AcDbLine
 10
327.05
 20
170.5491469407389
 30
0.0
 11
327.05
 21
169.0491469407389
 31
0.0
  0
LINE
  5
16D4B
330
1A
100
AcDbEntity
  8
0
100
AcDbLine
 10
327.05
 20
169.0491469407389
 30
0.0
 11
329.4
 21
169.0491469407389
 31
0.0
  0
LINE
  5
16D4C
330
1A
100
AcDbEntity
  8
0
100
AcDbLine
 10
324.8299999999999
 20
170.5491469407389
 30
0.0
 11
324.8299999999999
 21
169.0491469407389
 31
0.0
  0
LINE
  5
16D4D
330
1A
100
AcDbEntity
  8
0
100
AcDbLine
 10
324.8299999999999
 20
169.0491469407389
 30
0.0
 11
322.54
 21
169.0491469407389
 31
0.0
  0
LINE
  5
16D4E
330
1A
100
AcDbEntity
  8
0
100
AcDbLine
 10
311.81
 20
170.5491469407389
 30
0.0
 11
311.81
 21
169.0491469407389
 31
0.0
  0
LINE
  5
16D4F
330
1A
100
AcDbEntity
  8
0
100
AcDbLine
 10
311.81
 20
169.0491469407389
 30
0.0
 11
314.16
 21
169.0491469407389
 31
0.0
  0
TEXT
  5
16D50
330
1A
100
AcDbEntity
  8
0
100
AcDbText
 10
341.3590476190476
 20
167.799146940739
 30
0.0
 40
2.5
  1
SHL
 72
     4
 11
344.9899999999999
 21
169.049146940739
 31
0.0
100
AcDbText
  0
TEXT
  5
16D51
330
1A
100
AcDbEntity
  8
0
100
AcDbText
 10
330.6433333333333
 20
167.799146940739
 30
0.0
 40
2.5
  1
SIG
 72
     4
 11
333.56
 21
169.049146940739
 31
0.0
100
AcDbText
  0
TEXT
  5
16D52
330
1A
100
AcDbEntity
  8
0
100
AcDbText
 10
314.6890476190476
 20
167.799146940739
 30
0.0
 40
2.5
  1
EXC
 72
     4
 11
318.32
 21
169.049146940739
 31
0.0
100
AcDbText
  0
LINE
  5
16D53
330
1A
100
AcDbEntity
  8
0
100
AcDbLine
 10
330.7399999999999
 20
163.2991469407389
 30
0.0
 11
338.2399999999999
 21
163.2991469407389
 31
0.0
  0
LINE
  5
16D54
330
1A
100
AcDbEntity
  8
0
100
AcDbLine
 10
317.2399999999998
 20
163.2991469407389
 30
0.0
 11
309.7399999999999
 21
163.2991469407389
 31
0.0
  0
LINE
  5
16D55
330
1A
100
AcDbEntity
  8
0
100
AcDbLine
 10
338.2399999999999
 20
161.7991469407389
 30
0.0
 11
338.2399999999999
 21
163.2991469407389
 31
0.0
  0
LINE
  5
16D56
330
1A
100
AcDbEntity
  8
0
100
AcDbLine
 10
309.7399999999999
 20
161.7991469407389
 30
0.0
 11
309.7399999999999
 21
163.2991469407389
 31
0.0
  0
TEXT
  5
16D57
330
1A
100
AcDbEntity
  8
0
100
AcDbText
 10
317.8233333333333
 20
162.049146940739
 30
0.0
 40
2.5
  1
RY out
 72
     4
 11
323.99
 21
163.299146940739
 31
0.0
100
AcDbText
  0
TEXT
  5
16D58
330
1A
100
AcDbEntity
  8
0
100
AcDbText
 10
355.4600000000001
 20
163.5491469407391
 30
0.0
 40
2.5
  1
E
100
AcDbText
  0
TEXT
  5
16D59
330
1A
100
AcDbEntity
  8
0
100
AcDbText
 10
361.21
 20
163.5491469407391
 30
0.0
 40
2.5
  1
POWER
100
AcDbText
  0
LINE
  5
16D5A
330
1A
100
AcDbEntity
  8
0
100
AcDbLine
 10
380.4899999999999
 20
170.0491469407389
 30
0.0
 11
380.4899999999999
 21
168.5491469407389
 31
0.0
  0
LINE
  5
16D5B
330
1A
100
AcDbEntity
  8
0
100
AcDbLine
 10
380.4899999999999
 20
168.5491469407389
 30
0.0
 11
379.7000000000001
 21
168.5491469407389
 31
0.0
  0
LINE
  5
16D5C
330
1A
100
AcDbEntity
  8
0
100
AcDbLine
 10
371.4899999999999
 20
170.0491469407389
 30
0.0
 11
371.4899999999999
 21
168.5491469407389
 31
0.0
  0
LINE
  5
16D5D
330
1A
100
AcDbEntity
  8
0
100
AcDbLine
 10
371.4899999999999
 20
168.5491469407389
 30
0.0
 11
372.34
 21
168.5491469407389
 31
0.0
  0
LINE
  5
16D5E
330
1A
100
AcDbEntity
  8
0
100
AcDbLine
 10
370.4899999999999
 20
168.5491469407389
 30
0.0
 11
368.1999999999999
 21
168.5491469407389
 31
0.0
  0
LINE
  5
16D5F
330
1A
100
AcDbEntity
  8
0
100
AcDbLine
 10
370.4899999999999
 20
170.0491469407389
 30
0.0
 11
370.4899999999999
 21
168.5491469407389
 31
0.0
  0
TEXT
  5
16D60
330
1A
100
AcDbEntity
  8
0
100
AcDbText
 10
372.4899999999999
 20
167.9658136074055
 30
0.0
 40
2.5
  1
Option
 41
0.6
 72
     4
 11
375.9899999999999
 21
168.7991469407388
 31
0.0
100
AcDbText
  0
LINE
  5
16D61
330
1A
100
AcDbEntity
  8
0
100
AcDbLine
 10
351.4899999999999
 20
168.5491469407389
 30
0.0
 11
353.84
 21
168.5491469407389
 31
0.0
  0
LINE
  5
16D62
330
1A
100
AcDbEntity
  8
0
100
AcDbLine
 10
351.4899999999999
 20
170.0491469407389
 30
0.0
 11
351.4899999999999
 21
168.5491469407389
 31
0.0
  0
TEXT
  5
16D63
330
1A
100
AcDbEntity
  8
0
100
AcDbText
 10
354.5383346497587
 20
167.4834941455287
 30
0.0
 40
2.5
  1
Command
 41
0.7
 72
     4
 11
361.0383346497587
 21
168.7334941455287
 31
0.0
100
AcDbText
  0
TEXT
  5
16D64
330
1A
100
AcDbEntity
  8
0
100
AcDbText
 10
354.1242857142858
 20
154.549146940739
 30
0.0
 40
3.0
  1
20
 41
0.8
 72
     4
 11
356.41
 21
156.049146940739
 31
0.0
100
AcDbText
  0
TEXT
  5
16D65
330
1A
100
AcDbEntity
  8
0
100
AcDbText
 10
362.0871428571427
 20
154.549146940739
 30
0.0
 40
3.0
  1
21
 41
0.8
 72
     4
 11
364.0299999999998
 21
156.049146940739
 31
0.0
100
AcDbText
  0
TEXT
  5
16D66
330
1A
100
AcDbEntity
  8
0
100
AcDbText
 10
369.3642857142857
 20
154.549146940739
 30
0.0
 40
3.0
  1
22
 41
0.8
 72
     4
 11
371.65
 21
156.049146940739
 31
0.0
100
AcDbText
  0
LINE
  5
16D67
330
1A
100
AcDbEntity
  8
0
100
AcDbLine
 10
373.15
 20
153.0491469407389
 30
0.0
 11
373.15
 21
152.2491469407389
 31
0.0
  0
LINE
  5
16D68
330
1A
100
AcDbEntity
  8
0
100
AcDbLine
 10
373.15
 20
159.8491469407389
 30
0.0
 11
373.15
 21
159.0491469407389
 31
0.0
  0
LINE
  5
16D69
330
1A
100
AcDbEntity
  8
0
100
AcDbLine
 10
376.07
 20
162.5491469407389
 30
0.0
 11
376.07
 21
150.5491469407389
 31
0.0
  0
LINE
  5
16D6A
330
1A
100
AcDbEntity
  8
0
100
AcDbLine
 10
374.87
 20
162.5491469407389
 30
0.0
 11
374.87
 21
150.5491469407389
 31
0.0
  0
LINE
  5
16D6B
330
1A
100
AcDbEntity
  8
0
100
AcDbLine
 10
360.8299999999999
 20
153.0491469407389
 30
0.0
 11
367.23
 21
153.0491469407389
 31
0.0
  0
LINE
  5
16D6C
330
1A
100
AcDbEntity
  8
0
100
AcDbLine
 10
360.8299999999999
 20
151.449146940739
 30
0.0
 11
367.23
 21
151.449146940739
 31
0.0
  0
LINE
  5
16D6D
330
1A
100
AcDbEntity
  8
0
100
AcDbLine
 10
362.53
 20
152.2491469407389
 30
0.0
 11
365.53
 21
152.2491469407389
 31
0.0
  0
LINE
  5
16D6E
330
1A
100
AcDbEntity
  8
0
100
AcDbLine
 10
365.53
 20
153.0491469407389
 30
0.0
 11
365.53
 21
152.2491469407389
 31
0.0
  0
LINE
  5
16D6F
330
1A
100
AcDbEntity
  8
0
100
AcDbLine
 10
370.15
 20
153.0491469407389
 30
0.0
 11
370.15
 21
152.2491469407389
 31
0.0
  0
LINE
  5
16D70
330
1A
100
AcDbEntity
  8
0
100
AcDbLine
 10
362.53
 20
153.0491469407389
 30
0.0
 11
362.53
 21
152.2491469407389
 31
0.0
  0
LINE
  5
16D71
330
1A
100
AcDbEntity
  8
0
100
AcDbLine
 10
360.83
 20
159.0491469407389
 30
0.0
 11
367.2299999999999
 21
159.0491469407389
 31
0.0
  0
LINE
  5
16D72
330
1A
100
AcDbEntity
  8
0
100
AcDbLine
 10
360.83
 20
160.649146940739
 30
0.0
 11
367.2299999999999
 21
160.649146940739
 31
0.0
  0
LINE
  5
16D73
330
1A
100
AcDbEntity
  8
0
100
AcDbLine
 10
362.53
 20
159.8491469407391
 30
0.0
 11
365.53
 21
159.8491469407391
 31
0.0
  0
LINE
  5
16D74
330
1A
100
AcDbEntity
  8
0
100
AcDbLine
 10
365.53
 20
159.8491469407391
 30
0.0
 11
365.53
 21
159.0491469407389
 31
0.0
  0
LINE
  5
16D75
330
1A
100
AcDbEntity
  8
0
100
AcDbLine
 10
370.15
 20
159.8491469407391
 30
0.0
 11
370.15
 21
159.0491469407389
 31
0.0
  0
LINE
  5
16D76
330
1A
100
AcDbEntity
  8
0
100
AcDbLine
 10
362.53
 20
159.8491469407391
 30
0.0
 11
362.53
 21
159.0491469407389
 31
0.0
  0
CIRCLE
  5
16D77
330
1A
100
AcDbEntity
  8
0
100
AcDbCircle
 10
364.0299999999998
 20
156.049146940739
 30
0.0
 40
2.75
  0
LINE
  5
16D78
330
1A
100
AcDbEntity
  8
0
100
AcDbLine
 10
367.2299999999999
 20
162.5491469407389
 30
0.0
 11
367.2299999999999
 21
150.5491469407389
 31
0.0
  0
LINE
  5
16D79
330
1A
100
AcDbEntity
  8
0
100
AcDbLine
 10
368.45
 20
162.5491469407389
 30
0.0
 11
368.4499999999999
 21
150.5491469407389
 31
0.0
  0
LINE
  5
16D7A
330
1A
100
AcDbEntity
  8
0
100
AcDbLine
 10
360.83
 20
162.5491469407389
 30
0.0
 11
360.83
 21
150.5491469407389
 31
0.0
  0
LINE
  5
16D7B
330
1A
100
AcDbEntity
  8
0
100
AcDbLine
 10
368.4499999999999
 20
159.0491469407389
 30
0.0
 11
374.85
 21
159.0491469407389
 31
0.0
  0
LINE
  5
16D7C
330
1A
100
AcDbEntity
  8
0
100
AcDbLine
 10
368.4499999999999
 20
153.0491469407389
 30
0.0
 11
374.85
 21
153.0491469407389
 31
0.0
  0
LINE
  5
16D7D
330
1A
100
AcDbEntity
  8
0
100
AcDbLine
 10
368.4499999999999
 20
160.649146940739
 30
0.0
 11
374.8499999999999
 21
160.649146940739
 31
0.0
  0
LINE
  5
16D7E
330
1A
100
AcDbEntity
  8
0
100
AcDbLine
 10
368.4499999999999
 20
153.0491469407389
 30
0.0
 11
374.85
 21
153.0491469407389
 31
0.0
  0
LINE
  5
16D7F
330
1A
100
AcDbEntity
  8
0
100
AcDbLine
 10
368.4499999999999
 20
151.449146940739
 30
0.0
 11
374.85
 21
151.449146940739
 31
0.0
  0
CIRCLE
  5
16D80
330
1A
100
AcDbEntity
  8
0
100
AcDbCircle
 10
371.65
 20
156.049146940739
 30
0.0
 40
2.75
  0
LINE
  5
16D81
330
1A
100
AcDbEntity
  8
0
100
AcDbLine
 10
370.15
 20
152.2491469407389
 30
0.0
 11
373.15
 21
152.2491469407389
 31
0.0
  0
LINE
  5
16D82
330
1A
100
AcDbEntity
  8
0
100
AcDbLine
 10
370.15
 20
159.8491469407391
 30
0.0
 11
373.15
 21
159.8491469407391
 31
0.0
  0
LINE
  5
16D83
330
1A
100
AcDbEntity
  8
0
100
AcDbLine
 10
353.2099999999999
 20
153.0491469407389
 30
0.0
 11
359.61
 21
153.0491469407389
 31
0.0
  0
LINE
  5
16D84
330
1A
100
AcDbEntity
  8
0
100
AcDbLine
 10
353.2099999999999
 20
151.449146940739
 30
0.0
 11
359.61
 21
151.449146940739
 31
0.0
  0
LINE
  5
16D85
330
1A
100
AcDbEntity
  8
0
100
AcDbLine
 10
354.91
 20
153.0491469407389
 30
0.0
 11
354.91
 21
152.2491469407389
 31
0.0
  0
LINE
  5
16D86
330
1A
100
AcDbEntity
  8
0
100
AcDbLine
 10
357.91
 20
153.0491469407389
 30
0.0
 11
357.91
 21
152.2491469407389
 31
0.0
  0
LINE
  5
16D87
330
1A
100
AcDbEntity
  8
0
100
AcDbLine
 10
354.91
 20
152.2491469407389
 30
0.0
 11
357.91
 21
152.2491469407389
 31
0.0
  0
LINE
  5
16D88
330
1A
100
AcDbEntity
  8
0
100
AcDbLine
 10
353.2099999999999
 20
159.0491469407389
 30
0.0
 11
359.61
 21
159.0491469407389
 31
0.0
  0
LINE
  5
16D89
330
1A
100
AcDbEntity
  8
0
100
AcDbLine
 10
353.2099999999999
 20
160.649146940739
 30
0.0
 11
359.6099999999999
 21
160.649146940739
 31
0.0
  0
LINE
  5
16D8A
330
1A
100
AcDbEntity
  8
0
100
AcDbLine
 10
354.91
 20
159.8491469407391
 30
0.0
 11
354.91
 21
159.0491469407389
 31
0.0
  0
LINE
  5
16D8B
330
1A
100
AcDbEntity
  8
0
100
AcDbLine
 10
357.91
 20
159.8491469407391
 30
0.0
 11
357.91
 21
159.0491469407389
 31
0.0
  0
LINE
  5
16D8C
330
1A
100
AcDbEntity
  8
0
100
AcDbLine
 10
354.91
 20
159.8491469407391
 30
0.0
 11
357.91
 21
159.8491469407391
 31
0.0
  0
LINE
  5
16D8D
330
1A
100
AcDbEntity
  8
0
100
AcDbLine
 10
353.21
 20
162.5491469407389
 30
0.0
 11
353.2099999999999
 21
150.5491469407389
 31
0.0
  0
LINE
  5
16D8E
330
1A
100
AcDbEntity
  8
0
100
AcDbLine
 10
359.6099999999999
 20
162.5491469407389
 30
0.0
 11
359.61
 21
150.5491469407389
 31
0.0
  0
CIRCLE
  5
16D8F
330
1A
100
AcDbEntity
  8
0
100
AcDbCircle
 10
356.41
 20
156.049146940739
 30
0.0
 40
2.75
  0
LINE
  5
16D90
330
1A
100
AcDbEntity
  8
0
100
AcDbLine
 10
352.01
 20
162.5491469407389
 30
0.0
 11
352.01
 21
150.5491469407389
 31
0.0
  0
LINE
  5
16D91
330
1A
100
AcDbEntity
  8
0
100
AcDbLine
 10
351.01
 20
162.5491469407389
 30
0.0
 11
351.01
 21
150.5491469407389
 31
0.0
  0
LINE
  5
16D92
330
1A
100
AcDbEntity
  8
0
100
AcDbLine
 10
351.01
 20
162.5491469407389
 30
0.0
 11
377.0700000000001
 21
162.5491469407391
 31
0.0
  0
LINE
  5
16D93
330
1A
100
AcDbEntity
  8
0
100
AcDbLine
 10
351.01
 20
150.5491469407389
 30
0.0
 11
377.0700000000001
 21
150.5491469407389
 31
0.0
  0
LINE
  5
16D94
330
1A
100
AcDbEntity
  8
0
100
AcDbLine
 10
377.0700000000001
 20
162.5491469407389
 30
0.0
 11
377.0700000000001
 21
150.5491469407389
 31
0.0
  0
TEXT
  5
16D95
330
1A
100
AcDbEntity
  8
0
100
AcDbText
 10
339.8292857142856
 20
157.9277183693103
 30
0.0
 40
2.5
  1
C/L
 41
0.45
 72
     4
 11
341.4899999999998
 21
158.9991469407389
 31
0.0
100
AcDbText
  0
TEXT
  5
16D96
330
1A
100
AcDbEntity
  8
0
100
AcDbText
 10
344.8292857142856
 20
157.9277183693103
 30
0.0
 40
2.5
  1
C/L
 41
0.45
 72
     4
 11
346.4899999999998
 21
158.9991469407389
 31
0.0
100
AcDbText
  0
TEXT
  5
16D97
330
1A
100
AcDbEntity
  8
0
100
AcDbText
 10
329.7221428571427
 20
157.7491469407389
 30
0.0
 40
2.5
  1
COM
 41
0.45
 72
     4
 11
331.4899999999998
 21
158.9991469407389
 31
0.0
100
AcDbText
  0
TEXT
  5
16D98
330
1A
100
AcDbEntity
  8
0
100
AcDbText
 10
334.7221428571427
 20
157.7491469407389
 30
0.0
 40
2.5
  1
COM
 41
0.45
 72
     4
 11
336.4899999999999
 21
158.9991469407389
 31
0.0
100
AcDbText
  0
TEXT
  5
16D99
330
1A
100
AcDbEntity
  8
0
100
AcDbText
 10
324.8292857142855
 20
157.7491469407389
 30
0.0
 40
2.5
  1
SP4
 41
0.45
 72
     4
 11
326.4899999999999
 21
158.9991469407389
 31
0.0
100
AcDbText
  0
TEXT
  5
16D9A
330
1A
100
AcDbEntity
  8
0
100
AcDbText
 10
319.8560714285713
 20
157.7491469407389
 30
0.0
 40
2.5
  1
SP3
 41
0.45
 72
     4
 11
321.4899999999998
 21
158.9991469407389
 31
0.0
100
AcDbText
  0
TEXT
  5
16D9B
330
1A
100
AcDbEntity
  8
0
100
AcDbText
 10
314.8560714285713
 20
157.7491469407389
 30
0.0
 40
2.5
  1
SP2
 41
0.45
 72
     4
 11
316.4899999999998
 21
158.9991469407389
 31
0.0
100
AcDbText
  0
TEXT
  5
16D9C
330
1A
100
AcDbEntity
  8
0
100
AcDbText
 10
309.5257142857141
 20
157.7491469407389
 30
0.0
 40
2.5
  1
SP1
 41
0.6
 72
     4
 11
311.4899999999999
 21
158.9991469407389
 31
0.0
100
AcDbText
  0
TEXT
  5
16D9D
330
1A
100
AcDbEntity
  8
0
100
AcDbText
 10
344.8899999999999
 20
153.7491469407391
 30
0.0
 40
2.0
  1
19
 41
0.8
 72
     4
 11
346.49
 21
154.7491469407391
 31
0.0
100
AcDbText
  0
TEXT
  5
16D9E
330
1A
100
AcDbEntity
  8
0
100
AcDbText
 10
339.8519047619047
 20
153.7491469407391
 30
0.0
 40
2.0
  1
18
 41
0.8
 72
     4
 11
341.4899999999999
 21
154.7491469407391
 31
0.0
100
AcDbText
  0
TEXT
  5
16D9F
330
1A
100
AcDbEntity
  8
0
100
AcDbText
 10
334.8519047619047
 20
153.7491469407391
 30
0.0
 40
2.0
  1
17
 41
0.8
 72
     4
 11
336.49
 21
154.7491469407391
 31
0.0
100
AcDbText
  0
TEXT
  5
16DA0
330
1A
100
AcDbEntity
  8
0
100
AcDbText
 10
329.8519047619048
 20
153.7491469407391
 30
0.0
 40
2.0
  1
16
 41
0.8
 72
     4
 11
331.49
 21
154.7491469407391
 31
0.0
100
AcDbText
  0
TEXT
  5
16DA1
330
1A
100
AcDbEntity
  8
0
100
AcDbText
 10
324.8519047619047
 20
153.7491469407391
 30
0.0
 40
2.0
  1
15
 41
0.8
 72
     4
 11
326.4899999999999
 21
154.7491469407391
 31
0.0
100
AcDbText
  0
TEXT
  5
16DA2
330
1A
100
AcDbEntity
  8
0
100
AcDbText
 10
319.8138095238095
 20
153.7491469407391
 30
0.0
 40
2.0
  1
14
 41
0.8
 72
     4
 11
321.49
 21
154.7491469407391
 31
0.0
100
AcDbText
  0
TEXT
  5
16DA3
330
1A
100
AcDbEntity
  8
0
100
AcDbText
 10
314.8519047619047
 20
153.7491469407391
 30
0.0
 40
2.0
  1
13
 41
0.8
 72
     4
 11
316.4899999999999
 21
154.7491469407391
 31
0.0
100
AcDbText
  0
TEXT
  5
16DA4
330
1A
100
AcDbEntity
  8
0
100
AcDbText
 10
309.8519047619047
 20
153.7491469407391
 30
0.0
 40
2.0
  1
12
 41
0.8
 72
     4
 11
311.49
 21
154.7491469407391
 31
0.0
100
AcDbText
  0
TEXT
  5
16DA5
330
1A
100
AcDbEntity
  8
0
100
AcDbText
 10
352.2042857142857
 20
171.849146940739
 30
0.0
 40
2.5
  1
AZ
 41
0.6
 72
     4
 11
353.4899999999999
 21
173.099146940739
 31
0.0
100
AcDbText
  0
TEXT
  5
16DA6
330
1A
100
AcDbEntity
  8
0
100
AcDbText
 10
356.695357142857
 20
171.849146940739
 30
0.0
 40
2.5
  1
AZ.R
 41
0.45
 72
     4
 11
358.4899999999999
 21
173.099146940739
 31
0.0
100
AcDbText
  0
TEXT
  5
16DA7
330
1A
100
AcDbEntity
  8
0
100
AcDbText
 10
361.7221428571427
 20
171.849146940739
 30
0.0
 40
2.5
  1
CMD
 41
0.45
 72
     4
 11
363.4899999999999
 21
173.099146940739
 31
0.0
100
AcDbText
  0
TEXT
  5
16DA8
330
1A
100
AcDbEntity
  8
0
100
AcDbText
 10
366.7221428571427
 20
171.849146940739
 30
0.0
 40
2.5
  1
COM
 41
0.45
 72
     4
 11
368.4899999999999
 21
173.099146940739
 31
0.0
100
AcDbText
  0
TEXT
  5
16DA9
330
1A
100
AcDbEntity
  8
0
100
AcDbText
 10
371.9423809523809
 20
172.0277183693104
 30
0.0
 40
2.5
  1
+
 72
     4
 11
373.4899999999999
 21
173.099146940739
 31
0.0
100
AcDbText
  0
TEXT
  5
16DAA
330
1A
100
AcDbEntity
  8
0
100
AcDbText
 10
376.9423809523809
 20
172.0277183693104
 30
0.0
 40
2.5
  1
-
 72
     4
 11
378.4899999999999
 21
173.099146940739
 31
0.0
100
AcDbText
  0
TEXT
  5
16DAB
330
1A
100
AcDbEntity
  8
0
100
AcDbText
 10
371.8519047619047
 20
176.349146940739
 30
0.0
 40
2.0
  1
10
 41
0.8
 72
     4
 11
373.4899999999999
 21
177.349146940739
 31
0.0
100
AcDbText
  0
TEXT
  5
16DAC
330
1A
100
AcDbEntity
  8
0
100
AcDbText
 10
377.0804761904761
 20
176.349146940739
 30
0.0
 40
2.0
  1
11
 41
0.8
 72
     4
 11
378.4899999999999
 21
177.349146940739
 31
0.0
100
AcDbText
  0
TEXT
  5
16DAD
330
1A
100
AcDbEntity
  8
0
100
AcDbText
 10
362.7280952380951
 20
176.349146940739
 30
0.0
 40
2.0
  1
8
 41
0.8
 72
     4
 11
363.4899999999999
 21
177.349146940739
 31
0.0
100
AcDbText
  0
TEXT
  5
16DAE
330
1A
100
AcDbEntity
  8
0
100
AcDbText
 10
367.7661904761904
 20
176.349146940739
 30
0.0
 40
2.0
  1
9
 41
0.8
 72
     4
 11
368.4899999999999
 21
177.349146940739
 31
0.0
100
AcDbText
  0
TEXT
  5
16DAF
330
1A
100
AcDbEntity
  8
0
100
AcDbText
 10
357.7280952380951
 20
176.349146940739
 30
0.0
 40
2.0
  1
7
 41
0.8
 72
     4
 11
358.4899999999999
 21
177.349146940739
 31
0.0
100
AcDbText
  0
TEXT
  5
16DB0
330
1A
100
AcDbEntity
  8
0
100
AcDbText
 10
352.6899999999999
 20
176.349146940739
 30
0.0
 40
2.0
  1
6
 41
0.8
 72
     4
 11
353.4899999999999
 21
177.349146940739
 31
0.0
100
AcDbText
  0
TEXT
  5
16DB1
330
1A
100
AcDbEntity
  8
0
100
AcDbText
 10
343.8471428571428
 20
175.549146940739
 30
0.0
 40
3.0
  1
5
 41
0.8
 72
     4
 11
344.9899999999999
 21
177.049146940739
 31
0.0
100
AcDbText
  0
TEXT
  5
16DB2
330
1A
100
AcDbEntity
  8
0
100
AcDbText
 10
336.1700000000001
 20
175.549146940739
 30
0.0
 40
3.0
  1
4
 41
0.8
 72
     4
 11
337.3700000000001
 21
177.049146940739
 31
0.0
100
AcDbText
  0
TEXT
  5
16DB3
330
1A
100
AcDbEntity
  8
0
100
AcDbText
 10
328.6071428571429
 20
175.549146940739
 30
0.0
 40
3.0
  1
3
 41
0.8
 72
     4
 11
329.7500000000001
 21
177.049146940739
 31
0.0
100
AcDbText
  0
TEXT
  5
16DB4
330
1A
100
AcDbEntity
  8
0
100
AcDbText
 10
320.9871428571429
 20
175.549146940739
 30
0.0
 40
3.0
  1
2
 41
0.8
 72
     4
 11
322.1300000000001
 21
177.049146940739
 31
0.0
100
AcDbText
  0
TEXT
  5
16DB5
330
1A
100
AcDbEntity
  8
0
100
AcDbText
 10
313.5385714285714
 20
175.549146940739
 30
0.0
 40
3.0
  1
1
 41
0.8
 72
     4
 11
314.5100000000001
 21
177.049146940739
 31
0.0
100
AcDbText
  0
LINE
  5
16DB6
330
1A
100
AcDbEntity
  8
0
100
AcDbLine
 10
346.49
 20
180.8491469407391
 30
0.0
 11
346.49
 21
180.0491469407391
 31
0.0
  0
LINE
  5
16DB7
330
1A
100
AcDbEntity
  8
0
100
AcDbLine
 10
349.4099999999999
 20
183.5491469407391
 30
0.0
 11
349.4099999999999
 21
171.5491469407391
 31
0.0
  0
LINE
  5
16DB8
330
1A
100
AcDbEntity
  8
0
100
AcDbLine
 10
348.2099999999999
 20
183.5491469407391
 30
0.0
 11
348.2099999999999
 21
171.5491469407391
 31
0.0
  0
LINE
  5
16DB9
330
1A
100
AcDbEntity
  8
0
100
AcDbLine
 10
334.1699999999999
 20
174.0491469407391
 30
0.0
 11
340.57
 21
174.0491469407391
 31
0.0
  0
LINE
  5
16DBA
330
1A
100
AcDbEntity
  8
0
100
AcDbLine
 10
334.1699999999999
 20
180.0491469407391
 30
0.0
 11
340.5699999999998
 21
180.0491469407391
 31
0.0
  0
LINE
  5
16DBB
330
1A
100
AcDbEntity
  8
0
100
AcDbLine
 10
334.1699999999999
 20
181.649146940739
 30
0.0
 11
340.5699999999998
 21
181.649146940739
 31
0.0
  0
LINE
  5
16DBC
330
1A
100
AcDbEntity
  8
0
100
AcDbLine
 10
335.87
 20
180.8491469407391
 30
0.0
 11
338.87
 21
180.8491469407391
 31
0.0
  0
LINE
  5
16DBD
330
1A
100
AcDbEntity
  8
0
100
AcDbLine
 10
338.87
 20
180.8491469407391
 30
0.0
 11
338.87
 21
180.0491469407391
 31
0.0
  0
LINE
  5
16DBE
330
1A
100
AcDbEntity
  8
0
100
AcDbLine
 10
343.49
 20
180.8491469407391
 30
0.0
 11
343.49
 21
180.0491469407391
 31
0.0
  0
LINE
  5
16DBF
330
1A
100
AcDbEntity
  8
0
100
AcDbLine
 10
335.87
 20
180.8491469407391
 30
0.0
 11
335.87
 21
180.0491469407391
 31
0.0
  0
CIRCLE
  5
16DC0
330
1A
100
AcDbEntity
  8
0
100
AcDbCircle
 10
337.3700000000001
 20
177.049146940739
 30
0.0
 40
2.75
  0
LINE
  5
16DC1
330
1A
100
AcDbEntity
  8
0
100
AcDbLine
 10
340.5699999999998
 20
183.5491469407391
 30
0.0
 11
340.57
 21
171.5491469407391
 31
0.0
  0
LINE
  5
16DC2
330
1A
100
AcDbEntity
  8
0
100
AcDbLine
 10
341.7900000000001
 20
183.5491469407391
 30
0.0
 11
341.7899999999999
 21
171.5491469407391
 31
0.0
  0
LINE
  5
16DC3
330
1A
100
AcDbEntity
  8
0
100
AcDbLine
 10
334.1700000000001
 20
183.5491469407391
 30
0.0
 11
334.1699999999999
 21
171.5491469407391
 31
0.0
  0
LINE
  5
16DC4
330
1A
100
AcDbEntity
  8
0
100
AcDbLine
 10
341.7899999999999
 20
180.0491469407391
 30
0.0
 11
348.1899999999999
 21
180.0491469407391
 31
0.0
  0
LINE
  5
16DC5
330
1A
100
AcDbEntity
  8
0
100
AcDbLine
 10
341.7899999999999
 20
174.0491469407391
 30
0.0
 11
348.1899999999999
 21
174.0491469407391
 31
0.0
  0
LINE
  5
16DC6
330
1A
100
AcDbEntity
  8
0
100
AcDbLine
 10
341.7899999999999
 20
181.649146940739
 30
0.0
 11
348.1899999999999
 21
181.649146940739
 31
0.0
  0
LINE
  5
16DC7
330
1A
100
AcDbEntity
  8
0
100
AcDbLine
 10
341.7899999999999
 20
174.0491469407391
 30
0.0
 11
348.1899999999999
 21
174.0491469407391
 31
0.0
  0
CIRCLE
  5
16DC8
330
1A
100
AcDbEntity
  8
0
100
AcDbCircle
 10
344.9899999999999
 20
177.049146940739
 30
0.0
 40
2.75
  0
LINE
  5
16DC9
330
1A
100
AcDbEntity
  8
0
100
AcDbLine
 10
343.49
 20
180.8491469407391
 30
0.0
 11
346.49
 21
180.8491469407391
 31
0.0
  0
LINE
  5
16DCA
330
1A
100
AcDbEntity
  8
0
100
AcDbLine
 10
326.5499999999999
 20
174.0491469407391
 30
0.0
 11
332.95
 21
174.0491469407391
 31
0.0
  0
LINE
  5
16DCB
330
1A
100
AcDbEntity
  8
0
100
AcDbLine
 10
326.5499999999999
 20
180.0491469407391
 30
0.0
 11
332.9499999999999
 21
180.0491469407391
 31
0.0
  0
LINE
  5
16DCC
330
1A
100
AcDbEntity
  8
0
100
AcDbLine
 10
326.5499999999999
 20
181.649146940739
 30
0.0
 11
332.9499999999999
 21
181.649146940739
 31
0.0
  0
LINE
  5
16DCD
330
1A
100
AcDbEntity
  8
0
100
AcDbLine
 10
328.25
 20
180.8491469407391
 30
0.0
 11
328.25
 21
180.0491469407391
 31
0.0
  0
LINE
  5
16DCE
330
1A
100
AcDbEntity
  8
0
100
AcDbLine
 10
331.25
 20
180.8491469407391
 30
0.0
 11
331.25
 21
180.0491469407391
 31
0.0
  0
LINE
  5
16DCF
330
1A
100
AcDbEntity
  8
0
100
AcDbLine
 10
328.25
 20
180.8491469407391
 30
0.0
 11
331.25
 21
180.8491469407391
 31
0.0
  0
LINE
  5
16DD0
330
1A
100
AcDbEntity
  8
0
100
AcDbLine
 10
323.63
 20
180.8491469407391
 30
0.0
 11
323.63
 21
180.0491469407391
 31
0.0
  0
LINE
  5
16DD1
330
1A
100
AcDbEntity
  8
0
100
AcDbLine
 10
326.5500000000001
 20
183.5491469407391
 30
0.0
 11
326.5499999999999
 21
171.5491469407391
 31
0.0
  0
LINE
  5
16DD2
330
1A
100
AcDbEntity
  8
0
100
AcDbLine
 10
325.35
 20
183.5491469407391
 30
0.0
 11
325.35
 21
171.5491469407391
 31
0.0
  0
LINE
  5
16DD3
330
1A
100
AcDbEntity
  8
0
100
AcDbLine
 10
332.9499999999999
 20
183.5491469407391
 30
0.0
 11
332.9499999999999
 21
171.5491469407391
 31
0.0
  0
CIRCLE
  5
16DD4
330
1A
100
AcDbEntity
  8
0
100
AcDbCircle
 10
329.7500000000001
 20
177.049146940739
 30
0.0
 40
2.75
  0
LINE
  5
16DD5
330
1A
100
AcDbEntity
  8
0
100
AcDbLine
 10
320.63
 20
180.8491469407391
 30
0.0
 11
320.63
 21
180.0491469407391
 31
0.0
  0
LINE
  5
16DD6
330
1A
100
AcDbEntity
  8
0
100
AcDbLine
 10
313.01
 20
180.8491469407391
 30
0.0
 11
316.01
 21
180.8491469407391
 31
0.0
  0
LINE
  5
16DD7
330
1A
100
AcDbEntity
  8
0
100
AcDbLine
 10
313.01
 20
180.8491469407391
 30
0.0
 11
313.01
 21
180.0491469407391
 31
0.0
  0
LINE
  5
16DD8
330
1A
100
AcDbEntity
  8
0
100
AcDbLine
 10
316.01
 20
180.8491469407391
 30
0.0
 11
316.01
 21
180.0491469407391
 31
0.0
  0
LINE
  5
16DD9
330
1A
100
AcDbEntity
  8
0
100
AcDbLine
 10
317.7099999999999
 20
183.5491469407391
 30
0.0
 11
317.71
 21
171.5491469407391
 31
0.0
  0
LINE
  5
16DDA
330
1A
100
AcDbEntity
  8
0
100
AcDbLine
 10
318.9300000000001
 20
183.5491469407391
 30
0.0
 11
318.9300000000001
 21
171.5491469407391
 31
0.0
  0
CIRCLE
  5
16DDB
330
1A
100
AcDbEntity
  8
0
100
AcDbCircle
 10
322.1300000000001
 20
177.049146940739
 30
0.0
 40
2.75
  0
LINE
  5
16DDC
330
1A
100
AcDbEntity
  8
0
100
AcDbLine
 10
318.9299999999999
 20
174.0491469407391
 30
0.0
 11
325.33
 21
174.0491469407391
 31
0.0
  0
LINE
  5
16DDD
330
1A
100
AcDbEntity
  8
0
100
AcDbLine
 10
318.9299999999999
 20
174.0491469407391
 30
0.0
 11
325.33
 21
174.0491469407391
 31
0.0
  0
LINE
  5
16DDE
330
1A
100
AcDbEntity
  8
0
100
AcDbLine
 10
318.9300000000001
 20
180.0491469407391
 30
0.0
 11
325.33
 21
180.0491469407391
 31
0.0
  0
LINE
  5
16DDF
330
1A
100
AcDbEntity
  8
0
100
AcDbLine
 10
318.9300000000001
 20
181.649146940739
 30
0.0
 11
325.3299999999999
 21
181.649146940739
 31
0.0
  0
LINE
  5
16DE0
330
1A
100
AcDbEntity
  8
0
100
AcDbLine
 10
320.63
 20
180.8491469407391
 30
0.0
 11
323.63
 21
180.8491469407391
 31
0.0
  0
LINE
  5
16DE1
330
1A
100
AcDbEntity
  8
0
100
AcDbLine
 10
311.3100000000001
 20
183.5491469407391
 30
0.0
 11
311.3099999999999
 21
171.5491469407391
 31
0.0
  0
LINE
  5
16DE2
330
1A
100
AcDbEntity
  8
0
100
AcDbLine
 10
310.11
 20
183.5491469407391
 30
0.0
 11
310.11
 21
171.5491469407391
 31
0.0
  0
LINE
  5
16DE3
330
1A
100
AcDbEntity
  8
0
100
AcDbLine
 10
309.11
 20
183.5491469407391
 30
0.0
 11
309.11
 21
171.5491469407391
 31
0.0
  0
LINE
  5
16DE4
330
1A
100
AcDbEntity
  8
0
100
AcDbLine
 10
311.3099999999999
 20
174.0491469407391
 30
0.0
 11
317.71
 21
174.0491469407391
 31
0.0
  0
LINE
  5
16DE5
330
1A
100
AcDbEntity
  8
0
100
AcDbLine
 10
311.3099999999999
 20
180.0491469407391
 30
0.0
 11
317.7099999999999
 21
180.0491469407391
 31
0.0
  0
LINE
  5
16DE6
330
1A
100
AcDbEntity
  8
0
100
AcDbLine
 10
311.3099999999999
 20
181.649146940739
 30
0.0
 11
317.7099999999999
 21
181.649146940739
 31
0.0
  0
CIRCLE
  5
16DE7
330
1A
100
AcDbEntity
  8
0
100
AcDbCircle
 10
314.5100000000001
 20
177.049146940739
 30
0.0
 40
2.75
  0
LINE
  5
16DE8
330
1A
100
AcDbEntity
  8
0
100
AcDbLine
 10
309.11
 20
183.5491469407391
 30
0.0
 11
350.41
 21
183.5491469407391
 31
0.0
  0
LINE
  5
16DE9
330
1A
100
AcDbEntity
  8
0
100
AcDbLine
 10
309.11
 20
171.5491469407389
 30
0.0
 11
350.41
 21
171.5491469407391
 31
0.0
  0
LINE
  5
16DEA
330
1A
100
AcDbEntity
  8
0
100
AcDbLine
 10
350.41
 20
183.5491469407389
 30
0.0
 11
350.41
 21
171.5491469407389
 31
0.0
  0
LINE
  5
16DEB
330
1A
100
AcDbEntity
  8
0
100
AcDbLine
 10
380.9899999999999
 20
175.149146940739
 30
0.0
 11
350.9899999999999
 21
175.149146940739
 31
0.0
  0
LINE
  5
16DEC
330
1A
100
AcDbEntity
  8
0
100
AcDbLine
 10
380.9899999999999
 20
179.5491469407391
 30
0.0
 11
350.9899999999999
 21
179.5491469407391
 31
0.0
  0
LINE
  5
16DED
330
1A
100
AcDbEntity
  8
0
100
AcDbLine
 10
380.9899999999999
 20
181.0491469407391
 30
0.0
 11
350.9899999999999
 21
181.0491469407391
 31
0.0
  0
CIRCLE
  5
16DEE
330
1A
100
AcDbEntity
  8
0
100
AcDbCircle
 10
363.4899999999999
 20
177.349146940739
 30
0.0
 40
1.7
  0
LINE
  5
16DEF
330
1A
100
AcDbEntity
  8
0
100
AcDbLine
 10
350.9899999999999
 20
171.0491469407389
 30
0.0
 11
350.9899999999999
 21
181.0491469407391
 31
0.0
  0
LINE
  5
16DF0
330
1A
100
AcDbEntity
  8
0
100
AcDbLine
 10
355.9899999999999
 20
171.0491469407389
 30
0.0
 11
355.9899999999999
 21
181.0491469407391
 31
0.0
  0
LINE
  5
16DF1
330
1A
100
AcDbEntity
  8
0
100
AcDbLine
 10
360.9899999999999
 20
171.0491469407389
 30
0.0
 11
360.9899999999999
 21
181.0491469407391
 31
0.0
  0
CIRCLE
  5
16DF2
330
1A
100
AcDbEntity
  8
0
100
AcDbCircle
 10
353.4899999999999
 20
177.349146940739
 30
0.0
 40
1.7
  0
CIRCLE
  5
16DF3
330
1A
100
AcDbEntity
  8
0
100
AcDbCircle
 10
358.4899999999999
 20
177.349146940739
 30
0.0
 40
1.7
  0
LINE
  5
16DF4
330
1A
100
AcDbEntity
  8
0
100
AcDbLine
 10
365.9899999999999
 20
171.0491469407389
 30
0.0
 11
365.9899999999999
 21
181.0491469407391
 31
0.0
  0
LINE
  5
16DF5
330
1A
100
AcDbEntity
  8
0
100
AcDbLine
 10
375.9899999999999
 20
171.0491469407389
 30
0.0
 11
375.9899999999999
 21
181.0491469407391
 31
0.0
  0
LINE
  5
16DF6
330
1A
100
AcDbEntity
  8
0
100
AcDbLine
 10
370.9899999999999
 20
171.0491469407389
 30
0.0
 11
370.9899999999999
 21
181.0491469407391
 31
0.0
  0
LINE
  5
16DF7
330
1A
100
AcDbEntity
  8
0
100
AcDbLine
 10
380.9899999999999
 20
171.0491469407389
 30
0.0
 11
380.9899999999999
 21
181.0491469407391
 31
0.0
  0
CIRCLE
  5
16DF8
330
1A
100
AcDbEntity
  8
0
100
AcDbCircle
 10
373.4899999999999
 20
177.349146940739
 30
0.0
 40
1.7
  0
CIRCLE
  5
16DF9
330
1A
100
AcDbEntity
  8
0
100
AcDbCircle
 10
368.4899999999999
 20
177.349146940739
 30
0.0
 40
1.7
  0
CIRCLE
  5
16DFA
330
1A
100
AcDbEntity
  8
0
100
AcDbCircle
 10
378.4899999999999
 20
177.349146940739
 30
0.0
 40
1.7
  0
LINE
  5
16DFB
330
1A
100
AcDbEntity
  8
0
100
AcDbLine
 10
308.9899999999998
 20
161.0491469407389
 30
0.0
 11
348.9899999999998
 21
161.0491469407389
 31
0.0
  0
LINE
  5
16DFC
330
1A
100
AcDbEntity
  8
0
100
AcDbLine
 10
380.9899999999999
 20
171.0491469407389
 30
0.0
 11
350.9899999999999
 21
171.0491469407389
 31
0.0
  0
CIRCLE
  5
16DFD
330
1A
100
AcDbEntity
  8
0
100
AcDbCircle
 10
316.4899999999999
 20
154.7491469407391
 30
0.0
 40
1.7
  0
CIRCLE
  5
16DFE
330
1A
100
AcDbEntity
  8
0
100
AcDbCircle
 10
311.49
 20
154.7491469407391
 30
0.0
 40
1.7
  0
LINE
  5
16DFF
330
1A
100
AcDbEntity
  8
0
100
AcDbLine
 10
313.9899999999999
 20
161.0491469407389
 30
0.0
 11
313.9899999999999
 21
151.0491469407391
 31
0.0
  0
LINE
  5
16E00
330
1A
100
AcDbEntity
  8
0
100
AcDbLine
 10
308.9899999999998
 20
161.0491469407389
 30
0.0
 11
308.9899999999998
 21
151.0491469407391
 31
0.0
  0
CIRCLE
  5
16E01
330
1A
100
AcDbEntity
  8
0
100
AcDbCircle
 10
321.49
 20
154.7491469407391
 30
0.0
 40
1.7
  0
CIRCLE
  5
16E02
330
1A
100
AcDbEntity
  8
0
100
AcDbCircle
 10
331.49
 20
154.7491469407391
 30
0.0
 40
1.7
  0
CIRCLE
  5
16E03
330
1A
100
AcDbEntity
  8
0
100
AcDbCircle
 10
326.4899999999999
 20
154.7491469407391
 30
0.0
 40
1.7
  0
LINE
  5
16E04
330
1A
100
AcDbEntity
  8
0
100
AcDbLine
 10
318.9899999999998
 20
161.0491469407389
 30
0.0
 11
318.9899999999998
 21
151.0491469407391
 31
0.0
  0
LINE
  5
16E05
330
1A
100
AcDbEntity
  8
0
100
AcDbLine
 10
328.9899999999999
 20
161.0491469407389
 30
0.0
 11
328.9899999999999
 21
151.0491469407391
 31
0.0
  0
LINE
  5
16E06
330
1A
100
AcDbEntity
  8
0
100
AcDbLine
 10
323.9899999999999
 20
161.0491469407389
 30
0.0
 11
323.9899999999999
 21
151.0491469407391
 31
0.0
  0
LINE
  5
16E07
330
1A
100
AcDbEntity
  8
0
100
AcDbLine
 10
333.9899999999999
 20
161.0491469407389
 30
0.0
 11
333.9899999999999
 21
151.0491469407391
 31
0.0
  0
CIRCLE
  5
16E08
330
1A
100
AcDbEntity
  8
0
100
AcDbCircle
 10
341.4899999999999
 20
154.7491469407391
 30
0.0
 40
1.7
  0
CIRCLE
  5
16E09
330
1A
100
AcDbEntity
  8
0
100
AcDbCircle
 10
346.49
 20
154.7491469407391
 30
0.0
 40
1.7
  0
LINE
  5
16E0A
330
1A
100
AcDbEntity
  8
0
100
AcDbLine
 10
338.9899999999999
 20
161.0491469407389
 30
0.0
 11
338.9899999999999
 21
151.0491469407391
 31
0.0
  0
LINE
  5
16E0B
330
1A
100
AcDbEntity
  8
0
100
AcDbLine
 10
343.9899999999999
 20
161.0491469407389
 30
0.0
 11
343.9899999999999
 21
151.0491469407391
 31
0.0
  0
LINE
  5
16E0C
330
1A
100
AcDbEntity
  8
0
100
AcDbLine
 10
348.9899999999999
 20
161.0491469407389
 30
0.0
 11
348.9899999999999
 21
151.0491469407391
 31
0.0
  0
CIRCLE
  5
16E0D
330
1A
100
AcDbEntity
  8
0
100
AcDbCircle
 10
336.49
 20
154.7491469407391
 30
0.0
 40
1.7
  0
LINE
  5
16E0E
330
1A
100
AcDbEntity
  8
0
100
AcDbLine
 10
308.9899999999998
 20
152.5491469407391
 30
0.0
 11
348.9899999999999
 21
152.5491469407391
 31
0.0
  0
LINE
  5
16E0F
330
1A
100
AcDbEntity
  8
0
100
AcDbLine
 10
308.9899999999998
 20
156.949146940739
 30
0.0
 11
348.9899999999999
 21
156.949146940739
 31
0.0
  0
LINE
  5
16E10
330
1A
100
AcDbEntity
  8
0
100
AcDbLine
 10
308.9899999999998
 20
151.0491469407391
 30
0.0
 11
348.9899999999998
 21
151.0491469407391
 31
0.0
  0
TEXT
  5
16E11
330
1A
100
AcDbEntity
  8
0
100
AcDbText
 10
340.5257142857142
 20
162.049146940739
 30
0.0
 40
2.5
  1
S-out
 41
0.6
 72
     4
 11
343.99
 21
163.299146940739
 31
0.0
100
AcDbText
  0
LINE
  5
16E12
330
1A
100
AcDbEntity
  8
0
100
AcDbLine
 10
339.7399999999999
 20
161.7991469407389
 30
0.0
 11
339.7399999999999
 21
163.2991469407389
 31
0.0
  0
LINE
  5
16E13
330
1A
100
AcDbEntity
  8
0
100
AcDbLine
 10
340.2399999999999
 20
163.2991469407389
 30
0.0
 11
339.7399999999999
 21
163.2991469407389
 31
0.0
  0
LINE
  5
16E14
330
1A
100
AcDbEntity
  8
0
100
AcDbLine
 10
348.2399999999999
 20
161.7991469407389
 30
0.0
 11
348.2399999999999
 21
163.2991469407389
 31
0.0
  0
LINE
  5
16E15
330
1A
100
AcDbEntity
  8
0
100
AcDbLine
 10
347.7399999999999
 20
163.2991469407389
 30
0.0
 11
348.2399999999999
 21
163.2991469407389
 31
0.0
  0
TEXT
  5
16E16
330
1A
100
AcDbEntity
  8
0
100
AcDbText
 10
326.0
 20
127.2999999999999
 30
0.0
 40
2.5
  1
Strip gauge for No.6-19 (11mm)
 41
0.7
 11
326.0
 21
128.5499999999999
 31
0.0
100
AcDbText
 73
     2
  0
LINE
  5
16E17
330
1A
100
AcDbEntity
  8
0
100
AcDbLine
 10
324.5
 20
128.05
 30
0.0
 11
313.5
 21
128.05
 31
0.0
  0
LINE
  5
16E18
330
1A
100
AcDbEntity
  8
0
100
AcDbLine
 10
324.5
 20
129.05
 30
0.0
 11
324.5
 21
128.05
 31
0.0
  0
LINE
  5
16E19
330
1A
100
AcDbEntity
  8
0
100
AcDbLine
 10
313.5
 20
129.05
 30
0.0
 11
324.5
 21
129.05
 31
0.0
  0
LINE
  5
16E1A
330
1A
100
AcDbEntity
  8
0
100
AcDbLine
 10
313.5
 20
127.8
 30
0.0
 11
309.5
 21
127.8
 31
0.0
  0
LINE
  5
16E1B
330
1A
100
AcDbEntity
  8
0
100
AcDbLine
 10
313.5
 20
129.3
 30
0.0
 11
313.5
 21
127.8
 31
0.0
  0
LINE
  5
16E1C
330
1A
100
AcDbEntity
  8
0
100
AcDbLine
 10
309.5
 20
129.3
 30
0.0
 11
313.5
 21
129.3
 31
0.0
  0
TEXT
  5
16E1D
330
1A
100
AcDbEntity
  8
0
100
AcDbText
 10
310.5
 20
140.0499999999999
 30
0.0
 40
2.5
  1
DC 20-27V,
 41
0.8
 11
310.5
 21
141.2999999999999
 31
0.0
100
AcDbText
 73
     2
  0
TEXT
  5
16E1E
330
1A
100
AcDbEntity
  8
0
100
AcDbText
 10
310.5
 20
144.5499999999999
 30
0.0
 40
2.5
  1
AC 85-132V,
 41
0.8
 11
310.5
 21
145.7999999999999
 31
0.0
100
AcDbText
 73
     2
  0
TEXT
  5
16E1F
330
1A
100
AcDbEntity
  8
0
100
AcDbText
 10
336.89
 20
140.0499999999999
 30
0.0
 40
2.5
  1
0.5A
 41
0.8
 11
336.89
 21
141.2999999999999
 31
0.0
100
AcDbText
 73
     2
  0
TEXT
  5
16E20
330
1A
100
AcDbEntity
  8
0
100
AcDbText
 10
336.89
 20
144.5499999999999
 30
0.0
 40
2.5
  1
20VA, 50/60Hz
 41
0.8
 11
336.89
 21
145.7999999999999
 31
0.0
100
AcDbText
 73
     2
  0
LINE
  5
16E21
330
1A
100
AcDbEntity
  8
0
100
AcDbLine
 10
374.87
 20
148.05
 30
0.0
 11
309.0
 21
148.05
 31
0.0
  0
LINE
  5
16E22
330
1A
100
AcDbEntity
  8
0
100
AcDbLine
 10
374.87
 20
139.05
 30
0.0
 11
309.0
 21
139.05
 31
0.0
  0
LINE
  5
16E23
330
1A
100
AcDbEntity
  8
0
100
AcDbLine
 10
309.0
 20
148.05
 30
0.0
 11
309.0
 21
139.05
 31
0.0
  0
LINE
  5
16E24
330
1A
100
AcDbEntity
  8
0
100
AcDbLine
 10
333.7499997694461
 20
140.8499998898017
 30
0.0
 11
333.7499997694461
 21
140.7599998898016
 31
0.0
  0
LINE
  5
16E25
330
1A
100
AcDbEntity
  8
0
100
AcDbLine
 10
334.4999997694462
 20
140.8499998898017
 30
0.0
 11
334.4999997694462
 21
140.7599998898016
 31
0.0
  0
LINE
  5
16E26
330
1A
100
AcDbEntity
  8
0
100
AcDbLine
 10
332.6999997694462
 20
140.8499998898017
 30
0.0
 11
332.6999997694462
 21
140.7599998898016
 31
0.0
  0
LINE
  5
16E27
330
1A
100
AcDbEntity
  8
0
100
AcDbLine
 10
333.4499997694462
 20
140.8499998898017
 30
0.0
 11
333.4499997694462
 21
140.7599998898016
 31
0.0
  0
LINE
  5
16E28
330
1A
100
AcDbEntity
  8
0
100
AcDbLine
 10
332.2499997694462
 20
140.8499998898017
 30
0.0
 11
332.2499997694462
 21
140.7599998898016
 31
0.0
  0
LINE
  5
16E29
330
1A
100
AcDbEntity
  8
0
100
AcDbLine
 10
334.4999997694462
 20
141.5999998898017
 30
0.0
 11
334.4999997694462
 21
141.5099998898015
 31
0.0
  0
LINE
  5
16E2A
330
1A
100
AcDbEntity
  8
0
100
AcDbLine
 10
331.4999997694461
 20
140.8499998898017
 30
0.0
 11
331.4999997694461
 21
140.7599998898016
 31
0.0
  0
LINE
  5
16E2B
330
1A
100
AcDbEntity
  8
0
100
AcDbLine
 10
331.4999997694461
 20
141.5999998898017
 30
0.0
 11
331.4999997694461
 21
141.5099998898015
 31
0.0
  0
LINE
  5
16E2C
330
1A
100
AcDbEntity
  8
0
100
AcDbLine
 10
331.4999997694461
 20
141.5999998898017
 30
0.0
 11
334.4999997694462
 21
141.5999998898017
 31
0.0
  0
LINE
  5
16E2D
330
1A
100
AcDbEntity
  8
0
100
AcDbLine
 10
331.4999997694461
 20
140.8499998898017
 30
0.0
 11
332.2499997694462
 21
140.8499998898017
 31
0.0
  0
LINE
  5
16E2E
330
1A
100
AcDbEntity
  8
0
100
AcDbLine
 10
333.7499997694461
 20
140.8499998898017
 30
0.0
 11
334.4999997694462
 21
140.8499998898017
 31
0.0
  0
LINE
  5
16E2F
330
1A
100
AcDbEntity
  8
0
100
AcDbLine
 10
332.6999997694462
 20
140.8499998898017
 30
0.0
 11
333.4499997694462
 21
140.8499998898017
 31
0.0
  0
LINE
  5
16E30
330
1A
100
AcDbEntity
  8
0
100
AcDbLine
 10
332.6999997694462
 20
140.7599998898016
 30
0.0
 11
333.4499997694462
 21
140.7599998898016
 31
0.0
  0
LINE
  5
16E31
330
1A
100
AcDbEntity
  8
0
100
AcDbLine
 10
333.7499997694461
 20
140.7599998898016
 30
0.0
 11
334.4999997694462
 21
140.7599998898016
 31
0.0
  0
LINE
  5
16E32
330
1A
100
AcDbEntity
  8
0
100
AcDbLine
 10
331.4999997694461
 20
140.7599998898016
 30
0.0
 11
332.2499997694462
 21
140.7599998898016
 31
0.0
  0
LINE
  5
16E33
330
1A
100
AcDbEntity
  8
0
100
AcDbLine
 10
331.4999997694461
 20
141.5099998898015
 30
0.0
 11
334.4999997694462
 21
141.5099998898015
 31
0.0
  0
TEXT
  5
16E34
330
1A
100
AcDbEntity
  8
0
100
AcDbText
 10
331.39
 20
144.5499999999999
 30
0.0
 40
2.5
  1
～
 41
1.5
 11
331.39
 21
145.7999999999999
 31
0.0
100
AcDbText
 73
     2
  0
TEXT
  5
16E35
330
1A
100
AcDbEntity
  8
0
100
AcDbText
 10
309.0
 20
132.8399999999999
 30
0.0
 40
2.5
  1
Option
 41
0.7
 11
309.0
 21
134.0899999999999
 31
0.0
100
AcDbText
 73
     2
  0
TEXT
  5
16E36
330
1A
100
AcDbEntity
  8
0
100
AcDbText
 10
322.7499999999999
 20
132.8399999999999
 30
0.0
 40
2.5
  1
4-20mA
 41
0.8
 11
322.7499999999999
 21
134.0899999999999
 31
0.0
100
AcDbText
 73
     2
  0
TEXT
  5
16E37
330
1A
100
AcDbEntity
  8
0
100
AcDbText
 10
340.7499999999999
 20
132.8399999999999
 30
0.0
 40
2.5
  1
±5V
 41
0.8
 11
340.7499999999999
 21
134.0899999999999
 31
0.0
100
AcDbText
 73
     2
  0
LINE
  5
16E38
102
{ACAD_REACTORS
330
16E41
102
}
330
1A
100
AcDbEntity
  8
0
100
AcDbLine
 10
339.9999999999999
 20
131.59
 30
0.0
 11
339.9999999999999
 21
136.5899999999999
 31
0.0
  0
LINE
  5
16E39
102
{ACAD_REACTORS
330
16E41
102
}
330
1A
100
AcDbEntity
  8
0
100
AcDbLine
 10
339.9999999999999
 20
136.5899999999999
 30
0.0
 11
336.4999999999999
 21
136.5899999999999
 31
0.0
  0
LINE
  5
16E3A
102
{ACAD_REACTORS
330
16E41
102
}
330
1A
100
AcDbEntity
  8
0
100
AcDbLine
 10
336.4999999999999
 20
136.5899999999999
 30
0.0
 11
336.4999999999999
 21
131.59
 31
0.0
  0
LINE
  5
16E3B
102
{ACAD_REACTORS
330
16E41
102
}
330
1A
100
AcDbEntity
  8
0
100
AcDbLine
 10
336.4999999999999
 20
131.59
 30
0.0
 11
339.9999999999999
 21
131.59
 31
0.0
  0
LINE
  5
16E3C
102
{ACAD_REACTORS
330
16E40
102
}
330
1A
100
AcDbEntity
  8
0
100
AcDbLine
 10
321.9999999999999
 20
131.59
 30
0.0
 11
321.9999999999999
 21
136.5899999999999
 31
0.0
  0
LINE
  5
16E3D
102
{ACAD_REACTORS
330
16E40
102
}
330
1A
100
AcDbEntity
  8
0
100
AcDbLine
 10
321.9999999999999
 20
136.5899999999999
 30
0.0
 11
318.4999999999999
 21
136.5899999999999
 31
0.0
  0
LINE
  5
16E3E
102
{ACAD_REACTORS
330
16E40
102
}
330
1A
100
AcDbEntity
  8
0
100
AcDbLine
 10
318.4999999999999
 20
136.5899999999999
 30
0.0
 11
318.4999999999999
 21
131.59
 31
0.0
  0
LINE
  5
16E3F
102
{ACAD_REACTORS
330
16E40
102
}
330
1A
100
AcDbEntity
  8
0
100
AcDbLine
 10
318.4999999999999
 20
131.59
 30
0.0
 11
321.9999999999999
 21
131.59
 31
0.0
  0
HATCH
  5
16E40
330
1A
100
AcDbEntity
  8
0
100
AcDbHatch
 10
0.0
 20
0.0
 30
0.0
210
0.0
220
0.0
230
1.0
  2
SOLID
 70
     1
 71
     1
 91
        1
 92
        7
 72
     0
 73
     1
 93
        4
 10
321.9999999999998
 20
136.59
 10
318.5
 20
136.59
 10
318.4999999999999
 20
131.59
 10
321.9999999999999
 20
131.59
 97
        4
330
16E3D
330
16E3E
330
16E3F
330
16E3C
 75
     0
 76
     1
 47
0.0729219769265488
 98
        1
 10
320.9999999999999
 20
134.3399999999999
  0
HATCH
  5
16E41
330
1A
100
AcDbEntity
  8
0
100
AcDbHatch
 10
0.0
 20
0.0
 30
0.0
210
0.0
220
0.0
230
1.0
  2
SOLID
 70
     1
 71
     1
 91
        1
 92
        7
 72
     0
 73
     1
 93
        4
 10
339.9999999999999
 20
136.5899999999999
 10
336.4999999999999
 20
136.5899999999999
 10
336.4999999999999
 20
131.59
 10
339.9999999999999
 20
131.59
 97
        4
330
16E39
330
16E3A
330
16E3B
330
16E38
 75
     0
 76
     1
 47
0.1756950555189362
 98
        1
 10
338.7499999999999
 20
134.59
  0
LINE
  5
16E42
102
{ACAD_REACTORS
330
16E47
102
}
330
1A
100
AcDbEntity
  8
0
100
AcDbLine
 10
348.5
 20
131.59
 30
0.0
 11
352.0
 21
131.59
 31
0.0
  0
LINE
  5
16E43
102
{ACAD_REACTORS
330
16E47
102
}
330
1A
100
AcDbEntity
  8
0
100
AcDbLine
 10
352.0
 20
136.5899999999999
 30
0.0
 11
348.5
 21
136.5899999999999
 31
0.0
  0
LINE
  5
16E44
102
{ACAD_REACTORS
330
16E47
102
}
330
1A
100
AcDbEntity
  8
0
100
AcDbLine
 10
348.5
 20
136.5899999999999
 30
0.0
 11
348.5
 21
131.59
 31
0.0
  0
TEXT
  5
16E45
330
1A
100
AcDbEntity
  8
0
100
AcDbText
 10
352.75
 20
132.8399999999999
 30
0.0
 40
2.5
  1
RS-232C
 41
0.8
 11
352.75
 21
134.0899999999999
 31
0.0
100
AcDbText
 73
     2
  0
LINE
  5
16E46
102
{ACAD_REACTORS
330
16E47
102
}
330
1A
100
AcDbEntity
  8
0
100
AcDbLine
 10
352.0
 20
131.59
 30
0.0
 11
352.0
 21
136.5899999999999
 31
0.0
  0
HATCH
  5
16E47
330
1A
100
AcDbEntity
  8
0
100
AcDbHatch
 10
0.0
 20
0.0
 30
0.0
210
0.0
220
0.0
230
1.0
  2
SOLID
 70
     1
 71
     1
 91
        1
 92
        7
 72
     0
 73
     1
 93
        4
 10
352.0
 20
136.5899999999999
 10
348.5
 20
136.5899999999999
 10
348.5
 20
131.59
 10
352.0
 20
131.59
 97
        4
330
16E43
330
16E44
330
16E42
330
16E46
 75
     0
 76
     1
 47
0.1756950555189362
 98
        1
 10
351.0
 20
134.3399999999999
  0
HATCH
  5
16E48
330
1A
100
AcDbEntity
  8
0
100
AcDbHatch
 10
0.0
 20
0.0
 30
0.0
210
0.0
220
0.0
230
1.0
  2
SOLID
 70
     1
 71
     1
 91
        1
 92
        7
 72
     0
 73
     1
 93
        4
 10
371.5
 20
136.5899999999999
 10
368.0
 20
136.5899999999999
 10
368.0
 20
131.59
 10
371.5
 20
131.59
 97
        4
330
16E4B
330
16E4A
330
16E49
330
16E4C
 75
     0
 76
     1
 47
0.1756950555189362
 98
        1
 10
370.25
 20
134.59
  0
LINE
  5
16E49
102
{ACAD_REACTORS
330
16E48
102
}
330
1A
100
AcDbEntity
  8
0
100
AcDbLine
 10
368.0
 20
131.59
 30
0.0
 11
371.5
 21
131.59
 31
0.0
  0
LINE
  5
16E4A
102
{ACAD_REACTORS
330
16E48
102
}
330
1A
100
AcDbEntity
  8
0
100
AcDbLine
 10
368.0
 20
136.5899999999999
 30
0.0
 11
368.0
 21
131.59
 31
0.0
  0
LINE
  5
16E4B
102
{ACAD_REACTORS
330
16E48
102
}
330
1A
100
AcDbEntity
  8
0
100
AcDbLine
 10
371.5
 20
136.5899999999999
 30
0.0
 11
368.0
 21
136.5899999999999
 31
0.0
  0
LINE
  5
16E4C
102
{ACAD_REACTORS
330
16E48
102
}
330
1A
100
AcDbEntity
  8
0
100
AcDbLine
 10
371.5
 20
131.59
 30
0.0
 11
371.5
 21
136.5899999999999
 31
0.0
  0
TEXT
  5
16E4D
330
1A
100
AcDbEntity
  8
0
100
AcDbText
 10
372.25
 20
132.8399999999999
 30
0.0
 40
2.5
  1
0-10V
 41
0.8
 11
372.25
 21
134.0899999999999
 31
0.0
100
AcDbText
 73
     2
  0
LINE
  5
16E7B
102
{ACAD_REACTORS
330
16EA3
102
}
330
1A
100
AcDbEntity
  8
0
100
AcDbLine
 10
306.0
 20
124.3
 30
0.0
 11
306.0
 21
197.3
 31
0.0
  0
LINE
  5
16E7C
102
{ACAD_REACTORS
330
16EA3
102
}
330
1A
100
AcDbEntity
  8
0
100
AcDbLine
 10
384.0
 20
124.3
 30
0.0
 11
384.0
 21
197.3
 31
0.0
  0
LINE
  5
16E7D
102
{ACAD_REACTORS
330
16EA3
102
}
330
1A
100
AcDbEntity
  8
0
100
AcDbLine
 10
384.0
 20
197.3
 30
0.0
 11
306.0
 21
197.3
 31
0.0
  0
LINE
  5
16E7E
102
{ACAD_REACTORS
330
16EA3
102
}
330
1A
100
AcDbEntity
  8
0
100
AcDbLine
 10
384.0
 20
124.3
 30
0.0
 11
306.0
 21
124.3
 31
0.0
  0
HATCH
  5
16EA3
330
1A
100
AcDbEntity
  8
0
100
AcDbHatch
 10
0.0
 20
0.0
 30
0.0
210
0.0
220
0.0
230
1.0
  2
SOLID
 70
     1
 71
     1
 91
        2
 92
        1
 93
        4
 72
     1
 10
384.0
 20
197.3
 11
306.0
 21
197.3
 72
     1
 10
306.0
 20
197.3
 11
306.0
 21
124.3
 72
     1
 10
306.0
 20
124.3
 11
384.0
 21
124.3
 72
     1
 10
384.0
 20
124.3
 11
384.0
 21
197.3
 97
        4
330
16E7D
330
16E7B
330
16E7E
330
16E7C
 92
       16
 93
        4
 72
     1
 10
307.0
 20
196.3
 11
307.0
 21
125.3
 72
     1
 10
307.0
 20
125.3
 11
383.0
 21
125.3
 72
     1
 10
383.0
 20
125.3
 11
383.0
 21
196.3
 72
     1
 10
383.0
 20
196.3
 11
307.0
 21
196.3
 97
        4
330
16D2B
330
16D38
330
16D2C
330
16D2A
 75
     0
 76
     1
 98
        1
 10
78.24999984781704
 20
109.299999990712
  0
LINE
  5
16EDB
330
1A
100
AcDbEntity
  8
SUNPOU
100
AcDbLine
 10
100.3399999875716
 20
90.5
 30
0.0
 11
100.3399999875716
 21
80.5
 31
0.0
  0
LINE
  5
16EDC
330
1A
100
AcDbEntity
  8
SUNPOU
100
AcDbLine
 10
114.3599999875715
 20
90.5
 30
0.0
 11
114.3599999875715
 21
80.5
 31
0.0
  0
LINE
  5
16EDE
330
1A
100
AcDbEntity
  8
SUNPOU
100
AcDbLine
 10
107.3499999875715
 20
90.5
 30
0.0
 11
107.3499999875715
 21
80.5
 31
0.0
  0
LINE
  5
16EDF
330
1A
100
AcDbEntity
  8
SUNPOU
100
AcDbLine
 10
100.3399999875715
 20
85.5
 30
0.0
 11
128.3799999875714
 21
85.5
 31
0.0
  0
LINE
  5
16EE0
330
1A
100
AcDbEntity
  8
SUNPOU
100
AcDbLine
 10
100.3399999875716
 20
90.5
 30
0.0
 11
128.3799999875714
 21
90.5
 31
0.0
  0
LINE
  5
16EE1
330
1A
100
AcDbEntity
  8
SUNPOU
100
AcDbLine
 10
100.3399999875715
 20
80.5
 30
0.0
 11
128.3799999875714
 21
80.5
 31
0.0
  0
LINE
  5
16EFE
330
1A
100
AcDbEntity
  8
SUNPOU
100
AcDbLine
 10
128.3799999875714
 20
90.5
 30
0.0
 11
128.3799999875714
 21
80.5
 31
0.0
  0
TEXT
  5
16F00
330
1A
100
AcDbEntity
  8
0
100
AcDbText
 10
115.1783333209048
 20
81.75
 30
0.0
 40
2.5
  1
DC model
 41
0.7
 72
     1
 11
121.3699999875714
 21
83.0
 31
0.0
100
AcDbText
 73
     2
  0
TEXT
  5
16F01
330
1A
100
AcDbEntity
  8
0
100
AcDbText
 10
109.3073809399524
 20
81.75
 30
0.0
 40
2.5
  1
-
 72
     1
 11
110.8549999875715
 21
83.0
 31
0.0
100
AcDbText
 73
     2
  0
TEXT
  5
16F02
330
1A
100
AcDbEntity
  8
0
100
AcDbText
 10
109.5454761780477
 20
86.75
 30
0.0
 40
2.5
  1
N
 72
     1
 11
110.8549999875715
 21
88.0
 31
0.0
100
AcDbText
 73
     2
  0
TEXT
  5
16F03
330
1A
100
AcDbEntity
  8
0
100
AcDbText
 10
102.2973809399525
 20
81.75
 30
0.0
 40
2.5
  1
+
 72
     1
 11
103.8449999875715
 21
83.0
 31
0.0
100
AcDbText
 73
     2
  0
TEXT
  5
16F04
330
1A
100
AcDbEntity
  8
0
100
AcDbText
 10
102.6545237970953
 20
86.75
 30
0.0
 40
2.5
  1
L
 72
     1
 11
103.8449999875715
 21
88.0
 31
0.0
100
AcDbText
 73
     2
  0
LINE
  5
16F24
330
1A
100
AcDbEntity
  8
0
100
AcDbLine
 10
90.0399999875716
 20
99.50000021554528
 30
0.0
 11
117.0399999875716
 21
99.50000021554528
 31
0.0
  0
LINE
  5
16F25
330
1A
100
AcDbEntity
  8
0
100
AcDbLine
 10
90.0399999875716
 20
99.00000021554527
 30
0.0
 11
117.0399999875716
 21
99.00000021554527
 31
0.0
  0
LINE
  5
16F26
330
1A
100
AcDbEntity
  8
0
100
AcDbLine
 10
90.0399999875716
 20
100.1000002155452
 30
0.0
 11
90.0399999875716
 21
99.00000021554527
 31
0.0
  0
LINE
  5
16F45
330
1A
100
AcDbEntity
  8
0
100
AcDbLine
 10
90.53999998757152
 20
101.1000002155452
 30
0.0
 11
90.53999998757152
 21
99.50000021554528
 31
0.0
  0
LINE
  5
16F46
330
1A
100
AcDbEntity
  8
0
100
AcDbLine
 10
116.5399999875715
 20
101.1000002155452
 30
0.0
 11
116.5399999875715
 21
99.50000021554528
 31
0.0
  0
TEXT
  5
1723D
330
1A
100
AcDbEntity
  8
WAKU
100
AcDbText
 10
287.5
 20
29.5
 30
0.0
 40
3.0
  1
設　計
 72
     4
 11
292.5
 21
31.0
 31
0.0
100
AcDbText
  0
TEXT
  5
1723E
330
1A
100
AcDbEntity
  8
WAKU
100
AcDbText
 10
302.6
 20
29.5
 30
0.0
 40
3.0
  1
検　図
 72
     4
 11
307.5
 21
31.0
 31
0.0
100
AcDbText
  0
TEXT
  5
17241
330
1A
100
AcDbEntity
  8
WAKU
100
AcDbText
 10
325.0
 20
29.5
 30
0.0
 40
3.0
  1
承　認
 72
     4
 11
330.0
 21
31.0
 31
0.0
100
AcDbText
  0
TEXT
  5
17242
330
1A
100
AcDbEntity
  8
WAKU
100
AcDbText
 10
317.5
 20
35.5
 30
0.0
 40
3.0
  1
名　称
 72
     4
 11
322.5
 21
37.0
 31
0.0
100
AcDbText
  0
INSERT
  5
1726A
330
1A
100
AcDbEntity
  8
0
100
AcDbBlockReference
  2
Side-plate
 10
299.5
 20
116.5
 30
0.0
 50
270.0
  0
INSERT
  5
1726B
330
1A
100
AcDbEntity
  8
0
100
AcDbBlockReference
  2
Side-plate
 10
390.5
 20
116.4999999999999
 30
0.0
 41
-1.0
 50
89.99999999999998
  0
TEXT
  5
17297
330
1A
100
AcDbEntity
  8
SUNPOU
100
AcDbText
 10
266.6999993187756
 20
119.6997474856069
 30
0.0
 40
2.999999994174451
  1
-0
 50
90.0
100
AcDbText
  0
TEXT
  5
17298
330
1A
100
AcDbEntity
  8
SUNPOU
100
AcDbText
 10
263.0999993257662
 20
119.6997474856069
 30
0.0
 40
2.999999994174451
  1
+1
 50
90.0
100
AcDbText
  0
LINE
  5
17299
330
1A
100
AcDbEntity
  8
0
100
AcDbLine
 10
257.6999998213499
 20
137.5000001262203
 30
0.0
 11
257.6999998213499
 21
93.50000021166165
 31
0.0
  0
DIMENSION
  5
1729A
330
1A
100
AcDbEntity
  8
SUNPOU
100
AcDbDimension
  2
*D11
 10
269.1693717610903
 20
93.50000021166165
 30
0.0
 11
266.1693717610902
 21
115.500000168941
 31
0.0
 70
    32
  1
44
 71
     5
 42
43.99999991455861
  3
STANDARD
100
AcDbAlignedDimension
 13
257.6999998213499
 23
137.5000001262203
 33
0.0
 14
257.6999998213499
 24
93.50000021166165
 34
0.0
 50
90.0
100
AcDbRotatedDimension
1001
ACAD
1000
DSTYLE
1002
{
1070
   140
1040
5.0
1070
    74
1070
     0
1070
    73
1070
     0
1070
   272
1070
     0
1070
    77
1070
     1
1070
   173
1070
     1
1070
   147
1040
0.5
1070
    42
1040
0.5
1070
    44
1040
0.5
1070
    43
1040
10.0
1070
   271
1070
     0
1070
   141
1040
0.0
1070
     7
1000
_OPEN
1070
     6
1000
_OPEN
1070
    41
1040
2.5
1002
}
  0
TEXT
  5
1729D
330
1A
100
AcDbEntity
  8
0
100
AcDbText
 10
198.8499999356277
 20
82.50000023302197
 30
0.0
 40
3.999999992232601
  1
Panel cut
100
AcDbText
  0
LINE
  5
1729E
330
1A
100
AcDbEntity
  8
0
100
AcDbLine
 10
165.7
 20
137.5000001262203
 30
0.0
 11
165.7
 21
93.50000021166165
 31
0.0
  0
LINE
  5
172A0
330
1A
100
AcDbEntity
  8
0
100
AcDbLine
 10
165.7
 20
93.50000021166165
 30
0.0
 11
257.6999998213499
 21
93.50000021166165
 31
0.0
  0
TEXT
  5
17389
330
1A
100
AcDbEntity
  8
0
100
AcDbText
 10
332.6500000249528
 20
82.50000023302197
 30
0.0
 40
3.999999992232601
  1
Top view
100
AcDbText
  0
LINE
  5
174F4
330
1A
100
AcDbEntity
  8
0
100
AcDbLine
 10
115.9999999875716
 20
195.97
 30
0.0
 11
115.9999999875716
 21
218.97
 31
0.0
  0
LINE
  5
174F5
330
1A
100
AcDbEntity
  8
0
100
AcDbLine
 10
115.9999999875716
 20
218.97
 30
0.0
 11
45.49999998757164
 21
218.97
 31
0.0
  0
LINE
  5
174F6
330
1A
100
AcDbEntity
  8
0
100
AcDbLine
 10
45.49999998757164
 20
195.97
 30
0.0
 11
45.49999998757164
 21
218.97
 31
0.0
  0
LINE
  5
174F7
330
1A
100
AcDbEntity
  8
0
100
AcDbLine
 10
115.9999999875716
 20
195.97
 30
0.0
 11
45.49999998757164
 21
195.97
 31
0.0
  0
LINE
  5
174F8
330
1A
100
AcDbEntity
  8
0
100
AcDbLine
 10
36.49999998757164
 20
226.5
 30
0.0
 11
132.4999999875716
 21
226.5
 31
0.0
  0
LINE
  5
174F9
330
1A
100
AcDbEntity
  8
0
100
AcDbLine
 10
36.49999998757164
 20
226.5
 30
0.0
 11
36.49999998757164
 21
178.5
 31
0.0
  0
LINE
  5
174FA
330
1A
100
AcDbEntity
  8
0
100
AcDbLine
 10
132.4999999875716
 20
226.5
 30
0.0
 11
132.4999999875716
 21
178.5
 31
0.0
  0
LINE
  5
174FB
330
1A
100
AcDbEntity
  8
0
100
AcDbLine
 10
36.49999998757164
 20
178.5
 30
0.0
 11
132.4999999875716
 21
178.5
 31
0.0
  0
TEXT
  5
174FC
330
1A
100
AcDbEntity
  8
0
100
AcDbText
 10
118.5714285590002
 20
197.97
 30
0.0
 40
4.0
  1
kg
 72
     1
 11
121.9999999875716
 21
199.97
 31
0.0
100
AcDbText
 73
     2
  0
TEXT
  5
174FD
330
1A
100
AcDbEntity
  8
0
100
AcDbText
 10
107.4523809399526
 20
221.0
 30
0.0
 40
2.5
  1
DLS-5028A
 72
     2
 11
128.9999999875716
 21
221.0
 31
0.0
100
AcDbText
 73
     1
  0
TEXT
  5
174FE
330
1A
100
AcDbEntity
  8
0
100
AcDbText
 10
47.59095236852405
 20
220.5
 30
0.0
 40
2.0
  1
SP1
 72
     1
 11
50.20999998757168
 21
220.5
 31
0.0
100
AcDbText
 73
     1
  0
TEXT
  5
174FF
330
1A
100
AcDbEntity
  8
0
100
AcDbText
 10
67.62523808280971
 20
220.5
 30
0.0
 40
2.0
  1
SP3
 72
     1
 11
70.52999998757162
 21
220.5
 31
0.0
100
AcDbText
 73
     1
  0
TEXT
  5
17500
330
1A
100
AcDbEntity
  8
0
100
AcDbText
 10
77.73761903519069
 20
220.5
 30
0.0
 40
2.0
  1
SP4
 72
     1
 11
80.68999998757163
 21
220.5
 31
0.0
100
AcDbText
 73
     1
  0
TEXT
  5
17501
330
1A
100
AcDbEntity
  8
0
100
AcDbText
 10
57.46523808280974
 20
220.5
 30
0.0
 40
2.0
  1
SP2
 72
     1
 11
60.36999998757164
 21
220.5
 31
0.0
100
AcDbText
 73
     1
  0
TEXT
  5
17503
330
1A
100
AcDbEntity
  8
0
100
AcDbText
 10
108.2380952256668
 20
181.0
 30
0.0
 40
2.5
  1
TOYO SOKKI
 72
     2
 11
129.4999999875716
 21
181.0
 31
0.0
100
AcDbText
 73
     1
  0
LINE
  5
17504
330
1A
100
AcDbEntity
  8
0
100
AcDbLine
 10
123.5599999875716
 20
185.8
 30
0.0
 11
123.5599999875716
 21
193.8
 31
0.0
  0
LINE
  5
17505
330
1A
100
AcDbEntity
  8
0
100
AcDbLine
 10
116.5599999875716
 20
185.8
 30
0.0
 11
116.5599999875716
 21
193.8
 31
0.0
  0
LINE
  5
17506
330
1A
100
AcDbEntity
  8
0
100
AcDbLine
 10
116.5599999875716
 20
185.8
 30
0.0
 11
117.0599999875716
 21
185.3
 31
0.0
  0
LINE
  5
17507
330
1A
100
AcDbEntity
  8
0
100
AcDbLine
 10
117.0599999875716
 20
185.3
 30
0.0
 11
123.0599999875716
 21
185.3
 31
0.0
  0
LINE
  5
17508
330
1A
100
AcDbEntity
  8
0
100
AcDbLine
 10
123.5599999875716
 20
185.8
 30
0.0
 11
123.0599999875716
 21
185.3
 31
0.0
  0
LINE
  5
17509
330
1A
100
AcDbEntity
  8
0
100
AcDbLine
 10
117.0599999875716
 20
194.3
 30
0.0
 11
116.5599999875716
 21
193.8
 31
0.0
  0
LINE
  5
1750A
330
1A
100
AcDbEntity
  8
0
100
AcDbLine
 10
117.0599999875716
 20
194.3
 30
0.0
 11
123.0599999875716
 21
194.3
 31
0.0
  0
LINE
  5
1750B
330
1A
100
AcDbEntity
  8
0
100
AcDbLine
 10
123.0599999875716
 20
194.3
 30
0.0
 11
123.5599999875716
 21
193.8
 31
0.0
  0
LWPOLYLINE
  5
1750C
330
1A
100
AcDbEntity
  8
0
100
AcDbPolyline
 90
       11
 70
     0
 43
0.0
 10
118.5599999875716
 20
192.05
 10
119.5599999875716
 20
193.05
 10
119.5599999875716
 20
192.55
 10
120.5599999875716
 20
192.55
 10
120.5599999875716
 20
193.55
 10
121.5599999875716
 20
193.55
 10
121.5599999875716
 20
192.05
 42
-0.4142135623730951
 10
121.0599999875716
 20
191.55
 10
119.5599999875716
 20
191.55
 10
119.5599999875716
 20
191.05
 10
118.5599999875716
 20
192.05
  0
CIRCLE
  5
1750D
330
1A
100
AcDbEntity
  8
0
100
AcDbCircle
 10
120.0599999875716
 20
188.3
 30
0.0
 40
2.0
  0
LINE
  5
1750E
330
1A
100
AcDbEntity
  8
0
100
AcDbLine
 10
113.3999999875716
 20
185.8
 30
0.0
 11
113.3999999875716
 21
193.8
 31
0.0
  0
LINE
  5
1750F
330
1A
100
AcDbEntity
  8
0
100
AcDbLine
 10
106.3999999875716
 20
185.8
 30
0.0
 11
106.3999999875716
 21
193.8
 31
0.0
  0
LINE
  5
17510
330
1A
100
AcDbEntity
  8
0
100
AcDbLine
 10
106.3999999875716
 20
185.8
 30
0.0
 11
106.8999999875716
 21
185.3
 31
0.0
  0
LINE
  5
17511
330
1A
100
AcDbEntity
  8
0
100
AcDbLine
 10
106.8999999875716
 20
185.3
 30
0.0
 11
112.8999999875716
 21
185.3
 31
0.0
  0
LINE
  5
17512
330
1A
100
AcDbEntity
  8
0
100
AcDbLine
 10
113.3999999875716
 20
185.8
 30
0.0
 11
112.8999999875716
 21
185.3
 31
0.0
  0
TEXT
  5
17513
330
1A
100
AcDbEntity
  8
0
100
AcDbText
 10
106.9952380828097
 20
191.3
 30
0.0
 40
2.0
  1
ESC
 72
     4
 11
109.8999999875716
 21
192.3
 31
0.0
100
AcDbText
  0
LINE
  5
17514
330
1A
100
AcDbEntity
  8
0
100
AcDbLine
 10
106.8999999875716
 20
194.3
 30
0.0
 11
106.3999999875716
 21
193.8
 31
0.0
  0
LINE
  5
17515
330
1A
100
AcDbEntity
  8
0
100
AcDbLine
 10
106.8999999875716
 20
194.3
 30
0.0
 11
112.8999999875716
 21
194.3
 31
0.0
  0
LINE
  5
17516
330
1A
100
AcDbEntity
  8
0
100
AcDbLine
 10
112.8999999875716
 20
194.3
 30
0.0
 11
113.3999999875716
 21
193.8
 31
0.0
  0
CIRCLE
  5
17517
330
1A
100
AcDbEntity
  8
0
100
AcDbCircle
 10
109.8999999875716
 20
188.3
 30
0.0
 40
2.0
  0
LINE
  5
17518
330
1A
100
AcDbEntity
  8
0
100
AcDbLine
 10
96.7399999875716
 20
194.3
 30
0.0
 11
96.23999998757161
 21
193.8
 31
0.0
  0
LINE
  5
17519
330
1A
100
AcDbEntity
  8
0
100
AcDbLine
 10
96.23999998757161
 20
185.8
 30
0.0
 11
96.7399999875716
 21
185.3
 31
0.0
  0
LINE
  5
1751A
330
1A
100
AcDbEntity
  8
0
100
AcDbLine
 10
96.23999998757161
 20
185.8
 30
0.0
 11
96.23999998757161
 21
193.8
 31
0.0
  0
LINE
  5
1751B
330
1A
100
AcDbEntity
  8
0
100
AcDbLine
 10
103.2399999875716
 20
185.8
 30
0.0
 11
103.2399999875716
 21
193.8
 31
0.0
  0
CIRCLE
  5
1751C
330
1A
100
AcDbEntity
  8
0
100
AcDbCircle
 10
99.73999998757161
 20
188.3
 30
0.0
 40
2.0
  0
LINE
  5
1751D
330
1A
100
AcDbEntity
  8
0
100
AcDbLine
 10
96.7399999875716
 20
185.3
 30
0.0
 11
102.7399999875716
 21
185.3
 31
0.0
  0
LINE
  5
1751E
330
1A
100
AcDbEntity
  8
0
100
AcDbLine
 10
103.2399999875716
 20
185.8
 30
0.0
 11
102.7399999875716
 21
185.3
 31
0.0
  0
LWPOLYLINE
  5
1751F
330
1A
100
AcDbEntity
  8
0
100
AcDbPolyline
 90
        4
 70
     0
 43
0.0
 10
99.73999998757161
 20
193.55
 10
98.23999998757161
 20
191.05
 10
101.2399999875716
 20
191.05
 10
99.73999998757161
 20
193.55
  0
LINE
  5
17520
330
1A
100
AcDbEntity
  8
0
100
AcDbLine
 10
96.7399999875716
 20
194.3
 30
0.0
 11
102.7399999875716
 21
194.3
 31
0.0
  0
LINE
  5
17521
330
1A
100
AcDbEntity
  8
0
100
AcDbLine
 10
102.7399999875716
 20
194.3
 30
0.0
 11
103.2399999875716
 21
193.8
 31
0.0
  0
LWPOLYLINE
  5
17522
330
1A
100
AcDbEntity
  8
0
100
AcDbPolyline
 90
        4
 70
     0
 43
0.0
 10
89.57999998757165
 20
191.05
 10
88.07999998757164
 20
193.55
 10
91.07999998757163
 20
193.55
 10
89.57999998757165
 20
191.05
  0
LINE
  5
17523
330
1A
100
AcDbEntity
  8
0
100
AcDbLine
 10
86.57999998757164
 20
194.3
 30
0.0
 11
86.07999998757163
 21
193.8
 31
0.0
  0
LINE
  5
17524
330
1A
100
AcDbEntity
  8
0
100
AcDbLine
 10
86.07999998757163
 20
185.8
 30
0.0
 11
86.57999998757164
 21
185.3
 31
0.0
  0
LINE
  5
17525
330
1A
100
AcDbEntity
  8
0
100
AcDbLine
 10
86.07999998757163
 20
185.8
 30
0.0
 11
86.07999998757163
 21
193.8
 31
0.0
  0
CIRCLE
  5
17526
330
1A
100
AcDbEntity
  8
0
100
AcDbCircle
 10
89.57999998757165
 20
188.3
 30
0.0
 40
2.0
  0
LINE
  5
17527
330
1A
100
AcDbEntity
  8
0
100
AcDbLine
 10
93.07999998757164
 20
185.8
 30
0.0
 11
93.07999998757164
 21
193.8
 31
0.0
  0
LINE
  5
17528
330
1A
100
AcDbEntity
  8
0
100
AcDbLine
 10
86.57999998757164
 20
185.3
 30
0.0
 11
92.57999998757163
 21
185.3
 31
0.0
  0
LINE
  5
17529
330
1A
100
AcDbEntity
  8
0
100
AcDbLine
 10
93.07999998757164
 20
185.8
 30
0.0
 11
92.57999998757163
 21
185.3
 31
0.0
  0
LINE
  5
1752A
330
1A
100
AcDbEntity
  8
0
100
AcDbLine
 10
86.57999998757164
 20
194.3
 30
0.0
 11
92.57999998757163
 21
194.3
 31
0.0
  0
LINE
  5
1752B
330
1A
100
AcDbEntity
  8
0
100
AcDbLine
 10
92.57999998757163
 20
194.3
 30
0.0
 11
93.07999998757164
 21
193.8
 31
0.0
  0
LWPOLYLINE
  5
1752C
330
1A
100
AcDbEntity
  8
0
100
AcDbPolyline
 90
        4
 70
     0
 43
0.0
 10
78.41999998757161
 20
193.8
 10
78.41999998757161
 20
190.8
 10
80.91999998757161
 20
192.3
 10
78.41999998757161
 20
193.8
  0
LINE
  5
1752D
330
1A
100
AcDbEntity
  8
0
100
AcDbLine
 10
76.41999998757161
 20
194.3
 30
0.0
 11
75.91999998757161
 21
193.8
 31
0.0
  0
LINE
  5
1752E
330
1A
100
AcDbEntity
  8
0
100
AcDbLine
 10
75.91999998757161
 20
185.8
 30
0.0
 11
76.41999998757161
 21
185.3
 31
0.0
  0
LINE
  5
1752F
330
1A
100
AcDbEntity
  8
0
100
AcDbLine
 10
75.91999998757161
 20
185.8
 30
0.0
 11
75.91999998757161
 21
193.8
 31
0.0
  0
LINE
  5
17530
330
1A
100
AcDbEntity
  8
0
100
AcDbLine
 10
82.91999998757161
 20
185.8
 30
0.0
 11
82.91999998757161
 21
193.8
 31
0.0
  0
LINE
  5
17531
330
1A
100
AcDbEntity
  8
0
100
AcDbLine
 10
76.41999998757161
 20
185.3
 30
0.0
 11
82.41999998757162
 21
185.3
 31
0.0
  0
CIRCLE
  5
17532
330
1A
100
AcDbEntity
  8
0
100
AcDbCircle
 10
79.41999998757161
 20
188.3
 30
0.0
 40
2.0
  0
LINE
  5
17533
330
1A
100
AcDbEntity
  8
0
100
AcDbLine
 10
82.91999998757161
 20
185.8
 30
0.0
 11
82.41999998757162
 21
185.3
 31
0.0
  0
LINE
  5
17534
330
1A
100
AcDbEntity
  8
0
100
AcDbLine
 10
76.41999998757161
 20
194.3
 30
0.0
 11
82.41999998757162
 21
194.3
 31
0.0
  0
LINE
  5
17535
330
1A
100
AcDbEntity
  8
0
100
AcDbLine
 10
82.41999998757162
 20
194.3
 30
0.0
 11
82.91999998757161
 21
193.8
 31
0.0
  0
CIRCLE
  5
17536
330
1A
100
AcDbEntity
  8
0
100
AcDbCircle
 10
69.25999998757164
 20
188.3
 30
0.0
 40
2.0
  0
LINE
  5
17537
330
1A
100
AcDbEntity
  8
0
100
AcDbLine
 10
66.25999998757165
 20
194.3
 30
0.0
 11
65.75999998757165
 21
193.8
 31
0.0
  0
LINE
  5
17538
330
1A
100
AcDbEntity
  8
0
100
AcDbLine
 10
65.75999998757165
 20
185.8
 30
0.0
 11
66.25999998757165
 21
185.3
 31
0.0
  0
LINE
  5
17539
330
1A
100
AcDbEntity
  8
0
100
AcDbLine
 10
65.75999998757165
 20
185.8
 30
0.0
 11
65.75999998757165
 21
193.8
 31
0.0
  0
LINE
  5
1753A
330
1A
100
AcDbEntity
  8
0
100
AcDbLine
 10
72.75999998757164
 20
185.8
 30
0.0
 11
72.75999998757164
 21
193.8
 31
0.0
  0
LWPOLYLINE
  5
1753B
330
1A
100
AcDbEntity
  8
0
100
AcDbPolyline
 90
        4
 70
     0
 43
0.0
 10
70.25999998757164
 20
193.8
 10
70.25999998757164
 20
190.8
 10
67.75999998757164
 20
192.3
 10
70.25999998757164
 20
193.8
  0
LINE
  5
1753C
330
1A
100
AcDbEntity
  8
0
100
AcDbLine
 10
66.25999998757165
 20
185.3
 30
0.0
 11
72.25999998757164
 21
185.3
 31
0.0
  0
LINE
  5
1753D
330
1A
100
AcDbEntity
  8
0
100
AcDbLine
 10
72.75999998757164
 20
185.8
 30
0.0
 11
72.25999998757164
 21
185.3
 31
0.0
  0
LINE
  5
1753E
330
1A
100
AcDbEntity
  8
0
100
AcDbLine
 10
66.25999998757165
 20
194.3
 30
0.0
 11
72.25999998757164
 21
194.3
 31
0.0
  0
LINE
  5
1753F
330
1A
100
AcDbEntity
  8
0
100
AcDbLine
 10
72.25999998757164
 20
194.3
 30
0.0
 11
72.75999998757164
 21
193.8
 31
0.0
  0
LINE
  5
17540
330
1A
100
AcDbEntity
  8
0
100
AcDbLine
 10
62.09999998757161
 20
194.3
 30
0.0
 11
56.0999999875716
 21
194.3
 31
0.0
  0
LINE
  5
17541
330
1A
100
AcDbEntity
  8
0
100
AcDbLine
 10
55.5999999875716
 20
193.8
 30
0.0
 11
56.0999999875716
 21
194.3
 31
0.0
  0
LINE
  5
17542
330
1A
100
AcDbEntity
  8
0
100
AcDbLine
 10
62.09999998757161
 20
185.3
 30
0.0
 11
56.0999999875716
 21
185.3
 31
0.0
  0
CIRCLE
  5
17543
330
1A
100
AcDbEntity
  8
0
100
AcDbCircle
 10
59.09999998757161
 20
188.3
 30
0.0
 40
2.0
  0
LINE
  5
17544
330
1A
100
AcDbEntity
  8
0
100
AcDbLine
 10
62.59999998757161
 20
193.8
 30
0.0
 11
62.59999998757161
 21
185.8
 31
0.0
  0
LINE
  5
17545
330
1A
100
AcDbEntity
  8
0
100
AcDbLine
 10
62.59999998757161
 20
193.8
 30
0.0
 11
62.09999998757161
 21
194.3
 31
0.0
  0
LINE
  5
17546
330
1A
100
AcDbEntity
  8
0
100
AcDbLine
 10
59.79999998757159
 20
191.3
 30
0.0
 11
60.39999998757162
 21
191.3
 31
0.0
  0
LINE
  5
17547
330
1A
100
AcDbEntity
  8
0
100
AcDbLine
 10
59.79999998757159
 20
191.3
 30
0.0
 11
60.09999998757161
 21
191.8999999999999
 31
0.0
  0
ELLIPSE
  5
17548
330
1A
100
AcDbEntity
  8
0
100
AcDbEllipse
 10
59.09999998757161
 20
192.3
 30
0.0
 11
-1.5
 21
0.0000000000000005
 31
0.0
210
0.0
220
0.0
230
1.0
 40
0.7453559924999299
 41
2.031964065796924
 42
7.392813894972616
  0
LINE
  5
17549
330
1A
100
AcDbEntity
  8
0
100
AcDbLine
 10
62.09999998757161
 20
185.3
 30
0.0
 11
62.59999998757161
 21
185.8
 31
0.0
  0
LINE
  5
1754A
330
1A
100
AcDbEntity
  8
0
100
AcDbLine
 10
55.5999999875716
 20
193.8
 30
0.0
 11
55.5999999875716
 21
185.8
 31
0.0
  0
LINE
  5
1754B
330
1A
100
AcDbEntity
  8
0
100
AcDbLine
 10
56.0999999875716
 20
185.3
 30
0.0
 11
55.5999999875716
 21
185.8
 31
0.0
  0
ELLIPSE
  5
1754C
330
1A
100
AcDbEntity
  8
0
100
AcDbEllipse
 10
48.93999998757164
 20
192.3
 30
0.0
 11
-1.5
 21
0.0000000000000005
 31
0.0
210
0.0
220
0.0
230
1.0
 40
0.7453559924999299
 41
2.031964065796924
 42
7.392813894972616
  0
LINE
  5
1754D
330
1A
100
AcDbEntity
  8
0
100
AcDbLine
 10
51.93999998757163
 20
194.3
 30
0.0
 11
45.93999998757164
 21
194.3
 31
0.0
  0
LINE
  5
1754E
330
1A
100
AcDbEntity
  8
0
100
AcDbLine
 10
51.93999998757163
 20
185.3
 30
0.0
 11
45.93999998757164
 21
185.3
 31
0.0
  0
CIRCLE
  5
1754F
330
1A
100
AcDbEntity
  8
0
100
AcDbCircle
 10
48.93999998757164
 20
188.3
 30
0.0
 40
2.0
  0
LINE
  5
17550
330
1A
100
AcDbEntity
  8
0
100
AcDbLine
 10
52.43999998757164
 20
193.8
 30
0.0
 11
52.43999998757164
 21
185.8
 31
0.0
  0
LINE
  5
17551
330
1A
100
AcDbEntity
  8
0
100
AcDbLine
 10
52.43999998757164
 20
193.8
 30
0.0
 11
51.93999998757163
 21
194.3
 31
0.0
  0
LINE
  5
17552
330
1A
100
AcDbEntity
  8
0
100
AcDbLine
 10
49.63999998757163
 20
191.3
 30
0.0
 11
50.23999998757165
 21
191.3
 31
0.0
  0
LINE
  5
17553
330
1A
100
AcDbEntity
  8
0
100
AcDbLine
 10
49.63999998757163
 20
191.3
 30
0.0
 11
49.93999998757164
 21
191.8999999999999
 31
0.0
  0
LINE
  5
17554
330
1A
100
AcDbEntity
  8
0
100
AcDbLine
 10
51.93999998757163
 20
185.3
 30
0.0
 11
52.43999998757164
 21
185.8
 31
0.0
  0
LINE
  5
17555
330
1A
100
AcDbEntity
  8
0
100
AcDbLine
 10
45.43999998757164
 20
193.8
 30
0.0
 11
45.43999998757164
 21
185.8
 31
0.0
  0
LINE
  5
17556
330
1A
100
AcDbEntity
  8
0
100
AcDbLine
 10
45.43999998757164
 20
193.8
 30
0.0
 11
45.93999998757164
 21
194.3
 31
0.0
  0
LINE
  5
17557
330
1A
100
AcDbEntity
  8
0
100
AcDbLine
 10
45.93999998757164
 20
185.3
 30
0.0
 11
45.43999998757164
 21
185.8
 31
0.0
  0
TEXT
  5
17558
330
1A
100
AcDbEntity
  8
0
100
AcDbText
 10
44.7971428447145
 20
181.8
 30
0.0
 40
2.0
  1
MENU
 72
     1
 11
48.93999998757164
 21
183.8
 31
0.0
100
AcDbText
 73
     3
  0
TEXT
  5
17559
330
1A
100
AcDbEntity
  8
0
100
AcDbText
 10
55.90952379709541
 20
181.8
 30
0.0
 40
2.0
  1
ITEM
 72
     1
 11
59.09999998757161
 21
183.8
 31
0.0
100
AcDbText
 73
     3
  0
TEXT
  5
1755A
330
1A
100
AcDbEntity
  8
0
100
AcDbText
 10
76.22952379709542
 20
181.8000000000001
 30
0.0
 40
2.0
  1
AZ.R
 72
     1
 11
79.41999998757161
 21
183.8
 31
0.0
100
AcDbText
 73
     3
  0
TEXT
  5
1755B
330
1A
100
AcDbEntity
  8
0
100
AcDbText
 10
67.54571427328594
 20
181.8
 30
0.0
 40
2.0
  1
AZ
 72
     1
 11
69.25999998757164
 21
183.8
 31
0.0
100
AcDbText
 73
     3
  0
TEXT
  5
1755C
330
1A
100
AcDbEntity
  8
0
100
AcDbText
 10
87.67523808280975
 20
181.8
 30
0.0
 40
2.0
  1
PT
 72
     1
 11
89.57999998757165
 21
183.8
 31
0.0
100
AcDbText
 73
     3
  0
CIRCLE
  5
1755D
330
1A
100
AcDbEntity
  8
0
100
AcDbCircle
 10
50.20999998757168
 20
216.36
 30
0.0
 40
1.5
  0
CIRCLE
  5
1755E
330
1A
100
AcDbEntity
  8
0
100
AcDbCircle
 10
60.36999998757164
 20
216.36
 30
0.0
 40
1.5
  0
CIRCLE
  5
1755F
330
1A
100
AcDbEntity
  8
0
100
AcDbCircle
 10
70.52999998757162
 20
216.36
 30
0.0
 40
1.5
  0
CIRCLE
  5
17560
330
1A
100
AcDbEntity
  8
0
100
AcDbCircle
 10
80.68999998757163
 20
216.36
 30
0.0
 40
1.5
  0
CIRCLE
  5
17561
330
1A
100
AcDbEntity
  8
0
100
AcDbCircle
 10
101.0099999875716
 20
216.36
 30
0.0
 40
1.5
  0
CIRCLE
  5
17562
330
1A
100
AcDbEntity
  8
0
100
AcDbCircle
 10
90.84999998757167
 20
216.36
 30
0.0
 40
1.5
  0
CIRCLE
  5
17567
330
1A
100
AcDbEntity
  8
0
100
AcDbCircle
 10
111.1699999875716
 20
216.36
 30
0.0
 40
1.5
  0
LINE
  5
17568
330
1A
100
AcDbEntity
  8
0
100
AcDbLine
 10
85.00644236187884
 20
211.445
 30
0.0
 11
85.2456081855189
 21
211.1533170845945
 31
0.0
  0
LINE
  5
17569
330
1A
100
AcDbEntity
  8
0
100
AcDbLine
 10
84.27102882272995
 20
209.9439257139257
 30
0.0
 11
85.43583756244155
 21
210.9213162978098
 31
0.0
  0
LINE
  5
1756A
330
1A
100
AcDbEntity
  8
0
100
AcDbLine
 10
84.04394267747921
 20
210.145
 30
0.0
 11
85.24560818551893
 21
211.1533170845946
 31
0.0
  0
LINE
  5
1756B
330
1A
100
AcDbEntity
  8
0
100
AcDbLine
 10
85.43583756244151
 20
210.9213162978098
 30
0.0
 11
85.67941793514199
 21
210.6242494670919
 31
0.0
  0
LINE
  5
1756C
330
1A
100
AcDbEntity
  8
0
100
AcDbLine
 10
77.85772641896125
 20
210.9332800680645
 30
0.0
 11
78.695505631456
 21
209.9348536817731
 31
0.0
  0
LINE
  5
1756D
330
1A
100
AcDbEntity
  8
0
100
AcDbLine
 10
78.08753975189694
 20
211.1261163509704
 30
0.0
 11
78.9107941201382
 21
210.145
 31
0.0
  0
LINE
  5
1756E
330
1A
100
AcDbEntity
  8
0
100
AcDbLine
 10
77.47830516539813
 20
210.6149078341388
 30
0.0
 11
77.85772641896125
 21
210.9332800680645
 31
0.0
  0
LINE
  5
1756F
330
1A
100
AcDbEntity
  8
0
100
AcDbLine
 10
78.08753975189691
 20
211.1261163509704
 30
0.0
 11
78.46757048624749
 21
211.445
 31
0.0
  0
LINE
  5
17570
330
1A
100
AcDbEntity
  8
0
100
AcDbLine
 10
78.46757048624749
 20
211.445
 30
0.0
 11
85.00644236187881
 21
211.445
 31
0.0
  0
LINE
  5
17571
330
1A
100
AcDbEntity
  8
0
100
AcDbLine
 10
78.91079412013818
 20
210.145
 30
0.0
 11
84.04394267747917
 21
210.145
 31
0.0
  0
LINE
  5
17572
330
1A
100
AcDbEntity
  8
0
100
AcDbLine
 10
83.3657755025362
 20
203.5027136483312
 30
0.0
 11
84.09906445104983
 21
204.1180161345754
 31
0.0
  0
LINE
  5
17573
330
1A
100
AcDbEntity
  8
0
100
AcDbLine
 10
83.06862862525646
 20
203.645
 30
0.0
 11
83.90622816814385
 21
204.3478294675111
 31
0.0
  0
LINE
  5
17574
330
1A
100
AcDbEntity
  8
0
100
AcDbLine
 10
84.09906445104983
 20
204.1180161345754
 30
0.0
 11
84.6694864634826
 21
203.4382136519638
 31
0.0
  0
LINE
  5
17575
330
1A
100
AcDbEntity
  8
0
100
AcDbLine
 10
83.40514259458245
 20
204.945
 30
0.0
 11
83.90622816814389
 21
204.3478294675111
 31
0.0
  0
LINE
  5
17576
330
1A
100
AcDbEntity
  8
0
100
AcDbLine
 10
83.60122636788887
 20
205.1780336067708
 30
0.0
 11
84.13604150107955
 21
204.540665750417
 31
0.0
  0
LINE
  5
17577
330
1A
100
AcDbEntity
  8
0
100
AcDbLine
 10
84.13604150107955
 20
204.540665750417
 30
0.0
 11
84.91645887657725
 21
205.1955136823615
 31
0.0
  0
LINE
  5
17578
330
1A
100
AcDbEntity
  8
0
100
AcDbLine
 10
77.19539821895574
 20
204.1008425753765
 30
0.0
 11
77.77800757400232
 21
203.4065157834207
 31
0.0
  0
LINE
  5
17579
330
1A
100
AcDbEntity
  8
0
100
AcDbLine
 10
77.2323752689854
 20
204.5234921912181
 30
0.0
 11
78.02892352421003
 21
205.1918755383919
 31
0.0
  0
LINE
  5
1757A
330
1A
100
AcDbEntity
  8
0
100
AcDbLine
 10
76.70974747840856
 20
205.1463357382277
 30
0.0
 11
77.2323752689854
 21
204.5234921912181
 31
0.0
  0
LINE
  5
1757B
330
1A
100
AcDbEntity
  8
0
100
AcDbLine
 10
77.42521155189141
 20
204.2936788582824
 30
0.0
 11
77.96951774262865
 21
203.645
 31
0.0
  0
LINE
  5
1757C
330
1A
100
AcDbEntity
  8
0
100
AcDbLine
 10
76.47824015016897
 20
203.4990755043617
 30
0.0
 11
77.19539821895574
 21
204.1008425753765
 31
0.0
  0
LINE
  5
1757D
330
1A
100
AcDbEntity
  8
0
100
AcDbLine
 10
77.42521155189137
 20
204.2936788582824
 30
0.0
 11
78.20142586246589
 21
204.945
 31
0.0
  0
LINE
  5
1757E
330
1A
100
AcDbEntity
  8
0
100
AcDbLine
 10
78.20142586246589
 20
204.945
 30
0.0
 11
83.40514259458249
 21
204.945
 31
0.0
  0
LINE
  5
1757F
330
1A
100
AcDbEntity
  8
0
100
AcDbLine
 10
77.96951774262865
 20
203.645
 30
0.0
 11
83.06862862525646
 21
203.645
 31
0.0
  0
LINE
  5
17580
330
1A
100
AcDbEntity
  8
0
100
AcDbLine
 10
85.67941793514199
 20
210.6242494670919
 30
0.0
 11
84.91645887657725
 21
205.1955136823615
 31
0.0
  0
LINE
  5
17581
330
1A
100
AcDbEntity
  8
0
100
AcDbLine
 10
84.27102882272995
 20
209.9439257139257
 30
0.0
 11
83.60122636788887
 21
205.1780336067708
 31
0.0
  0
LINE
  5
17582
330
1A
100
AcDbEntity
  8
0
100
AcDbLine
 10
77.4783051653981
 20
210.6149078341388
 30
0.0
 11
76.70974747840853
 21
205.1463357382277
 31
0.0
  0
LINE
  5
17583
330
1A
100
AcDbEntity
  8
0
100
AcDbLine
 10
78.695505631456
 20
209.9348536817731
 30
0.0
 11
78.02892352421003
 21
205.1918755383919
 31
0.0
  0
LINE
  5
17584
330
1A
100
AcDbEntity
  8
0
100
AcDbLine
 10
82.90841665237863
 20
197.325
 30
0.0
 11
83.28844716676954
 21
197.6438834644615
 31
0.0
  0
LINE
  5
17585
330
1A
100
AcDbEntity
  8
0
100
AcDbLine
 10
82.46519264365728
 20
198.625
 30
0.0
 11
83.28844716676954
 21
197.6438834644615
 31
0.0
  0
LINE
  5
17586
330
1A
100
AcDbEntity
  8
0
100
AcDbLine
 10
82.70558675249294
 20
198.8052266052146
 30
0.0
 11
83.51826049970521
 21
197.8367197473674
 31
0.0
  0
LINE
  5
17587
330
1A
100
AcDbEntity
  8
0
100
AcDbLine
 10
83.51826049970521
 20
197.8367197473674
 30
0.0
 11
83.93091075599619
 21
198.1829744252264
 31
0.0
  0
CIRCLE
  5
17588
330
1A
100
AcDbEntity
  8
0
100
AcDbCircle
 10
85.53935892467967
 20
197.8863399440546
 30
0.0
 40
0.85
  0
LINE
  5
17589
330
1A
100
AcDbEntity
  8
0
100
AcDbLine
 10
75.73744918840532
 20
198.2280739244127
 30
0.0
 11
75.99333798262458
 21
197.9159959344163
 31
0.0
  0
LINE
  5
1758A
330
1A
100
AcDbEntity
  8
0
100
AcDbLine
 10
76.18356735954723
 20
197.6839951476314
 30
0.0
 11
76.47792594426841
 21
197.325
 31
0.0
  0
LINE
  5
1758B
330
1A
100
AcDbEntity
  8
0
100
AcDbLine
 10
76.18356735954719
 20
197.6839951476314
 30
0.0
 11
77.30501327300595
 21
198.625
 31
0.0
  0
LINE
  5
1758C
330
1A
100
AcDbEntity
  8
0
100
AcDbLine
 10
75.99333798262458
 20
197.9159959344163
 30
0.0
 11
77.14180100623519
 21
198.8796708339487
 31
0.0
  0
LINE
  5
1758D
330
1A
100
AcDbEntity
  8
0
100
AcDbLine
 10
76.47792594426841
 20
197.325
 30
0.0
 11
82.90841665237863
 21
197.325
 31
0.0
  0
LINE
  5
1758E
330
1A
100
AcDbEntity
  8
0
100
AcDbLine
 10
77.30501327300593
 20
198.625
 30
0.0
 11
82.46519264365728
 21
198.625
 31
0.0
  0
LINE
  5
1758F
330
1A
100
AcDbEntity
  8
0
100
AcDbLine
 10
84.6694864634826
 20
203.4382136519638
 30
0.0
 11
83.93091075599619
 21
198.1829744252264
 31
0.0
  0
LINE
  5
17590
330
1A
100
AcDbEntity
  8
0
100
AcDbLine
 10
76.47824015016897
 20
203.4990755043617
 30
0.0
 11
75.73744918840532
 21
198.2280739244127
 31
0.0
  0
LINE
  5
17591
330
1A
100
AcDbEntity
  8
0
100
AcDbLine
 10
77.77800757400228
 20
203.4065157834207
 30
0.0
 11
77.14180100623519
 21
198.8796708339487
 31
0.0
  0
LINE
  5
17592
330
1A
100
AcDbEntity
  8
0
100
AcDbLine
 10
83.3657755025362
 20
203.5027136483312
 30
0.0
 11
82.7055867524929
 21
198.8052266052146
 31
0.0
  0
LINE
  5
17593
330
1A
100
AcDbEntity
  8
0
100
AcDbLine
 10
71.67144236187884
 20
211.445
 30
0.0
 11
71.91060818551891
 21
211.1533170845945
 31
0.0
  0
LINE
  5
17594
330
1A
100
AcDbEntity
  8
0
100
AcDbLine
 10
70.93602882272996
 20
209.9439257139257
 30
0.0
 11
72.10083756244156
 21
210.9213162978098
 31
0.0
  0
LINE
  5
17595
330
1A
100
AcDbEntity
  8
0
100
AcDbLine
 10
70.70894267747921
 20
210.145
 30
0.0
 11
71.91060818551894
 21
211.1533170845946
 31
0.0
  0
LINE
  5
17596
330
1A
100
AcDbEntity
  8
0
100
AcDbLine
 10
72.10083756244152
 20
210.9213162978098
 30
0.0
 11
72.344417935142
 21
210.6242494670919
 31
0.0
  0
LINE
  5
17597
330
1A
100
AcDbEntity
  8
0
100
AcDbLine
 10
64.52272641896126
 20
210.9332800680645
 30
0.0
 11
65.360505631456
 21
209.9348536817731
 31
0.0
  0
LINE
  5
17598
330
1A
100
AcDbEntity
  8
0
100
AcDbLine
 10
64.75253975189694
 20
211.1261163509704
 30
0.0
 11
65.57579412013821
 21
210.145
 31
0.0
  0
LINE
  5
17599
330
1A
100
AcDbEntity
  8
0
100
AcDbLine
 10
64.14330516539813
 20
210.6149078341388
 30
0.0
 11
64.52272641896126
 21
210.9332800680645
 31
0.0
  0
LINE
  5
1759A
330
1A
100
AcDbEntity
  8
0
100
AcDbLine
 10
64.75253975189692
 20
211.1261163509704
 30
0.0
 11
65.1325704862475
 21
211.445
 31
0.0
  0
LINE
  5
1759B
330
1A
100
AcDbEntity
  8
0
100
AcDbLine
 10
65.1325704862475
 20
211.445
 30
0.0
 11
71.67144236187882
 21
211.445
 31
0.0
  0
LINE
  5
1759C
330
1A
100
AcDbEntity
  8
0
100
AcDbLine
 10
65.57579412013819
 20
210.145
 30
0.0
 11
70.70894267747918
 21
210.145
 31
0.0
  0
LINE
  5
1759D
330
1A
100
AcDbEntity
  8
0
100
AcDbLine
 10
70.0307755025362
 20
203.5027136483312
 30
0.0
 11
70.76406445104983
 21
204.1180161345754
 31
0.0
  0
LINE
  5
1759E
330
1A
100
AcDbEntity
  8
0
100
AcDbLine
 10
69.73362862525646
 20
203.645
 30
0.0
 11
70.57122816814386
 21
204.3478294675111
 31
0.0
  0
LINE
  5
1759F
330
1A
100
AcDbEntity
  8
0
100
AcDbLine
 10
70.76406445104983
 20
204.1180161345754
 30
0.0
 11
71.3344864634826
 21
203.4382136519638
 31
0.0
  0
LINE
  5
175A0
330
1A
100
AcDbEntity
  8
0
100
AcDbLine
 10
70.07014259458246
 20
204.945
 30
0.0
 11
70.57122816814389
 21
204.3478294675111
 31
0.0
  0
LINE
  5
175A1
330
1A
100
AcDbEntity
  8
0
100
AcDbLine
 10
70.26622636788887
 20
205.1780336067708
 30
0.0
 11
70.80104150107955
 21
204.540665750417
 31
0.0
  0
LINE
  5
175A2
330
1A
100
AcDbEntity
  8
0
100
AcDbLine
 10
70.80104150107955
 20
204.540665750417
 30
0.0
 11
71.58145887657726
 21
205.1955136823615
 31
0.0
  0
LINE
  5
175A3
330
1A
100
AcDbEntity
  8
0
100
AcDbLine
 10
63.86039821895575
 20
204.1008425753765
 30
0.0
 11
64.44300757400232
 21
203.4065157834207
 31
0.0
  0
LINE
  5
175A4
330
1A
100
AcDbEntity
  8
0
100
AcDbLine
 10
63.89737526898541
 20
204.5234921912181
 30
0.0
 11
64.69392352421003
 21
205.1918755383919
 31
0.0
  0
LINE
  5
175A5
330
1A
100
AcDbEntity
  8
0
100
AcDbLine
 10
63.37474747840857
 20
205.1463357382277
 30
0.0
 11
63.89737526898541
 21
204.5234921912181
 31
0.0
  0
LINE
  5
175A6
330
1A
100
AcDbEntity
  8
0
100
AcDbLine
 10
64.09021155189141
 20
204.2936788582824
 30
0.0
 11
64.63451774262866
 21
203.645
 31
0.0
  0
LINE
  5
175A7
330
1A
100
AcDbEntity
  8
0
100
AcDbLine
 10
63.14324015016897
 20
203.4990755043617
 30
0.0
 11
63.86039821895575
 21
204.1008425753765
 31
0.0
  0
LINE
  5
175A8
330
1A
100
AcDbEntity
  8
0
100
AcDbLine
 10
64.09021155189138
 20
204.2936788582824
 30
0.0
 11
64.8664258624659
 21
204.945
 31
0.0
  0
LINE
  5
175A9
330
1A
100
AcDbEntity
  8
0
100
AcDbLine
 10
64.8664258624659
 20
204.945
 30
0.0
 11
70.07014259458249
 21
204.945
 31
0.0
  0
LINE
  5
175AA
330
1A
100
AcDbEntity
  8
0
100
AcDbLine
 10
64.63451774262866
 20
203.645
 30
0.0
 11
69.73362862525646
 21
203.645
 31
0.0
  0
LINE
  5
175AB
330
1A
100
AcDbEntity
  8
0
100
AcDbLine
 10
72.344417935142
 20
210.6242494670919
 30
0.0
 11
71.58145887657726
 21
205.1955136823615
 31
0.0
  0
LINE
  5
175AC
330
1A
100
AcDbEntity
  8
0
100
AcDbLine
 10
70.93602882272996
 20
209.9439257139257
 30
0.0
 11
70.26622636788887
 21
205.1780336067708
 31
0.0
  0
LINE
  5
175AD
330
1A
100
AcDbEntity
  8
0
100
AcDbLine
 10
64.1433051653981
 20
210.6149078341388
 30
0.0
 11
63.37474747840854
 21
205.1463357382277
 31
0.0
  0
LINE
  5
175AE
330
1A
100
AcDbEntity
  8
0
100
AcDbLine
 10
65.360505631456
 20
209.9348536817731
 30
0.0
 11
64.69392352421003
 21
205.1918755383919
 31
0.0
  0
LINE
  5
175AF
330
1A
100
AcDbEntity
  8
0
100
AcDbLine
 10
69.57341665237864
 20
197.325
 30
0.0
 11
69.95344716676955
 21
197.6438834644615
 31
0.0
  0
LINE
  5
175B0
330
1A
100
AcDbEntity
  8
0
100
AcDbLine
 10
69.13019264365728
 20
198.625
 30
0.0
 11
69.95344716676955
 21
197.6438834644615
 31
0.0
  0
LINE
  5
175B1
330
1A
100
AcDbEntity
  8
0
100
AcDbLine
 10
69.37058675249294
 20
198.8052266052146
 30
0.0
 11
70.18326049970522
 21
197.8367197473674
 31
0.0
  0
LINE
  5
175B2
330
1A
100
AcDbEntity
  8
0
100
AcDbLine
 10
70.18326049970522
 20
197.8367197473674
 30
0.0
 11
70.5959107559962
 21
198.1829744252264
 31
0.0
  0
CIRCLE
  5
175B3
330
1A
100
AcDbEntity
  8
0
100
AcDbCircle
 10
72.20435892467968
 20
197.8863399440546
 30
0.0
 40
0.85
  0
LINE
  5
175B4
330
1A
100
AcDbEntity
  8
0
100
AcDbLine
 10
62.40244918840533
 20
198.2280739244127
 30
0.0
 11
62.65833798262459
 21
197.9159959344163
 31
0.0
  0
LINE
  5
175B5
330
1A
100
AcDbEntity
  8
0
100
AcDbLine
 10
62.84856735954723
 20
197.6839951476314
 30
0.0
 11
63.14292594426841
 21
197.325
 31
0.0
  0
LINE
  5
175B6
330
1A
100
AcDbEntity
  8
0
100
AcDbLine
 10
62.8485673595472
 20
197.6839951476314
 30
0.0
 11
63.97001327300596
 21
198.625
 31
0.0
  0
LINE
  5
175B7
330
1A
100
AcDbEntity
  8
0
100
AcDbLine
 10
62.65833798262459
 20
197.9159959344163
 30
0.0
 11
63.8068010062352
 21
198.8796708339487
 31
0.0
  0
LINE
  5
175B8
330
1A
100
AcDbEntity
  8
0
100
AcDbLine
 10
63.14292594426841
 20
197.325
 30
0.0
 11
69.57341665237864
 21
197.325
 31
0.0
  0
LINE
  5
175B9
330
1A
100
AcDbEntity
  8
0
100
AcDbLine
 10
63.97001327300593
 20
198.625
 30
0.0
 11
69.13019264365728
 21
198.625
 31
0.0
  0
LINE
  5
175BA
330
1A
100
AcDbEntity
  8
0
100
AcDbLine
 10
71.3344864634826
 20
203.4382136519638
 30
0.0
 11
70.5959107559962
 21
198.1829744252264
 31
0.0
  0
LINE
  5
175BB
330
1A
100
AcDbEntity
  8
0
100
AcDbLine
 10
63.14324015016897
 20
203.4990755043617
 30
0.0
 11
62.40244918840533
 21
198.2280739244127
 31
0.0
  0
LINE
  5
175BC
330
1A
100
AcDbEntity
  8
0
100
AcDbLine
 10
64.44300757400229
 20
203.4065157834207
 30
0.0
 11
63.8068010062352
 21
198.8796708339487
 31
0.0
  0
LINE
  5
175BD
330
1A
100
AcDbEntity
  8
0
100
AcDbLine
 10
70.0307755025362
 20
203.5027136483312
 30
0.0
 11
69.37058675249291
 21
198.8052266052146
 31
0.0
  0
LINE
  5
175BE
330
1A
100
AcDbEntity
  8
0
100
AcDbLine
 10
98.34144236187885
 20
211.445
 30
0.0
 11
98.58060818551891
 21
211.1533170845945
 31
0.0
  0
LINE
  5
175BF
330
1A
100
AcDbEntity
  8
0
100
AcDbLine
 10
97.60602882272998
 20
209.9439257139257
 30
0.0
 11
98.77083756244156
 21
210.9213162978098
 31
0.0
  0
LINE
  5
175C0
330
1A
100
AcDbEntity
  8
0
100
AcDbLine
 10
97.37894267747922
 20
210.145
 30
0.0
 11
98.58060818551894
 21
211.1533170845946
 31
0.0
  0
LINE
  5
175C1
330
1A
100
AcDbEntity
  8
0
100
AcDbLine
 10
98.77083756244154
 20
210.9213162978098
 30
0.0
 11
99.01441793514202
 21
210.6242494670919
 31
0.0
  0
LINE
  5
175C2
330
1A
100
AcDbEntity
  8
0
100
AcDbLine
 10
91.19272641896126
 20
210.9332800680645
 30
0.0
 11
92.030505631456
 21
209.9348536817731
 31
0.0
  0
LINE
  5
175C3
330
1A
100
AcDbEntity
  8
0
100
AcDbLine
 10
91.42253975189694
 20
211.1261163509704
 30
0.0
 11
92.24579412013822
 21
210.145
 31
0.0
  0
LINE
  5
175C4
330
1A
100
AcDbEntity
  8
0
100
AcDbLine
 10
90.81330516539813
 20
210.6149078341388
 30
0.0
 11
91.19272641896126
 21
210.9332800680645
 31
0.0
  0
LINE
  5
175C5
330
1A
100
AcDbEntity
  8
0
100
AcDbLine
 10
91.42253975189692
 20
211.1261163509704
 30
0.0
 11
91.80257048624751
 21
211.445
 31
0.0
  0
LINE
  5
175C6
330
1A
100
AcDbEntity
  8
0
100
AcDbLine
 10
91.80257048624751
 20
211.445
 30
0.0
 11
98.34144236187881
 21
211.445
 31
0.0
  0
LINE
  5
175C7
330
1A
100
AcDbEntity
  8
0
100
AcDbLine
 10
92.24579412013818
 20
210.145
 30
0.0
 11
97.37894267747918
 21
210.145
 31
0.0
  0
LINE
  5
175C8
330
1A
100
AcDbEntity
  8
0
100
AcDbLine
 10
96.70077550253621
 20
203.5027136483312
 30
0.0
 11
97.43406445104984
 21
204.1180161345754
 31
0.0
  0
LINE
  5
175C9
330
1A
100
AcDbEntity
  8
0
100
AcDbLine
 10
96.40362862525647
 20
203.645
 30
0.0
 11
97.24122816814386
 21
204.3478294675111
 31
0.0
  0
LINE
  5
175CA
330
1A
100
AcDbEntity
  8
0
100
AcDbLine
 10
97.43406445104984
 20
204.1180161345754
 30
0.0
 11
98.00448646348261
 21
203.4382136519638
 31
0.0
  0
LINE
  5
175CB
330
1A
100
AcDbEntity
  8
0
100
AcDbLine
 10
96.74014259458246
 20
204.945
 30
0.0
 11
97.24122816814389
 21
204.3478294675111
 31
0.0
  0
LINE
  5
175CC
330
1A
100
AcDbEntity
  8
0
100
AcDbLine
 10
96.93622636788887
 20
205.1780336067708
 30
0.0
 11
97.47104150107956
 21
204.540665750417
 31
0.0
  0
LINE
  5
175CD
330
1A
100
AcDbEntity
  8
0
100
AcDbLine
 10
97.47104150107956
 20
204.540665750417
 30
0.0
 11
98.25145887657726
 21
205.1955136823615
 31
0.0
  0
LINE
  5
175CE
330
1A
100
AcDbEntity
  8
0
100
AcDbLine
 10
90.53039821895575
 20
204.1008425753765
 30
0.0
 11
91.11300757400233
 21
203.4065157834207
 31
0.0
  0
LINE
  5
175CF
330
1A
100
AcDbEntity
  8
0
100
AcDbLine
 10
90.56737526898542
 20
204.5234921912181
 30
0.0
 11
91.36392352421003
 21
205.1918755383919
 31
0.0
  0
LINE
  5
175D0
330
1A
100
AcDbEntity
  8
0
100
AcDbLine
 10
90.04474747840857
 20
205.1463357382277
 30
0.0
 11
90.56737526898542
 21
204.5234921912181
 31
0.0
  0
LINE
  5
175D1
330
1A
100
AcDbEntity
  8
0
100
AcDbLine
 10
90.76021155189142
 20
204.2936788582824
 30
0.0
 11
91.30451774262866
 21
203.645
 31
0.0
  0
LINE
  5
175D2
330
1A
100
AcDbEntity
  8
0
100
AcDbLine
 10
89.81324015016898
 20
203.4990755043617
 30
0.0
 11
90.53039821895575
 21
204.1008425753765
 31
0.0
  0
LINE
  5
175D3
330
1A
100
AcDbEntity
  8
0
100
AcDbLine
 10
90.76021155189138
 20
204.2936788582824
 30
0.0
 11
91.5364258624659
 21
204.945
 31
0.0
  0
LINE
  5
175D4
330
1A
100
AcDbEntity
  8
0
100
AcDbLine
 10
91.5364258624659
 20
204.945
 30
0.0
 11
96.7401425945825
 21
204.945
 31
0.0
  0
LINE
  5
175D5
330
1A
100
AcDbEntity
  8
0
100
AcDbLine
 10
91.30451774262866
 20
203.645
 30
0.0
 11
96.40362862525647
 21
203.645
 31
0.0
  0
LINE
  5
175D6
330
1A
100
AcDbEntity
  8
0
100
AcDbLine
 10
99.01441793514202
 20
210.6242494670919
 30
0.0
 11
98.25145887657726
 21
205.1955136823615
 31
0.0
  0
LINE
  5
175D7
330
1A
100
AcDbEntity
  8
0
100
AcDbLine
 10
97.60602882272998
 20
209.9439257139257
 30
0.0
 11
96.93622636788887
 21
205.1780336067708
 31
0.0
  0
LINE
  5
175D8
330
1A
100
AcDbEntity
  8
0
100
AcDbLine
 10
90.81330516539811
 20
210.6149078341388
 30
0.0
 11
90.04474747840854
 21
205.1463357382277
 31
0.0
  0
LINE
  5
175D9
330
1A
100
AcDbEntity
  8
0
100
AcDbLine
 10
92.030505631456
 20
209.9348536817731
 30
0.0
 11
91.36392352421003
 21
205.1918755383919
 31
0.0
  0
LINE
  5
175DA
330
1A
100
AcDbEntity
  8
0
100
AcDbLine
 10
96.24341665237864
 20
197.325
 30
0.0
 11
96.62344716676955
 21
197.6438834644615
 31
0.0
  0
LINE
  5
175DB
330
1A
100
AcDbEntity
  8
0
100
AcDbLine
 10
95.80019264365729
 20
198.625
 30
0.0
 11
96.62344716676955
 21
197.6438834644615
 31
0.0
  0
LINE
  5
175DC
330
1A
100
AcDbEntity
  8
0
100
AcDbLine
 10
96.04058675249294
 20
198.8052266052146
 30
0.0
 11
96.85326049970521
 21
197.8367197473674
 31
0.0
  0
LINE
  5
175DD
330
1A
100
AcDbEntity
  8
0
100
AcDbLine
 10
96.85326049970521
 20
197.8367197473674
 30
0.0
 11
97.26591075599621
 21
198.1829744252264
 31
0.0
  0
CIRCLE
  5
175DE
330
1A
100
AcDbEntity
  8
0
100
AcDbCircle
 10
98.87435892467969
 20
197.8863399440546
 30
0.0
 40
0.85
  0
LINE
  5
175DF
330
1A
100
AcDbEntity
  8
0
100
AcDbLine
 10
89.07244918840532
 20
198.2280739244127
 30
0.0
 11
89.32833798262459
 21
197.9159959344163
 31
0.0
  0
LINE
  5
175E0
330
1A
100
AcDbEntity
  8
0
100
AcDbLine
 10
89.51856735954724
 20
197.6839951476314
 30
0.0
 11
89.81292594426841
 21
197.325
 31
0.0
  0
LINE
  5
175E1
330
1A
100
AcDbEntity
  8
0
100
AcDbLine
 10
89.5185673595472
 20
197.6839951476314
 30
0.0
 11
90.64001327300596
 21
198.625
 31
0.0
  0
LINE
  5
175E2
330
1A
100
AcDbEntity
  8
0
100
AcDbLine
 10
89.32833798262459
 20
197.9159959344163
 30
0.0
 11
90.47680100623521
 21
198.8796708339487
 31
0.0
  0
LINE
  5
175E3
330
1A
100
AcDbEntity
  8
0
100
AcDbLine
 10
89.81292594426841
 20
197.325
 30
0.0
 11
96.24341665237864
 21
197.325
 31
0.0
  0
LINE
  5
175E4
330
1A
100
AcDbEntity
  8
0
100
AcDbLine
 10
90.64001327300593
 20
198.625
 30
0.0
 11
95.80019264365729
 21
198.625
 31
0.0
  0
LINE
  5
175E5
330
1A
100
AcDbEntity
  8
0
100
AcDbLine
 10
98.00448646348261
 20
203.4382136519638
 30
0.0
 11
97.26591075599621
 21
198.1829744252264
 31
0.0
  0
LINE
  5
175E6
330
1A
100
AcDbEntity
  8
0
100
AcDbLine
 10
89.81324015016898
 20
203.4990755043617
 30
0.0
 11
89.07244918840532
 21
198.2280739244127
 31
0.0
  0
LINE
  5
175E7
330
1A
100
AcDbEntity
  8
0
100
AcDbLine
 10
91.11300757400229
 20
203.4065157834207
 30
0.0
 11
90.47680100623521
 21
198.8796708339487
 31
0.0
  0
LINE
  5
175E8
330
1A
100
AcDbEntity
  8
0
100
AcDbLine
 10
96.70077550253621
 20
203.5027136483312
 30
0.0
 11
96.04058675249291
 21
198.8052266052146
 31
0.0
  0
LINE
  5
175E9
330
1A
100
AcDbEntity
  8
0
100
AcDbLine
 10
111.6764423618788
 20
211.445
 30
0.0
 11
111.9156081855189
 21
211.1533170845945
 31
0.0
  0
LINE
  5
175EA
330
1A
100
AcDbEntity
  8
0
100
AcDbLine
 10
110.9410288227299
 20
209.9439257139257
 30
0.0
 11
112.1058375624415
 21
210.9213162978098
 31
0.0
  0
LINE
  5
175EB
330
1A
100
AcDbEntity
  8
0
100
AcDbLine
 10
110.7139426774792
 20
210.145
 30
0.0
 11
111.9156081855189
 21
211.1533170845946
 31
0.0
  0
LINE
  5
175EC
330
1A
100
AcDbEntity
  8
0
100
AcDbLine
 10
112.1058375624415
 20
210.9213162978098
 30
0.0
 11
112.349417935142
 21
210.6242494670919
 31
0.0
  0
LINE
  5
175ED
330
1A
100
AcDbEntity
  8
0
100
AcDbLine
 10
104.5277264189612
 20
210.9332800680645
 30
0.0
 11
105.365505631456
 21
209.9348536817731
 31
0.0
  0
LINE
  5
175EE
330
1A
100
AcDbEntity
  8
0
100
AcDbLine
 10
104.7575397518969
 20
211.1261163509704
 30
0.0
 11
105.5807941201382
 21
210.145
 31
0.0
  0
LINE
  5
175EF
330
1A
100
AcDbEntity
  8
0
100
AcDbLine
 10
104.1483051653981
 20
210.6149078341388
 30
0.0
 11
104.5277264189612
 21
210.9332800680645
 31
0.0
  0
LINE
  5
175F0
330
1A
100
AcDbEntity
  8
0
100
AcDbLine
 10
104.7575397518969
 20
211.1261163509704
 30
0.0
 11
105.1375704862475
 21
211.445
 31
0.0
  0
LINE
  5
175F1
330
1A
100
AcDbEntity
  8
0
100
AcDbLine
 10
105.1375704862475
 20
211.445
 30
0.0
 11
111.6764423618788
 21
211.445
 31
0.0
  0
LINE
  5
175F2
330
1A
100
AcDbEntity
  8
0
100
AcDbLine
 10
105.5807941201382
 20
210.145
 30
0.0
 11
110.7139426774792
 21
210.145
 31
0.0
  0
LINE
  5
175F3
330
1A
100
AcDbEntity
  8
0
100
AcDbLine
 10
110.0357755025362
 20
203.5027136483312
 30
0.0
 11
110.7690644510498
 21
204.1180161345754
 31
0.0
  0
LINE
  5
175F4
330
1A
100
AcDbEntity
  8
0
100
AcDbLine
 10
109.7386286252564
 20
203.645
 30
0.0
 11
110.5762281681438
 21
204.3478294675111
 31
0.0
  0
LINE
  5
175F5
330
1A
100
AcDbEntity
  8
0
100
AcDbLine
 10
110.7690644510498
 20
204.1180161345754
 30
0.0
 11
111.3394864634826
 21
203.4382136519638
 31
0.0
  0
LINE
  5
175F6
330
1A
100
AcDbEntity
  8
0
100
AcDbLine
 10
110.0751425945824
 20
204.945
 30
0.0
 11
110.5762281681439
 21
204.3478294675111
 31
0.0
  0
LINE
  5
175F7
330
1A
100
AcDbEntity
  8
0
100
AcDbLine
 10
110.2712263678888
 20
205.1780336067708
 30
0.0
 11
110.8060415010795
 21
204.540665750417
 31
0.0
  0
LINE
  5
175F8
330
1A
100
AcDbEntity
  8
0
100
AcDbLine
 10
110.8060415010795
 20
204.540665750417
 30
0.0
 11
111.5864588765772
 21
205.1955136823615
 31
0.0
  0
LINE
  5
175F9
330
1A
100
AcDbEntity
  8
0
100
AcDbLine
 10
103.8653982189557
 20
204.1008425753765
 30
0.0
 11
104.4480075740023
 21
203.4065157834207
 31
0.0
  0
LINE
  5
175FA
330
1A
100
AcDbEntity
  8
0
100
AcDbLine
 10
103.9023752689854
 20
204.5234921912181
 30
0.0
 11
104.69892352421
 21
205.1918755383919
 31
0.0
  0
LINE
  5
175FB
330
1A
100
AcDbEntity
  8
0
100
AcDbLine
 10
103.3797474784085
 20
205.1463357382277
 30
0.0
 11
103.9023752689854
 21
204.5234921912181
 31
0.0
  0
LINE
  5
175FC
330
1A
100
AcDbEntity
  8
0
100
AcDbLine
 10
104.0952115518914
 20
204.2936788582824
 30
0.0
 11
104.6395177426286
 21
203.645
 31
0.0
  0
LINE
  5
175FD
330
1A
100
AcDbEntity
  8
0
100
AcDbLine
 10
103.1482401501689
 20
203.4990755043617
 30
0.0
 11
103.8653982189557
 21
204.1008425753765
 31
0.0
  0
LINE
  5
175FE
330
1A
100
AcDbEntity
  8
0
100
AcDbLine
 10
104.0952115518914
 20
204.2936788582824
 30
0.0
 11
104.8714258624659
 21
204.945
 31
0.0
  0
LINE
  5
175FF
330
1A
100
AcDbEntity
  8
0
100
AcDbLine
 10
104.8714258624659
 20
204.945
 30
0.0
 11
110.0751425945825
 21
204.945
 31
0.0
  0
LINE
  5
17600
330
1A
100
AcDbEntity
  8
0
100
AcDbLine
 10
104.6395177426286
 20
203.645
 30
0.0
 11
109.7386286252564
 21
203.645
 31
0.0
  0
LINE
  5
17601
330
1A
100
AcDbEntity
  8
0
100
AcDbLine
 10
112.349417935142
 20
210.6242494670919
 30
0.0
 11
111.5864588765772
 21
205.1955136823615
 31
0.0
  0
LINE
  5
17602
330
1A
100
AcDbEntity
  8
0
100
AcDbLine
 10
110.9410288227299
 20
209.9439257139257
 30
0.0
 11
110.2712263678888
 21
205.1780336067708
 31
0.0
  0
LINE
  5
17603
330
1A
100
AcDbEntity
  8
0
100
AcDbLine
 10
104.1483051653981
 20
210.6149078341388
 30
0.0
 11
103.3797474784085
 21
205.1463357382277
 31
0.0
  0
LINE
  5
17604
330
1A
100
AcDbEntity
  8
0
100
AcDbLine
 10
105.365505631456
 20
209.9348536817731
 30
0.0
 11
104.69892352421
 21
205.1918755383919
 31
0.0
  0
LINE
  5
17605
330
1A
100
AcDbEntity
  8
0
100
AcDbLine
 10
109.5784166523786
 20
197.325
 30
0.0
 11
109.9584471667695
 21
197.6438834644615
 31
0.0
  0
LINE
  5
17606
330
1A
100
AcDbEntity
  8
0
100
AcDbLine
 10
109.1351926436572
 20
198.625
 30
0.0
 11
109.9584471667695
 21
197.6438834644615
 31
0.0
  0
LINE
  5
17607
330
1A
100
AcDbEntity
  8
0
100
AcDbLine
 10
109.3755867524929
 20
198.8052266052146
 30
0.0
 11
110.1882604997052
 21
197.8367197473674
 31
0.0
  0
LINE
  5
17608
330
1A
100
AcDbEntity
  8
0
100
AcDbLine
 10
110.1882604997052
 20
197.8367197473674
 30
0.0
 11
110.6009107559962
 21
198.1829744252264
 31
0.0
  0
CIRCLE
  5
17609
330
1A
100
AcDbEntity
  8
0
100
AcDbCircle
 10
112.2093589246796
 20
197.8863399440546
 30
0.0
 40
0.85
  0
LINE
  5
1760A
330
1A
100
AcDbEntity
  8
0
100
AcDbLine
 10
102.4074491884053
 20
198.2280739244127
 30
0.0
 11
102.6633379826246
 21
197.9159959344163
 31
0.0
  0
LINE
  5
1760B
330
1A
100
AcDbEntity
  8
0
100
AcDbLine
 10
102.8535673595472
 20
197.6839951476314
 30
0.0
 11
103.1479259442684
 21
197.325
 31
0.0
  0
LINE
  5
1760C
330
1A
100
AcDbEntity
  8
0
100
AcDbLine
 10
102.8535673595472
 20
197.6839951476314
 30
0.0
 11
103.9750132730059
 21
198.625
 31
0.0
  0
LINE
  5
1760D
330
1A
100
AcDbEntity
  8
0
100
AcDbLine
 10
102.6633379826246
 20
197.9159959344163
 30
0.0
 11
103.8118010062352
 21
198.8796708339487
 31
0.0
  0
LINE
  5
1760E
330
1A
100
AcDbEntity
  8
0
100
AcDbLine
 10
103.1479259442684
 20
197.325
 30
0.0
 11
109.5784166523786
 21
197.325
 31
0.0
  0
LINE
  5
1760F
330
1A
100
AcDbEntity
  8
0
100
AcDbLine
 10
103.9750132730059
 20
198.625
 30
0.0
 11
109.1351926436572
 21
198.625
 31
0.0
  0
LINE
  5
17610
330
1A
100
AcDbEntity
  8
0
100
AcDbLine
 10
111.3394864634826
 20
203.4382136519638
 30
0.0
 11
110.6009107559962
 21
198.1829744252264
 31
0.0
  0
LINE
  5
17611
330
1A
100
AcDbEntity
  8
0
100
AcDbLine
 10
103.1482401501689
 20
203.4990755043617
 30
0.0
 11
102.4074491884053
 21
198.2280739244127
 31
0.0
  0
LINE
  5
17612
330
1A
100
AcDbEntity
  8
0
100
AcDbLine
 10
104.4480075740023
 20
203.4065157834207
 30
0.0
 11
103.8118010062352
 21
198.8796708339487
 31
0.0
  0
LINE
  5
17613
330
1A
100
AcDbEntity
  8
0
100
AcDbLine
 10
110.0357755025362
 20
203.5027136483312
 30
0.0
 11
109.3755867524929
 21
198.8052266052146
 31
0.0
  0
LINE
  5
17614
330
1A
100
AcDbEntity
  8
0
100
AcDbLine
 10
58.33644236187885
 20
211.445
 30
0.0
 11
58.57560818551892
 21
211.1533170845945
 31
0.0
  0
LINE
  5
17615
330
1A
100
AcDbEntity
  8
0
100
AcDbLine
 10
57.60102882272997
 20
209.9439257139257
 30
0.0
 11
58.76583756244156
 21
210.9213162978098
 31
0.0
  0
LINE
  5
17616
330
1A
100
AcDbEntity
  8
0
100
AcDbLine
 10
57.37394267747922
 20
210.145
 30
0.0
 11
58.57560818551895
 21
211.1533170845946
 31
0.0
  0
LINE
  5
17617
330
1A
100
AcDbEntity
  8
0
100
AcDbLine
 10
58.76583756244153
 20
210.9213162978098
 30
0.0
 11
59.00941793514201
 21
210.6242494670919
 31
0.0
  0
LINE
  5
17618
330
1A
100
AcDbEntity
  8
0
100
AcDbLine
 10
51.18772641896126
 20
210.9332800680645
 30
0.0
 11
52.02550563145601
 21
209.9348536817731
 31
0.0
  0
LINE
  5
17619
330
1A
100
AcDbEntity
  8
0
100
AcDbLine
 10
51.41753975189695
 20
211.1261163509704
 30
0.0
 11
52.24079412013821
 21
210.145
 31
0.0
  0
LINE
  5
1761A
330
1A
100
AcDbEntity
  8
0
100
AcDbLine
 10
50.80830516539814
 20
210.6149078341388
 30
0.0
 11
51.18772641896126
 21
210.9332800680645
 31
0.0
  0
LINE
  5
1761B
330
1A
100
AcDbEntity
  8
0
100
AcDbLine
 10
51.41753975189693
 20
211.1261163509704
 30
0.0
 11
51.7975704862475
 21
211.445
 31
0.0
  0
LINE
  5
1761C
330
1A
100
AcDbEntity
  8
0
100
AcDbLine
 10
51.7975704862475
 20
211.445
 30
0.0
 11
58.33644236187883
 21
211.445
 31
0.0
  0
LINE
  5
1761D
330
1A
100
AcDbEntity
  8
0
100
AcDbLine
 10
52.24079412013819
 20
210.145
 30
0.0
 11
57.37394267747919
 21
210.145
 31
0.0
  0
LINE
  5
1761E
330
1A
100
AcDbEntity
  8
0
100
AcDbLine
 10
56.6957755025362
 20
203.5027136483312
 30
0.0
 11
57.42906445104984
 21
204.1180161345754
 31
0.0
  0
LINE
  5
1761F
330
1A
100
AcDbEntity
  8
0
100
AcDbLine
 10
56.39862862525646
 20
203.645
 30
0.0
 11
57.23622816814387
 21
204.3478294675111
 31
0.0
  0
LINE
  5
17620
330
1A
100
AcDbEntity
  8
0
100
AcDbLine
 10
57.42906445104984
 20
204.1180161345754
 30
0.0
 11
57.99948646348261
 21
203.4382136519638
 31
0.0
  0
LINE
  5
17621
330
1A
100
AcDbEntity
  8
0
100
AcDbLine
 10
56.73514259458247
 20
204.945
 30
0.0
 11
57.2362281681439
 21
204.3478294675111
 31
0.0
  0
LINE
  5
17622
330
1A
100
AcDbEntity
  8
0
100
AcDbLine
 10
56.93122636788888
 20
205.1780336067708
 30
0.0
 11
57.46604150107955
 21
204.540665750417
 31
0.0
  0
LINE
  5
17623
330
1A
100
AcDbEntity
  8
0
100
AcDbLine
 10
57.46604150107955
 20
204.540665750417
 30
0.0
 11
58.24645887657727
 21
205.1955136823615
 31
0.0
  0
LINE
  5
17624
330
1A
100
AcDbEntity
  8
0
100
AcDbLine
 10
50.52539821895575
 20
204.1008425753765
 30
0.0
 11
51.10800757400233
 21
203.4065157834207
 31
0.0
  0
LINE
  5
17625
330
1A
100
AcDbEntity
  8
0
100
AcDbLine
 10
50.56237526898542
 20
204.5234921912181
 30
0.0
 11
51.35892352421004
 21
205.1918755383919
 31
0.0
  0
LINE
  5
17626
330
1A
100
AcDbEntity
  8
0
100
AcDbLine
 10
50.03974747840857
 20
205.1463357382277
 30
0.0
 11
50.56237526898542
 21
204.5234921912181
 31
0.0
  0
LINE
  5
17627
330
1A
100
AcDbEntity
  8
0
100
AcDbLine
 10
50.75521155189142
 20
204.2936788582824
 30
0.0
 11
51.29951774262867
 21
203.645
 31
0.0
  0
LINE
  5
17628
330
1A
100
AcDbEntity
  8
0
100
AcDbLine
 10
49.80824015016898
 20
203.4990755043617
 30
0.0
 11
50.52539821895575
 21
204.1008425753765
 31
0.0
  0
LINE
  5
17629
330
1A
100
AcDbEntity
  8
0
100
AcDbLine
 10
50.75521155189139
 20
204.2936788582824
 30
0.0
 11
51.53142586246591
 21
204.945
 31
0.0
  0
LINE
  5
1762A
330
1A
100
AcDbEntity
  8
0
100
AcDbLine
 10
51.53142586246591
 20
204.945
 30
0.0
 11
56.7351425945825
 21
204.945
 31
0.0
  0
LINE
  5
1762B
330
1A
100
AcDbEntity
  8
0
100
AcDbLine
 10
51.29951774262867
 20
203.645
 30
0.0
 11
56.39862862525646
 21
203.645
 31
0.0
  0
LINE
  5
1762C
330
1A
100
AcDbEntity
  8
0
100
AcDbLine
 10
59.00941793514201
 20
210.6242494670919
 30
0.0
 11
58.24645887657727
 21
205.1955136823615
 31
0.0
  0
LINE
  5
1762D
330
1A
100
AcDbEntity
  8
0
100
AcDbLine
 10
57.60102882272997
 20
209.9439257139257
 30
0.0
 11
56.93122636788888
 21
205.1780336067708
 31
0.0
  0
LINE
  5
1762E
330
1A
100
AcDbEntity
  8
0
100
AcDbLine
 10
50.80830516539811
 20
210.6149078341388
 30
0.0
 11
50.03974747840854
 21
205.1463357382277
 31
0.0
  0
LINE
  5
1762F
330
1A
100
AcDbEntity
  8
0
100
AcDbLine
 10
52.02550563145601
 20
209.9348536817731
 30
0.0
 11
51.35892352421004
 21
205.1918755383919
 31
0.0
  0
LINE
  5
17630
330
1A
100
AcDbEntity
  8
0
100
AcDbLine
 10
56.23841665237865
 20
197.325
 30
0.0
 11
56.61844716676956
 21
197.6438834644615
 31
0.0
  0
LINE
  5
17631
330
1A
100
AcDbEntity
  8
0
100
AcDbLine
 10
55.79519264365728
 20
198.625
 30
0.0
 11
56.61844716676956
 21
197.6438834644615
 31
0.0
  0
LINE
  5
17632
330
1A
100
AcDbEntity
  8
0
100
AcDbLine
 10
56.03558675249295
 20
198.8052266052146
 30
0.0
 11
56.84826049970522
 21
197.8367197473674
 31
0.0
  0
LINE
  5
17633
330
1A
100
AcDbEntity
  8
0
100
AcDbLine
 10
56.84826049970522
 20
197.8367197473674
 30
0.0
 11
57.26091075599621
 21
198.1829744252264
 31
0.0
  0
CIRCLE
  5
17634
330
1A
100
AcDbEntity
  8
0
100
AcDbCircle
 10
58.86935892467969
 20
197.8863399440546
 30
0.0
 40
0.85
  0
LINE
  5
17635
330
1A
100
AcDbEntity
  8
0
100
AcDbLine
 10
49.06744918840534
 20
198.2280739244127
 30
0.0
 11
49.32333798262459
 21
197.9159959344163
 31
0.0
  0
LINE
  5
17636
330
1A
100
AcDbEntity
  8
0
100
AcDbLine
 10
49.51356735954724
 20
197.6839951476314
 30
0.0
 11
49.80792594426842
 21
197.325
 31
0.0
  0
LINE
  5
17637
330
1A
100
AcDbEntity
  8
0
100
AcDbLine
 10
49.51356735954721
 20
197.6839951476314
 30
0.0
 11
50.63501327300596
 21
198.625
 31
0.0
  0
LINE
  5
17638
330
1A
100
AcDbEntity
  8
0
100
AcDbLine
 10
49.32333798262459
 20
197.9159959344163
 30
0.0
 11
50.47180100623521
 21
198.8796708339487
 31
0.0
  0
LINE
  5
17639
330
1A
100
AcDbEntity
  8
0
100
AcDbLine
 10
49.80792594426842
 20
197.325
 30
0.0
 11
56.23841665237865
 21
197.325
 31
0.0
  0
LINE
  5
1763A
330
1A
100
AcDbEntity
  8
0
100
AcDbLine
 10
50.63501327300594
 20
198.625
 30
0.0
 11
55.79519264365728
 21
198.625
 31
0.0
  0
LINE
  5
1763B
330
1A
100
AcDbEntity
  8
0
100
AcDbLine
 10
57.99948646348261
 20
203.4382136519638
 30
0.0
 11
57.26091075599621
 21
198.1829744252264
 31
0.0
  0
LINE
  5
1763C
330
1A
100
AcDbEntity
  8
0
100
AcDbLine
 10
49.80824015016898
 20
203.4990755043617
 30
0.0
 11
49.06744918840534
 21
198.2280739244127
 31
0.0
  0
LINE
  5
1763D
330
1A
100
AcDbEntity
  8
0
100
AcDbLine
 10
51.1080075740023
 20
203.4065157834207
 30
0.0
 11
50.47180100623521
 21
198.8796708339487
 31
0.0
  0
LINE
  5
1763E
330
1A
100
AcDbEntity
  8
0
100
AcDbLine
 10
56.6957755025362
 20
203.5027136483312
 30
0.0
 11
56.03558675249292
 21
198.8052266052146
 31
0.0
  0
LINE
  5
1763F
330
1A
100
AcDbEntity
  8
0
100
AcDbLine
 10
105.9999999875716
 20
188.3
 30
0.0
 11
104.8199999875716
 21
188.3
 31
0.0
  0
LINE
  5
17640
330
1A
100
AcDbEntity
  8
0
100
AcDbLine
 10
104.8199999875716
 20
188.3
 30
0.0
 11
104.8199999875716
 21
184.5
 31
0.0
  0
TEXT
  5
17641
330
1A
100
AcDbEntity
  8
0
100
AcDbText
 10
101.248571416143
 20
181.8000000000001
 30
0.0
 40
2.0
  1
LOCK
 41
0.75
 72
     2
 11
106.8199999875716
 21
183.8
 31
0.0
100
AcDbText
 73
     3
  0
DIMENSION
  5
17662
330
1A
100
AcDbEntity
  8
SUNPOU
100
AcDbDimension
  2
*D12
 10
165.7
 20
147.6579004095329
 30
0.0
 11
211.8937225810901
 21
147.6579004095329
 31
0.0
 70
   160
  1
92
 71
     5
 42
91.99999982134992
  3
STANDARD
100
AcDbAlignedDimension
 13
257.6999998213499
 23
137.5000001262203
 33
0.0
 14
165.7
 24
137.5000001262203
 34
0.0
100
AcDbRotatedDimension
1001
ACAD
1000
DSTYLE
1002
{
1070
   140
1040
5.0
1070
    74
1070
     0
1070
    73
1070
     0
1070
   272
1070
     0
1070
    77
1070
     1
1070
   173
1070
     1
1070
   147
1040
0.5
1070
    42
1040
0.5
1070
    44
1040
0.5
1070
    43
1040
10.0
1070
   271
1070
     0
1070
   141
1040
0.0
1070
     7
1000
_OPEN
1070
     6
1000
_OPEN
1070
    41
1040
2.5
1002
}
  0
LINE
  5
17663
330
1A
100
AcDbEntity
  8
0
100
AcDbLine
 10
165.7
 20
137.5000001262203
 30
0.0
 11
257.6999998213499
 21
137.5000001262203
 31
0.0
  0
TEXT
  5
17664
330
1A
100
AcDbEntity
  8
SUNPOU
100
AcDbText
 10
216.5
 20
150.349747396476
 30
0.0
 40
2.999999994174451
  1
-0
100
AcDbText
  0
TEXT
  5
17665
330
1A
100
AcDbEntity
  8
SUNPOU
100
AcDbText
 10
216.5
 20
153.9497473894854
 30
0.0
 40
2.999999994174451
  1
+1
100
AcDbText
  0
TEXT
  5
17928
330
1A
100
AcDbEntity
  8
0
100
AcDbText
 10
99.10523808280974
 20
220.5
 30
0.0
 40
2.0
  1
PT
 72
     1
 11
101.0099999875716
 21
220.5
 31
0.0
100
AcDbText
 73
     1
  0
TEXT
  5
17929
330
1A
100
AcDbEntity
  8
0
100
AcDbText
 10
86.89761903519071
 20
220.5
 30
0.0
 40
2.0
  1
HOLD
 72
     1
 11
90.84999998757167
 21
220.5
 31
0.0
100
AcDbText
 73
     1
  0
TEXT
  5
1792A
330
1A
100
AcDbEntity
  8
0
100
AcDbText
 10
116.9999999875716
 20
215.36
 30
0.0
 40
2.0
  1
AZ
 11
116.9999999875716
 21
216.36
 31
0.0
100
AcDbText
 73
     2
  0
LWPOLYLINE
  5
1795B
330
1A
100
AcDbEntity
  8
0
100
AcDbPolyline
 90
        4
 70
     0
 43
0.0
 10
372.0111111111112
 20
226.5
 10
371.9
 20
228.5
 10
368.9
 20
228.5
 10
368.788888888889
 20
226.5
  0
LWPOLYLINE
  5
1795C
330
1A
100
AcDbEntity
  8
0
100
AcDbPolyline
 90
        4
 70
     0
 43
0.0
 10
351.6911111111113
 20
226.5
 10
351.58
 20
228.5
 10
348.5800000000001
 20
228.5
 10
348.468888888889
 20
226.5
  0
LWPOLYLINE
  5
1795D
330
1A
100
AcDbEntity
  8
0
100
AcDbPolyline
 90
        4
 70
     0
 43
0.0
 10
361.8511111111112
 20
226.5
 10
361.74
 20
228.5
 10
358.74
 20
228.5
 10
358.6288888888889
 20
226.5
  0
LWPOLYLINE
  5
1795E
330
1A
100
AcDbEntity
  8
0
100
AcDbPolyline
 90
        4
 70
     0
 43
0.0
 10
321.2111111111112
 20
226.5
 10
321.1
 20
228.5
 10
318.1
 20
228.5
 10
317.988888888889
 20
226.5
  0
LWPOLYLINE
  5
1795F
330
1A
100
AcDbEntity
  8
0
100
AcDbPolyline
 90
        4
 70
     0
 43
0.0
 10
311.0511111111113
 20
226.5
 10
310.9400000000001
 20
228.5
 10
307.9400000000001
 20
228.5
 10
307.828888888889
 20
226.5
  0
LWPOLYLINE
  5
17960
330
1A
100
AcDbEntity
  8
0
100
AcDbPolyline
 90
        4
 70
     0
 43
0.0
 10
331.3711111111112
 20
226.5
 10
331.2600000000001
 20
228.5
 10
328.26
 20
228.5
 10
328.148888888889
 20
226.5
  0
LWPOLYLINE
  5
17961
330
1A
100
AcDbEntity
  8
0
100
AcDbPolyline
 90
        4
 70
     0
 43
0.0
 10
341.5311111111112
 20
226.5
 10
341.42
 20
228.5
 10
338.42
 20
228.5
 10
338.3088888888889
 20
226.5
  0
INSERT
  5
179D0
330
1A
100
AcDbEntity
  8
0
100
AcDbBlockReference
  2
F2361AX-5P
 10
48.61999998757167
 20
133.6000001689409
 30
0.0
  0
INSERT
  5
17A90
330
1A
100
AcDbEntity
  8
0
100
AcDbBlockReference
  2
UF2361-AX-3P
 10
103.5399999875715
 20
101.1000002155452
 30
0.0
  0
VIEWPORT
  5
22
102
{ACAD_XDICTIONARY
360
17AAA
102
}
330
17
100
AcDbEntity
 67
     1
  8
0
100
AcDbViewport
 10
261.5176991150442
 20
154.7242978687078
 30
0.0
 40
523.0353982300885
 41
309.4485957374157
 68
     1
 69
     1
 12
261.5176991150442
 22
154.7242978687078
 13
0.0
 23
0.0
 14
1.0
 24
1.0
 15
10.0
 25
10.0
 16
0.0
 26
0.0
 36
1.0
 17
0.0
 27
0.0
 37
0.0
 42
50.0
 43
0.0
 44
0.0
 45
309.4485957374157
 50
0.0
 51
0.0
 72
   100
 90
    32768
  1

281
     0
 71
     1
 74
     0
110
0.0
120
0.0
130
0.0
111
1.0
121
0.0
131
0.0
112
0.0
122
1.0
132
0.0
 79
     0
146
0.0
  0
ENDSEC
  0
SECTION
  2
OBJECTS
  0
DICTIONARY
  5
C
330
0
100
AcDbDictionary
281
     1
  3
ACAD_COLOR
350
886B
  3
ACAD_GROUP
350
D
  3
ACAD_LAYOUT
350
886C
  3
ACAD_MATERIAL
350
886A
  3
ACAD_MLINESTYLE
350
E
  3
ACAD_PLOTSETTINGS
350
886D
  3
ACAD_PLOTSTYLENAME
350
8868
  3
ACDBHEADERROUNDTRIPXREC
350
17AA7
  3
ACDBVARIABLEDICTIONARY
350
4B08
  3
CONTENTDICTIONARY
350
4210
  0
DICTIONARY
  5
17AAA
330
22
100
AcDbDictionary
280
     1
281
     1
  3
ACAD_XREC_ROUNDTRIP
360
17AAB
  0
DICTIONARY
  5
886B
102
{ACAD_REACTORS
330
C
102
}
330
C
100
AcDbDictionary
281
     1
  0
DICTIONARY
  5
D
102
{ACAD_REACTORS
330
C
102
}
330
C
100
AcDbDictionary
281
     1
  3
*A1
350
52E7
  3
*A10
350
1113A
  3
*A100
350
1113C
  3
*A101
350
6803
  3
*A102
350
71CC
  3
*A103
350
535E
  3
*A104
350
F71B
  3
*A105
350
F9B8
  3
*A106
350
5CF3
  3
*A107
350
D50F
  3
*A108
350
C515
  3
*A109
350
71FC
  3
*A11
350
B33A
  3
*A110
350
14106
  3
*A111
350
1411C
  3
*A112
350
F6E3
  3
*A113
350
A54C
  3
*A114
350
6802
  3
*A115
350
6806
  3
*A116
350
13C12
  3
*A117
350
129AB
  3
*A118
350
1115D
  3
*A119
350
A918
  3
*A12
350
B0E5
  3
*A120
350
11CAC
  3
*A121
350
C356
  3
*A122
350
6981
  3
*A123
350
11C52
  3
*A124
350
11CA0
  3
*A13
350
C254
  3
*A14
350
120F2
  3
*A15
350
B072
  3
*A16
350
B24E
  3
*A17
350
F6F3
  3
*A18
350
6811
  3
*A19
350
605D
  3
*A2
350
8000
  3
*A20
350
10A25
  3
*A21
350
BA0A
  3
*A22
350
B2A8
  3
*A23
350
7006
  3
*A24
350
808C
  3
*A25
350
8209
  3
*A26
350
680E
  3
*A27
350
6085
  3
*A28
350
B132
  3
*A29
350
11160
  3
*A3
350
680F
  3
*A30
350
A5C4
  3
*A31
350
AF83
  3
*A32
350
6807
  3
*A33
350
F71A
  3
*A34
350
C354
  3
*A35
350
B2DF
  3
*A36
350
604B
  3
*A37
350
5FE3
  3
*A38
350
A5C1
  3
*A39
350
680C
  3
*A4
350
13C11
  3
*A40
350
AFCF
  3
*A41
350
5E9C
  3
*A42
350
FA33
  3
*A43
350
535F
  3
*A44
350
6062
  3
*A45
350
11164
  3
*A46
350
B358
  3
*A47
350
D4EC
  3
*A48
350
5FCE
  3
*A49
350
8020
  3
*A5
350
8012
  3
*A50
350
D31B
  3
*A51
350
F31E
  3
*A52
350
6804
  3
*A53
350
A5C3
  3
*A54
350
8003
  3
*A55
350
1111D
  3
*A56
350
71CD
  3
*A57
350
10A2B
  3
*A58
350
820A
  3
*A59
350
5F6A
  3
*A6
350
601E
  3
*A60
350
C240
  3
*A61
350
F9B6
  3
*A62
350
6810
  3
*A63
350
6805
  3
*A64
350
6801
  3
*A65
350
5FEC
  3
*A66
350
1111E
  3
*A67
350
6C92
  3
*A68
350
808E
  3
*A69
350
5F5B
  3
*A7
350
11CAB
  3
*A70
350
6808
  3
*A71
350
B339
  3
*A72
350
5E8D
  3
*A73
350
71DC
  3
*A74
350
B073
  3
*A75
350
11159
  3
*A76
350
C355
  3
*A77
350
5FC9
  3
*A78
350
680B
  3
*A79
350
5FF1
  3
*A8
350
6809
  3
*A80
350
B000
  3
*A81
350
8002
  3
*A82
350
8001
  3
*A83
350
808D
  3
*A84
350
A5C5
  3
*A85
350
C259
  3
*A86
350
A5C2
  3
*A87
350
F713
  3
*A88
350
11158
  3
*A89
350
680A
  3
*A9
350
5EB8
  3
*A90
350
680D
  3
*A91
350
B0C7
  3
*A92
350
1119E
  3
*A93
350
5FE9
  3
*A94
350
F715
  3
*A95
350
B4CD
  3
*A96
350
D31A
  3
*A97
350
5FF2
  3
*A98
350
FA34
  3
*A99
350
8208
  0
DICTIONARY
  5
886C
102
{ACAD_REACTORS
330
C
102
}
330
C
100
AcDbDictionary
281
     1
  3
Model
350
886E
  3
レイアウト1
350
886F
  0
DICTIONARY
  5
886A
102
{ACAD_REACTORS
330
C
102
}
330
C
100
AcDbDictionary
281
     1
  0
DICTIONARY
  5
E
102
{ACAD_REACTORS
330
C
102
}
330
C
100
AcDbDictionary
281
     1
  3
STANDARD
350
13
  0
DICTIONARY
  5
886D
102
{ACAD_REACTORS
330
C
102
}
330
C
100
AcDbDictionary
281
     1
  0
ACDBDICTIONARYWDFLT
  5
8868
102
{ACAD_REACTORS
330
C
102
}
330
C
100
AcDbDictionary
281
     1
  3
Normal
350
8869
100
AcDbDictionaryWithDefault
340
8869
  0
DICTIONARY
  5
17AA7
102
{ACAD_REACTORS
330
C
102
}
330
C
100
AcDbDictionary
281
     1
  3
COLORDICT
350
17AA9
  3
MATERIALDICT
350
17AA8
  0
DICTIONARY
  5
4B08
102
{ACAD_REACTORS
330
C
102
}
330
C
100
AcDbDictionary
281
     1
  3
DIMASSOC
350
17AA4
  3
PROJECTNAME
350
17AA5
  3
SORTENTS
350
4B09
  0
DICTIONARY
  5
4210
102
{ACAD_REACTORS
330
C
102
}
330
C
100
AcDbDictionary
281
     1
  0
XRECORD
  5
17AAB
102
{ACAD_REACTORS
330
17AAA
102
}
330
17AAA
100
AcDbXrecord
280
     1
102
SHADEPLOT
 70
     0
  0
GROUP
  5
52E7
102
{ACAD_REACTORS
330
D
102
}
330
D
100
AcDbGroup
300

 70
     1
 71
     1
  0
GROUP
  5
1113A
102
{ACAD_REACTORS
330
D
102
}
330
D
100
AcDbGroup
300

 70
     1
 71
     1
  0
GROUP
  5
1113C
102
{ACAD_REACTORS
330
D
102
}
330
D
100
AcDbGroup
300

 70
     1
 71
     1
  0
GROUP
  5
6803
102
{ACAD_REACTORS
330
D
102
}
330
D
100
AcDbGroup
300

 70
     1
 71
     1
  0
GROUP
  5
71CC
102
{ACAD_REACTORS
330
D
102
}
330
D
100
AcDbGroup
300

 70
     1
 71
     1
  0
GROUP
  5
535E
102
{ACAD_REACTORS
330
D
102
}
330
D
100
AcDbGroup
300

 70
     1
 71
     1
  0
GROUP
  5
F71B
102
{ACAD_REACTORS
330
D
102
}
330
D
100
AcDbGroup
300

 70
     1
 71
     1
  0
GROUP
  5
F9B8
102
{ACAD_REACTORS
330
D
102
}
330
D
100
AcDbGroup
300

 70
     1
 71
     1
  0
GROUP
  5
5CF3
102
{ACAD_REACTORS
330
D
102
}
330
D
100
AcDbGroup
300

 70
     1
 71
     1
  0
GROUP
  5
D50F
102
{ACAD_REACTORS
330
D
102
}
330
D
100
AcDbGroup
300

 70
     1
 71
     1
  0
GROUP
  5
C515
102
{ACAD_REACTORS
330
D
102
}
330
D
100
AcDbGroup
300

 70
     1
 71
     1
  0
GROUP
  5
71FC
102
{ACAD_REACTORS
330
D
102
}
330
D
100
AcDbGroup
300

 70
     1
 71
     1
  0
GROUP
  5
B33A
102
{ACAD_REACTORS
330
D
102
}
330
D
100
AcDbGroup
300

 70
     1
 71
     1
  0
GROUP
  5
14106
102
{ACAD_REACTORS
330
D
102
}
330
D
100
AcDbGroup
300

 70
     1
 71
     1
  0
GROUP
  5
1411C
102
{ACAD_REACTORS
330
D
102
}
330
D
100
AcDbGroup
300

 70
     1
 71
     1
  0
GROUP
  5
F6E3
102
{ACAD_REACTORS
330
D
102
}
330
D
100
AcDbGroup
300

 70
     1
 71
     1
  0
GROUP
  5
A54C
102
{ACAD_REACTORS
330
D
102
}
330
D
100
AcDbGroup
300

 70
     1
 71
     1
  0
GROUP
  5
6802
102
{ACAD_REACTORS
330
D
102
}
330
D
100
AcDbGroup
300

 70
     1
 71
     1
  0
GROUP
  5
6806
102
{ACAD_REACTORS
330
D
102
}
330
D
100
AcDbGroup
300

 70
     1
 71
     1
  0
GROUP
  5
13C12
102
{ACAD_REACTORS
330
D
102
}
330
D
100
AcDbGroup
300

 70
     1
 71
     1
  0
GROUP
  5
129AB
102
{ACAD_REACTORS
330
D
102
}
330
D
100
AcDbGroup
300

 70
     1
 71
     1
  0
GROUP
  5
1115D
102
{ACAD_REACTORS
330
D
102
}
330
D
100
AcDbGroup
300

 70
     1
 71
     1
  0
GROUP
  5
A918
102
{ACAD_REACTORS
330
D
102
}
330
D
100
AcDbGroup
300

 70
     1
 71
     1
  0
GROUP
  5
B0E5
102
{ACAD_REACTORS
330
D
102
}
330
D
100
AcDbGroup
300

 70
     1
 71
     1
  0
GROUP
  5
11CAC
102
{ACAD_REACTORS
330
D
102
}
330
D
100
AcDbGroup
300

 70
     1
 71
     1
  0
GROUP
  5
C356
102
{ACAD_REACTORS
330
D
102
}
330
D
100
AcDbGroup
300

 70
     1
 71
     1
  0
GROUP
  5
6981
102
{ACAD_REACTORS
330
D
102
}
330
D
100
AcDbGroup
300

 70
     1
 71
     1
  0
GROUP
  5
11C52
102
{ACAD_REACTORS
330
D
102
}
330
D
100
AcDbGroup
300

 70
     1
 71
     1
  0
GROUP
  5
11CA0
102
{ACAD_REACTORS
330
D
102
}
330
D
100
AcDbGroup
300

 70
     1
 71
     1
  0
GROUP
  5
C254
102
{ACAD_REACTORS
330
D
102
}
330
D
100
AcDbGroup
300

 70
     1
 71
     1
  0
GROUP
  5
120F2
102
{ACAD_REACTORS
330
D
102
}
330
D
100
AcDbGroup
300

 70
     1
 71
     1
  0
GROUP
  5
B072
102
{ACAD_REACTORS
330
D
102
}
330
D
100
AcDbGroup
300

 70
     1
 71
     1
  0
GROUP
  5
B24E
102
{ACAD_REACTORS
330
D
102
}
330
D
100
AcDbGroup
300

 70
     1
 71
     1
  0
GROUP
  5
F6F3
102
{ACAD_REACTORS
330
D
102
}
330
D
100
AcDbGroup
300

 70
     1
 71
     1
  0
GROUP
  5
6811
102
{ACAD_REACTORS
330
D
102
}
330
D
100
AcDbGroup
300

 70
     1
 71
     1
  0
GROUP
  5
605D
102
{ACAD_REACTORS
330
D
102
}
330
D
100
AcDbGroup
300

 70
     1
 71
     1
  0
GROUP
  5
8000
102
{ACAD_REACTORS
330
D
102
}
330
D
100
AcDbGroup
300

 70
     1
 71
     1
  0
GROUP
  5
10A25
102
{ACAD_REACTORS
330
D
102
}
330
D
100
AcDbGroup
300

 70
     1
 71
     1
  0
GROUP
  5
BA0A
102
{ACAD_REACTORS
330
D
102
}
330
D
100
AcDbGroup
300

 70
     1
 71
     1
  0
GROUP
  5
B2A8
102
{ACAD_REACTORS
330
D
102
}
330
D
100
AcDbGroup
300

 70
     1
 71
     1
  0
GROUP
  5
7006
102
{ACAD_REACTORS
330
D
102
}
330
D
100
AcDbGroup
300

 70
     1
 71
     1
  0
GROUP
  5
808C
102
{ACAD_REACTORS
330
D
102
}
330
D
100
AcDbGroup
300

 70
     1
 71
     1
  0
GROUP
  5
8209
102
{ACAD_REACTORS
330
D
102
}
330
D
100
AcDbGroup
300

 70
     1
 71
     1
  0
GROUP
  5
680E
102
{ACAD_REACTORS
330
D
102
}
330
D
100
AcDbGroup
300

 70
     1
 71
     1
  0
GROUP
  5
6085
102
{ACAD_REACTORS
330
D
102
}
330
D
100
AcDbGroup
300

 70
     1
 71
     1
  0
GROUP
  5
B132
102
{ACAD_REACTORS
330
D
102
}
330
D
100
AcDbGroup
300

 70
     1
 71
     1
  0
GROUP
  5
11160
102
{ACAD_REACTORS
330
D
102
}
330
D
100
AcDbGroup
300

 70
     1
 71
     1
  0
GROUP
  5
680F
102
{ACAD_REACTORS
330
D
102
}
330
D
100
AcDbGroup
300

 70
     1
 71
     1
  0
GROUP
  5
A5C4
102
{ACAD_REACTORS
330
D
102
}
330
D
100
AcDbGroup
300

 70
     1
 71
     1
  0
GROUP
  5
AF83
102
{ACAD_REACTORS
330
D
102
}
330
D
100
AcDbGroup
300

 70
     1
 71
     1
  0
GROUP
  5
6807
102
{ACAD_REACTORS
330
D
102
}
330
D
100
AcDbGroup
300

 70
     1
 71
     1
  0
GROUP
  5
F71A
102
{ACAD_REACTORS
330
D
102
}
330
D
100
AcDbGroup
300

 70
     1
 71
     1
  0
GROUP
  5
C354
102
{ACAD_REACTORS
330
D
102
}
330
D
100
AcDbGroup
300

 70
     1
 71
     1
  0
GROUP
  5
B2DF
102
{ACAD_REACTORS
330
D
102
}
330
D
100
AcDbGroup
300

 70
     1
 71
     1
  0
GROUP
  5
604B
102
{ACAD_REACTORS
330
D
102
}
330
D
100
AcDbGroup
300

 70
     1
 71
     1
  0
GROUP
  5
5FE3
102
{ACAD_REACTORS
330
D
102
}
330
D
100
AcDbGroup
300

 70
     1
 71
     1
  0
GROUP
  5
A5C1
102
{ACAD_REACTORS
330
D
102
}
330
D
100
AcDbGroup
300

 70
     1
 71
     1
  0
GROUP
  5
680C
102
{ACAD_REACTORS
330
D
102
}
330
D
100
AcDbGroup
300

 70
     1
 71
     1
  0
GROUP
  5
13C11
102
{ACAD_REACTORS
330
D
102
}
330
D
100
AcDbGroup
300

 70
     1
 71
     1
  0
GROUP
  5
AFCF
102
{ACAD_REACTORS
330
D
102
}
330
D
100
AcDbGroup
300

 70
     1
 71
     1
  0
GROUP
  5
5E9C
102
{ACAD_REACTORS
330
D
102
}
330
D
100
AcDbGroup
300

 70
     1
 71
     1
  0
GROUP
  5
FA33
102
{ACAD_REACTORS
330
D
102
}
330
D
100
AcDbGroup
300

 70
     1
 71
     1
  0
GROUP
  5
535F
102
{ACAD_REACTORS
330
D
102
}
330
D
100
AcDbGroup
300

 70
     1
 71
     1
  0
GROUP
  5
6062
102
{ACAD_REACTORS
330
D
102
}
330
D
100
AcDbGroup
300

 70
     1
 71
     1
  0
GROUP
  5
11164
102
{ACAD_REACTORS
330
D
102
}
330
D
100
AcDbGroup
300

 70
     1
 71
     1
  0
GROUP
  5
B358
102
{ACAD_REACTORS
330
D
102
}
330
D
100
AcDbGroup
300

 70
     1
 71
     1
  0
GROUP
  5
D4EC
102
{ACAD_REACTORS
330
D
102
}
330
D
100
AcDbGroup
300

 70
     1
 71
     1
  0
GROUP
  5
5FCE
102
{ACAD_REACTORS
330
D
102
}
330
D
100
AcDbGroup
300

 70
     1
 71
     1
  0
GROUP
  5
8020
102
{ACAD_REACTORS
330
D
102
}
330
D
100
AcDbGroup
300

 70
     1
 71
     1
  0
GROUP
  5
8012
102
{ACAD_REACTORS
330
D
102
}
330
D
100
AcDbGroup
300

 70
     1
 71
     1
  0
GROUP
  5
D31B
102
{ACAD_REACTORS
330
D
102
}
330
D
100
AcDbGroup
300

 70
     1
 71
     1
  0
GROUP
  5
F31E
102
{ACAD_REACTORS
330
D
102
}
330
D
100
AcDbGroup
300

 70
     1
 71
     1
  0
GROUP
  5
6804
102
{ACAD_REACTORS
330
D
102
}
330
D
100
AcDbGroup
300

 70
     1
 71
     1
  0
GROUP
  5
A5C3
102
{ACAD_REACTORS
330
D
102
}
330
D
100
AcDbGroup
300

 70
     1
 71
     1
  0
GROUP
  5
8003
102
{ACAD_REACTORS
330
D
102
}
330
D
100
AcDbGroup
300

 70
     1
 71
     1
  0
GROUP
  5
1111D
102
{ACAD_REACTORS
330
D
102
}
330
D
100
AcDbGroup
300

 70
     1
 71
     1
  0
GROUP
  5
71CD
102
{ACAD_REACTORS
330
D
102
}
330
D
100
AcDbGroup
300

 70
     1
 71
     1
  0
GROUP
  5
10A2B
102
{ACAD_REACTORS
330
D
102
}
330
D
100
AcDbGroup
300

 70
     1
 71
     1
  0
GROUP
  5
820A
102
{ACAD_REACTORS
330
D
102
}
330
D
100
AcDbGroup
300

 70
     1
 71
     1
  0
GROUP
  5
5F6A
102
{ACAD_REACTORS
330
D
102
}
330
D
100
AcDbGroup
300

 70
     1
 71
     1
  0
GROUP
  5
601E
102
{ACAD_REACTORS
330
D
102
}
330
D
100
AcDbGroup
300

 70
     1
 71
     1
  0
GROUP
  5
C240
102
{ACAD_REACTORS
330
D
102
}
330
D
100
AcDbGroup
300

 70
     1
 71
     1
  0
GROUP
  5
F9B6
102
{ACAD_REACTORS
330
D
102
}
330
D
100
AcDbGroup
300

 70
     1
 71
     1
  0
GROUP
  5
6810
102
{ACAD_REACTORS
330
D
102
}
330
D
100
AcDbGroup
300

 70
     1
 71
     1
  0
GROUP
  5
6805
102
{ACAD_REACTORS
330
D
102
}
330
D
100
AcDbGroup
300

 70
     1
 71
     1
  0
GROUP
  5
6801
102
{ACAD_REACTORS
330
D
102
}
330
D
100
AcDbGroup
300

 70
     1
 71
     1
  0
GROUP
  5
5FEC
102
{ACAD_REACTORS
330
D
102
}
330
D
100
AcDbGroup
300

 70
     1
 71
     1
  0
GROUP
  5
1111E
102
{ACAD_REACTORS
330
D
102
}
330
D
100
AcDbGroup
300

 70
     1
 71
     1
  0
GROUP
  5
6C92
102
{ACAD_REACTORS
330
D
102
}
330
D
100
AcDbGroup
300

 70
     1
 71
     1
  0
GROUP
  5
808E
102
{ACAD_REACTORS
330
D
102
}
330
D
100
AcDbGroup
300

 70
     1
 71
     1
  0
GROUP
  5
5F5B
102
{ACAD_REACTORS
330
D
102
}
330
D
100
AcDbGroup
300

 70
     1
 71
     1
  0
GROUP
  5
11CAB
102
{ACAD_REACTORS
330
D
102
}
330
D
100
AcDbGroup
300

 70
     1
 71
     1
  0
GROUP
  5
6808
102
{ACAD_REACTORS
330
D
102
}
330
D
100
AcDbGroup
300

 70
     1
 71
     1
  0
GROUP
  5
B339
102
{ACAD_REACTORS
330
D
102
}
330
D
100
AcDbGroup
300

 70
     1
 71
     1
  0
GROUP
  5
5E8D
102
{ACAD_REACTORS
330
D
102
}
330
D
100
AcDbGroup
300

 70
     1
 71
     1
  0
GROUP
  5
71DC
102
{ACAD_REACTORS
330
D
102
}
330
D
100
AcDbGroup
300

 70
     1
 71
     1
  0
GROUP
  5
B073
102
{ACAD_REACTORS
330
D
102
}
330
D
100
AcDbGroup
300

 70
     1
 71
     1
  0
GROUP
  5
11159
102
{ACAD_REACTORS
330
D
102
}
330
D
100
AcDbGroup
300

 70
     1
 71
     1
  0
GROUP
  5
C355
102
{ACAD_REACTORS
330
D
102
}
330
D
100
AcDbGroup
300

 70
     1
 71
     1
  0
GROUP
  5
5FC9
102
{ACAD_REACTORS
330
D
102
}
330
D
100
AcDbGroup
300

 70
     1
 71
     1
  0
GROUP
  5
680B
102
{ACAD_REACTORS
330
D
102
}
330
D
100
AcDbGroup
300

 70
     1
 71
     1
  0
GROUP
  5
5FF1
102
{ACAD_REACTORS
330
D
102
}
330
D
100
AcDbGroup
300

 70
     1
 71
     1
  0
GROUP
  5
6809
102
{ACAD_REACTORS
330
D
102
}
330
D
100
AcDbGroup
300

 70
     1
 71
     1
  0
GROUP
  5
B000
102
{ACAD_REACTORS
330
D
102
}
330
D
100
AcDbGroup
300

 70
     1
 71
     1
  0
GROUP
  5
8002
102
{ACAD_REACTORS
330
D
102
}
330
D
100
AcDbGroup
300

 70
     1
 71
     1
  0
GROUP
  5
8001
102
{ACAD_REACTORS
330
D
102
}
330
D
100
AcDbGroup
300

 70
     1
 71
     1
  0
GROUP
  5
808D
102
{ACAD_REACTORS
330
D
102
}
330
D
100
AcDbGroup
300

 70
     1
 71
     1
  0
GROUP
  5
A5C5
102
{ACAD_REACTORS
330
D
102
}
330
D
100
AcDbGroup
300

 70
     1
 71
     1
  0
GROUP
  5
C259
102
{ACAD_REACTORS
330
D
102
}
330
D
100
AcDbGroup
300

 70
     1
 71
     1
  0
GROUP
  5
A5C2
102
{ACAD_REACTORS
330
D
102
}
330
D
100
AcDbGroup
300

 70
     1
 71
     1
  0
GROUP
  5
F713
102
{ACAD_REACTORS
330
D
102
}
330
D
100
AcDbGroup
300

 70
     1
 71
     1
  0
GROUP
  5
11158
102
{ACAD_REACTORS
330
D
102
}
330
D
100
AcDbGroup
300

 70
     1
 71
     1
  0
GROUP
  5
680A
102
{ACAD_REACTORS
330
D
102
}
330
D
100
AcDbGroup
300

 70
     1
 71
     1
  0
GROUP
  5
5EB8
102
{ACAD_REACTORS
330
D
102
}
330
D
100
AcDbGroup
300

 70
     1
 71
     1
  0
GROUP
  5
680D
102
{ACAD_REACTORS
330
D
102
}
330
D
100
AcDbGroup
300

 70
     1
 71
     1
  0
GROUP
  5
B0C7
102
{ACAD_REACTORS
330
D
102
}
330
D
100
AcDbGroup
300

 70
     1
 71
     1
  0
GROUP
  5
1119E
102
{ACAD_REACTORS
330
D
102
}
330
D
100
AcDbGroup
300

 70
     1
 71
     1
  0
GROUP
  5
5FE9
102
{ACAD_REACTORS
330
D
102
}
330
D
100
AcDbGroup
300

 70
     1
 71
     1
  0
GROUP
  5
F715
102
{ACAD_REACTORS
330
D
102
}
330
D
100
AcDbGroup
300

 70
     1
 71
     1
  0
GROUP
  5
B4CD
102
{ACAD_REACTORS
330
D
102
}
330
D
100
AcDbGroup
300

 70
     1
 71
     1
  0
GROUP
  5
D31A
102
{ACAD_REACTORS
330
D
102
}
330
D
100
AcDbGroup
300

 70
     1
 71
     1
  0
GROUP
  5
5FF2
102
{ACAD_REACTORS
330
D
102
}
330
D
100
AcDbGroup
300

 70
     1
 71
     1
  0
GROUP
  5
FA34
102
{ACAD_REACTORS
330
D
102
}
330
D
100
AcDbGroup
300

 70
     1
 71
     1
  0
GROUP
  5
8208
102
{ACAD_REACTORS
330
D
102
}
330
D
100
AcDbGroup
300

 70
     1
 71
     1
  0
LAYOUT
  5
886E
102
{ACAD_XDICTIONARY
360
17AAC
102
}
102
{ACAD_REACTORS
330
886C
102
}
330
886C
100
AcDbPlotSettings
  1

  2
Adobe PDF A3横.pc3
  4
A3
  6

 40
3.174999952316284
 41
3.174999952316284
 42
3.17498779296875
 43
3.17498779296875
 44
420.1583251953125
 45
297.0530090332031
 46
0.0
 47
0.0
 48
0.0
 49
0.0
140
0.0
141
0.0
142
1.0
143
1.0
 70
 11952
 72
     1
 73
     0
 74
     2
  7
tmi_penstyle.ctb
 75
    16
147
1.0
148
0.0
149
0.0
100
AcDbLayout
  1
Model
 70
     1
 71
     0
 10
0.0
 20
0.0
 11
12.0
 21
9.0
 12
0.0
 22
0.0
 32
0.0
 14
0.0
 24
0.0
 34
0.0
 15
0.0
 25
0.0
 35
0.0
146
0.0
 13
0.0
 23
0.0
 33
0.0
 16
1.0
 26
0.0
 36
0.0
 17
0.0
 27
1.0
 37
0.0
 76
     0
330
1A
  0
LAYOUT
  5
886F
102
{ACAD_XDICTIONARY
360
17AAE
102
}
102
{ACAD_REACTORS
330
886C
102
}
330
886C
100
AcDbPlotSettings
  1

  2
Adobe PDF
  4

  6

 40
0.0
 41
0.0
 42
0.0
 43
0.0
 44
0.0
 45
0.0
 46
0.0
 47
0.0
 48
0.0
 49
0.0
140
0.0
141
0.0
142
1.0
143
1.0
 70
   688
 72
     0
 73
     0
 74
     5
  7
tmi_penstyle.ctb
 75
    16
147
1.0
148
0.0
149
0.0
100
AcDbLayout
  1
レイアウト1
 70
     1
 71
     1
 10
0.0
 20
0.0
 11
420.0
 21
297.0
 12
0.0
 22
0.0
 32
0.0
 14
1.000000000000000E+20
 24
1.000000000000000E+20
 34
1.000000000000000E+20
 15
-1.000000000000000E+20
 25
-1.000000000000000E+20
 35
-1.000000000000000E+20
146
0.0
 13
0.0
 23
0.0
 33
0.0
 16
1.0
 26
0.0
 36
0.0
 17
0.0
 27
1.0
 37
0.0
 76
     0
330
17
331
22
  0
MLINESTYLE
  5
13
102
{ACAD_REACTORS
330
E
102
}
330
E
100
AcDbMlineStyle
  2
STANDARD
 70
     0
  3

 62
     0
 51
90.0
 52
90.0
 71
     2
 49
0.5
 62
   256
  6
BYLAYER
 49
-0.5
 62
   256
  6
BYLAYER
  0
ACDBPLACEHOLDER
  5
8869
102
{ACAD_REACTORS
330
8868
102
}
330
8868
  0
XRECORD
  5
17AA9
102
{ACAD_REACTORS
330
17AA7
102
}
330
17AA7
100
AcDbXrecord
280
     1
340
886B
  0
XRECORD
  5
17AA8
102
{ACAD_REACTORS
330
17AA7
102
}
330
17AA7
100
AcDbXrecord
280
     1
340
886A
  0
DICTIONARYVAR
  5
17AA4
102
{ACAD_REACTORS
330
4B08
102
}
330
4B08
100
DictionaryVariables
280
     0
  1
1
  0
DICTIONARYVAR
  5
17AA5
102
{ACAD_REACTORS
330
4B08
102
}
330
4B08
100
DictionaryVariables
280
     0
  1

  0
DICTIONARYVAR
  5
4B09
102
{ACAD_REACTORS
330
4B08
102
}
330
4B08
100
DictionaryVariables
280
     0
  1
1
  0
DICTIONARY
  5
17AAC
330
886E
100
AcDbDictionary
280
     1
281
     1
  3
ACAD_XREC_ROUNDTRIP
360
17AAD
  0
DICTIONARY
  5
17AAE
330
886F
100
AcDbDictionary
280
     1
281
     1
  3
ACAD_XREC_ROUNDTRIP
360
17AAF
  0
XRECORD
  5
17AAD
102
{ACAD_REACTORS
330
17AAC
102
}
330
17AAC
100
AcDbXrecord
280
     1
102
SHADEPLOT
 70
     0
102
SHADEPLOTRESLEVEL
 70
     2
102
SHADEPLOTCUSTOMDPI
 70
   300
  0
XRECORD
  5
17AAF
102
{ACAD_REACTORS
330
17AAE
102
}
330
17AAE
100
AcDbXrecord
280
     1
102
SHADEPLOT
 70
     0
102
SHADEPLOTRESLEVEL
 70
     2
102
SHADEPLOTCUSTOMDPI
 70
   300
  0
ENDSEC
  0
EOF
