  0
SECTION
  2
HEADER
  9
$ACADVER
  1
AC1015
  9
$ACADMAINTVER
 70
    20
  9
$DWGCODEPAGE
  3
ANSI_932
  9
$INSBASE
 10
0.0
 20
0.0
 30
0.0
  9
$EXTMIN
 10
20.0
 20
5.0
 30
0.0
  9
$EXTMAX
 10
405.0
 20
280.0
 30
0.0
  9
$LIMMIN
 10
0.0
 20
0.0
  9
$LIMMAX
 10
420.0
 20
297.0
  9
$ORTHOMODE
 70
     0
  9
$REGENMODE
 70
     1
  9
$FILLMODE
 70
     1
  9
$QTEXTMODE
 70
     0
  9
$MIRRTEXT
 70
     1
  9
$LTSCALE
 40
15.0
  9
$ATTMODE
 70
     1
  9
$TEXTSIZE
 40
2.0
  9
$TRACEWID
 40
1.0
  9
$TEXTSTYLE
  7
STANDARD
  9
$CLAYER
  8
0
  9
$CELTYPE
  6
BYLAYER
  9
$CECOLOR
 62
   256
  9
$CELTSCALE
 40
1.0
  9
$DISPSILH
 70
     0
  9
$DIMSCALE
 40
1.0
  9
$DIMASZ
 40
2.5
  9
$DIMEXO
 40
0.5
  9
$DIMDLI
 40
10.0
  9
$DIMRND
 40
0.0
  9
$DIMDLE
 40
0.0
  9
$DIMEXE
 40
0.5
  9
$DIMTP
 40
0.0
  9
$DIMTM
 40
0.0
  9
$DIMTXT
 40
3.0
  9
$DIMCEN
 40
0.0
  9
$DIMTSZ
 40
0.0
  9
$DIMTOL
 70
     0
  9
$DIMLIM
 70
     0
  9
$DIMTIH
 70
     0
  9
$DIMTOH
 70
     0
  9
$DIMSE1
 70
     0
  9
$DIMSE2
 70
     0
  9
$DIMTAD
 70
     1
  9
$DIMZIN
 70
     0
  9
$DIMBLK
  1

  9
$DIMASO
 70
     1
  9
$DIMSHO
 70
     1
  9
$DIMPOST
  1

  9
$DIMAPOST
  1

  9
$DIMALT
 70
     0
  9
$DIMALTD
 70
     2
  9
$DIMALTF
 40
25.4
  9
$DIMLFAC
 40
1.0
  9
$DIMTOFL
 70
     0
  9
$DIMTVP
 40
0.0
  9
$DIMTIX
 70
     0
  9
$DIMSOXD
 70
     0
  9
$DIMSAH
 70
     1
  9
$DIMBLK1
  1
OPEN
  9
$DIMBLK2
  1
OPEN
  9
$DIMSTYLE
  2
STANDARD
  9
$DIMCLRD
 70
     0
  9
$DIMCLRE
 70
     0
  9
$DIMCLRT
 70
     0
  9
$DIMTFAC
 40
1.0
  9
$DIMGAP
 40
0.5
  9
$DIMJUST
 70
     0
  9
$DIMSD1
 70
     0
  9
$DIMSD2
 70
     0
  9
$DIMTOLJ
 70
     1
  9
$DIMTZIN
 70
     0
  9
$DIMALTZ
 70
     0
  9
$DIMALTTZ
 70
     0
  9
$DIMUPT
 70
     0
  9
$DIMDEC
 70
     2
  9
$DIMTDEC
 70
     0
  9
$DIMALTU
 70
     2
  9
$DIMALTTD
 70
     2
  9
$DIMTXSTY
  7
STANDARD
  9
$DIMAUNIT
 70
     0
  9
$DIMADEC
 70
     0
  9
$DIMALTRND
 40
0.0
  9
$DIMAZIN
 70
     0
  9
$DIMDSEP
 70
    46
  9
$DIMATFIT
 70
     3
  9
$DIMFRAC
 70
     0
  9
$DIMLDRBLK
  1
OPEN
  9
$DIMLUNIT
 70
     2
  9
$DIMLWD
 70
    -2
  9
$DIMLWE
 70
    -2
  9
$DIMTMOVE
 70
     0
  9
$LUNITS
 70
     2
  9
$LUPREC
 70
     4
  9
$SKETCHINC
 40
1.0
  9
$FILLETRAD
 40
1.0
  9
$AUNITS
 70
     0
  9
$AUPREC
 70
     0
  9
$MENU
  1
.
  9
$ELEVATION
 40
0.0
  9
$PELEVATION
 40
0.0
  9
$THICKNESS
 40
0.0
  9
$LIMCHECK
 70
     0
  9
$CHAMFERA
 40
0.5
  9
$CHAMFERB
 40
0.5
  9
$CHAMFERC
 40
20.0
  9
$CHAMFERD
 40
0.0
  9
$SKPOLY
 70
     0
  9
$TDCREATE
 40
2450857.620429745
  9
$TDUCREATE
 40
2450857.245429745
  9
$TDUPDATE
 40
2455394.445186088
  9
$TDUUPDATE
 40
2455394.070186088
  9
$TDINDWG
 40
2.1664789120
  9
$TDUSRTIMER
 40
2.1664789120
  9
$USRTIMER
 70
     1
  9
$ANGBASE
 50
0.0
  9
$ANGDIR
 70
     0
  9
$PDMODE
 70
     0
  9
$PDSIZE
 40
0.0
  9
$PLINEWID
 40
0.0
  9
$SPLFRAME
 70
     0
  9
$SPLINETYPE
 70
     6
  9
$SPLINESEGS
 70
     8
  9
$HANDSEED
  5
59E4
  9
$SURFTAB1
 70
     6
  9
$SURFTAB2
 70
     6
  9
$SURFTYPE
 70
     6
  9
$SURFU
 70
     6
  9
$SURFV
 70
     6
  9
$UCSBASE
  2

  9
$UCSNAME
  2

  9
$UCSORG
 10
0.0
 20
0.0
 30
0.0
  9
$UCSXDIR
 10
1.0
 20
0.0
 30
0.0
  9
$UCSYDIR
 10
0.0
 20
1.0
 30
0.0
  9
$UCSORTHOREF
  2

  9
$UCSORTHOVIEW
 70
     0
  9
$UCSORGTOP
 10
0.0
 20
0.0
 30
0.0
  9
$UCSORGBOTTOM
 10
0.0
 20
0.0
 30
0.0
  9
$UCSORGLEFT
 10
0.0
 20
0.0
 30
0.0
  9
$UCSORGRIGHT
 10
0.0
 20
0.0
 30
0.0
  9
$UCSORGFRONT
 10
0.0
 20
0.0
 30
0.0
  9
$UCSORGBACK
 10
0.0
 20
0.0
 30
0.0
  9
$PUCSBASE
  2

  9
$PUCSNAME
  2

  9
$PUCSORG
 10
0.0
 20
0.0
 30
0.0
  9
$PUCSXDIR
 10
1.0
 20
0.0
 30
0.0
  9
$PUCSYDIR
 10
0.0
 20
1.0
 30
0.0
  9
$PUCSORTHOREF
  2

  9
$PUCSORTHOVIEW
 70
     0
  9
$PUCSORGTOP
 10
0.0
 20
0.0
 30
0.0
  9
$PUCSORGBOTTOM
 10
0.0
 20
0.0
 30
0.0
  9
$PUCSORGLEFT
 10
0.0
 20
0.0
 30
0.0
  9
$PUCSORGRIGHT
 10
0.0
 20
0.0
 30
0.0
  9
$PUCSORGFRONT
 10
0.0
 20
0.0
 30
0.0
  9
$PUCSORGBACK
 10
0.0
 20
0.0
 30
0.0
  9
$USERI1
 70
     0
  9
$USERI2
 70
     0
  9
$USERI3
 70
     0
  9
$USERI4
 70
     0
  9
$USERI5
 70
     0
  9
$USERR1
 40
0.0
  9
$USERR2
 40
0.0
  9
$USERR3
 40
0.0
  9
$USERR4
 40
0.0
  9
$USERR5
 40
0.0
  9
$WORLDVIEW
 70
     1
  9
$SHADEDGE
 70
     3
  9
$SHADEDIF
 70
    70
  9
$TILEMODE
 70
     1
  9
$MAXACTVP
 70
    16
  9
$PINSBASE
 10
0.0
 20
0.0
 30
0.0
  9
$PLIMCHECK
 70
     0
  9
$PEXTMIN
 10
1.000000000000000E+20
 20
1.000000000000000E+20
 30
1.000000000000000E+20
  9
$PEXTMAX
 10
-1.000000000000000E+20
 20
-1.000000000000000E+20
 30
-1.000000000000000E+20
  9
$PLIMMIN
 10
0.0
 20
0.0
  9
$PLIMMAX
 10
420.0
 20
297.0
  9
$UNITMODE
 70
     0
  9
$VISRETAIN
 70
     0
  9
$PLINEGEN
 70
     0
  9
$PSLTSCALE
 70
     1
  9
$TREEDEPTH
 70
  3020
  9
$CMLSTYLE
  2
STANDARD
  9
$CMLJUST
 70
     0
  9
$CMLSCALE
 40
1.0
  9
$PROXYGRAPHICS
 70
     1
  9
$MEASUREMENT
 70
     1
  9
$CELWEIGHT
370
    -1
  9
$ENDCAPS
280
     0
  9
$JOINSTYLE
280
     0
  9
$LWDISPLAY
290
     0
  9
$INSUNITS
 70
     0
  9
$HYPERLINKBASE
  1

  9
$STYLESHEET
  1
TMI_pen_style.ctb
  9
$XEDIT
290
     1
  9
$CEPSNTYPE
380
     0
  9
$PSTYLEMODE
290
     1
  9
$FINGERPRINTGUID
  2
{99D7F9F3-691C-43E0-BBAB-722FB646A0E0}
  9
$VERSIONGUID
  2
{BDAB082A-B254-426B-B6DA-C68ACAD5847E}
  9
$EXTNAMES
290
     1
  9
$PSVPSCALE
 40
0.0
  9
$OLESTARTUP
290
     0
  0
ENDSEC
  0
SECTION
  2
CLASSES
  0
CLASS
  1
ACDBDICTIONARYWDFLT
  2
AcDbDictionaryWithDefault
  3
ObjectDBX Classes
 90
        0
280
     0
281
     0
  0
CLASS
  1
ACDBPLACEHOLDER
  2
AcDbPlaceHolder
  3
ObjectDBX Classes
 90
        0
280
     0
281
     0
  0
CLASS
  1
LAYOUT
  2
AcDbLayout
  3
ObjectDBX Classes
 90
        0
280
     0
281
     0
  0
CLASS
  1
DICTIONARYVAR
  2
AcDbDictionaryVar
  3
ObjectDBX Classes
 90
        0
280
     0
281
     0
  0
ENDSEC
  0
SECTION
  2
TABLES
  0
TABLE
  2
VPORT
  5
8
330
0
100
AcDbSymbolTable
 70
     2
  0
VPORT
  5
59DA
330
8
100
AcDbSymbolTableRecord
100
AcDbViewportTableRecord
  2
*Active
 70
     0
 10
0.0
 20
0.0
 11
1.0
 21
1.0
 12
233.6973350621257
 22
142.5066153695884
 13
0.0
 23
0.0
 14
0.5
 24
0.5
 15
5.0
 25
5.0
 16
0.0
 26
0.0
 36
1.0
 17
0.0
 27
0.0
 37
0.0
 40
277.0811465009098
 41
1.632958801498127
 42
50.0
 43
0.0
 44
0.0
 50
0.0
 51
0.0
 71
     0
 72
   100
 73
     1
 74
     0
 75
     0
 76
     1
 77
     0
 78
     0
281
     0
 65
     1
110
0.0
120
0.0
130
0.0
111
1.0
121
0.0
131
0.0
112
0.0
122
1.0
132
0.0
 79
     0
146
0.0
  0
ENDTAB
  0
TABLE
  2
LTYPE
  5
5
330
0
100
AcDbSymbolTable
 70
     3
  0
LTYPE
  5
14
330
5
100
AcDbSymbolTableRecord
100
AcDbLinetypeTableRecord
  2
BYBLOCK
 70
     0
  3

 72
    65
 73
     0
 40
0.0
  0
LTYPE
  5
15
330
5
100
AcDbSymbolTableRecord
100
AcDbLinetypeTableRecord
  2
BYLAYER
 70
     0
  3

 72
    65
 73
     0
 40
0.0
  0
LTYPE
  5
16
330
5
100
AcDbSymbolTableRecord
100
AcDbLinetypeTableRecord
  2
CONTINUOUS
 70
     0
  3
Solid line
 72
    65
 73
     0
 40
0.0
  0
LTYPE
  5
61
330
5
100
AcDbSymbolTableRecord
100
AcDbLinetypeTableRecord
  2
CENTER2
 70
     0
  3
___ _ ___ _ ___ _ ___ _ ___ _ ___ _ ___ _ ___ _
 72
    65
 73
     4
 40
1.125
 49
0.75
 74
     0
 49
-0.125
 74
     0
 49
0.125
 74
     0
 49
-0.125
 74
     0
  0
LTYPE
  5
62
330
5
100
AcDbSymbolTableRecord
100
AcDbLinetypeTableRecord
  2
DASHED2
 70
     0
  3
_ _ _ _ _ _ _ _ _ _ _ _ _ _ _ _ _ _ _ _ _ _ _ _
 72
    65
 73
     2
 40
0.375
 49
0.25
 74
     0
 49
-0.125
 74
     0
  0
ENDTAB
  0
TABLE
  2
LAYER
  5
2
330
0
100
AcDbSymbolTable
 70
     6
  0
LAYER
  5
F
330
2
100
AcDbSymbolTableRecord
100
AcDbLayerTableRecord
  2
0
 70
     0
 62
     7
  6
CONTINUOUS
370
    -3
390
483E
  0
LAYER
  5
63
330
2
100
AcDbSymbolTableRecord
100
AcDbLayerTableRecord
  2
WAKU
 70
     0
 62
     7
  6
CONTINUOUS
370
    -3
390
483E
  0
LAYER
  5
64
330
2
100
AcDbSymbolTableRecord
100
AcDbLayerTableRecord
  2
SUNPOU
 70
     0
 62
     5
  6
CONTINUOUS
370
    -3
390
483E
  0
LAYER
  5
65
330
2
100
AcDbSymbolTableRecord
100
AcDbLayerTableRecord
  2
CENTER
 70
     0
 62
    14
  6
CENTER2
370
    -3
390
483E
  0
LAYER
  5
66
330
2
100
AcDbSymbolTableRecord
100
AcDbLayerTableRecord
  2
KAGESEN
 70
     0
 62
     5
  6
DASHED2
370
    -3
390
483E
  0
LAYER
  5
7DC
330
2
100
AcDbSymbolTableRecord
100
AcDbLayerTableRecord
  2
DEFPOINTS
 70
     0
 62
     7
  6
CONTINUOUS
290
     0
370
    -3
390
483E
  0
ENDTAB
  0
TABLE
  2
STYLE
  5
3
330
0
100
AcDbSymbolTable
 70
     1
  0
STYLE
  5
10
330
3
100
AcDbSymbolTableRecord
100
AcDbTextStyleTableRecord
  2
STANDARD
 70
     0
 40
0.0
 41
1.0
 50
0.0
 71
     0
 42
2.0
  3
C:\Program Files\AutoCAD LT\romans.shx
  4
C:\Program Files\AutoCAD LT\extfont.shx
  0
ENDTAB
  0
TABLE
  2
VIEW
  5
6
330
0
100
AcDbSymbolTable
 70
     0
  0
ENDTAB
  0
TABLE
  2
UCS
  5
7
330
0
100
AcDbSymbolTable
 70
     0
  0
ENDTAB
  0
TABLE
  2
APPID
  5
9
330
0
100
AcDbSymbolTable
 70
     1
  0
APPID
  5
11
330
9
100
AcDbSymbolTableRecord
100
AcDbRegAppTableRecord
  2
ACAD
 70
     0
  0
ENDTAB
  0
TABLE
  2
DIMSTYLE
  5
A
330
0
100
AcDbSymbolTable
 70
     8
100
AcDbDimStyleTable
 71
     1
340
1D
  0
DIMSTYLE
105
1D
102
{ACAD_REACTORS
330
5469
330
5468
330
5496
330
5495
330
5494
330
54D8
330
54D7
330
5507
330
5506
102
}
330
A
100
AcDbSymbolTableRecord
100
AcDbDimStyleTableRecord
  2
STANDARD
 70
     0
340
10
  0
DIMSTYLE
105
24
330
A
100
AcDbSymbolTableRecord
100
AcDbDimStyleTableRecord
  2
ISO-25
 70
     0
 41
2.5
 42
0.625
 43
3.75
 44
1.25
 74
     0
 77
     1
 78
     8
140
2.5
141
2.5
143
0.0394
145
1.0
147
0.625
172
     1
340
10
  0
DIMSTYLE
105
25
330
A
100
AcDbSymbolTableRecord
100
AcDbDimStyleTableRecord
  2
ISO-35
 70
     0
 41
3.5
 42
0.875
 43
5.25
 44
1.75
 74
     0
 77
     1
 78
     8
140
3.5
141
3.5
143
0.0394
145
1.399999999999999
147
0.875
172
     1
340
10
  0
DIMSTYLE
105
26
330
A
100
AcDbSymbolTableRecord
100
AcDbDimStyleTableRecord
  2
ISO-5
 70
     0
 41
5.0
 42
1.25
 43
7.5
 44
2.5
 74
     0
 77
     1
 78
     8
140
5.0
141
5.0
143
0.0394
145
2.0
147
1.25
172
     1
340
10
  0
DIMSTYLE
105
27
330
A
100
AcDbSymbolTableRecord
100
AcDbDimStyleTableRecord
  2
ISO-7
 70
     0
 41
7.0
 42
1.75
 43
10.5
 44
3.5
 74
     0
 77
     1
 78
     8
140
7.0
141
7.0
143
0.0394
145
2.799999999999999
147
1.75
172
     1
340
10
  0
DIMSTYLE
105
28
330
A
100
AcDbSymbolTableRecord
100
AcDbDimStyleTableRecord
  2
ISO1
 70
     0
 41
10.0
 42
2.5
 43
15.0
 44
5.0
 74
     0
 77
     1
 78
     8
140
10.0
141
10.0
143
0.0394
145
4.0
147
2.5
172
     1
340
10
  0
DIMSTYLE
105
29
330
A
100
AcDbSymbolTableRecord
100
AcDbDimStyleTableRecord
  2
ISO1-4
 70
     0
 41
14.0
 42
3.5
 43
21.0
 44
7.0
 74
     0
 77
     1
 78
     8
140
14.0
141
14.0
143
0.0394
145
5.599999999999999
147
3.5
172
     1
340
10
  0
DIMSTYLE
105
2A
330
A
100
AcDbSymbolTableRecord
100
AcDbDimStyleTableRecord
  2
ISO2
 70
     0
 41
20.0
 42
5.0
 43
30.0
 44
10.0
 74
     0
 77
     1
 78
     8
140
20.0
141
20.0
143
0.0394
145
8.0
147
5.0
172
     1
340
10
  0
ENDTAB
  0
TABLE
  2
BLOCK_RECORD
  5
1
330
0
100
AcDbSymbolTable
 70
    50
  0
BLOCK_RECORD
  5
1A
330
1
100
AcDbSymbolTableRecord
100
AcDbBlockTableRecord
  2
*MODEL_SPACE
340
4841
  0
BLOCK_RECORD
  5
17
330
1
100
AcDbSymbolTableRecord
100
AcDbBlockTableRecord
  2
*PAPER_SPACE
340
4842
  0
BLOCK_RECORD
  5
BA
330
1
100
AcDbSymbolTableRecord
100
AcDbBlockTableRecord
  2
_OPEN
340
0
102
{BLKREFS
331
46BA
331
46BB
331
3E98
331
3E99
331
3EA4
331
3EA5
331
3EAF
331
3EB0
331
41B0
331
41B1
331
3EC5
331
3EC6
331
3ED0
331
3ED1
331
3EDB
331
3EDC
331
485B
331
485C
331
486F
331
4870
331
48CF
331
48D0
331
48C4
331
48C5
331
48B7
331
48B8
331
48AB
331
48AC
331
489F
331
48A0
331
4893
331
4894
331
4887
331
4888
331
48F4
331
48F5
331
48E8
331
48E9
331
53BB
331
53BC
331
53C3
331
53C4
331
53CD
331
53CE
331
53D6
331
53D7
331
53DF
331
53E0
331
53E8
331
53E9
331
53F1
331
53F2
331
53FA
331
53FB
331
5403
331
5404
331
574C
331
574D
331
5960
331
5961
331
5969
331
596A
331
5972
331
5973
331
597B
331
597C
331
5984
331
5985
331
598D
331
598E
331
59B0
331
59B1
331
59BA
331
59BB
331
59C3
331
59C4
102
}
  0
BLOCK_RECORD
  5
31AB
330
1
100
AcDbSymbolTableRecord
100
AcDbBlockTableRecord
  2
GL8T156
340
0
102
{BLKREFS
331
482E
331
482F
331
4830
331
4831
331
431B
331
431C
331
431D
331
431E
331
4825
102
}
  0
BLOCK_RECORD
  5
3F6B
330
1
100
AcDbSymbolTableRecord
100
AcDbBlockTableRecord
  2
A$C78786D43
340
0
102
{BLKREFS
331
46F0
331
46F1
331
471E
331
471F
331
4743
331
565D
102
}
  0
BLOCK_RECORD
  5
4263
330
1
100
AcDbSymbolTableRecord
100
AcDbBlockTableRecord
  2
A$C7DFB2200
340
0
102
{BLKREFS
331
46CC
102
}
  0
BLOCK_RECORD
  5
431A
330
1
100
AcDbSymbolTableRecord
100
AcDbBlockTableRecord
  2
A$C5B8A228A
340
0
  0
BLOCK_RECORD
  5
481D
330
1
100
AcDbSymbolTableRecord
100
AcDbBlockTableRecord
  2
_DOTSMALL
340
0
  0
BLOCK_RECORD
  5
4824
330
1
100
AcDbSymbolTableRecord
100
AcDbBlockTableRecord
  2
A$C682334D4
340
0
102
{BLKREFS
331
4829
102
}
  0
BLOCK_RECORD
  5
4828
330
1
100
AcDbSymbolTableRecord
100
AcDbBlockTableRecord
  2
A$C398F0387
340
0
102
{BLKREFS
331
482C
102
}
  0
BLOCK_RECORD
  5
4875
330
1
100
AcDbSymbolTableRecord
100
AcDbBlockTableRecord
  2
A$C38FE6D9A
340
0
  0
BLOCK_RECORD
  5
48D6
330
1
100
AcDbSymbolTableRecord
100
AcDbBlockTableRecord
  2
Side-plate
340
0
310
2800000020000000200000000100080000000000000400000000000000000000000000000000000000000000000080000080000000808000800000008000800080800000C0C0C000C0DCC000F0CAA6000020400000206000002080000020A0000020C0000020E00000400000004020000040400000406000004080000040A0
310
000040C0000040E00000600000006020000060400000606000006080000060A0000060C0000060E00000800000008020000080400000806000008080000080A0000080C0000080E00000A0000000A0200000A0400000A0600000A0800000A0A00000A0C00000A0E00000C0000000C0200000C0400000C0600000C0800000C0
310
A00000C0C00000C0E00000E0000000E0200000E0400000E0600000E0800000E0A00000E0C00000E0E00040000000400020004000400040006000400080004000A0004000C0004000E00040200000402020004020400040206000402080004020A0004020C0004020E000404000004040200040404000404060004040800040
310
40A0004040C0004040E00040600000406020004060400040606000406080004060A0004060C0004060E00040800000408020004080400040806000408080004080A0004080C0004080E00040A0000040A0200040A0400040A0600040A0800040A0A00040A0C00040A0E00040C0000040C0200040C0400040C0600040C08000
310
40C0A00040C0C00040C0E00040E0000040E0200040E0400040E0600040E0800040E0A00040E0C00040E0E00080000000800020008000400080006000800080008000A0008000C0008000E00080200000802020008020400080206000802080008020A0008020C0008020E00080400000804020008040400080406000804080
310
008040A0008040C0008040E00080600000806020008060400080606000806080008060A0008060C0008060E00080800000808020008080400080806000808080008080A0008080C0008080E00080A0000080A0200080A0400080A0600080A0800080A0A00080A0C00080A0E00080C0000080C0200080C0400080C0600080C0
310
800080C0A00080C0C00080C0E00080E0000080E0200080E0400080E0600080E0800080E0A00080E0C00080E0E000C0000000C0002000C0004000C0006000C0008000C000A000C000C000C000E000C0200000C0202000C0204000C0206000C0208000C020A000C020C000C020E000C0400000C0402000C0404000C0406000C0
310
408000C040A000C040C000C040E000C0600000C0602000C0604000C0606000C0608000C060A000C060C000C060E000C0800000C0802000C0804000C0806000C0808000C080A000C080C000C080E000C0A00000C0A02000C0A04000C0A06000C0A08000C0A0A000C0A0C000C0A0E000C0C00000C0C02000C0C04000C0C06000
310
C0C08000C0C0A000F0FBFF00A4A0A000808080000000FF0000FF000000FFFF00FF000000FF00FF00FFFF0000FFFFFF00FFFFFFFFFFFFFFFFFFFFFFFFFFFFFFFFFFFFFFFFFFFFFFFFFFFFFFFFFFFFFFFFFFFFFFFFFFFFFFFFFFFFFFFFFFFFFFFFFFFFFFFFFFFFFFFFFFFFFFFFFFFFFFFFFFFFFFFFFFFFFFFFFFFFFFFFFFFFFF
310
FFFFFFFFFFFFFFFFFFFFFFFFFFFFFFFFFFFFFFFFFFFFFFFFFFFFFFFFFFFFFFFFFFFFFFFFFFFFFFFFFFFFFFFFFFFFFFFFFFFFFFFFFFFFFFFFFFFFFFFFFFFFFFFFFFFFFFFFFFFFFFFFFFFFFFFFFFFFFFFFFFFFFFFFFFFFFFFFFFFFFFFFFFFFFFFFFFFFFFFFFFFFFFFFFFFFFFFFFFFFFFFFFFFFFFFFFFFFFFFFFFFFFFFFFFFFFF
310
FFFFFFFFFFFFFFFFFFFFFFFFFFFFFFFFFFFFFFFFFFFFFFFFFFFFFFFFFFFFFFFFFFFFFFFFFFFFFFFFFFFFFFFFFFFFFFFFFFFFFFFFFFFFFFFFFFFFFFFFFFFFFFFFFFFFFFFFFFFFFFFFFFFFFFFFFFFFFFFFFFFFFFFFFFFFFFFFFFFFFFFFFFFFFFFFFFFFFFFFFFFFFFFFFFFFFFFFFFFFFFFFFFFFFFFFFFFFFFFFFFFFFFFFFFFFFF
310
FFFFFFFFFFFFFFFFFFFFFFFFFFFFFFFFFFFFFFFFFFFFFFFFFFFFFFFFFFFFFFFFFFFFFFFFFFFFFFFFFFFFFFFFFFFFFFFFFFFFFFFFFFFFFFFFFFFFFFFFFFFFFFFFFFFFFFFFFFFFFFFFFFFFFFFFFFFFFFFFFFFFFFFFFFFFFFFFFFFFFFFFFFFFFFFFFFFFFFFFFFFFFFFFFFFFFFFFFFFFFFFFFFFFFFFF0000000000000000000000
310
000000000000000000000000000000000000FFFFFF000000000000000000000000000000000000000000000000000000000000FFFFFFFFFFFFFFFFFFFFFFFFFFFFFFFFFFFFFFFFFFFFFFFFFFFFFFFFFFFF0000FFFFFFFFFFFFFFFFFFFFFFFFFFFFFFFFFFFFFFFFFFFFFFFFFFFFFFFFFFFF0000FFFFFFFFFFFFFFFFFFFFFFFF
310
FFFFFFFFFFFFFFFFFFFFFFFFFFFFFFFFFFFFFFFFFFFFFFFFFFFFFFFFFFFFFFFFFFFFFFFFFFFFFFFFFFFFFFFFFFFFFFFFFFFFFFFFFFFFFFFFFFFFFFFFFFFFFFFFFFFFFFFFFFFFFFFFFFFFFFFFFFFFFFFFFFFFFFFFFFFFFFFFFFFFFFFFFFFFFFFFFFFFFFFFFFFFFFFFFFFFFFFFFFFFFFFFFFFFFFFFFFFFFFFFFFFFFFFFFFFFFF
310
FFFFFFFFFFFFFFFFFFFFFFFFFFFFFFFFFFFFFFFFFFFFFFFFFFFFFFFFFFFFFFFFFFFFFFFFFFFFFFFFFFFFFFFFFFFFFFFFFFFFFFFFFFFFFFFFFFFFFFFFFFFFFFFFFFFFFFFFFFFFFFFFFFFFFFFFFFFFFFFFFFFFFFFFFFFFFFFFFFFFFFFFFFFFFFFFFFFFFFFFFFFFFFFFFFFFFFFFFFFFFFFFFFFFFFFFFFFFFFFFFFFFFFFFFFFFFF
310
FFFFFFFFFFFFFFFFFFFFFFFFFFFFFFFFFFFFFFFFFFFFFFFFFFFFFFFFFFFFFFFFFFFFFFFFFFFFFFFFFFFFFFFFFFFFFFFFFFFFFFFFFFFFFFFFFFFFFFFFFFFFFFFFFFFFFFFFFFFFFFFFFFFFFFFFFFFFFFFFFFFFFFFFFFFFFFFFFFFFFFFFFFFFFFFFFFFFFFFFFFFFFFFFFFFFFFFFFFFFFFFFFFFFFFFFFFFFFFFFFFFFFFFFFFFFFF
310
FFFFFFFFFFFFFFFFFFFFFFFFFFFFFFFFFFFFFFFFFFFFFFFFFFFFFFFFFFFFFFFFFFFFFFFFFFFFFFFFFFFFFFFFFFFFFFFFFFFFFFFFFFFFFFFF
102
{BLKREFS
331
591D
331
591C
102
}
  0
BLOCK_RECORD
  5
48FB
330
1
100
AcDbSymbolTableRecord
100
AcDbBlockTableRecord
  2
F2361AX-5P
340
0
310
2800000020000000200000000100080000000000000400000000000000000000000000000000000000000000000080000080000000808000800000008000800080800000C0C0C000C0DCC000F0CAA6000020400000206000002080000020A0000020C0000020E00000400000004020000040400000406000004080000040A0
310
000040C0000040E00000600000006020000060400000606000006080000060A0000060C0000060E00000800000008020000080400000806000008080000080A0000080C0000080E00000A0000000A0200000A0400000A0600000A0800000A0A00000A0C00000A0E00000C0000000C0200000C0400000C0600000C0800000C0
310
A00000C0C00000C0E00000E0000000E0200000E0400000E0600000E0800000E0A00000E0C00000E0E00040000000400020004000400040006000400080004000A0004000C0004000E00040200000402020004020400040206000402080004020A0004020C0004020E000404000004040200040404000404060004040800040
310
40A0004040C0004040E00040600000406020004060400040606000406080004060A0004060C0004060E00040800000408020004080400040806000408080004080A0004080C0004080E00040A0000040A0200040A0400040A0600040A0800040A0A00040A0C00040A0E00040C0000040C0200040C0400040C0600040C08000
310
40C0A00040C0C00040C0E00040E0000040E0200040E0400040E0600040E0800040E0A00040E0C00040E0E00080000000800020008000400080006000800080008000A0008000C0008000E00080200000802020008020400080206000802080008020A0008020C0008020E00080400000804020008040400080406000804080
310
008040A0008040C0008040E00080600000806020008060400080606000806080008060A0008060C0008060E00080800000808020008080400080806000808080008080A0008080C0008080E00080A0000080A0200080A0400080A0600080A0800080A0A00080A0C00080A0E00080C0000080C0200080C0400080C0600080C0
310
800080C0A00080C0C00080C0E00080E0000080E0200080E0400080E0600080E0800080E0A00080E0C00080E0E000C0000000C0002000C0004000C0006000C0008000C000A000C000C000C000E000C0200000C0202000C0204000C0206000C0208000C020A000C020C000C020E000C0400000C0402000C0404000C0406000C0
310
408000C040A000C040C000C040E000C0600000C0602000C0604000C0606000C0608000C060A000C060C000C060E000C0800000C0802000C0804000C0806000C0808000C080A000C080C000C080E000C0A00000C0A02000C0A04000C0A06000C0A08000C0A0A000C0A0C000C0A0E000C0C00000C0C02000C0C04000C0C06000
310
C0C08000C0C0A000F0FBFF00A4A0A000808080000000FF0000FF000000FFFF00FF000000FF00FF00FFFF0000FFFFFF00FFFFFFFFFFFFFFFFFFFFFFFFFFFFFFFFFFFFFFFFFFFFFFFFFFFFFFFFFFFFFFFFFFFFFFFFFFFFFFFFFFFFFFFFFFFFFFFFFFFFFFFFFFFFFFFFFFFFFFFFFFFFFFFFFFFFFFFFFFFFFFFFFFFFFFFFFFFFFF
310
FFFFFFFFFFFFFFFFFFFFFFFFFFFFFFFFFFFFFFFFFFFFFFFFFFFFFFFFFFFFFFFFFFFFFFFFFFFFFFFFFFFFFFFFFFFFFFFFFFFFFFFFFFFFFFFFFFFFFFFFFFFFFFFFFFFFFFFFFFFFFFFFFFFFFFFFFFFFFFFFFFFFFFFFFFFFFFFFFFFFFFFFFFFFFFFFFFFFFFFFFFFFFFFFFFFFFFFFFFFFFFFFFFFFFFFFFFFFFFFFFFFFFFFFFFFFFF
310
FFFFFFFFFFFFFFFFFFFFFFFFFFFFFFFFFFFFFFFFFFFFFFFFFFFFFFFFFFFFFFFFFFFFFFFFFFFFFFFFFFFFFFFFFFFFFFFFFFFFFFFFFFFFFFFFFFFFFFFFFFFFFFFFFFFFFFFFFFFFFFFFFFFFFFFFFFFFFFFFFFFFFFFFFFFFFFFFFFFFFFFFFFFFFFFFFFFFFFFFFFFFFFFFFFFFFFFFFFFFFFFFFFFFFFFFFFFFFFFFFFFFFFFFFFFFFF
310
FFFFFFFFFFFFFFFFFFFFFFFFFFFFFFFFFFFFFFFF000000000000000000000000000000000000000000000000000000000000FFFF000000000000000000000000000000000000000000000000000000000000FFFF000000000000000000000000000000000000000000000000000000000000FFFF0000000000000000000000
310
00000000000000000000000000000000000000FFFF000000000000000000000000000000000000000000000000000000000000FFFF000000000000000000000000000000000000000000000000000000000000FFFF000000000000000000000000000000000000000000000000000000000000FFFF00000000000000000000
310
0000000000000000000000000000000000000000FFFF000000FFFFFF0000FFFFFF0000FFFFFFFF0000FFFFFF0000FFFFFF000000FFFF000000000000000000000000000000000000000000000000000000000000FFFFFFFFFFFFFFFFFFFFFFFFFFFFFFFFFFFFFFFFFFFFFFFFFFFFFFFFFFFFFFFFFFFFFFFFFFFFFFFFFFFFFF
310
FFFFFFFFFFFFFFFFFFFFFFFFFFFFFFFFFFFFFFFFFFFFFFFFFFFFFFFFFFFFFFFFFFFFFFFFFFFFFFFFFFFFFFFFFFFFFFFFFFFFFFFFFFFFFFFFFFFFFFFFFFFFFFFFFFFFFFFFFFFFFFFFFFFFFFFFFFFFFFFFFFFFFFFFFFFFFFFFFFFFFFFFFFFFFFFFFFFFFFFFFFFFFFFFFFFFFFFFFFFFFFFFFFFFFFFFFFFFFFFFFFFFFFFFFFFFFF
310
FFFFFFFFFFFFFFFFFFFFFFFFFFFFFFFFFFFFFFFFFFFFFFFFFFFFFFFFFFFFFFFFFFFFFFFFFFFFFFFFFFFFFFFFFFFFFFFFFFFFFFFFFFFFFFFFFFFFFFFFFFFFFFFFFFFFFFFFFFFFFFFFFFFFFFFFFFFFFFFFFFFFFFFFFFFFFFFFFFFFFFFFFFFFFFFFFFFFFFFFFFFFFFFFFFFFFFFFFFFFFFFFFFFFFFFFFFFFFFFFFFFFFFFFFFFFFF
310
FFFFFFFFFFFFFFFFFFFFFFFFFFFFFFFFFFFFFFFFFFFFFFFFFFFFFFFFFFFFFFFFFFFFFFFFFFFFFFFFFFFFFFFFFFFFFFFFFFFFFFFFFFFFFFFF
  0
BLOCK_RECORD
  5
4960
330
1
100
AcDbSymbolTableRecord
100
AcDbBlockTableRecord
  2
UF2361-AX-3P
340
0
310
2800000020000000200000000100080000000000000400000000000000000000000000000000000000000000000080000080000000808000800000008000800080800000C0C0C000C0DCC000F0CAA6000020400000206000002080000020A0000020C0000020E00000400000004020000040400000406000004080000040A0
310
000040C0000040E00000600000006020000060400000606000006080000060A0000060C0000060E00000800000008020000080400000806000008080000080A0000080C0000080E00000A0000000A0200000A0400000A0600000A0800000A0A00000A0C00000A0E00000C0000000C0200000C0400000C0600000C0800000C0
310
A00000C0C00000C0E00000E0000000E0200000E0400000E0600000E0800000E0A00000E0C00000E0E00040000000400020004000400040006000400080004000A0004000C0004000E00040200000402020004020400040206000402080004020A0004020C0004020E000404000004040200040404000404060004040800040
310
40A0004040C0004040E00040600000406020004060400040606000406080004060A0004060C0004060E00040800000408020004080400040806000408080004080A0004080C0004080E00040A0000040A0200040A0400040A0600040A0800040A0A00040A0C00040A0E00040C0000040C0200040C0400040C0600040C08000
310
40C0A00040C0C00040C0E00040E0000040E0200040E0400040E0600040E0800040E0A00040E0C00040E0E00080000000800020008000400080006000800080008000A0008000C0008000E00080200000802020008020400080206000802080008020A0008020C0008020E00080400000804020008040400080406000804080
310
008040A0008040C0008040E00080600000806020008060400080606000806080008060A0008060C0008060E00080800000808020008080400080806000808080008080A0008080C0008080E00080A0000080A0200080A0400080A0600080A0800080A0A00080A0C00080A0E00080C0000080C0200080C0400080C0600080C0
310
800080C0A00080C0C00080C0E00080E0000080E0200080E0400080E0600080E0800080E0A00080E0C00080E0E000C0000000C0002000C0004000C0006000C0008000C000A000C000C000C000E000C0200000C0202000C0204000C0206000C0208000C020A000C020C000C020E000C0400000C0402000C0404000C0406000C0
310
408000C040A000C040C000C040E000C0600000C0602000C0604000C0606000C0608000C060A000C060C000C060E000C0800000C0802000C0804000C0806000C0808000C080A000C080C000C080E000C0A00000C0A02000C0A04000C0A06000C0A08000C0A0A000C0A0C000C0A0E000C0C00000C0C02000C0C04000C0C06000
310
C0C08000C0C0A000F0FBFF00A4A0A000808080000000FF0000FF000000FFFF00FF000000FF00FF00FFFF0000FFFFFF00FFFFFFFFFFFFFFFFFFFFFFFFFFFFFFFFFFFFFFFFFFFFFFFFFFFFFFFFFFFFFFFFFFFFFFFFFFFFFFFFFFFFFFFFFFFFFFFFFFFFFFFFFFFFFFFFFFFFFFFFFFFFFFFFFFFFFFFFFFFFFFFFFFFFFFFFFFFFFF
310
FFFFFFFFFFFFFFFFFFFFFFFFFFFFFFFFFFFFFFFFFFFFFFFFFFFFFFFFFFFFFFFFFFFFFFFFFFFFFFFFFFFFFFFFFFFFFFFFFFFFFFFFFFFFFFFFFFFFFFFFFFFFFFFFFFFFFFFFFFFFFFFFFFFFFFFFFFFFFFFFFFFFFFFFFFFFFFFFFFFFFFFFFFFFFFFFFFFFFFFFFFFFFFFFFFFFFFFFFFFFFFFFFFFFFFFFFFFFFFFFFFFFFFFFFFFFFF
310
FFFFFFFFFFFFFFFFFFFFFFFFFFFFFFFFFFFFFFFFFFFFFFFFFFFFFFFFFFFFFFFFFFFFFFFFFFFFFFFFFFFFFFFFFFFFFFFFFFFFFFFFFFFFFFFFFFFFFFFFFFFFFFFFFFFFFFFFFFFFFFFFFFFFFFFFFFFFFFFFFFFFFF000000000000000000000000000000000000000000000000000000000000FFFF0000FF000000000000000000
310
000000000000000000000000000000FF0000FFFF0000FF00FF00000000FF0000FF00000000FF0000FF00000000FF00FF0000FFFF0000FF000000000000000000000000000000000000000000000000FF0000FFFF0000FF0000FF000000FF0000FF00000000FF0000FF000000FF0000FF0000FFFF0000FF0000000000000000
310
00000000000000000000000000000000FF0000FFFF0000FF0000FFFFFF000000000000FFFF000000000000FFFFFF0000FF0000FFFF0000FF000000000000000000000000000000000000000000000000FF0000FFFF0000FF0000FF000000FF0000FF00000000FF0000FF000000FF0000FF0000FFFF0000FF00000000000000
310
0000000000000000000000000000000000FF0000FFFF0000FF00FF00000000FF0000FF00000000FF0000FF00000000FF00FF0000FFFF0000FF000000000000000000000000000000000000000000000000FF0000FFFF0000FF00FFFFFFFFFFFF0000FFFFFFFFFFFF0000FFFFFFFFFFFF00FF0000FFFF000000000000000000
310
000000000000000000000000000000000000000000FFFFFFFFFFFFFFFFFFFFFFFFFFFFFFFFFFFFFFFFFFFFFFFFFFFFFFFFFFFFFFFFFFFFFFFFFFFFFFFFFFFFFFFFFFFFFFFFFFFFFFFFFFFFFFFFFFFFFFFFFFFFFFFFFFFFFFFFFFFFFFFFFFFFFFFFFFFFFFFFFFFFFFFFFFFFFFFFFFFFFFFFFFFFFFFFFFFFFFFFFFFFFFFFFFFF
310
FFFFFFFFFFFFFFFFFFFFFFFFFFFFFFFFFFFFFFFFFFFFFFFFFFFFFFFFFFFFFFFFFFFFFFFFFFFFFFFFFFFFFFFFFFFFFFFFFFFFFFFFFFFFFFFFFFFFFFFFFFFFFFFFFFFFFFFFFFFFFFFFFFFFFFFFFFFFFFFFFFFFFFFFFFFFFFFFFFFFFFFFFFFFFFFFFFFFFFFFFFFFFFFFFFFFFFFFFFFFFFFFFFFFFFFFFFFFFFFFFFFFFFFFFFFFFF
310
FFFFFFFFFFFFFFFFFFFFFFFFFFFFFFFFFFFFFFFFFFFFFFFFFFFFFFFFFFFFFFFFFFFFFFFFFFFFFFFFFFFFFFFFFFFFFFFFFFFFFFFFFFFFFFFF
  0
BLOCK_RECORD
  5
546A
330
1
100
AcDbSymbolTableRecord
100
AcDbBlockTableRecord
  2
*D40
340
0
  0
BLOCK_RECORD
  5
5476
330
1
100
AcDbSymbolTableRecord
100
AcDbBlockTableRecord
  2
*D41
340
0
  0
BLOCK_RECORD
  5
5497
330
1
100
AcDbSymbolTableRecord
100
AcDbBlockTableRecord
  2
*D42
340
0
  0
BLOCK_RECORD
  5
54A2
330
1
100
AcDbSymbolTableRecord
100
AcDbBlockTableRecord
  2
*D43
340
0
  0
BLOCK_RECORD
  5
54AF
330
1
100
AcDbSymbolTableRecord
100
AcDbBlockTableRecord
  2
*D44
340
0
  0
BLOCK_RECORD
  5
54DC
330
1
100
AcDbSymbolTableRecord
100
AcDbBlockTableRecord
  2
*D45
340
0
  0
BLOCK_RECORD
  5
54E8
330
1
100
AcDbSymbolTableRecord
100
AcDbBlockTableRecord
  2
*D46
340
0
  0
BLOCK_RECORD
  5
5508
330
1
100
AcDbSymbolTableRecord
100
AcDbBlockTableRecord
  2
*D47
340
0
  0
BLOCK_RECORD
  5
5514
330
1
100
AcDbSymbolTableRecord
100
AcDbBlockTableRecord
  2
*D48
340
0
  0
ENDTAB
  0
ENDSEC
  0
SECTION
  2
BLOCKS
  0
BLOCK
  5
1B
330
1A
100
AcDbEntity
  8
0
100
AcDbBlockBegin
  2
*MODEL_SPACE
 70
     0
 10
0.0
 20
0.0
 30
0.0
  3
*MODEL_SPACE
  1

  0
ENDBLK
  5
1C
330
1A
100
AcDbEntity
  8
0
100
AcDbBlockEnd
  0
BLOCK
  5
18
330
17
100
AcDbEntity
 67
     1
  8
0
100
AcDbBlockBegin
  2
*PAPER_SPACE
 70
     0
 10
0.0
 20
0.0
 30
0.0
  3
*PAPER_SPACE
  1

  0
ENDBLK
  5
19
330
17
100
AcDbEntity
 67
     1
  8
0
100
AcDbBlockEnd
  0
BLOCK
  5
BB
330
BA
100
AcDbEntity
  8
0
100
AcDbBlockBegin
  2
_OPEN
 70
     0
 10
0.0
 20
0.0
 30
0.0
  3
_OPEN
  1

  0
LINE
  5
BC
330
BA
100
AcDbEntity
  8
0
  6
ByBlock
 62
     0
100
AcDbLine
 10
-1.0
 20
0.1666666666666666
 30
0.0
 11
0.0
 21
0.0
 31
0.0
  0
LINE
  5
BD
330
BA
100
AcDbEntity
  8
0
  6
ByBlock
 62
     0
100
AcDbLine
 10
0.0
 20
0.0
 30
0.0
 11
-1.0
 21
-0.1666666666666666
 31
0.0
  0
LINE
  5
BE
330
BA
100
AcDbEntity
  8
0
  6
ByBlock
 62
     0
100
AcDbLine
 10
0.0
 20
0.0
 30
0.0
 11
-1.0
 21
0.0
 31
0.0
  0
ENDBLK
  5
BF
330
BA
100
AcDbEntity
  8
0
100
AcDbBlockEnd
  0
BLOCK
  5
31E1
330
31AB
100
AcDbEntity
  8
0
100
AcDbBlockBegin
  2
GL8T156
 70
     0
 10
0.0
 20
0.0
 30
0.0
  3
GL8T156
  1

  0
LINE
  5
31AC
330
31AB
100
AcDbEntity
  8
0
100
AcDbLine
 10
2.675775514964556
 20
-0.7922863516687784
 30
0.0
 11
2.015586764921273
 21
-5.489773394785316
 31
0.0
  0
LINE
  5
31AD
330
31AB
100
AcDbEntity
  8
0
100
AcDbLine
 10
-2.91199241356935
 20
-0.8884842165792719
 30
0.0
 11
-3.548198981336447
 21
-5.415329166051279
 31
0.0
  0
LINE
  5
31AE
330
31AB
100
AcDbEntity
  8
0
100
AcDbLine
 10
-4.211759837402681
 20
-0.795924495638289
 30
0.0
 11
-4.952550799166324
 21
-6.066926075587261
 31
0.0
  0
LINE
  5
31AF
330
31AB
100
AcDbEntity
  8
0
100
AcDbLine
 10
3.979486475910974
 20
-0.8567863480361808
 30
0.0
 11
3.240910768424541
 21
-6.112025574773596
 31
0.0
  0
LINE
  5
31B0
330
31AB
100
AcDbEntity
  8
SUNPOU
100
AcDbLine
 10
-6.099999999999994
 20
-8.5
 30
0.0
 11
-5.099999999999994
 21
-8.5
 31
0.0
  0
LINE
  5
31B1
330
31AB
100
AcDbEntity
  8
SUNPOU
100
AcDbLine
 10
-6.099999999999994
 20
-8.5
 30
0.0
 11
-6.099999999999994
 21
-7.5
 31
0.0
  0
LINE
  5
31B2
330
31AB
100
AcDbEntity
  8
0
100
AcDbLine
 10
-3.384986714565705
 20
-5.670000000000001
 30
0.0
 11
1.775192656085643
 21
-5.669999999999987
 31
0.0
  0
LINE
  5
31B3
330
31AB
100
AcDbEntity
  8
0
100
AcDbLine
 10
-4.212074043303225
 20
-6.970000000000013
 30
0.0
 11
2.218416664806994
 21
-6.969999999999998
 31
0.0
  0
LINE
  5
31B4
330
31AB
100
AcDbEntity
  8
0
100
AcDbLine
 10
-4.696662004947064
 20
-6.379004065583686
 30
0.0
 11
-3.54819898133644
 21
-5.415329166051265
 31
0.0
  0
LINE
  5
31B5
330
31AB
100
AcDbEntity
  8
0
100
AcDbLine
 10
-4.506432628024441
 20
-6.611004852368495
 30
0.0
 11
-3.384986714565698
 21
-5.670000000000001
 31
0.0
  0
LINE
  5
31B6
330
31AB
100
AcDbEntity
  8
0
100
AcDbLine
 10
-4.506432628024427
 20
-6.611004852368495
 30
0.0
 11
-4.212074043303225
 21
-6.969999999999998
 31
0.0
  0
LINE
  5
31B7
330
31AB
100
AcDbEntity
  8
0
100
AcDbLine
 10
-4.952550799166317
 20
-6.066926075587247
 30
0.0
 11
-4.69666200494705
 21
-6.379004065583671
 31
0.0
  0
LINE
  5
31B8
330
31AB
100
AcDbEntity
  8
SUNPOU
100
AcDbLine
 10
6.100000000000001
 20
-8.5
 30
0.0
 11
5.100000000000001
 21
-8.5
 31
0.0
  0
LINE
  5
31B9
330
31AB
100
AcDbEntity
  8
SUNPOU
100
AcDbLine
 10
6.100000000000001
 20
-8.5
 30
0.0
 11
6.100000000000001
 21
-7.5
 31
0.0
  0
CIRCLE
  5
31BA
330
31AB
100
AcDbEntity
  8
0
100
AcDbCircle
 10
4.849358937108036
 20
-6.408660055945347
 30
0.0
 40
0.85
  0
LINE
  5
31BB
330
31AB
100
AcDbEntity
  8
0
100
AcDbLine
 10
2.82826051213356
 20
-6.458280252632533
 30
0.0
 11
3.240910768424548
 21
-6.112025574773554
 31
0.0
  0
LINE
  5
31BC
330
31AB
100
AcDbEntity
  8
0
100
AcDbLine
 10
2.01558676492128
 20
-5.489773394785316
 30
0.0
 11
2.828260512133574
 21
-6.458280252632533
 31
0.0
  0
LINE
  5
31BD
330
31AB
100
AcDbEntity
  8
0
100
AcDbLine
 10
1.775192656085636
 20
-5.669999999999973
 30
0.0
 11
2.598447179197904
 21
-6.651116535538491
 31
0.0
  0
LINE
  5
31BE
330
31AB
100
AcDbEntity
  8
0
100
AcDbLine
 10
2.218416664806994
 20
-6.969999999999998
 30
0.0
 11
2.598447179197897
 21
-6.651116535538477
 31
0.0
  0
LINE
  5
31BF
330
31AB
100
AcDbEntity
  8
SUNPOU
100
AcDbLine
 10
-6.099999999999994
 20
8.5
 30
0.0
 11
-5.099999999999994
 21
8.5
 31
0.0
  0
LINE
  5
31C0
330
31AB
100
AcDbEntity
  8
SUNPOU
100
AcDbLine
 10
-6.099999999999994
 20
8.5
 30
0.0
 11
-6.099999999999994
 21
7.5
 31
0.0
  0
LINE
  5
31C1
330
31AB
100
AcDbEntity
  8
0
100
AcDbLine
 10
-1.994494356115644
 20
5.639853681773089
 30
0.0
 11
-2.661076463361624
 21
0.8968755383920097
 31
0.0
  0
LINE
  5
31C2
330
31AB
100
AcDbEntity
  8
0
100
AcDbLine
 10
-3.211694822173541
 20
6.319907834138788
 30
0.0
 11
-3.980252509163094
 21
0.8513357382276751
 31
0.0
  0
LINE
  5
31C3
330
31AB
100
AcDbEntity
  8
0
100
AcDbLine
 10
3.581028835158313
 20
5.648925713925692
 30
0.0
 11
2.911226380317224
 21
0.8830336067707804
 31
0.0
  0
LINE
  5
31C4
330
31AB
100
AcDbEntity
  8
0
100
AcDbLine
 10
4.989417947570359
 20
6.329249467091884
 30
0.0
 11
4.226458889005613
 21
0.900513682361506
 31
0.0
  0
LINE
  5
31C5
330
31AB
100
AcDbEntity
  8
0
100
AcDbLine
 10
-2.720482244942978
 20
-0.6499999999999773
 30
0.0
 11
2.378628637684812
 21
-0.6500000000000057
 31
0.0
  0
LINE
  5
31C6
330
31AB
100
AcDbEntity
  8
0
100
AcDbLine
 10
-2.488574125105749
 20
0.6500000000000057
 30
0.0
 11
2.715142607010854
 21
0.6500000000000057
 31
0.0
  0
LINE
  5
31C7
330
31AB
100
AcDbEntity
  8
SUNPOU
100
AcDbLine
 10
0.0
 20
0.5
 30
0.0
 11
0.0
 21
-0.5
 31
0.0
  0
LINE
  5
31C8
330
31AB
100
AcDbEntity
  8
SUNPOU
100
AcDbLine
 10
-0.5
 20
0.0
 30
0.0
 11
0.5
 21
0.0
 31
0.0
  0
LINE
  5
31C9
330
31AB
100
AcDbEntity
  8
0
100
AcDbLine
 10
-3.264788435680245
 20
-0.0013211417175825
 30
0.0
 11
-2.488574125105749
 21
0.6500000000000057
 31
0.0
  0
LINE
  5
31CA
330
31AB
100
AcDbEntity
  8
0
100
AcDbLine
 10
-4.211759837402667
 20
-0.795924495638289
 30
0.0
 11
-3.4946017686159
 21
-0.1941574246234978
 31
0.0
  0
LINE
  5
31CB
330
31AB
100
AcDbEntity
  8
0
100
AcDbLine
 10
-3.264788435680237
 20
-0.0013211417175825
 30
0.0
 11
-2.720482244942985
 21
-0.6499999999999773
 31
0.0
  0
LINE
  5
31CC
330
31AB
100
AcDbEntity
  8
0
100
AcDbLine
 10
-3.980252509163086
 20
0.8513357382276893
 30
0.0
 11
-3.457624718586224
 21
0.2284921912181232
 31
0.0
  0
LINE
  5
31CD
330
31AB
100
AcDbEntity
  8
0
100
AcDbLine
 10
-3.457624718586224
 20
0.2284921912181232
 30
0.0
 11
-2.661076463361624
 21
0.8968755383919955
 31
0.0
  0
LINE
  5
31CE
330
31AB
100
AcDbEntity
  8
0
100
AcDbLine
 10
-3.494601768615886
 20
-0.1941574246234978
 30
0.0
 11
-2.911992413569329
 21
-0.8884842165792576
 31
0.0
  0
LINE
  5
31CF
330
31AB
100
AcDbEntity
  8
0
100
AcDbLine
 10
3.446041513507907
 20
0.2456657504170323
 30
0.0
 11
4.226458889005606
 21
0.9005136823614776
 31
0.0
  0
LINE
  5
31D0
330
31AB
100
AcDbEntity
  8
0
100
AcDbLine
 10
2.911226380317224
 20
0.8830336067707804
 30
0.0
 11
3.4460415135079
 21
0.2456657504170323
 31
0.0
  0
LINE
  5
31D1
330
31AB
100
AcDbEntity
  8
0
100
AcDbLine
 10
2.715142607010832
 20
0.6500000000000199
 30
0.0
 11
3.216228180572237
 21
0.0528294675110743
 31
0.0
  0
LINE
  5
31D2
330
31AB
100
AcDbEntity
  8
0
100
AcDbLine
 10
3.409064463478195
 20
-0.176983865424603
 30
0.0
 11
3.979486475910974
 21
-0.8567863480362092
 31
0.0
  0
LINE
  5
31D3
330
31AB
100
AcDbEntity
  8
0
100
AcDbLine
 10
2.378628637684805
 20
-0.6500000000000057
 30
0.0
 11
3.21622818057223
 21
0.0528294675110885
 31
0.0
  0
LINE
  5
31D4
330
31AB
100
AcDbEntity
  8
0
100
AcDbLine
 10
2.675775514964556
 20
-0.7922863516687784
 30
0.0
 11
3.409064463478195
 21
-0.176983865424603
 31
0.0
  0
LINE
  5
31D5
330
31AB
100
AcDbEntity
  8
0
100
AcDbLine
 10
-1.779205867433468
 20
5.849999999999994
 30
0.0
 11
3.353942689907547
 21
5.850000000000008
 31
0.0
  0
LINE
  5
31D6
330
31AB
100
AcDbEntity
  8
0
100
AcDbLine
 10
-2.22242950132415
 20
7.150000000000005
 30
0.0
 11
4.316442374307179
 21
7.149999999999991
 31
0.0
  0
LINE
  5
31D7
330
31AB
100
AcDbEntity
  8
0
100
AcDbLine
 10
-2.602460235674719
 20
6.831116350970418
 30
0.0
 11
-2.22242950132415
 21
7.149999999999991
 31
0.0
  0
LINE
  5
31D8
330
31AB
100
AcDbEntity
  8
0
100
AcDbLine
 10
-3.211694822173527
 20
6.319907834138845
 30
0.0
 11
-2.832273568610403
 21
6.638280068064474
 31
0.0
  0
LINE
  5
31D9
330
31AB
100
AcDbEntity
  8
0
100
AcDbLine
 10
-2.602460235674712
 20
6.831116350970418
 30
0.0
 11
-1.779205867433432
 21
5.849999999999994
 31
0.0
  0
LINE
  5
31DA
330
31AB
100
AcDbEntity
  8
0
100
AcDbLine
 10
-2.832273568610396
 20
6.63828006806446
 30
0.0
 11
-1.99449435611563
 21
5.639853681773075
 31
0.0
  0
LINE
  5
31DB
330
31AB
100
AcDbEntity
  8
SUNPOU
100
AcDbLine
 10
6.100000000000001
 20
8.5
 30
0.0
 11
6.100000000000001
 21
7.5
 31
0.0
  0
LINE
  5
31DC
330
31AB
100
AcDbEntity
  8
SUNPOU
100
AcDbLine
 10
6.100000000000001
 20
8.5
 30
0.0
 11
5.100000000000001
 21
8.5
 31
0.0
  0
LINE
  5
31DD
330
31AB
100
AcDbEntity
  8
0
100
AcDbLine
 10
4.745837574869895
 20
6.626316297809793
 30
0.0
 11
4.989417947570352
 21
6.329249467091884
 31
0.0
  0
LINE
  5
31DE
330
31AB
100
AcDbEntity
  8
0
100
AcDbLine
 10
3.353942689907583
 20
5.850000000000022
 30
0.0
 11
4.555608197947286
 21
6.858317084594617
 31
0.0
  0
LINE
  5
31DF
330
31AB
100
AcDbEntity
  8
0
100
AcDbLine
 10
3.581028835158313
 20
5.648925713925706
 30
0.0
 11
4.745837574869902
 21
6.626316297809793
 31
0.0
  0
LINE
  5
31E0
330
31AB
100
AcDbEntity
  8
0
100
AcDbLine
 10
4.316442374307193
 20
7.149999999999991
 30
0.0
 11
4.555608197947279
 21
6.858317084594588
 31
0.0
  0
ENDBLK
  5
31E2
330
31AB
100
AcDbEntity
  8
0
100
AcDbBlockEnd
  0
BLOCK
  5
3F6E
330
3F6B
100
AcDbEntity
  8
0
100
AcDbBlockBegin
  2
A$C78786D43
 70
     0
 10
0.0
 20
0.0
 30
0.0
  3
A$C78786D43
  1

  0
LWPOLYLINE
  5
3F6C
330
3F6B
100
AcDbEntity
  8
0
100
AcDbPolyline
 90
       13
 70
     0
 43
0.0
 10
3.354999994991857
 20
3.354999900568259
 10
4.574999994991856
 20
3.354999900568259
 10
4.574999994991856
 20
2.13499990056826
 10
3.354999994991857
 20
2.13499990056826
 10
3.354999994991857
 20
0.9149999005682332
 10
2.134999994991858
 20
0.9149999005682332
 10
2.134999994991858
 20
2.13499990056826
 10
0.9149999949918594
 20
2.13499990056826
 10
0.9149999949918594
 20
3.354999900568259
 10
2.134999994991858
 20
3.354999900568259
 10
2.134999994991858
 20
4.574999900568258
 10
3.354999994991857
 20
4.574999900568258
 10
3.354999994991857
 20
3.354999900568259
  0
CIRCLE
  5
3F6D
330
3F6B
100
AcDbEntity
  8
0
100
AcDbCircle
 10
2.744999994991871
 20
2.744999900568245
 30
0.0
 40
2.745
  0
ENDBLK
  5
3F6F
330
3F6B
100
AcDbEntity
  8
0
100
AcDbBlockEnd
  0
BLOCK
  5
4318
330
4263
100
AcDbEntity
  8
0
100
AcDbBlockBegin
  2
A$C7DFB2200
 70
     0
 10
0.0
 20
0.0
 30
0.0
  3
A$C7DFB2200
  1

  0
LINE
  5
4264
330
4263
100
AcDbEntity
  8
0
100
AcDbLine
 10
0.0000003923571512
 20
71.76000032624847
 30
0.0
 11
12.00000039235709
 21
71.76000032624841
 31
0.0
  0
LINE
  5
4265
330
4263
100
AcDbEntity
  8
0
100
AcDbLine
 10
0.0000003923571512
 20
70.76000032624847
 30
0.0
 11
12.00000039235709
 21
70.76000032624847
 31
0.0
  0
LINE
  5
4266
330
4263
100
AcDbEntity
  8
0
100
AcDbLine
 10
2.500000392357094
 20
65.61000032624838
 30
0.0
 11
3.300000392357105
 21
65.61000032624844
 31
0.0
  0
LINE
  5
4267
330
4263
100
AcDbEntity
  8
0
100
AcDbLine
 10
2.700000392357083
 20
64.86000032624843
 30
0.0
 11
3.500000392357094
 21
64.86000032624843
 31
0.0
  0
LINE
  5
4268
330
4263
100
AcDbEntity
  8
0
100
AcDbLine
 10
2.500000392357094
 20
67.11000032624844
 30
0.0
 11
3.300000392357105
 21
67.11000032624844
 31
0.0
  0
LINE
  5
4269
330
4263
100
AcDbEntity
  8
0
100
AcDbLine
 10
2.700000392357083
 20
67.86000032624844
 30
0.0
 11
3.500000392357094
 21
67.86000032624844
 31
0.0
  0
LINE
  5
426A
330
4263
100
AcDbEntity
  8
0
100
AcDbLine
 10
2.500000392357094
 20
67.11000032624844
 30
0.0
 11
2.500000392357094
 21
65.61000032624844
 31
0.0
  0
LINE
  5
426B
330
4263
100
AcDbEntity
  8
0
100
AcDbLine
 10
3.300000392357105
 20
67.11000032624844
 30
0.0
 11
3.300000392357105
 21
65.61000032624844
 31
0.0
  0
LINE
  5
426C
330
4263
100
AcDbEntity
  8
0
100
AcDbLine
 10
2.700000392357083
 20
67.86000032624844
 30
0.0
 11
2.700000392357083
 21
64.86000032624843
 31
0.0
  0
LINE
  5
426D
330
4263
100
AcDbEntity
  8
0
100
AcDbLine
 10
3.500000392357094
 20
69.56000032624842
 30
0.0
 11
3.500000392357094
 21
63.16000032624839
 31
0.0
  0
LINE
  5
426E
330
4263
100
AcDbEntity
  8
0
100
AcDbLine
 10
1.900000392357071
 20
69.56000032624842
 30
0.0
 11
1.900000392357071
 21
63.16000032624851
 31
0.0
  0
LINE
  5
426F
330
4263
100
AcDbEntity
  8
0
100
AcDbLine
 10
2.700000392357083
 20
60.24000032624844
 30
0.0
 11
2.700000392357083
 21
57.24000032624843
 31
0.0
  0
LINE
  5
4270
330
4263
100
AcDbEntity
  8
0
100
AcDbLine
 10
2.700000392357083
 20
60.24000032624844
 30
0.0
 11
3.500000392357094
 21
60.24000032624844
 31
0.0
  0
LINE
  5
4271
330
4263
100
AcDbEntity
  8
0
100
AcDbLine
 10
2.700000392357083
 20
57.24000032624843
 30
0.0
 11
3.500000392357094
 21
57.24000032624843
 31
0.0
  0
LINE
  5
4272
330
4263
100
AcDbEntity
  8
0
100
AcDbLine
 10
2.500000392357094
 20
59.49000032624844
 30
0.0
 11
3.300000392357105
 21
59.49000032624844
 31
0.0
  0
LINE
  5
4273
330
4263
100
AcDbEntity
  8
0
100
AcDbLine
 10
2.500000392357094
 20
57.99000032624838
 30
0.0
 11
3.300000392357105
 21
57.99000032624843
 31
0.0
  0
LINE
  5
4274
330
4263
100
AcDbEntity
  8
0
100
AcDbLine
 10
2.500000392357094
 20
59.49000032624844
 30
0.0
 11
2.500000392357094
 21
57.99000032624843
 31
0.0
  0
LINE
  5
4275
330
4263
100
AcDbEntity
  8
0
100
AcDbLine
 10
3.300000392357105
 20
59.49000032624844
 30
0.0
 11
3.300000392357105
 21
57.99000032624843
 31
0.0
  0
LINE
  5
4276
330
4263
100
AcDbEntity
  8
0
100
AcDbLine
 10
2.700000392357083
 20
52.62000032624843
 30
0.0
 11
3.500000392357094
 21
52.62000032624843
 31
0.0
  0
LINE
  5
4277
330
4263
100
AcDbEntity
  8
0
100
AcDbLine
 10
2.500000392357094
 20
51.87000032624843
 30
0.0
 11
3.300000392357105
 21
51.87000032624843
 31
0.0
  0
LINE
  5
4278
330
4263
100
AcDbEntity
  8
0
100
AcDbLine
 10
3.500000392357094
 20
61.94000032624842
 30
0.0
 11
3.500000392357094
 21
55.54000032624845
 31
0.0
  0
LINE
  5
4279
330
4263
100
AcDbEntity
  8
0
100
AcDbLine
 10
1.900000392357071
 20
61.94000032624842
 30
0.0
 11
1.900000392357071
 21
55.5400003262485
 31
0.0
  0
LINE
  5
427A
330
4263
100
AcDbEntity
  8
0
100
AcDbLine
 10
9.500000392357094
 20
64.86000032624843
 30
0.0
 11
10.3000003923571
 21
64.86000032624843
 31
0.0
  0
LINE
  5
427B
330
4263
100
AcDbEntity
  8
0
100
AcDbLine
 10
9.500000392357094
 20
67.86000032624844
 30
0.0
 11
10.3000003923571
 21
67.86000032624844
 31
0.0
  0
LINE
  5
427C
330
4263
100
AcDbEntity
  8
0
100
AcDbLine
 10
10.3000003923571
 20
67.86000032624844
 30
0.0
 11
10.3000003923571
 21
64.86000032624843
 31
0.0
  0
LINE
  5
427D
330
4263
100
AcDbEntity
  8
0
100
AcDbLine
 10
9.500000392357094
 20
69.56000032624849
 30
0.0
 11
9.500000392357094
 21
63.16000032624839
 31
0.0
  0
LINE
  5
427E
330
4263
100
AcDbEntity
  8
0
100
AcDbLine
 10
9.500000392357094
 20
69.56000032624849
 30
0.0
 11
9.500000392357094
 21
63.16000032624839
 31
0.0
  0
LINE
  5
427F
330
4263
100
AcDbEntity
  8
0
100
AcDbLine
 10
11.10000039235706
 20
69.56000032624849
 30
0.0
 11
11.10000039235706
 21
63.16000032624839
 31
0.0
  0
LINE
  5
4280
330
4263
100
AcDbEntity
  8
0
100
AcDbLine
 10
10.3000003923571
 20
60.24000032624844
 30
0.0
 11
10.3000003923571
 21
57.24000032624843
 31
0.0
  0
LINE
  5
4281
330
4263
100
AcDbEntity
  8
0
100
AcDbLine
 10
9.500000392357094
 20
60.24000032624844
 30
0.0
 11
10.3000003923571
 21
60.24000032624844
 31
0.0
  0
LINE
  5
4282
330
4263
100
AcDbEntity
  8
0
100
AcDbLine
 10
9.500000392357094
 20
57.24000032624843
 30
0.0
 11
10.3000003923571
 21
57.24000032624843
 31
0.0
  0
LINE
  5
4283
330
4263
100
AcDbEntity
  8
0
100
AcDbLine
 10
9.500000392357094
 20
52.62000032624843
 30
0.0
 11
10.3000003923571
 21
52.62000032624843
 31
0.0
  0
LINE
  5
4284
330
4263
100
AcDbEntity
  8
0
100
AcDbLine
 10
9.500000392357094
 20
61.94000032624842
 30
0.0
 11
9.500000392357094
 21
55.54000032624839
 31
0.0
  0
LINE
  5
4285
330
4263
100
AcDbEntity
  8
0
100
AcDbLine
 10
11.10000039235706
 20
61.94000032624848
 30
0.0
 11
11.10000039235706
 21
55.54000032624839
 31
0.0
  0
CIRCLE
  5
4286
330
4263
100
AcDbEntity
  8
0
100
AcDbCircle
 10
6.500000392357151
 20
66.36000032624844
 30
0.0
 40
2.75
  0
CIRCLE
  5
4287
330
4263
100
AcDbEntity
  8
0
100
AcDbCircle
 10
6.500000392357151
 20
58.74000032624843
 30
0.0
 40
2.75
  0
LINE
  5
4288
330
4263
100
AcDbEntity
  8
0
100
AcDbLine
 10
0.0000003923570944
 20
61.94000032624837
 30
0.0
 11
12.00000039235709
 21
61.94000032624842
 31
0.0
  0
LINE
  5
4289
330
4263
100
AcDbEntity
  8
0
100
AcDbLine
 10
0.0000003923570944
 20
63.14000032624841
 30
0.0
 11
12.00000039235709
 21
63.14000032624841
 31
0.0
  0
LINE
  5
428A
330
4263
100
AcDbEntity
  8
0
100
AcDbLine
 10
0.0000003923570944
 20
55.5400003262485
 30
0.0
 11
12.00000039235709
 21
55.54000032624845
 31
0.0
  0
LINE
  5
428B
330
4263
100
AcDbEntity
  8
SUNPOU
100
AcDbLine
 10
8.000000392357094
 20
60.24000032624844
 30
0.0
 11
5.000000392357094
 21
57.24000032624843
 31
0.0
  0
LINE
  5
428C
330
4263
100
AcDbEntity
  8
SUNPOU
100
AcDbLine
 10
8.000000392357094
 20
57.24000032624843
 30
0.0
 11
5.000000392357094
 21
60.24000032624844
 31
0.0
  0
LINE
  5
428D
330
4263
100
AcDbEntity
  8
0
100
AcDbLine
 10
0.0000003923570944
 20
54.32000032624836
 30
0.0
 11
12.00000039235709
 21
54.32000032624841
 31
0.0
  0
LINE
  5
428E
330
4263
100
AcDbEntity
  8
0
100
AcDbLine
 10
0.0000003923570944
 20
69.56000032624837
 30
0.0
 11
12.00000039235709
 21
69.56000032624842
 31
0.0
  0
LINE
  5
428F
330
4263
100
AcDbEntity
  8
SUNPOU
100
AcDbLine
 10
8.000000392357094
 20
64.86000032624843
 30
0.0
 11
5.000000392357094
 21
67.86000032624844
 31
0.0
  0
LINE
  5
4290
330
4263
100
AcDbEntity
  8
SUNPOU
100
AcDbLine
 10
8.000000392357094
 20
67.86000032624844
 30
0.0
 11
5.000000392357094
 21
64.86000032624843
 31
0.0
  0
LINE
  5
4291
330
4263
100
AcDbEntity
  8
0
100
AcDbLine
 10
2.700000392357083
 20
45.00000032624842
 30
0.0
 11
3.500000392357094
 21
45.00000032624842
 31
0.0
  0
LINE
  5
4292
330
4263
100
AcDbEntity
  8
0
100
AcDbLine
 10
2.700000392357083
 20
49.62000032624843
 30
0.0
 11
3.500000392357094
 21
49.62000032624843
 31
0.0
  0
LINE
  5
4293
330
4263
100
AcDbEntity
  8
0
100
AcDbLine
 10
2.500000392357094
 20
50.37000032624837
 30
0.0
 11
3.300000392357105
 21
50.37000032624843
 31
0.0
  0
LINE
  5
4294
330
4263
100
AcDbEntity
  8
0
100
AcDbLine
 10
2.500000392357094
 20
44.25000032624843
 30
0.0
 11
3.300000392357105
 21
44.25000032624843
 31
0.0
  0
LINE
  5
4295
330
4263
100
AcDbEntity
  8
0
100
AcDbLine
 10
2.500000392357094
 20
42.75000032624837
 30
0.0
 11
3.300000392357105
 21
42.75000032624842
 31
0.0
  0
LINE
  5
4296
330
4263
100
AcDbEntity
  8
0
100
AcDbLine
 10
2.700000392357083
 20
42.00000032624842
 30
0.0
 11
3.500000392357094
 21
42.00000032624842
 31
0.0
  0
LINE
  5
4297
330
4263
100
AcDbEntity
  8
0
100
AcDbLine
 10
2.500000392357094
 20
44.25000032624843
 30
0.0
 11
2.500000392357094
 21
42.75000032624842
 31
0.0
  0
LINE
  5
4298
330
4263
100
AcDbEntity
  8
0
100
AcDbLine
 10
3.300000392357105
 20
44.25000032624843
 30
0.0
 11
3.300000392357105
 21
42.75000032624842
 31
0.0
  0
LINE
  5
4299
330
4263
100
AcDbEntity
  8
0
100
AcDbLine
 10
3.500000392357094
 20
46.70000032624841
 30
0.0
 11
3.500000392357094
 21
40.30000032624838
 31
0.0
  0
LINE
  5
429A
330
4263
100
AcDbEntity
  8
0
100
AcDbLine
 10
1.900000392357071
 20
46.70000032624841
 30
0.0
 11
1.900000392357071
 21
40.30000032624849
 31
0.0
  0
LINE
  5
429B
330
4263
100
AcDbEntity
  8
0
100
AcDbLine
 10
2.700000392357083
 20
45.00000032624842
 30
0.0
 11
2.700000392357083
 21
42.00000032624842
 31
0.0
  0
LINE
  5
429C
330
4263
100
AcDbEntity
  8
0
100
AcDbLine
 10
2.700000392357083
 20
37.38000032624842
 30
0.0
 11
2.700000392357083
 21
34.38000032624842
 31
0.0
  0
LINE
  5
429D
330
4263
100
AcDbEntity
  8
0
100
AcDbLine
 10
2.500000392357094
 20
35.13000032624836
 30
0.0
 11
3.300000392357105
 21
35.13000032624842
 31
0.0
  0
LINE
  5
429E
330
4263
100
AcDbEntity
  8
0
100
AcDbLine
 10
2.500000392357094
 20
36.63000032624842
 30
0.0
 11
3.300000392357105
 21
36.63000032624842
 31
0.0
  0
LINE
  5
429F
330
4263
100
AcDbEntity
  8
0
100
AcDbLine
 10
2.700000392357083
 20
37.38000032624842
 30
0.0
 11
3.500000392357094
 21
37.38000032624842
 31
0.0
  0
LINE
  5
42A0
330
4263
100
AcDbEntity
  8
0
100
AcDbLine
 10
3.300000392357105
 20
36.63000032624842
 30
0.0
 11
3.300000392357105
 21
35.13000032624842
 31
0.0
  0
LINE
  5
42A1
330
4263
100
AcDbEntity
  8
0
100
AcDbLine
 10
2.500000392357094
 20
36.63000032624842
 30
0.0
 11
2.500000392357094
 21
35.13000032624842
 31
0.0
  0
LINE
  5
42A2
330
4263
100
AcDbEntity
  8
0
100
AcDbLine
 10
2.700000392357083
 20
34.38000032624842
 30
0.0
 11
3.500000392357094
 21
34.38000032624842
 31
0.0
  0
LINE
  5
42A3
330
4263
100
AcDbEntity
  8
0
100
AcDbLine
 10
2.700000392357083
 20
29.76000032624842
 30
0.0
 11
2.700000392357083
 21
26.76000032624842
 31
0.0
  0
LINE
  5
42A4
330
4263
100
AcDbEntity
  8
0
100
AcDbLine
 10
3.300000392357105
 20
29.01000032624842
 30
0.0
 11
3.300000392357105
 21
27.51000032624842
 31
0.0
  0
LINE
  5
42A5
330
4263
100
AcDbEntity
  8
0
100
AcDbLine
 10
2.500000392357094
 20
29.01000032624842
 30
0.0
 11
2.500000392357094
 21
27.51000032624842
 31
0.0
  0
LINE
  5
42A6
330
4263
100
AcDbEntity
  8
0
100
AcDbLine
 10
2.500000392357094
 20
29.01000032624842
 30
0.0
 11
3.300000392357105
 21
29.01000032624842
 31
0.0
  0
LINE
  5
42A7
330
4263
100
AcDbEntity
  8
0
100
AcDbLine
 10
2.700000392357083
 20
29.76000032624842
 30
0.0
 11
3.500000392357094
 21
29.76000032624842
 31
0.0
  0
LINE
  5
42A8
330
4263
100
AcDbEntity
  8
0
100
AcDbLine
 10
2.500000392357094
 20
27.51000032624836
 30
0.0
 11
3.300000392357105
 21
27.51000032624842
 31
0.0
  0
LINE
  5
42A9
330
4263
100
AcDbEntity
  8
0
100
AcDbLine
 10
2.700000392357083
 20
26.76000032624842
 30
0.0
 11
3.500000392357094
 21
26.76000032624842
 31
0.0
  0
LINE
  5
42AA
330
4263
100
AcDbEntity
  8
0
100
AcDbLine
 10
1.900000392357071
 20
39.08000032624841
 30
0.0
 11
1.900000392357071
 21
32.68000032624849
 31
0.0
  0
LINE
  5
42AB
330
4263
100
AcDbEntity
  8
0
100
AcDbLine
 10
3.500000392357094
 20
39.08000032624841
 30
0.0
 11
3.500000392357094
 21
32.68000032624843
 31
0.0
  0
LINE
  5
42AC
330
4263
100
AcDbEntity
  8
0
100
AcDbLine
 10
9.500000392357094
 20
45.00000032624842
 30
0.0
 11
10.30000039235705
 21
45.00000032624842
 31
0.0
  0
LINE
  5
42AD
330
4263
100
AcDbEntity
  8
0
100
AcDbLine
 10
9.500000392357094
 20
49.62000032624843
 30
0.0
 11
10.3000003923571
 21
49.62000032624843
 31
0.0
  0
LINE
  5
42AE
330
4263
100
AcDbEntity
  8
0
100
AcDbLine
 10
9.500000392357094
 20
42.00000032624842
 30
0.0
 11
10.30000039235705
 21
42.00000032624842
 31
0.0
  0
LINE
  5
42AF
330
4263
100
AcDbEntity
  8
0
100
AcDbLine
 10
9.500000392357094
 20
46.70000032624847
 30
0.0
 11
9.500000392357094
 21
40.30000032624838
 31
0.0
  0
LINE
  5
42B0
330
4263
100
AcDbEntity
  8
0
100
AcDbLine
 10
9.500000392357094
 20
46.70000032624847
 30
0.0
 11
9.500000392357094
 21
40.30000032624838
 31
0.0
  0
LINE
  5
42B1
330
4263
100
AcDbEntity
  8
0
100
AcDbLine
 10
11.10000039235706
 20
46.70000032624847
 30
0.0
 11
11.10000039235706
 21
40.30000032624838
 31
0.0
  0
LINE
  5
42B2
330
4263
100
AcDbEntity
  8
0
100
AcDbLine
 10
10.30000039235705
 20
45.00000032624842
 30
0.0
 11
10.30000039235705
 21
42.00000032624842
 31
0.0
  0
LINE
  5
42B3
330
4263
100
AcDbEntity
  8
0
100
AcDbLine
 10
10.30000039235705
 20
37.38000032624842
 30
0.0
 11
10.30000039235705
 21
34.38000032624842
 31
0.0
  0
LINE
  5
42B4
330
4263
100
AcDbEntity
  8
0
100
AcDbLine
 10
9.500000392357094
 20
37.38000032624842
 30
0.0
 11
10.30000039235705
 21
37.38000032624842
 31
0.0
  0
LINE
  5
42B5
330
4263
100
AcDbEntity
  8
0
100
AcDbLine
 10
9.500000392357094
 20
34.38000032624842
 30
0.0
 11
10.30000039235705
 21
34.38000032624842
 31
0.0
  0
LINE
  5
42B6
330
4263
100
AcDbEntity
  8
0
100
AcDbLine
 10
10.30000039235705
 20
29.76000032624842
 30
0.0
 11
10.30000039235705
 21
26.76000032624842
 31
0.0
  0
LINE
  5
42B7
330
4263
100
AcDbEntity
  8
0
100
AcDbLine
 10
9.500000392357094
 20
29.76000032624842
 30
0.0
 11
10.30000039235705
 21
29.76000032624842
 31
0.0
  0
LINE
  5
42B8
330
4263
100
AcDbEntity
  8
0
100
AcDbLine
 10
9.500000392357094
 20
26.76000032624842
 30
0.0
 11
10.30000039235705
 21
26.76000032624842
 31
0.0
  0
LINE
  5
42B9
330
4263
100
AcDbEntity
  8
0
100
AcDbLine
 10
11.10000039235706
 20
39.08000032624847
 30
0.0
 11
11.10000039235706
 21
32.68000032624838
 31
0.0
  0
LINE
  5
42BA
330
4263
100
AcDbEntity
  8
0
100
AcDbLine
 10
9.500000392357094
 20
39.08000032624841
 30
0.0
 11
9.500000392357094
 21
32.68000032624838
 31
0.0
  0
LINE
  5
42BB
330
4263
100
AcDbEntity
  8
SUNPOU
100
AcDbLine
 10
8.000000392357094
 20
29.76000032624842
 30
0.0
 11
5.000000392357094
 21
26.76000032624842
 31
0.0
  0
LINE
  5
42BC
330
4263
100
AcDbEntity
  8
SUNPOU
100
AcDbLine
 10
8.000000392357094
 20
26.76000032624842
 30
0.0
 11
5.000000392357094
 21
29.76000032624842
 31
0.0
  0
LINE
  5
42BD
330
4263
100
AcDbEntity
  8
0
100
AcDbLine
 10
0.0000003923570944
 20
46.70000032624836
 30
0.0
 11
12.00000039235709
 21
46.70000032624841
 31
0.0
  0
LINE
  5
42BE
330
4263
100
AcDbEntity
  8
SUNPOU
100
AcDbLine
 10
8.000000392357094
 20
34.38000032624842
 30
0.0
 11
5.000000392357094
 21
37.38000032624842
 31
0.0
  0
LINE
  5
42BF
330
4263
100
AcDbEntity
  8
SUNPOU
100
AcDbLine
 10
8.000000392357094
 20
37.38000032624842
 30
0.0
 11
5.000000392357094
 21
34.38000032624842
 31
0.0
  0
LINE
  5
42C0
330
4263
100
AcDbEntity
  8
0
100
AcDbLine
 10
0.0000003923570944
 20
39.08000032624835
 30
0.0
 11
12.00000039235709
 21
39.08000032624841
 31
0.0
  0
LINE
  5
42C1
330
4263
100
AcDbEntity
  8
0
100
AcDbLine
 10
0.0000003923570944
 20
40.2800003262484
 30
0.0
 11
12.00000039235709
 21
40.2800003262484
 31
0.0
  0
CIRCLE
  5
42C2
330
4263
100
AcDbEntity
  8
0
100
AcDbCircle
 10
6.500000392357151
 20
43.50000032624842
 30
0.0
 40
2.75
  0
LINE
  5
42C3
330
4263
100
AcDbEntity
  8
SUNPOU
100
AcDbLine
 10
8.000000392357094
 20
42.00000032624842
 30
0.0
 11
5.000000392357094
 21
45.00000032624842
 31
0.0
  0
LINE
  5
42C4
330
4263
100
AcDbEntity
  8
SUNPOU
100
AcDbLine
 10
8.000000392357094
 20
45.00000032624842
 30
0.0
 11
5.000000392357094
 21
42.00000032624842
 31
0.0
  0
LINE
  5
42C5
330
4263
100
AcDbEntity
  8
0
100
AcDbLine
 10
0.0000003923570944
 20
31.46000032624835
 30
0.0
 11
12.00000039235709
 21
31.4600003262484
 31
0.0
  0
LINE
  5
42C6
330
4263
100
AcDbEntity
  8
0
100
AcDbLine
 10
0.0000003923570944
 20
32.68000032624849
 30
0.0
 11
12.00000039235709
 21
32.68000032624843
 31
0.0
  0
CIRCLE
  5
42C7
330
4263
100
AcDbEntity
  8
0
100
AcDbCircle
 10
6.500000392357151
 20
35.88000032624842
 30
0.0
 40
2.75
  0
LINE
  5
42C8
330
4263
100
AcDbEntity
  8
0
100
AcDbLine
 10
0.0000003923570944
 20
47.9200003262485
 30
0.0
 11
12.00000039235709
 21
47.92000032624843
 31
0.0
  0
LINE
  5
42C9
330
4263
100
AcDbEntity
  8
0
100
AcDbLine
 10
2.700000392357083
 20
22.14000032624841
 30
0.0
 11
3.500000392357094
 21
22.14000032624841
 31
0.0
  0
LINE
  5
42CA
330
4263
100
AcDbEntity
  8
0
100
AcDbLine
 10
2.500000392357094
 20
21.39000032624841
 30
0.0
 11
3.300000392357105
 21
21.39000032624841
 31
0.0
  0
LINE
  5
42CB
330
4263
100
AcDbEntity
  8
0
100
AcDbLine
 10
2.700000392357083
 20
14.52000032624841
 30
0.0
 11
3.500000392357094
 21
14.52000032624841
 31
0.0
  0
LINE
  5
42CC
330
4263
100
AcDbEntity
  8
0
100
AcDbLine
 10
2.700000392357083
 20
19.14000032624841
 30
0.0
 11
3.500000392357094
 21
19.14000032624841
 31
0.0
  0
LINE
  5
42CD
330
4263
100
AcDbEntity
  8
0
100
AcDbLine
 10
2.500000392357094
 20
19.89000032624835
 30
0.0
 11
3.300000392357105
 21
19.89000032624841
 31
0.0
  0
LINE
  5
42CE
330
4263
100
AcDbEntity
  8
0
100
AcDbLine
 10
1.900000392357071
 20
23.8400003262484
 30
0.0
 11
1.900000392357071
 21
17.44000032624848
 31
0.0
  0
LINE
  5
42CF
330
4263
100
AcDbEntity
  8
0
100
AcDbLine
 10
3.500000392357094
 20
23.8400003262484
 30
0.0
 11
3.500000392357094
 21
17.44000032624837
 31
0.0
  0
LINE
  5
42D0
330
4263
100
AcDbEntity
  8
0
100
AcDbLine
 10
2.700000392357083
 20
22.14000032624841
 30
0.0
 11
2.700000392357083
 21
19.14000032624841
 31
0.0
  0
LINE
  5
42D1
330
4263
100
AcDbEntity
  8
0
100
AcDbLine
 10
3.300000392357105
 20
21.39000032624841
 30
0.0
 11
3.300000392357105
 21
19.89000032624841
 31
0.0
  0
LINE
  5
42D2
330
4263
100
AcDbEntity
  8
0
100
AcDbLine
 10
2.500000392357094
 20
21.39000032624841
 30
0.0
 11
2.500000392357094
 21
19.89000032624841
 31
0.0
  0
LINE
  5
42D3
330
4263
100
AcDbEntity
  8
0
100
AcDbLine
 10
2.500000392357094
 20
13.77000032624841
 30
0.0
 11
3.300000392357105
 21
13.77000032624841
 31
0.0
  0
LINE
  5
42D4
330
4263
100
AcDbEntity
  8
0
100
AcDbLine
 10
2.500000392357094
 20
12.27000032624835
 30
0.0
 11
3.300000392357105
 21
12.27000032624841
 31
0.0
  0
LINE
  5
42D5
330
4263
100
AcDbEntity
  8
0
100
AcDbLine
 10
2.700000392357083
 20
11.5200003262484
 30
0.0
 11
3.500000392357094
 21
11.5200003262484
 31
0.0
  0
LINE
  5
42D6
330
4263
100
AcDbEntity
  8
0
100
AcDbLine
 10
3.300000392357105
 20
13.77000032624841
 30
0.0
 11
3.300000392357105
 21
12.27000032624841
 31
0.0
  0
LINE
  5
42D7
330
4263
100
AcDbEntity
  8
0
100
AcDbLine
 10
2.500000392357094
 20
13.77000032624841
 30
0.0
 11
2.500000392357094
 21
12.27000032624841
 31
0.0
  0
LINE
  5
42D8
330
4263
100
AcDbEntity
  8
0
100
AcDbLine
 10
2.700000392357083
 20
6.900000326248402
 30
0.0
 11
2.700000392357083
 21
3.900000326248402
 31
0.0
  0
LINE
  5
42D9
330
4263
100
AcDbEntity
  8
0
100
AcDbLine
 10
2.500000392357094
 20
4.650000326248346
 30
0.0
 11
3.300000392357105
 21
4.650000326248402
 31
0.0
  0
LINE
  5
42DA
330
4263
100
AcDbEntity
  8
0
100
AcDbLine
 10
2.500000392357094
 20
6.150000326248402
 30
0.0
 11
3.300000392357105
 21
6.150000326248402
 31
0.0
  0
LINE
  5
42DB
330
4263
100
AcDbEntity
  8
0
100
AcDbLine
 10
3.300000392357105
 20
6.150000326248402
 30
0.0
 11
3.300000392357105
 21
4.650000326248402
 31
0.0
  0
LINE
  5
42DC
330
4263
100
AcDbEntity
  8
0
100
AcDbLine
 10
2.500000392357094
 20
6.150000326248402
 30
0.0
 11
2.500000392357094
 21
4.650000326248402
 31
0.0
  0
LINE
  5
42DD
330
4263
100
AcDbEntity
  8
0
100
AcDbLine
 10
2.700000392357083
 20
3.900000326248402
 30
0.0
 11
3.500000392357094
 21
3.900000326248402
 31
0.0
  0
LINE
  5
42DE
330
4263
100
AcDbEntity
  8
0
100
AcDbLine
 10
2.700000392357083
 20
6.900000326248402
 30
0.0
 11
3.500000392357094
 21
6.900000326248402
 31
0.0
  0
LINE
  5
42DF
330
4263
100
AcDbEntity
  8
0
100
AcDbLine
 10
1.900000392357071
 20
8.600000326248391
 30
0.0
 11
1.900000392357071
 21
2.200000326248471
 31
0.0
  0
LINE
  5
42E0
330
4263
100
AcDbEntity
  8
0
100
AcDbLine
 10
3.500000392357094
 20
8.600000326248391
 30
0.0
 11
3.500000392357094
 21
2.200000326248471
 31
0.0
  0
LINE
  5
42E1
330
4263
100
AcDbEntity
  8
0
100
AcDbLine
 10
1.900000392357071
 20
16.22000032624839
 30
0.0
 11
1.900000392357071
 21
9.820000326248475
 31
0.0
  0
LINE
  5
42E2
330
4263
100
AcDbEntity
  8
0
100
AcDbLine
 10
3.500000392357094
 20
16.22000032624839
 30
0.0
 11
3.500000392357094
 21
9.820000326248418
 31
0.0
  0
LINE
  5
42E3
330
4263
100
AcDbEntity
  8
0
100
AcDbLine
 10
2.700000392357083
 20
14.52000032624841
 30
0.0
 11
2.700000392357083
 21
11.5200003262484
 31
0.0
  0
LINE
  5
42E4
330
4263
100
AcDbEntity
  8
0
100
AcDbLine
 10
9.500000392357094
 20
22.14000032624841
 30
0.0
 11
10.30000039235705
 21
22.14000032624841
 31
0.0
  0
LINE
  5
42E5
330
4263
100
AcDbEntity
  8
0
100
AcDbLine
 10
9.500000392357094
 20
14.52000032624841
 30
0.0
 11
10.30000039235705
 21
14.52000032624841
 31
0.0
  0
LINE
  5
42E6
330
4263
100
AcDbEntity
  8
0
100
AcDbLine
 10
9.500000392357094
 20
19.14000032624841
 30
0.0
 11
10.30000039235705
 21
19.14000032624841
 31
0.0
  0
LINE
  5
42E7
330
4263
100
AcDbEntity
  8
0
100
AcDbLine
 10
11.10000039235706
 20
23.84000032624846
 30
0.0
 11
11.10000039235706
 21
17.44000032624837
 31
0.0
  0
LINE
  5
42E8
330
4263
100
AcDbEntity
  8
0
100
AcDbLine
 10
9.500000392357094
 20
23.84000032624846
 30
0.0
 11
9.500000392357094
 21
17.44000032624837
 31
0.0
  0
LINE
  5
42E9
330
4263
100
AcDbEntity
  8
0
100
AcDbLine
 10
9.500000392357094
 20
23.84000032624846
 30
0.0
 11
9.500000392357094
 21
17.44000032624837
 31
0.0
  0
LINE
  5
42EA
330
4263
100
AcDbEntity
  8
0
100
AcDbLine
 10
10.30000039235705
 20
22.14000032624841
 30
0.0
 11
10.30000039235705
 21
19.14000032624841
 31
0.0
  0
LINE
  5
42EB
330
4263
100
AcDbEntity
  8
0
100
AcDbLine
 10
9.500000392357094
 20
11.5200003262484
 30
0.0
 11
10.30000039235705
 21
11.5200003262484
 31
0.0
  0
LINE
  5
42EC
330
4263
100
AcDbEntity
  8
0
100
AcDbLine
 10
10.30000039235705
 20
6.900000326248402
 30
0.0
 11
10.30000039235705
 21
3.900000326248402
 31
0.0
  0
LINE
  5
42ED
330
4263
100
AcDbEntity
  8
0
100
AcDbLine
 10
9.500000392357094
 20
3.900000326248402
 30
0.0
 11
10.30000039235705
 21
3.900000326248402
 31
0.0
  0
LINE
  5
42EE
330
4263
100
AcDbEntity
  8
0
100
AcDbLine
 10
9.500000392357094
 20
6.900000326248402
 30
0.0
 11
10.30000039235705
 21
6.900000326248402
 31
0.0
  0
LINE
  5
42EF
330
4263
100
AcDbEntity
  8
0
100
AcDbLine
 10
11.10000039235706
 20
8.600000326248448
 30
0.0
 11
11.10000039235706
 21
2.200000326248357
 31
0.0
  0
LINE
  5
42F0
330
4263
100
AcDbEntity
  8
0
100
AcDbLine
 10
9.500000392357094
 20
8.600000326248448
 30
0.0
 11
9.500000392357094
 21
2.200000326248357
 31
0.0
  0
LINE
  5
42F1
330
4263
100
AcDbEntity
  8
0
100
AcDbLine
 10
11.10000039235706
 20
16.22000032624845
 30
0.0
 11
11.10000039235706
 21
9.820000326248361
 31
0.0
  0
LINE
  5
42F2
330
4263
100
AcDbEntity
  8
0
100
AcDbLine
 10
9.500000392357094
 20
16.22000032624839
 30
0.0
 11
9.500000392357094
 21
9.820000326248361
 31
0.0
  0
LINE
  5
42F3
330
4263
100
AcDbEntity
  8
0
100
AcDbLine
 10
10.30000039235705
 20
14.52000032624841
 30
0.0
 11
10.30000039235705
 21
11.5200003262484
 31
0.0
  0
CIRCLE
  5
42F4
330
4263
100
AcDbEntity
  8
0
100
AcDbCircle
 10
6.500000392357094
 20
13.02000032624841
 30
0.0
 40
2.75
  0
LINE
  5
42F5
330
4263
100
AcDbEntity
  8
0
100
AcDbLine
 10
0.0000003923570944
 20
8.600000326248334
 30
0.0
 11
12.00000039235709
 21
8.600000326248391
 31
0.0
  0
LINE
  5
42F6
330
4263
100
AcDbEntity
  8
0
100
AcDbLine
 10
0.0000003923570944
 20
9.820000326248475
 30
0.0
 11
12.00000039235709
 21
9.820000326248418
 31
0.0
  0
LINE
  5
42F7
330
4263
100
AcDbEntity
  8
SUNPOU
100
AcDbLine
 10
8.000000392357094
 20
6.900000326248402
 30
0.0
 11
5.000000392357094
 21
3.900000326248402
 31
0.0
  0
LINE
  5
42F8
330
4263
100
AcDbEntity
  8
SUNPOU
100
AcDbLine
 10
8.000000392357094
 20
3.900000326248402
 30
0.0
 11
5.000000392357094
 21
6.900000326248402
 31
0.0
  0
LINE
  5
42F9
330
4263
100
AcDbEntity
  8
0
100
AcDbLine
 10
0.0000003923570944
 20
2.200000326248471
 30
0.0
 11
12.00000039235709
 21
2.200000326248414
 31
0.0
  0
CIRCLE
  5
42FA
330
4263
100
AcDbEntity
  8
0
100
AcDbCircle
 10
6.500000392357094
 20
5.400000326248402
 30
0.0
 40
2.75
  0
LINE
  5
42FB
330
4263
100
AcDbEntity
  8
SUNPOU
100
AcDbLine
 10
8.000000392357094
 20
11.5200003262484
 30
0.0
 11
5.000000392357094
 21
14.52000032624841
 31
0.0
  0
LINE
  5
42FC
330
4263
100
AcDbEntity
  8
SUNPOU
100
AcDbLine
 10
8.000000392357094
 20
14.52000032624841
 30
0.0
 11
5.000000392357094
 21
11.5200003262484
 31
0.0
  0
LINE
  5
42FD
330
4263
100
AcDbEntity
  8
0
100
AcDbLine
 10
0.0000003923570944
 20
23.84000032624834
 30
0.0
 11
12.00000039235709
 21
23.8400003262484
 31
0.0
  0
LINE
  5
42FE
330
4263
100
AcDbEntity
  8
0
100
AcDbLine
 10
0.0000003923570944
 20
25.06000032624849
 30
0.0
 11
12.00000039235709
 21
25.06000032624843
 31
0.0
  0
LINE
  5
42FF
330
4263
100
AcDbEntity
  8
SUNPOU
100
AcDbLine
 10
8.000000392357094
 20
22.14000032624841
 30
0.0
 11
5.000000392357094
 21
19.14000032624841
 31
0.0
  0
LINE
  5
4300
330
4263
100
AcDbEntity
  8
SUNPOU
100
AcDbLine
 10
8.000000392357094
 20
19.14000032624841
 30
0.0
 11
5.000000392357094
 21
22.14000032624841
 31
0.0
  0
CIRCLE
  5
4301
330
4263
100
AcDbEntity
  8
0
100
AcDbCircle
 10
6.500000392357151
 20
20.64000032624841
 30
0.0
 40
2.75
  0
LINE
  5
4302
330
4263
100
AcDbEntity
  8
0
100
AcDbLine
 10
0.0000003923570944
 20
17.42000032624838
 30
0.0
 11
12.00000039235709
 21
17.42000032624838
 31
0.0
  0
LINE
  5
4303
330
4263
100
AcDbEntity
  8
0
100
AcDbLine
 10
0.0000003923570944
 20
16.22000032624834
 30
0.0
 11
12.00000039235709
 21
16.22000032624839
 31
0.0
  0
LINE
  5
4304
330
4263
100
AcDbEntity
  8
0
100
AcDbLine
 10
11.10000039235706
 20
31.46000032624846
 30
0.0
 11
11.10000039235706
 21
25.06000032624837
 31
0.0
  0
LINE
  5
4305
330
4263
100
AcDbEntity
  8
0
100
AcDbLine
 10
9.500000392357094
 20
31.46000032624846
 30
0.0
 11
9.500000392357094
 21
25.06000032624837
 31
0.0
  0
LINE
  5
4306
330
4263
100
AcDbEntity
  8
0
100
AcDbLine
 10
1.900000392357071
 20
31.4600003262484
 30
0.0
 11
1.900000392357071
 21
25.06000032624849
 31
0.0
  0
LINE
  5
4307
330
4263
100
AcDbEntity
  8
0
100
AcDbLine
 10
3.500000392357094
 20
31.4600003262484
 30
0.0
 11
3.500000392357094
 21
25.06000032624849
 31
0.0
  0
CIRCLE
  5
4308
330
4263
100
AcDbEntity
  8
0
100
AcDbCircle
 10
6.500000392357151
 20
28.26000032624842
 30
0.0
 40
2.75
  0
LINE
  5
4309
330
4263
100
AcDbEntity
  8
0
100
AcDbLine
 10
0.0000003923570375
 20
0.0000003262484825
 30
0.0
 11
12.00000039235703
 21
0.0000003262484825
 31
0.0
  0
LINE
  5
430A
330
4263
100
AcDbEntity
  8
0
100
AcDbLine
 10
0.0000003923570375
 20
1.000000326248482
 30
0.0
 11
12.00000039235703
 21
1.000000326248482
 31
0.0
  0
LINE
  5
430B
330
4263
100
AcDbEntity
  8
SUNPOU
100
AcDbLine
 10
8.000000392357094
 20
49.62000032624843
 30
0.0
 11
5.000000392357094
 21
52.62000032624843
 31
0.0
  0
LINE
  5
430C
330
4263
100
AcDbEntity
  8
SUNPOU
100
AcDbLine
 10
8.000000392357094
 20
52.62000032624843
 30
0.0
 11
5.000000392357094
 21
49.62000032624843
 31
0.0
  0
CIRCLE
  5
430D
330
4263
100
AcDbEntity
  8
0
100
AcDbCircle
 10
6.500000392357151
 20
51.12000032624843
 30
0.0
 40
2.75
  0
LINE
  5
430E
330
4263
100
AcDbEntity
  8
0
100
AcDbLine
 10
2.500000392357094
 20
51.87000032624843
 30
0.0
 11
2.500000392357094
 21
50.37000032624843
 31
0.0
  0
LINE
  5
430F
330
4263
100
AcDbEntity
  8
0
100
AcDbLine
 10
3.300000392357105
 20
51.87000032624843
 30
0.0
 11
3.300000392357105
 21
50.37000032624843
 31
0.0
  0
LINE
  5
4310
330
4263
100
AcDbEntity
  8
0
100
AcDbLine
 10
2.700000392357083
 20
52.62000032624843
 30
0.0
 11
2.700000392357083
 21
49.62000032624843
 31
0.0
  0
LINE
  5
4311
330
4263
100
AcDbEntity
  8
0
100
AcDbLine
 10
3.500000392357094
 20
54.32000032624841
 30
0.0
 11
3.500000392357094
 21
47.9200003262485
 31
0.0
  0
LINE
  5
4312
330
4263
100
AcDbEntity
  8
0
100
AcDbLine
 10
1.900000392357071
 20
54.32000032624841
 30
0.0
 11
1.900000392357071
 21
47.9200003262485
 31
0.0
  0
LINE
  5
4313
330
4263
100
AcDbEntity
  8
0
100
AcDbLine
 10
10.3000003923571
 20
52.62000032624843
 30
0.0
 11
10.3000003923571
 21
49.62000032624843
 31
0.0
  0
LINE
  5
4314
330
4263
100
AcDbEntity
  8
0
100
AcDbLine
 10
9.500000392357094
 20
54.32000032624848
 30
0.0
 11
9.500000392357094
 21
47.92000032624838
 31
0.0
  0
LINE
  5
4315
330
4263
100
AcDbEntity
  8
0
100
AcDbLine
 10
11.10000039235706
 20
54.32000032624848
 30
0.0
 11
11.10000039235706
 21
47.92000032624838
 31
0.0
  0
LINE
  5
4316
330
4263
100
AcDbEntity
  8
0
100
AcDbLine
 10
0.0000003923571512
 20
71.76000032624845
 30
0.0
 11
0.0000003923570375
 21
0.0000003262484825
 31
0.0
  0
LINE
  5
4317
330
4263
100
AcDbEntity
  8
0
100
AcDbLine
 10
12.00000039235703
 20
71.76000032624841
 30
0.0
 11
12.00000039235703
 21
0.0000003262484825
 31
0.0
  0
ENDBLK
  5
4319
330
4263
100
AcDbEntity
  8
0
100
AcDbBlockEnd
  0
BLOCK
  5
4320
330
431A
100
AcDbEntity
  8
0
100
AcDbBlockBegin
  2
A$C5B8A228A
 70
     0
 10
0.0
 20
0.0
 30
0.0
  3
A$C5B8A228A
  1

  0
INSERT
  5
431B
330
431A
100
AcDbEntity
  8
0
100
AcDbBlockReference
  2
GL8T156
 10
8.499999754572726
 20
6.100000326082124
 30
0.0
 50
270.0
  0
INSERT
  5
431C
330
431A
100
AcDbEntity
  8
0
100
AcDbBlockReference
  2
GL8T156
 10
8.499999754572726
 20
44.20000032608214
 30
0.0
 50
270.0
  0
INSERT
  5
431D
330
431A
100
AcDbEntity
  8
0
100
AcDbBlockReference
  2
GL8T156
 10
8.499999754572726
 20
18.80000032608217
 30
0.0
 50
270.0
  0
INSERT
  5
431E
330
431A
100
AcDbEntity
  8
0
100
AcDbBlockReference
  2
GL8T156
 10
8.499999754572726
 20
31.5000003260821
 30
0.0
 50
270.0
  0
LWPOLYLINE
  5
431F
330
431A
100
AcDbEntity
  8
0
100
AcDbPolyline
 90
        5
 70
     0
 43
0.0
 10
7.499999754572726
 20
56.86000032608212
 10
7.499999754572726
 20
51.86000032608212
 10
9.499999754572726
 20
51.86000032608212
 10
9.499999754572726
 20
56.86000032608212
 10
7.499999754572726
 20
56.86000032608212
  0
ENDBLK
  5
4321
330
431A
100
AcDbEntity
  8
0
100
AcDbBlockEnd
  0
BLOCK
  5
4822
330
481D
100
AcDbEntity
  8
0
100
AcDbBlockBegin
  2
_DOTSMALL
 70
     0
 10
0.0
 20
0.0
 30
0.0
  3
_DOTSMALL
  1

  0
LWPOLYLINE
  5
481E
330
481D
100
AcDbEntity
  8
0
  6
ByBlock
 62
     0
100
AcDbPolyline
 90
        2
 70
     1
 43
0.5
 10
-0.0625
 20
0.0
 42
1.0
 10
0.0625
 20
0.0
 42
1.0
  0
ENDBLK
  5
4823
330
481D
100
AcDbEntity
  8
0
100
AcDbBlockEnd
  0
BLOCK
  5
4826
330
4824
100
AcDbEntity
  8
0
100
AcDbBlockBegin
  2
A$C682334D4
 70
     0
 10
0.0
 20
0.0
 30
0.0
  3
A$C682334D4
  1

  0
INSERT
  5
4825
330
4824
100
AcDbEntity
  8
0
100
AcDbBlockReference
  2
GL8T156
 10
5.44000014273601
 20
3.477000046324121
 30
0.0
 41
0.57
 42
0.6400000000000001
 50
270.0
  0
ENDBLK
  5
4827
330
4824
100
AcDbEntity
  8
0
100
AcDbBlockEnd
  0
BLOCK
  5
482A
330
4828
100
AcDbEntity
  8
0
100
AcDbBlockBegin
  2
A$C398F0387
 70
     0
 10
0.0
 20
0.0
 30
0.0
  3
A$C398F0387
  1

  0
INSERT
  5
4829
330
4828
100
AcDbEntity
  8
0
100
AcDbBlockReference
  2
A$C682334D4
 10
0.000000330287989
 20
-0.0000003197629326
 30
0.0
  0
ENDBLK
  5
482B
330
4828
100
AcDbEntity
  8
0
100
AcDbBlockEnd
  0
BLOCK
  5
4876
330
4875
100
AcDbEntity
  8
0
100
AcDbBlockBegin
  2
A$C38FE6D9A
 70
     0
 10
0.0
 20
0.0
 30
0.0
  3
A$C38FE6D9A
  1

  0
LINE
  5
4877
330
4875
100
AcDbEntity
  8
0
100
AcDbLine
 10
1.25000010593709
 20
5.550000314267094
 30
0.0
 11
0.5000001059370334
 21
5.550000314267094
 31
0.0
  0
LINE
  5
4878
330
4875
100
AcDbEntity
  8
0
100
AcDbLine
 10
1.25000010593709
 20
0.2500003142671403
 30
0.0
 11
0.5000001059370334
 21
0.2500003142671119
 31
0.0
  0
LINE
  5
4879
330
4875
100
AcDbEntity
  8
0
100
AcDbLine
 10
0.5000001059370903
 20
2.678751248413959
 30
0.0
 11
1.25000010593709
 21
3.428751248414044
 31
0.0
  0
LINE
  5
487A
330
4875
100
AcDbEntity
  8
0
100
AcDbLine
 10
0.5000001059370903
 20
2.325197857820739
 30
0.0
 11
1.25000010593709
 21
3.075197857820796
 31
0.0
  0
LINE
  5
487B
330
4875
100
AcDbEntity
  8
0
100
AcDbLine
 10
0.0000001059370902
 20
0.0000003142671119
 30
0.0
 11
0.0000001059370902
 21
5.800000314267123
 31
0.0
  0
LINE
  5
487C
330
4875
100
AcDbEntity
  8
0
100
AcDbLine
 10
0.5000001059370334
 20
0.0000003142670835
 30
0.0
 11
0.5000001059370903
 21
5.800000314267094
 31
0.0
  0
LINE
  5
487D
330
4875
100
AcDbEntity
  8
0
100
AcDbLine
 10
0.5000001059370334
 20
0.0000003142670835
 30
0.0
 11
0.0000001059371471
 21
0.0000003142670835
 31
0.0
  0
LINE
  5
487E
330
4875
100
AcDbEntity
  8
0
100
AcDbLine
 10
0.5000001059370903
 20
5.800000314267094
 30
0.0
 11
0.0000001059370902
 21
5.800000314267123
 31
0.0
  0
LINE
  5
487F
330
4875
100
AcDbEntity
  8
0
100
AcDbLine
 10
1.250000105937147
 20
0.2500003142671119
 30
0.0
 11
1.25000010593709
 21
5.550000314267094
 31
0.0
  0
ELLIPSE
  5
4880
330
4875
100
AcDbEntity
  8
0
100
AcDbEllipse
 10
1.74999998983992
 20
2.900000314267117
 30
0.0
 11
0.0
 21
2.650000000000005
 31
0.0
210
0.0
220
0.0
230
1.0
 40
0.596226458904585
 41
2.81960193203065
 42
6.605176028738728
  0
ENDBLK
  5
4881
330
4875
100
AcDbEntity
  8
0
100
AcDbBlockEnd
  0
BLOCK
  5
48D7
330
48D6
100
AcDbEntity
  8
0
100
AcDbBlockBegin
  2
Side-plate
 70
     0
 10
0.0
 20
0.0
 30
0.0
  3
Side-plate
  1

  0
LINE
  5
48D8
330
48D6
100
AcDbEntity
  8
0
100
AcDbLine
 10
0.0
 20
9.0
 30
0.0
 11
0.0
 21
0.0
 31
0.0
  0
LINE
  5
48D9
330
48D6
100
AcDbEntity
  8
0
100
AcDbLine
 10
2.0
 20
9.0
 30
0.0
 11
2.0
 21
0.0
 31
0.0
  0
LINE
  5
48DA
330
48D6
100
AcDbEntity
  8
0
100
AcDbLine
 10
-103.5
 20
0.0
 30
0.0
 11
0.0
 21
0.0
 31
0.0
  0
LINE
  5
48DB
330
48D6
100
AcDbEntity
  8
0
100
AcDbLine
 10
-103.5
 20
-2.0
 30
0.0
 11
0.0
 21
-2.0
 31
0.0
  0
ARC
  5
48DC
330
48D6
100
AcDbEntity
  8
0
100
AcDbCircle
 10
0.0
 20
0.0
 30
0.0
 40
2.0
100
AcDbArc
 50
270.0
 51
0.0
  0
LINE
  5
48DD
330
48D6
100
AcDbEntity
  8
0
100
AcDbLine
 10
-103.5
 20
0.0
 30
0.0
 11
0.0
 21
0.0
 31
0.0
  0
LINE
  5
48DE
330
48D6
100
AcDbEntity
  8
0
100
AcDbLine
 10
-103.5
 20
-2.0
 30
0.0
 11
-103.5
 21
0.0
 31
0.0
  0
LINE
  5
48DF
330
48D6
100
AcDbEntity
  8
0
100
AcDbLine
 10
2.0
 20
9.0
 30
0.0
 11
0.0
 21
9.0
 31
0.0
  0
LINE
  5
48E0
330
48D6
100
AcDbEntity
  8
0
100
AcDbLine
 10
2.0
 20
8.5
 30
0.0
 11
0.0
 21
8.5
 31
0.0
  0
LINE
  5
48E1
330
48D6
100
AcDbEntity
  8
0
100
AcDbLine
 10
-103.0
 20
-2.0
 30
0.0
 11
-103.0
 21
0.0
 31
0.0
  0
ENDBLK
  5
48E2
330
48D6
100
AcDbEntity
  8
0
100
AcDbBlockEnd
  0
BLOCK
  5
48FC
330
48FB
100
AcDbEntity
  8
0
100
AcDbBlockBegin
  2
F2361AX-5P
 70
     0
 10
0.0
 20
0.0
 30
0.0
  3
F2361AX-5P
  1

  0
LWPOLYLINE
  5
48FD
330
48FB
100
AcDbEntity
  8
0
100
AcDbPolyline
 90
       13
 70
     0
 43
0.0
 10
4.789999999999963
 20
-7.109999999999985
 10
4.789999999999963
 20
-8.329999999999984
 10
6.009999999999962
 20
-8.329999999999984
 10
6.009999999999962
 20
-7.109999999999985
 10
7.229999999999989
 20
-7.109999999999985
 10
7.229999999999989
 20
-5.889999999999986
 10
6.009999999999962
 20
-5.889999999999986
 10
6.009999999999962
 20
-4.669999999999987
 10
4.789999999999963
 20
-4.669999999999987
 10
4.789999999999963
 20
-5.889999999999986
 10
3.569999999999964
 20
-5.889999999999986
 10
3.569999999999964
 20
-7.109999999999985
 10
4.789999999999963
 20
-7.109999999999985
  0
LWPOLYLINE
  5
48FE
330
48FB
100
AcDbEntity
  8
0
100
AcDbPolyline
 90
       13
 70
     0
 43
0.0
 10
20.02999999999997
 20
-7.109999999999985
 10
20.02999999999997
 20
-8.329999999999984
 10
21.24999999999997
 20
-8.329999999999984
 10
21.24999999999997
 20
-7.109999999999985
 10
22.47
 20
-7.109999999999985
 10
22.47
 20
-5.889999999999986
 10
21.24999999999997
 20
-5.889999999999986
 10
21.24999999999997
 20
-4.669999999999987
 10
20.02999999999997
 20
-4.669999999999987
 10
20.02999999999997
 20
-5.889999999999986
 10
18.80999999999997
 20
-5.889999999999986
 10
18.80999999999997
 20
-7.109999999999985
 10
20.02999999999997
 20
-7.109999999999985
  0
LWPOLYLINE
  5
48FF
330
48FB
100
AcDbEntity
  8
0
100
AcDbPolyline
 90
       13
 70
     0
 43
0.0
 10
12.40999999999997
 20
-7.109999999999985
 10
12.40999999999997
 20
-8.329999999999984
 10
13.62999999999997
 20
-8.329999999999984
 10
13.62999999999997
 20
-7.109999999999985
 10
14.84999999999999
 20
-7.109999999999985
 10
14.84999999999999
 20
-5.889999999999986
 10
13.62999999999997
 20
-5.889999999999986
 10
13.62999999999997
 20
-4.669999999999987
 10
12.40999999999997
 20
-4.669999999999987
 10
12.40999999999997
 20
-5.889999999999986
 10
11.18999999999997
 20
-5.889999999999986
 10
11.18999999999997
 20
-7.109999999999985
 10
12.40999999999997
 20
-7.109999999999985
  0
LWPOLYLINE
  5
4900
330
48FB
100
AcDbEntity
  8
0
100
AcDbPolyline
 90
       13
 70
     0
 43
0.0
 10
27.64999999999992
 20
-7.109999999999992
 10
27.64999999999992
 20
-8.329999999999991
 10
28.86999999999992
 20
-8.329999999999991
 10
28.86999999999992
 20
-7.109999999999992
 10
30.08999999999995
 20
-7.109999999999992
 10
30.08999999999995
 20
-5.889999999999993
 10
28.86999999999992
 20
-5.889999999999993
 10
28.86999999999992
 20
-4.669999999999994
 10
27.64999999999992
 20
-4.669999999999994
 10
27.64999999999992
 20
-5.889999999999993
 10
26.42999999999992
 20
-5.889999999999993
 10
26.42999999999992
 20
-7.109999999999992
 10
27.64999999999992
 20
-7.109999999999992
  0
LWPOLYLINE
  5
4901
330
48FB
100
AcDbEntity
  8
0
100
AcDbPolyline
 90
       13
 70
     0
 43
0.0
 10
35.26999999999993
 20
-7.109999999999992
 10
35.26999999999993
 20
-8.329999999999991
 10
36.48999999999992
 20
-8.329999999999991
 10
36.48999999999992
 20
-7.109999999999992
 10
37.70999999999995
 20
-7.109999999999992
 10
37.70999999999995
 20
-5.889999999999993
 10
36.48999999999992
 20
-5.889999999999993
 10
36.48999999999992
 20
-4.669999999999994
 10
35.26999999999993
 20
-4.669999999999994
 10
35.26999999999993
 20
-5.889999999999993
 10
34.04999999999993
 20
-5.889999999999993
 10
34.04999999999993
 20
-7.109999999999992
 10
35.26999999999993
 20
-7.109999999999992
  0
LINE
  5
4902
330
48FB
100
AcDbEntity
  8
0
100
AcDbLine
 10
37.37999999999999
 20
-9.500000000000007
 30
0.0
 11
37.37999999999999
 21
-10.30000000000002
 31
0.0
  0
LINE
  5
4903
330
48FB
100
AcDbEntity
  8
0
100
AcDbLine
 10
36.63000000000006
 20
-2.500000000000063
 30
0.0
 11
36.63
 21
-3.300000000000018
 31
0.0
  0
LINE
  5
4904
330
48FB
100
AcDbEntity
  8
0
100
AcDbLine
 10
37.37999999999999
 20
-2.700000000000052
 30
0.0
 11
37.37999999999999
 21
-3.500000000000007
 31
0.0
  0
LINE
  5
4905
330
48FB
100
AcDbEntity
  8
0
100
AcDbLine
 10
40.30000000000007
 20
-0.0000000000000071
 30
0.0
 11
40.30000000000001
 21
-12.00000000000001
 31
0.0
  0
LINE
  5
4906
330
48FB
100
AcDbEntity
  8
0
100
AcDbLine
 10
39.10000000000002
 20
-0.0000000000000071
 30
0.0
 11
39.10000000000002
 21
-12.00000000000001
 31
0.0
  0
LINE
  5
4907
330
48FB
100
AcDbEntity
  8
0
100
AcDbLine
 10
25.05999999999995
 20
-9.500000000000007
 30
0.0
 11
31.46000000000004
 21
-9.500000000000007
 31
0.0
  0
LINE
  5
4908
330
48FB
100
AcDbEntity
  8
0
100
AcDbLine
 10
25.05999999999995
 20
-11.09999999999997
 30
0.0
 11
31.46000000000004
 21
-11.10000000000003
 31
0.0
  0
LINE
  5
4909
330
48FB
100
AcDbEntity
  8
0
100
AcDbLine
 10
26.75999999999999
 20
-10.30000000000002
 30
0.0
 11
29.75999999999999
 21
-10.30000000000002
 31
0.0
  0
LINE
  5
490A
330
48FB
100
AcDbEntity
  8
0
100
AcDbLine
 10
29.75999999999999
 20
-9.500000000000007
 30
0.0
 11
29.75999999999999
 21
-10.30000000000002
 31
0.0
  0
LINE
  5
490B
330
48FB
100
AcDbEntity
  8
0
100
AcDbLine
 10
34.38
 20
-9.500000000000007
 30
0.0
 11
34.38
 21
-10.30000000000002
 31
0.0
  0
LINE
  5
490C
330
48FB
100
AcDbEntity
  8
0
100
AcDbLine
 10
26.75999999999999
 20
-9.500000000000007
 30
0.0
 11
26.75999999999999
 21
-10.30000000000002
 31
0.0
  0
LINE
  5
490D
330
48FB
100
AcDbEntity
  8
0
100
AcDbLine
 10
25.06
 20
-3.500000000000007
 30
0.0
 11
31.45999999999992
 21
-3.500000000000007
 31
0.0
  0
LINE
  5
490E
330
48FB
100
AcDbEntity
  8
0
100
AcDbLine
 10
25.06
 20
-1.900000000000041
 30
0.0
 11
31.45999999999992
 21
-1.900000000000041
 31
0.0
  0
LINE
  5
490F
330
48FB
100
AcDbEntity
  8
0
100
AcDbLine
 10
27.50999999999999
 20
-2.500000000000063
 30
0.0
 11
29.00999999999999
 21
-2.500000000000063
 31
0.0
  0
LINE
  5
4910
330
48FB
100
AcDbEntity
  8
0
100
AcDbLine
 10
27.50999999999999
 20
-3.300000000000018
 30
0.0
 11
29.00999999999999
 21
-3.300000000000018
 31
0.0
  0
LINE
  5
4911
330
48FB
100
AcDbEntity
  8
0
100
AcDbLine
 10
26.75999999999999
 20
-2.699999999999995
 30
0.0
 11
29.75999999999999
 21
-2.699999999999995
 31
0.0
  0
LINE
  5
4912
330
48FB
100
AcDbEntity
  8
0
100
AcDbLine
 10
29.75999999999999
 20
-2.699999999999995
 30
0.0
 11
29.75999999999999
 21
-3.500000000000007
 31
0.0
  0
LINE
  5
4913
330
48FB
100
AcDbEntity
  8
0
100
AcDbLine
 10
29.01000000000005
 20
-2.500000000000063
 30
0.0
 11
29.00999999999999
 21
-3.300000000000018
 31
0.0
  0
LINE
  5
4914
330
48FB
100
AcDbEntity
  8
0
100
AcDbLine
 10
35.13
 20
-2.500000000000063
 30
0.0
 11
35.13
 21
-3.300000000000018
 31
0.0
  0
LINE
  5
4915
330
48FB
100
AcDbEntity
  8
0
100
AcDbLine
 10
34.38
 20
-2.699999999999995
 30
0.0
 11
34.38
 21
-3.500000000000007
 31
0.0
  0
LINE
  5
4916
330
48FB
100
AcDbEntity
  8
0
100
AcDbLine
 10
26.75999999999999
 20
-2.699999999999995
 30
0.0
 11
26.75999999999999
 21
-3.500000000000007
 31
0.0
  0
LINE
  5
4917
330
48FB
100
AcDbEntity
  8
0
100
AcDbLine
 10
27.50999999999999
 20
-2.500000000000063
 30
0.0
 11
27.50999999999999
 21
-3.300000000000018
 31
0.0
  0
CIRCLE
  5
4918
330
48FB
100
AcDbEntity
  8
0
100
AcDbCircle
 10
28.25999999999993
 20
-6.500000000000007
 30
0.0
 40
2.75
  0
LINE
  5
4919
330
48FB
100
AcDbEntity
  8
0
100
AcDbLine
 10
31.45999999999992
 20
-0.0000000000000071
 30
0.0
 11
31.45999999999998
 21
-12.00000000000001
 31
0.0
  0
LINE
  5
491A
330
48FB
100
AcDbEntity
  8
0
100
AcDbLine
 10
32.68000000000006
 20
-0.0000000000000071
 30
0.0
 11
32.68000000000001
 21
-12.00000000000001
 31
0.0
  0
LINE
  5
491B
330
48FB
100
AcDbEntity
  8
0
100
AcDbLine
 10
25.06000000000006
 20
-0.0000000000000071
 30
0.0
 11
25.06
 21
-12.00000000000001
 31
0.0
  0
LINE
  5
491C
330
48FB
100
AcDbEntity
  8
0
100
AcDbLine
 10
32.68000000000001
 20
-3.500000000000007
 30
0.0
 11
39.08000000000004
 21
-3.500000000000007
 31
0.0
  0
LINE
  5
491D
330
48FB
100
AcDbEntity
  8
0
100
AcDbLine
 10
32.67999999999995
 20
-9.500000000000007
 30
0.0
 11
39.08000000000004
 21
-9.500000000000007
 31
0.0
  0
LINE
  5
491E
330
48FB
100
AcDbEntity
  8
0
100
AcDbLine
 10
32.68000000000001
 20
-1.900000000000041
 30
0.0
 11
39.07999999999993
 21
-1.900000000000041
 31
0.0
  0
LINE
  5
491F
330
48FB
100
AcDbEntity
  8
0
100
AcDbLine
 10
32.67999999999995
 20
-9.500000000000007
 30
0.0
 11
39.08000000000004
 21
-9.500000000000007
 31
0.0
  0
LINE
  5
4920
330
48FB
100
AcDbEntity
  8
0
100
AcDbLine
 10
32.67999999999995
 20
-11.10000000000003
 30
0.0
 11
39.08000000000004
 21
-11.10000000000003
 31
0.0
  0
CIRCLE
  5
4921
330
48FB
100
AcDbEntity
  8
0
100
AcDbCircle
 10
35.87999999999994
 20
-6.500000000000007
 30
0.0
 40
2.75
  0
LINE
  5
4922
330
48FB
100
AcDbEntity
  8
0
100
AcDbLine
 10
34.38
 20
-10.30000000000002
 30
0.0
 11
37.37999999999999
 21
-10.30000000000002
 31
0.0
  0
LINE
  5
4923
330
48FB
100
AcDbEntity
  8
0
100
AcDbLine
 10
35.13
 20
-2.500000000000063
 30
0.0
 11
36.63
 21
-2.500000000000063
 31
0.0
  0
LINE
  5
4924
330
48FB
100
AcDbEntity
  8
0
100
AcDbLine
 10
35.13
 20
-3.300000000000018
 30
0.0
 11
36.63
 21
-3.300000000000018
 31
0.0
  0
LINE
  5
4925
330
48FB
100
AcDbEntity
  8
0
100
AcDbLine
 10
34.38
 20
-2.699999999999995
 30
0.0
 11
37.37999999999999
 21
-2.699999999999995
 31
0.0
  0
LINE
  5
4926
330
48FB
100
AcDbEntity
  8
0
100
AcDbLine
 10
17.43999999999994
 20
-9.5
 30
0.0
 11
23.84000000000003
 21
-9.5
 31
0.0
  0
LINE
  5
4927
330
48FB
100
AcDbEntity
  8
0
100
AcDbLine
 10
17.43999999999994
 20
-11.09999999999996
 30
0.0
 11
23.84000000000003
 21
-11.09999999999996
 31
0.0
  0
LINE
  5
4928
330
48FB
100
AcDbEntity
  8
0
100
AcDbLine
 10
19.13999999999998
 20
-9.5
 30
0.0
 11
19.13999999999998
 21
-10.30000000000001
 31
0.0
  0
LINE
  5
4929
330
48FB
100
AcDbEntity
  8
0
100
AcDbLine
 10
22.13999999999999
 20
-9.5
 30
0.0
 11
22.13999999999999
 21
-10.30000000000001
 31
0.0
  0
LINE
  5
492A
330
48FB
100
AcDbEntity
  8
0
100
AcDbLine
 10
19.13999999999998
 20
-10.30000000000001
 30
0.0
 11
22.13999999999999
 21
-10.30000000000001
 31
0.0
  0
LINE
  5
492B
330
48FB
100
AcDbEntity
  8
0
100
AcDbLine
 10
14.51999999999998
 20
-9.5
 30
0.0
 11
14.51999999999998
 21
-10.30000000000001
 31
0.0
  0
LINE
  5
492C
330
48FB
100
AcDbEntity
  8
0
100
AcDbLine
 10
17.43999999999994
 20
-3.5
 30
0.0
 11
23.83999999999998
 21
-3.500000000000007
 31
0.0
  0
LINE
  5
492D
330
48FB
100
AcDbEntity
  8
0
100
AcDbLine
 10
17.43999999999994
 20
-1.900000000000034
 30
0.0
 11
23.83999999999992
 21
-1.900000000000041
 31
0.0
  0
LINE
  5
492E
330
48FB
100
AcDbEntity
  8
0
100
AcDbLine
 10
19.13999999999998
 20
-2.699999999999988
 30
0.0
 11
19.13999999999998
 21
-3.5
 31
0.0
  0
LINE
  5
492F
330
48FB
100
AcDbEntity
  8
0
100
AcDbLine
 10
19.88999999999998
 20
-2.500000000000056
 30
0.0
 11
19.88999999999998
 21
-3.300000000000011
 31
0.0
  0
LINE
  5
4930
330
48FB
100
AcDbEntity
  8
0
100
AcDbLine
 10
22.13999999999999
 20
-2.699999999999995
 30
0.0
 11
22.13999999999999
 21
-3.500000000000007
 31
0.0
  0
LINE
  5
4931
330
48FB
100
AcDbEntity
  8
0
100
AcDbLine
 10
21.38999999999999
 20
-2.500000000000063
 30
0.0
 11
21.38999999999999
 21
-3.300000000000018
 31
0.0
  0
LINE
  5
4932
330
48FB
100
AcDbEntity
  8
0
100
AcDbLine
 10
19.13999999999998
 20
-2.699999999999988
 30
0.0
 11
22.13999999999999
 21
-2.699999999999995
 31
0.0
  0
LINE
  5
4933
330
48FB
100
AcDbEntity
  8
0
100
AcDbLine
 10
19.88999999999998
 20
-2.500000000000056
 30
0.0
 11
21.38999999999999
 21
-2.500000000000063
 31
0.0
  0
LINE
  5
4934
330
48FB
100
AcDbEntity
  8
0
100
AcDbLine
 10
19.88999999999998
 20
-3.300000000000011
 30
0.0
 11
21.38999999999999
 21
-3.300000000000018
 31
0.0
  0
LINE
  5
4935
330
48FB
100
AcDbEntity
  8
0
100
AcDbLine
 10
14.51999999999998
 20
-2.699999999999988
 30
0.0
 11
14.51999999999998
 21
-3.5
 31
0.0
  0
LINE
  5
4936
330
48FB
100
AcDbEntity
  8
0
100
AcDbLine
 10
17.44000000000005
 20
0.0
 30
0.0
 11
17.43999999999994
 21
-12.0
 31
0.0
  0
LINE
  5
4937
330
48FB
100
AcDbEntity
  8
0
100
AcDbLine
 10
16.24000000000001
 20
0.0
 30
0.0
 11
16.24000000000001
 21
-12.0
 31
0.0
  0
LINE
  5
4938
330
48FB
100
AcDbEntity
  8
0
100
AcDbLine
 10
23.83999999999992
 20
-0.0000000000000071
 30
0.0
 11
23.83999999999998
 21
-12.0
 31
0.0
  0
CIRCLE
  5
4939
330
48FB
100
AcDbEntity
  8
0
100
AcDbCircle
 10
20.63999999999999
 20
-6.5
 30
0.0
 40
2.75
  0
LINE
  5
493A
330
48FB
100
AcDbEntity
  8
0
100
AcDbLine
 10
11.51999999999998
 20
-9.5
 30
0.0
 11
11.51999999999998
 21
-10.30000000000001
 31
0.0
  0
LINE
  5
493B
330
48FB
100
AcDbEntity
  8
0
100
AcDbLine
 10
3.899999999999977
 20
-10.30000000000001
 30
0.0
 11
6.899999999999977
 21
-10.30000000000001
 31
0.0
  0
LINE
  5
493C
330
48FB
100
AcDbEntity
  8
0
100
AcDbLine
 10
3.899999999999977
 20
-9.5
 30
0.0
 11
3.899999999999977
 21
-10.30000000000001
 31
0.0
  0
LINE
  5
493D
330
48FB
100
AcDbEntity
  8
0
100
AcDbLine
 10
6.899999999999977
 20
-9.5
 30
0.0
 11
6.899999999999977
 21
-10.30000000000001
 31
0.0
  0
LINE
  5
493E
330
48FB
100
AcDbEntity
  8
0
100
AcDbLine
 10
11.51999999999998
 20
-2.699999999999988
 30
0.0
 11
11.51999999999998
 21
-3.5
 31
0.0
  0
LINE
  5
493F
330
48FB
100
AcDbEntity
  8
0
100
AcDbLine
 10
13.77000000000009
 20
-2.500000000000056
 30
0.0
 11
13.76999999999998
 21
-3.300000000000011
 31
0.0
  0
LINE
  5
4940
330
48FB
100
AcDbEntity
  8
0
100
AcDbLine
 10
12.26999999999998
 20
-2.500000000000056
 30
0.0
 11
12.26999999999998
 21
-3.300000000000011
 31
0.0
  0
LINE
  5
4941
330
48FB
100
AcDbEntity
  8
0
100
AcDbLine
 10
12.26999999999998
 20
-2.500000000000056
 30
0.0
 11
13.76999999999998
 21
-2.500000000000056
 31
0.0
  0
LINE
  5
4942
330
48FB
100
AcDbEntity
  8
0
100
AcDbLine
 10
12.26999999999998
 20
-3.300000000000011
 30
0.0
 11
13.76999999999998
 21
-3.300000000000011
 31
0.0
  0
LINE
  5
4943
330
48FB
100
AcDbEntity
  8
0
100
AcDbLine
 10
4.649999999999977
 20
-2.500000000000056
 30
0.0
 11
6.149999999999977
 21
-2.500000000000056
 31
0.0
  0
LINE
  5
4944
330
48FB
100
AcDbEntity
  8
0
100
AcDbLine
 10
4.649999999999977
 20
-3.300000000000011
 30
0.0
 11
6.149999999999977
 21
-3.300000000000011
 31
0.0
  0
LINE
  5
4945
330
48FB
100
AcDbEntity
  8
0
100
AcDbLine
 10
3.899999999999977
 20
-2.699999999999988
 30
0.0
 11
6.899999999999977
 21
-2.699999999999988
 31
0.0
  0
LINE
  5
4946
330
48FB
100
AcDbEntity
  8
0
100
AcDbLine
 10
3.899999999999977
 20
-2.699999999999988
 30
0.0
 11
3.899999999999977
 21
-3.5
 31
0.0
  0
LINE
  5
4947
330
48FB
100
AcDbEntity
  8
0
100
AcDbLine
 10
4.649999999999977
 20
-2.500000000000056
 30
0.0
 11
4.649999999999977
 21
-3.300000000000011
 31
0.0
  0
LINE
  5
4948
330
48FB
100
AcDbEntity
  8
0
100
AcDbLine
 10
6.899999999999977
 20
-2.699999999999988
 30
0.0
 11
6.899999999999977
 21
-3.5
 31
0.0
  0
LINE
  5
4949
330
48FB
100
AcDbEntity
  8
0
100
AcDbLine
 10
6.149999999999977
 20
-2.500000000000056
 30
0.0
 11
6.149999999999977
 21
-3.300000000000011
 31
0.0
  0
LINE
  5
494A
330
48FB
100
AcDbEntity
  8
0
100
AcDbLine
 10
8.599999999999909
 20
0.0
 30
0.0
 11
8.600000000000022
 21
-12.0
 31
0.0
  0
LINE
  5
494B
330
48FB
100
AcDbEntity
  8
0
100
AcDbLine
 10
9.82000000000005
 20
0.0
 30
0.0
 11
9.82000000000005
 21
-12.0
 31
0.0
  0
CIRCLE
  5
494C
330
48FB
100
AcDbEntity
  8
0
100
AcDbCircle
 10
13.01999999999998
 20
-6.5
 30
0.0
 40
2.75
  0
LINE
  5
494D
330
48FB
100
AcDbEntity
  8
0
100
AcDbLine
 10
9.819999999999936
 20
-9.5
 30
0.0
 11
16.22000000000002
 21
-9.5
 31
0.0
  0
LINE
  5
494E
330
48FB
100
AcDbEntity
  8
0
100
AcDbLine
 10
9.819999999999936
 20
-9.5
 30
0.0
 11
16.22000000000002
 21
-9.5
 31
0.0
  0
LINE
  5
494F
330
48FB
100
AcDbEntity
  8
0
100
AcDbLine
 10
9.819999999999936
 20
-11.09999999999996
 30
0.0
 11
16.22000000000002
 21
-11.09999999999996
 31
0.0
  0
LINE
  5
4950
330
48FB
100
AcDbEntity
  8
0
100
AcDbLine
 10
11.51999999999998
 20
-10.30000000000001
 30
0.0
 11
14.51999999999998
 21
-10.30000000000001
 31
0.0
  0
LINE
  5
4951
330
48FB
100
AcDbEntity
  8
0
100
AcDbLine
 10
9.82000000000005
 20
-3.5
 30
0.0
 11
16.22000000000002
 21
-3.5
 31
0.0
  0
LINE
  5
4952
330
48FB
100
AcDbEntity
  8
0
100
AcDbLine
 10
9.82000000000005
 20
-1.900000000000034
 30
0.0
 11
16.21999999999991
 21
-1.900000000000034
 31
0.0
  0
LINE
  5
4953
330
48FB
100
AcDbEntity
  8
0
100
AcDbLine
 10
11.51999999999998
 20
-2.699999999999988
 30
0.0
 11
14.51999999999998
 21
-2.699999999999988
 31
0.0
  0
LINE
  5
4954
330
48FB
100
AcDbEntity
  8
0
100
AcDbLine
 10
2.200000000000045
 20
0.0
 30
0.0
 11
2.199999999999931
 21
-12.0
 31
0.0
  0
LINE
  5
4955
330
48FB
100
AcDbEntity
  8
0
100
AcDbLine
 10
1.0
 20
0.0
 30
0.0
 11
1.0
 21
-12.0
 31
0.0
  0
LINE
  5
4956
330
48FB
100
AcDbEntity
  8
0
100
AcDbLine
 10
0.0
 20
0.0
 30
0.0
 11
0.0
 21
-12.0
 31
0.0
  0
LINE
  5
4957
330
48FB
100
AcDbEntity
  8
0
100
AcDbLine
 10
2.199999999999931
 20
-9.5
 30
0.0
 11
8.600000000000022
 21
-9.5
 31
0.0
  0
LINE
  5
4958
330
48FB
100
AcDbEntity
  8
0
100
AcDbLine
 10
2.199999999999931
 20
-3.5
 30
0.0
 11
8.599999999999909
 21
-3.5
 31
0.0
  0
LINE
  5
4959
330
48FB
100
AcDbEntity
  8
0
100
AcDbLine
 10
2.199999999999931
 20
-1.900000000000034
 30
0.0
 11
8.599999999999909
 21
-1.900000000000034
 31
0.0
  0
LINE
  5
495A
330
48FB
100
AcDbEntity
  8
0
100
AcDbLine
 10
2.199999999999931
 20
-11.09999999999996
 30
0.0
 11
8.600000000000022
 21
-11.09999999999996
 31
0.0
  0
CIRCLE
  5
495B
330
48FB
100
AcDbEntity
  8
0
100
AcDbCircle
 10
5.399999999999977
 20
-6.5
 30
0.0
 40
2.75
  0
LINE
  5
495C
330
48FB
100
AcDbEntity
  8
0
100
AcDbLine
 10
0.0
 20
0.0
 30
0.0
 11
41.29999999999998
 21
0.0000000000000497
 31
0.0
  0
LINE
  5
495D
330
48FB
100
AcDbEntity
  8
0
100
AcDbLine
 10
0.0
 20
-12.00000000000005
 30
0.0
 11
41.29999999999998
 21
-12.00000000000001
 31
0.0
  0
LINE
  5
495E
330
48FB
100
AcDbEntity
  8
0
100
AcDbLine
 10
41.30000000000001
 20
-0.0000000000000639
 30
0.0
 11
41.30000000000001
 21
-12.00000000000006
 31
0.0
  0
ENDBLK
  5
495F
330
48FB
100
AcDbEntity
  8
0
100
AcDbBlockEnd
  0
BLOCK
  5
4961
330
4960
100
AcDbEntity
  8
0
100
AcDbBlockBegin
  2
UF2361-AX-3P
 70
     0
 10
0.0
 20
0.0
 30
0.0
  3
UF2361-AX-3P
  1

  0
LWPOLYLINE
  5
4962
330
4960
100
AcDbEntity
  8
0
100
AcDbPolyline
 90
       13
 70
     0
 43
0.0
 10
-8.229999999999961
 20
4.890000000000014
 10
-8.229999999999961
 20
3.670000000000015
 10
-7.009999999999962
 20
3.670000000000015
 10
-7.009999999999962
 20
4.890000000000014
 10
-5.789999999999935
 20
4.890000000000014
 10
-5.789999999999935
 20
6.110000000000013
 10
-7.009999999999962
 20
6.110000000000013
 10
-7.009999999999962
 20
7.330000000000012
 10
-8.229999999999961
 20
7.330000000000012
 10
-8.229999999999961
 20
6.110000000000013
 10
-9.44999999999996
 20
6.110000000000013
 10
-9.44999999999996
 20
4.890000000000014
 10
-8.229999999999961
 20
4.890000000000014
  0
LWPOLYLINE
  5
4963
330
4960
100
AcDbEntity
  8
0
100
AcDbPolyline
 90
       13
 70
     0
 43
0.0
 10
-0.6100000000000137
 20
4.890000000000014
 10
-0.6100000000000137
 20
3.670000000000015
 10
0.6099999999999853
 20
3.670000000000015
 10
0.6099999999999853
 20
4.890000000000014
 10
1.830000000000012
 20
4.890000000000014
 10
1.830000000000012
 20
6.110000000000013
 10
0.6099999999999853
 20
6.110000000000013
 10
0.6099999999999853
 20
7.330000000000012
 10
-0.6100000000000137
 20
7.330000000000012
 10
-0.6100000000000137
 20
6.110000000000013
 10
-1.830000000000012
 20
6.110000000000013
 10
-1.830000000000012
 20
4.890000000000014
 10
-0.6100000000000137
 20
4.890000000000014
  0
LWPOLYLINE
  5
4964
330
4960
100
AcDbEntity
  8
0
100
AcDbPolyline
 90
       13
 70
     0
 43
0.0
 10
7.00999999999999
 20
4.890000000000014
 10
7.00999999999999
 20
3.670000000000015
 10
8.229999999999989
 20
3.670000000000015
 10
8.229999999999989
 20
4.890000000000014
 10
9.450000000000017
 20
4.890000000000014
 10
9.450000000000017
 20
6.110000000000013
 10
8.229999999999989
 20
6.110000000000013
 10
8.229999999999989
 20
7.330000000000012
 10
7.00999999999999
 20
7.330000000000012
 10
7.00999999999999
 20
6.110000000000013
 10
5.789999999999992
 20
6.110000000000013
 10
5.789999999999992
 20
4.890000000000014
 10
7.00999999999999
 20
4.890000000000014
  0
LINE
  5
4965
330
4960
100
AcDbEntity
  8
0
100
AcDbLine
 10
9.120000000000061
 20
2.5
 30
0.0
 11
9.120000000000061
 21
1.699999999999988
 31
0.0
  0
LINE
  5
4966
330
4960
100
AcDbEntity
  8
0
100
AcDbLine
 10
8.370000000000118
 20
9.499999999999943
 30
0.0
 11
8.370000000000061
 21
8.699999999999988
 31
0.0
  0
LINE
  5
4967
330
4960
100
AcDbEntity
  8
0
100
AcDbLine
 10
9.120000000000061
 20
9.299999999999954
 30
0.0
 11
9.120000000000061
 21
8.5
 31
0.0
  0
LINE
  5
4968
330
4960
100
AcDbEntity
  8
0
100
AcDbLine
 10
12.04000000000013
 20
12.0
 30
0.0
 11
12.04000000000007
 21
0.0
 31
0.0
  0
LINE
  5
4969
330
4960
100
AcDbEntity
  8
0
100
AcDbLine
 10
10.81999999999999
 20
12.00000000000005
 30
0.0
 11
10.81999999999999
 21
0.0000000000000568
 31
0.0
  0
LINE
  5
496A
330
4960
100
AcDbEntity
  8
0
100
AcDbLine
 10
-3.199999999999988
 20
2.5
 30
0.0
 11
3.200000000000102
 21
2.5
 31
0.0
  0
LINE
  5
496B
330
4960
100
AcDbEntity
  8
0
100
AcDbLine
 10
-3.199999999999988
 20
0.9000000000000341
 30
0.0
 11
3.200000000000102
 21
0.8999999999999772
 31
0.0
  0
LINE
  5
496C
330
4960
100
AcDbEntity
  8
0
100
AcDbLine
 10
-1.499999999999943
 20
1.699999999999988
 30
0.0
 11
1.500000000000056
 21
1.699999999999988
 31
0.0
  0
LINE
  5
496D
330
4960
100
AcDbEntity
  8
0
100
AcDbLine
 10
1.500000000000056
 20
2.5
 30
0.0
 11
1.500000000000056
 21
1.699999999999988
 31
0.0
  0
LINE
  5
496E
330
4960
100
AcDbEntity
  8
0
100
AcDbLine
 10
6.120000000000061
 20
2.5
 30
0.0
 11
6.120000000000061
 21
1.699999999999988
 31
0.0
  0
LINE
  5
496F
330
4960
100
AcDbEntity
  8
0
100
AcDbLine
 10
-1.499999999999943
 20
2.5
 30
0.0
 11
-1.499999999999943
 21
1.699999999999988
 31
0.0
  0
LINE
  5
4970
330
4960
100
AcDbEntity
  8
0
100
AcDbLine
 10
-3.199999999999931
 20
8.5
 30
0.0
 11
3.199999999999988
 21
8.5
 31
0.0
  0
LINE
  5
4971
330
4960
100
AcDbEntity
  8
0
100
AcDbLine
 10
-3.199999999999931
 20
10.09999999999996
 30
0.0
 11
3.199999999999988
 21
10.09999999999996
 31
0.0
  0
LINE
  5
4972
330
4960
100
AcDbEntity
  8
0
100
AcDbLine
 10
-0.7499999999999432
 20
9.499999999999943
 30
0.0
 11
0.7500000000000569
 21
9.499999999999943
 31
0.0
  0
LINE
  5
4973
330
4960
100
AcDbEntity
  8
0
100
AcDbLine
 10
-0.7499999999999432
 20
8.699999999999988
 30
0.0
 11
0.7500000000000569
 21
8.699999999999988
 31
0.0
  0
LINE
  5
4974
330
4960
100
AcDbEntity
  8
0
100
AcDbLine
 10
-1.499999999999943
 20
9.300000000000011
 30
0.0
 11
1.500000000000056
 21
9.300000000000011
 31
0.0
  0
LINE
  5
4975
330
4960
100
AcDbEntity
  8
0
100
AcDbLine
 10
1.500000000000056
 20
9.300000000000011
 30
0.0
 11
1.500000000000056
 21
8.5
 31
0.0
  0
LINE
  5
4976
330
4960
100
AcDbEntity
  8
0
100
AcDbLine
 10
0.7500000000001137
 20
9.499999999999943
 30
0.0
 11
0.7500000000000569
 21
8.699999999999988
 31
0.0
  0
LINE
  5
4977
330
4960
100
AcDbEntity
  8
0
100
AcDbLine
 10
6.870000000000061
 20
9.499999999999943
 30
0.0
 11
6.870000000000061
 21
8.699999999999988
 31
0.0
  0
LINE
  5
4978
330
4960
100
AcDbEntity
  8
0
100
AcDbLine
 10
6.120000000000061
 20
9.300000000000011
 30
0.0
 11
6.120000000000061
 21
8.5
 31
0.0
  0
LINE
  5
4979
330
4960
100
AcDbEntity
  8
0
100
AcDbLine
 10
-1.499999999999943
 20
9.300000000000011
 30
0.0
 11
-1.499999999999943
 21
8.5
 31
0.0
  0
LINE
  5
497A
330
4960
100
AcDbEntity
  8
0
100
AcDbLine
 10
-0.7499999999999432
 20
9.499999999999943
 30
0.0
 11
-0.7499999999999432
 21
8.699999999999988
 31
0.0
  0
CIRCLE
  5
497B
330
4960
100
AcDbEntity
  8
0
100
AcDbCircle
 10
0.0
 20
5.5
 30
0.0
 40
2.75
  0
LINE
  5
497C
330
4960
100
AcDbEntity
  8
0
100
AcDbLine
 10
3.199999999999988
 20
12.0
 30
0.0
 11
3.200000000000045
 21
0.0
 31
0.0
  0
LINE
  5
497D
330
4960
100
AcDbEntity
  8
0
100
AcDbLine
 10
4.420000000000129
 20
12.0
 30
0.0
 11
4.420000000000072
 21
0.0
 31
0.0
  0
LINE
  5
497E
330
4960
100
AcDbEntity
  8
0
100
AcDbLine
 10
-3.199999999999874
 20
12.0
 30
0.0
 11
-3.199999999999931
 21
0.0
 31
0.0
  0
LINE
  5
497F
330
4960
100
AcDbEntity
  8
0
100
AcDbLine
 10
4.420000000000072
 20
8.5
 30
0.0
 11
10.8200000000001
 21
8.5
 31
0.0
  0
LINE
  5
4980
330
4960
100
AcDbEntity
  8
0
100
AcDbLine
 10
4.420000000000015
 20
2.5
 30
0.0
 11
10.8200000000001
 21
2.5
 31
0.0
  0
LINE
  5
4981
330
4960
100
AcDbEntity
  8
0
100
AcDbLine
 10
4.420000000000072
 20
10.09999999999996
 30
0.0
 11
10.81999999999999
 21
10.09999999999996
 31
0.0
  0
LINE
  5
4982
330
4960
100
AcDbEntity
  8
0
100
AcDbLine
 10
4.420000000000015
 20
2.5
 30
0.0
 11
10.8200000000001
 21
2.5
 31
0.0
  0
LINE
  5
4983
330
4960
100
AcDbEntity
  8
0
100
AcDbLine
 10
4.420000000000015
 20
0.8999999999999772
 30
0.0
 11
10.8200000000001
 21
0.8999999999999772
 31
0.0
  0
CIRCLE
  5
4984
330
4960
100
AcDbEntity
  8
0
100
AcDbCircle
 10
7.620000000000004
 20
5.5
 30
0.0
 40
2.75
  0
LINE
  5
4985
330
4960
100
AcDbEntity
  8
0
100
AcDbLine
 10
6.120000000000061
 20
1.699999999999988
 30
0.0
 11
9.120000000000061
 21
1.699999999999988
 31
0.0
  0
LINE
  5
4986
330
4960
100
AcDbEntity
  8
0
100
AcDbLine
 10
6.870000000000061
 20
9.499999999999943
 30
0.0
 11
8.370000000000061
 21
9.499999999999943
 31
0.0
  0
LINE
  5
4987
330
4960
100
AcDbEntity
  8
0
100
AcDbLine
 10
6.870000000000061
 20
8.699999999999988
 30
0.0
 11
8.370000000000061
 21
8.699999999999988
 31
0.0
  0
LINE
  5
4988
330
4960
100
AcDbEntity
  8
0
100
AcDbLine
 10
6.120000000000061
 20
9.300000000000011
 30
0.0
 11
9.120000000000061
 21
9.300000000000011
 31
0.0
  0
LINE
  5
4989
330
4960
100
AcDbEntity
  8
0
100
AcDbLine
 10
-10.81999999999999
 20
2.5
 30
0.0
 11
-4.419999999999902
 21
2.5
 31
0.0
  0
LINE
  5
498A
330
4960
100
AcDbEntity
  8
0
100
AcDbLine
 10
-10.81999999999999
 20
0.9000000000000341
 30
0.0
 11
-4.419999999999902
 21
0.9000000000000341
 31
0.0
  0
LINE
  5
498B
330
4960
100
AcDbEntity
  8
0
100
AcDbLine
 10
-9.119999999999947
 20
2.5
 30
0.0
 11
-9.119999999999947
 21
1.699999999999988
 31
0.0
  0
LINE
  5
498C
330
4960
100
AcDbEntity
  8
0
100
AcDbLine
 10
-6.119999999999947
 20
2.5
 30
0.0
 11
-6.119999999999947
 21
1.699999999999988
 31
0.0
  0
LINE
  5
498D
330
4960
100
AcDbEntity
  8
0
100
AcDbLine
 10
-9.119999999999947
 20
1.699999999999988
 30
0.0
 11
-6.119999999999947
 21
1.699999999999988
 31
0.0
  0
LINE
  5
498E
330
4960
100
AcDbEntity
  8
0
100
AcDbLine
 10
-10.81999999999999
 20
8.5
 30
0.0
 11
-4.419999999999959
 21
8.5
 31
0.0
  0
LINE
  5
498F
330
4960
100
AcDbEntity
  8
0
100
AcDbLine
 10
-10.81999999999999
 20
10.09999999999996
 30
0.0
 11
-4.420000000000015
 21
10.09999999999996
 31
0.0
  0
LINE
  5
4990
330
4960
100
AcDbEntity
  8
0
100
AcDbLine
 10
-9.119999999999947
 20
9.300000000000011
 30
0.0
 11
-9.119999999999947
 21
8.5
 31
0.0
  0
LINE
  5
4991
330
4960
100
AcDbEntity
  8
0
100
AcDbLine
 10
-8.369999999999947
 20
9.499999999999943
 30
0.0
 11
-8.369999999999947
 21
8.699999999999988
 31
0.0
  0
LINE
  5
4992
330
4960
100
AcDbEntity
  8
0
100
AcDbLine
 10
-6.119999999999947
 20
9.300000000000011
 30
0.0
 11
-6.119999999999947
 21
8.5
 31
0.0
  0
LINE
  5
4993
330
4960
100
AcDbEntity
  8
0
100
AcDbLine
 10
-6.869999999999947
 20
9.499999999999943
 30
0.0
 11
-6.869999999999947
 21
8.699999999999988
 31
0.0
  0
LINE
  5
4994
330
4960
100
AcDbEntity
  8
0
100
AcDbLine
 10
-9.119999999999947
 20
9.300000000000011
 30
0.0
 11
-6.119999999999947
 21
9.300000000000011
 31
0.0
  0
LINE
  5
4995
330
4960
100
AcDbEntity
  8
0
100
AcDbLine
 10
-8.369999999999947
 20
9.499999999999943
 30
0.0
 11
-6.869999999999947
 21
9.499999999999943
 31
0.0
  0
LINE
  5
4996
330
4960
100
AcDbEntity
  8
0
100
AcDbLine
 10
-8.369999999999947
 20
8.699999999999988
 30
0.0
 11
-6.869999999999947
 21
8.699999999999988
 31
0.0
  0
LINE
  5
4997
330
4960
100
AcDbEntity
  8
0
100
AcDbLine
 10
-10.81999999999988
 20
12.0
 30
0.0
 11
-10.81999999999999
 21
0.0
 31
0.0
  0
LINE
  5
4998
330
4960
100
AcDbEntity
  8
0
100
AcDbLine
 10
-4.420000000000015
 20
12.0
 30
0.0
 11
-4.419999999999959
 21
0.0
 31
0.0
  0
CIRCLE
  5
4999
330
4960
100
AcDbEntity
  8
0
100
AcDbCircle
 10
-7.619999999999947
 20
5.5
 30
0.0
 40
2.75
  0
LINE
  5
499A
330
4960
100
AcDbEntity
  8
0
100
AcDbLine
 10
-12.03999999999993
 20
12.0
 30
0.0
 11
-12.03999999999993
 21
0.0
 31
0.0
  0
LINE
  5
499B
330
4960
100
AcDbEntity
  8
0
100
AcDbLine
 10
-13.0
 20
12.0
 30
0.0
 11
-13.0
 21
0.0
 31
0.0
  0
LINE
  5
499C
330
4960
100
AcDbEntity
  8
0
100
AcDbLine
 10
-13.0
 20
12.0
 30
0.0
 11
13.0
 21
12.00000000000005
 31
0.0
  0
LINE
  5
499D
330
4960
100
AcDbEntity
  8
0
100
AcDbLine
 10
-13.0
 20
0.0
 30
0.0
 11
13.0
 21
0.0
 31
0.0
  0
LINE
  5
499E
330
4960
100
AcDbEntity
  8
0
100
AcDbLine
 10
13.0
 20
12.00000000000005
 30
0.0
 11
13.0
 21
0.0
 31
0.0
  0
ENDBLK
  5
499F
330
4960
100
AcDbEntity
  8
0
100
AcDbBlockEnd
  0
BLOCK
  5
5474
330
546A
100
AcDbEntity
  8
0
100
AcDbBlockBegin
  2
*D40
 70
     1
 10
0.0
 20
0.0
 30
0.0
  3
*D40
  1

  0
LINE
  5
596F
330
546A
100
AcDbEntity
  8
SUNPOU
 62
     0
370
    -2
100
AcDbLine
 10
36.50000008078041
 20
227.0
 30
0.0
 11
36.50000008078041
 21
237.9604615161373
 31
0.0
  0
LINE
  5
5970
330
546A
100
AcDbEntity
  8
SUNPOU
 62
     0
370
    -2
100
AcDbLine
 10
132.4999998943628
 20
227.0
 30
0.0
 11
132.4999998943628
 21
237.9604615161373
 31
0.0
  0
LINE
  5
5971
330
546A
100
AcDbEntity
  8
SUNPOU
 62
     0
370
    -2
100
AcDbLine
 10
39.00000008078041
 20
237.4604615161373
 30
0.0
 11
129.9999998943629
 21
237.4604615161373
 31
0.0
  0
INSERT
  5
5972
330
546A
100
AcDbEntity
  8
SUNPOU
 62
     0
370
    -2
100
AcDbBlockReference
  2
_OPEN
 10
36.50000008078041
 20
237.4604615161373
 30
0.0
 41
2.5
 42
2.5
 43
2.5
 50
180.0
  0
INSERT
  5
5973
330
546A
100
AcDbEntity
  8
SUNPOU
 62
     0
370
    -2
100
AcDbBlockReference
  2
_OPEN
 10
132.4999998943628
 20
237.4604615161373
 30
0.0
 41
2.5
 42
2.5
 43
2.5
  0
MTEXT
  5
5974
330
546A
100
AcDbEntity
  8
SUNPOU
 62
     0
100
AcDbMText
 10
84.49999998757164
 20
240.4604615161373
 30
0.0
 40
5.0
 41
0.0
 71
     5
 72
     1
  1
\A1;96
 73
     1
 44
1.0
1001
ACAD
1000
MTEXTBEGIN
1070
    73
1070
     1
1070
    44
1040
1.0
1070
    74
1070
     0
1000
MTEXTEND
  0
POINT
  5
5975
330
546A
100
AcDbEntity
  8
DEFPOINTS
 62
     0
100
AcDbPoint
 10
36.50000008078041
 20
226.5
 30
0.0
  0
POINT
  5
5976
330
546A
100
AcDbEntity
  8
DEFPOINTS
 62
     0
100
AcDbPoint
 10
132.4999998943628
 20
226.5
 30
0.0
  0
POINT
  5
5977
330
546A
100
AcDbEntity
  8
DEFPOINTS
 62
     0
100
AcDbPoint
 10
132.4999998943628
 20
237.4604615161373
 30
0.0
  0
ENDBLK
  5
5475
330
546A
100
AcDbEntity
  8
0
100
AcDbBlockEnd
  0
BLOCK
  5
5480
330
5476
100
AcDbEntity
  8
0
100
AcDbBlockBegin
  2
*D41
 70
     1
 10
0.0
 20
0.0
 30
0.0
  3
*D41
  1

  0
LINE
  5
5978
330
5476
100
AcDbEntity
  8
SUNPOU
 62
     0
370
    -2
100
AcDbLine
 10
132.9999998943629
 20
226.5
 30
0.0
 11
147.5634917681636
 21
226.5
 31
0.0
  0
LINE
  5
5979
330
5476
100
AcDbEntity
  8
SUNPOU
 62
     0
370
    -2
100
AcDbLine
 10
132.9999998943629
 20
178.5000000932087
 30
0.0
 11
147.5634917681636
 21
178.5000000932087
 31
0.0
  0
LINE
  5
597A
330
5476
100
AcDbEntity
  8
SUNPOU
 62
     0
370
    -2
100
AcDbLine
 10
147.0634917681637
 20
224.0
 30
0.0
 11
147.0634917681636
 21
181.0000000932087
 31
0.0
  0
INSERT
  5
597B
330
5476
100
AcDbEntity
  8
SUNPOU
 62
     0
370
    -2
100
AcDbBlockReference
  2
_OPEN
 10
147.0634917681637
 20
226.5
 30
0.0
 41
2.5
 42
2.5
 43
2.5
 50
90.0
  0
INSERT
  5
597C
330
5476
100
AcDbEntity
  8
SUNPOU
 62
     0
370
    -2
100
AcDbBlockReference
  2
_OPEN
 10
147.0634917681636
 20
178.5000000932087
 30
0.0
 41
2.5
 42
2.5
 43
2.5
 50
270.0
  0
MTEXT
  5
597D
330
5476
100
AcDbEntity
  8
SUNPOU
 62
     0
100
AcDbMText
 10
144.0634917681636
 20
202.5000000466044
 30
0.0
 40
5.0
 41
0.0
 71
     5
 72
     1
  1
\A1;48
 11
0.0000000000000001
 21
1.0
 31
0.0
 73
     1
 44
1.0
1001
ACAD
1000
MTEXTBEGIN
1070
    73
1070
     1
1070
    44
1040
1.0
1070
    74
1070
     0
1000
MTEXTEND
  0
POINT
  5
597E
330
5476
100
AcDbEntity
  8
DEFPOINTS
 62
     0
100
AcDbPoint
 10
132.4999998943628
 20
226.5
 30
0.0
  0
POINT
  5
597F
330
5476
100
AcDbEntity
  8
DEFPOINTS
 62
     0
100
AcDbPoint
 10
132.4999998943628
 20
178.5000000932087
 30
0.0
  0
POINT
  5
5980
330
5476
100
AcDbEntity
  8
DEFPOINTS
 62
     0
100
AcDbPoint
 10
147.0634917681636
 20
178.5000000932087
 30
0.0
  0
ENDBLK
  5
5481
330
5476
100
AcDbEntity
  8
0
100
AcDbBlockEnd
  0
BLOCK
  5
54A0
330
5497
100
AcDbEntity
  8
0
100
AcDbBlockBegin
  2
*D42
 70
     1
 10
0.0
 20
0.0
 30
0.0
  3
*D42
  1

  0
LINE
  5
59AE
330
5497
100
AcDbEntity
  8
SUNPOU
 62
     0
370
    -2
100
AcDbLine
 10
270.0
 20
224.4999999582503
 30
0.0
 11
270.0
 21
237.960461469533
 31
0.0
  0
LINE
  5
59AF
330
5497
100
AcDbEntity
  8
SUNPOU
 62
     0
370
    -2
100
AcDbLine
 10
168.2
 20
237.460461469533
 30
0.0
 11
267.5
 21
237.460461469533
 31
0.0
  0
INSERT
  5
59B0
330
5497
100
AcDbEntity
  8
SUNPOU
 62
     0
370
    -2
100
AcDbBlockReference
  2
_OPEN
 10
165.7
 20
237.460461469533
 30
0.0
 41
2.5
 42
2.5
 43
2.5
 50
180.0
  0
INSERT
  5
59B1
330
5497
100
AcDbEntity
  8
SUNPOU
 62
     0
370
    -2
100
AcDbBlockReference
  2
_OPEN
 10
270.0
 20
237.460461469533
 30
0.0
 41
2.5
 42
2.5
 43
2.5
  0
MTEXT
  5
59B2
330
5497
100
AcDbEntity
  8
SUNPOU
 62
     0
100
AcDbMText
 10
217.85
 20
240.460461469533
 30
0.0
 40
5.0
 41
0.0
 71
     5
 72
     1
  1
\A1;104
 73
     1
 44
1.0
1001
ACAD
1000
MTEXTBEGIN
1070
    73
1070
     1
1070
    44
1040
1.0
1070
    74
1070
     0
1000
MTEXTEND
  0
POINT
  5
59B3
330
5497
100
AcDbEntity
  8
DEFPOINTS
 62
     0
100
AcDbPoint
 10
165.7
 20
226.4999999533957
 30
0.0
  0
POINT
  5
59B4
330
5497
100
AcDbEntity
  8
DEFPOINTS
 62
     0
100
AcDbPoint
 10
270.0
 20
223.9999999582503
 30
0.0
  0
POINT
  5
59B5
330
5497
100
AcDbEntity
  8
DEFPOINTS
 62
     0
100
AcDbPoint
 10
270.0
 20
237.460461469533
 30
0.0
  0
ENDBLK
  5
54A1
330
5497
100
AcDbEntity
  8
0
100
AcDbBlockEnd
  0
BLOCK
  5
54AD
330
54A2
100
AcDbEntity
  8
0
100
AcDbBlockBegin
  2
*D43
 70
     1
 10
0.0
 20
0.0
 30
0.0
  3
*D43
  1

  0
LINE
  5
59B6
330
54A2
100
AcDbEntity
  8
SUNPOU
 62
     0
370
    -2
100
AcDbLine
 10
160.0000000110686
 20
225.9999999553375
 30
0.0
 11
160.0000000110686
 21
237.960461469533
 31
0.0
  0
LINE
  5
59B7
330
54A2
100
AcDbEntity
  8
SUNPOU
 62
     0
370
    -2
100
AcDbLine
 10
165.7
 20
226.9999999533957
 30
0.0
 11
165.7
 21
237.960461469533
 31
0.0
  0
LINE
  5
59B8
330
54A2
100
AcDbEntity
  8
SUNPOU
 62
     0
370
    -2
100
AcDbLine
 10
157.5000000110686
 20
237.460461469533
 30
0.0
 11
155.0000000110686
 21
237.460461469533
 31
0.0
  0
LINE
  5
59B9
330
54A2
100
AcDbEntity
  8
SUNPOU
 62
     0
370
    -2
100
AcDbLine
 10
168.2
 20
237.460461469533
 30
0.0
 11
170.7
 21
237.460461469533
 31
0.0
  0
INSERT
  5
59BA
330
54A2
100
AcDbEntity
  8
SUNPOU
 62
     0
370
    -2
100
AcDbBlockReference
  2
_OPEN
 10
160.0000000110686
 20
237.460461469533
 30
0.0
 41
2.5
 42
2.5
 43
2.5
  0
INSERT
  5
59BB
330
54A2
100
AcDbEntity
  8
SUNPOU
 62
     0
370
    -2
100
AcDbBlockReference
  2
_OPEN
 10
165.7
 20
237.460461469533
 30
0.0
 41
2.5
 42
2.5
 43
2.5
 50
180.0
  0
MTEXT
  5
59BC
330
54A2
100
AcDbEntity
  8
SUNPOU
 62
     0
100
AcDbMText
 10
162.8500000055343
 20
240.460461469533
 30
0.0
 40
5.0
 41
0.0
 71
     5
 72
     1
  1
\A1;6
 73
     1
 44
1.0
1001
ACAD
1000
MTEXTBEGIN
1070
    73
1070
     1
1070
    44
1040
1.0
1070
    74
1070
     0
1000
MTEXTEND
  0
POINT
  5
59BD
330
54A2
100
AcDbEntity
  8
DEFPOINTS
 62
     0
100
AcDbPoint
 10
160.0000000110686
 20
225.4999999553375
 30
0.0
  0
POINT
  5
59BE
330
54A2
100
AcDbEntity
  8
DEFPOINTS
 62
     0
100
AcDbPoint
 10
165.7
 20
226.4999999533957
 30
0.0
  0
POINT
  5
59BF
330
54A2
100
AcDbEntity
  8
DEFPOINTS
 62
     0
100
AcDbPoint
 10
165.7
 20
237.460461469533
 30
0.0
  0
ENDBLK
  5
54AE
330
54A2
100
AcDbEntity
  8
0
100
AcDbBlockEnd
  0
BLOCK
  5
54B9
330
54AF
100
AcDbEntity
  8
0
100
AcDbBlockBegin
  2
*D44
 70
     1
 10
0.0
 20
0.0
 30
0.0
  3
*D44
  1

  0
LINE
  5
59C0
330
54AF
100
AcDbEntity
  8
SUNPOU
 62
     0
370
    -2
100
AcDbLine
 10
270.0
 20
224.4999999533957
 30
0.0
 11
270.0
 21
237.960461469533
 31
0.0
  0
LINE
  5
59C1
330
54AF
100
AcDbEntity
  8
SUNPOU
 62
     0
370
    -2
100
AcDbLine
 10
287.7000000000001
 20
220.0999999533956
 30
0.0
 11
287.7000000000001
 21
237.960461469533
 31
0.0
  0
LINE
  5
59C2
330
54AF
100
AcDbEntity
  8
SUNPOU
 62
     0
370
    -2
100
AcDbLine
 10
272.5
 20
237.460461469533
 30
0.0
 11
285.2
 21
237.460461469533
 31
0.0
  0
INSERT
  5
59C3
330
54AF
100
AcDbEntity
  8
SUNPOU
 62
     0
370
    -2
100
AcDbBlockReference
  2
_OPEN
 10
270.0
 20
237.460461469533
 30
0.0
 41
2.5
 42
2.5
 43
2.5
 50
180.0
  0
INSERT
  5
59C4
330
54AF
100
AcDbEntity
  8
SUNPOU
 62
     0
370
    -2
100
AcDbBlockReference
  2
_OPEN
 10
287.7000000000001
 20
237.460461469533
 30
0.0
 41
2.5
 42
2.5
 43
2.5
  0
MTEXT
  5
59C5
330
54AF
100
AcDbEntity
  8
SUNPOU
 62
     0
100
AcDbMText
 10
278.85
 20
240.460461469533
 30
0.0
 40
5.0
 41
0.0
 71
     5
 72
     1
  1
\A1;17
 73
     1
 44
1.0
1001
ACAD
1000
MTEXTBEGIN
1070
    73
1070
     1
1070
    44
1040
1.0
1070
    74
1070
     0
1000
MTEXTEND
  0
POINT
  5
59C6
330
54AF
100
AcDbEntity
  8
DEFPOINTS
 62
     0
100
AcDbPoint
 10
270.0
 20
223.9999999533957
 30
0.0
  0
POINT
  5
59C7
330
54AF
100
AcDbEntity
  8
DEFPOINTS
 62
     0
100
AcDbPoint
 10
287.7000000000001
 20
219.5999999533956
 30
0.0
  0
POINT
  5
59C8
330
54AF
100
AcDbEntity
  8
DEFPOINTS
 62
     0
100
AcDbPoint
 10
287.7000000000001
 20
237.460461469533
 30
0.0
  0
ENDBLK
  5
54BA
330
54AF
100
AcDbEntity
  8
0
100
AcDbBlockEnd
  0
BLOCK
  5
54E6
330
54DC
100
AcDbEntity
  8
0
100
AcDbBlockBegin
  2
*D45
 70
     1
 10
0.0
 20
0.0
 30
0.0
  3
*D45
  1

  0
LINE
  5
5981
330
54DC
100
AcDbEntity
  8
SUNPOU
 62
     0
370
    -2
100
AcDbLine
 10
257.6999998213499
 20
138.0000001262202
 30
0.0
 11
257.6999998213499
 21
148.1579004095329
 31
0.0
  0
LINE
  5
5982
330
54DC
100
AcDbEntity
  8
SUNPOU
 62
     0
370
    -2
100
AcDbLine
 10
165.7
 20
138.0000001262202
 30
0.0
 11
165.7
 21
148.1579004095329
 31
0.0
  0
LINE
  5
5983
330
54DC
100
AcDbEntity
  8
SUNPOU
 62
     0
370
    -2
100
AcDbLine
 10
255.1999998213499
 20
147.6579004095329
 30
0.0
 11
168.2
 21
147.6579004095329
 31
0.0
  0
INSERT
  5
5984
330
54DC
100
AcDbEntity
  8
SUNPOU
 62
     0
370
    -2
100
AcDbBlockReference
  2
_OPEN
 10
257.6999998213499
 20
147.6579004095329
 30
0.0
 41
2.5
 42
2.5
 43
2.5
  0
INSERT
  5
5985
330
54DC
100
AcDbEntity
  8
SUNPOU
 62
     0
370
    -2
100
AcDbBlockReference
  2
_OPEN
 10
165.7
 20
147.6579004095329
 30
0.0
 41
2.5
 42
2.5
 43
2.5
 50
180.0
  0
MTEXT
  5
5986
330
54DC
100
AcDbEntity
  8
SUNPOU
 62
     0
100
AcDbMText
 10
211.8937225810901
 20
150.6579004095329
 30
0.0
 40
5.0
 41
0.0
 71
     5
 72
     1
  1
\A1;92
 73
     1
 44
1.0
1001
ACAD
1000
MTEXTBEGIN
1070
    73
1070
     1
1070
    44
1040
1.0
1070
    74
1070
     0
1000
MTEXTEND
  0
POINT
  5
5987
330
54DC
100
AcDbEntity
  8
DEFPOINTS
 62
     0
100
AcDbPoint
 10
257.6999998213499
 20
137.5000001262203
 30
0.0
  0
POINT
  5
5988
330
54DC
100
AcDbEntity
  8
DEFPOINTS
 62
     0
100
AcDbPoint
 10
165.7
 20
137.5000001262203
 30
0.0
  0
POINT
  5
5989
330
54DC
100
AcDbEntity
  8
DEFPOINTS
 62
     0
100
AcDbPoint
 10
165.7
 20
147.6579004095329
 30
0.0
  0
ENDBLK
  5
54E7
330
54DC
100
AcDbEntity
  8
0
100
AcDbBlockEnd
  0
BLOCK
  5
54F2
330
54E8
100
AcDbEntity
  8
0
100
AcDbBlockBegin
  2
*D46
 70
     1
 10
0.0
 20
0.0
 30
0.0
  3
*D46
  1

  0
LINE
  5
598A
330
54E8
100
AcDbEntity
  8
SUNPOU
 62
     0
370
    -2
100
AcDbLine
 10
258.19999982135
 20
137.5000001262203
 30
0.0
 11
269.6693717610903
 21
137.5000001262203
 31
0.0
  0
LINE
  5
598B
330
54E8
100
AcDbEntity
  8
SUNPOU
 62
     0
370
    -2
100
AcDbLine
 10
258.19999982135
 20
93.50000021166165
 30
0.0
 11
269.6693717610902
 21
93.50000021166165
 31
0.0
  0
LINE
  5
598C
330
54E8
100
AcDbEntity
  8
SUNPOU
 62
     0
370
    -2
100
AcDbLine
 10
269.1693717610903
 20
135.0000001262202
 30
0.0
 11
269.1693717610903
 21
96.00000021166165
 31
0.0
  0
INSERT
  5
598D
330
54E8
100
AcDbEntity
  8
SUNPOU
 62
     0
370
    -2
100
AcDbBlockReference
  2
_OPEN
 10
269.1693717610903
 20
137.5000001262203
 30
0.0
 41
2.5
 42
2.5
 43
2.5
 50
90.0
  0
INSERT
  5
598E
330
54E8
100
AcDbEntity
  8
SUNPOU
 62
     0
370
    -2
100
AcDbBlockReference
  2
_OPEN
 10
269.1693717610903
 20
93.50000021166165
 30
0.0
 41
2.5
 42
2.5
 43
2.5
 50
270.0
  0
MTEXT
  5
598F
330
54E8
100
AcDbEntity
  8
SUNPOU
 62
     0
100
AcDbMText
 10
266.1693717610902
 20
115.500000168941
 30
0.0
 40
5.0
 41
0.0
 71
     5
 72
     1
  1
\A1;44
 11
0.0000000000000001
 21
1.0
 31
0.0
 73
     1
 44
1.0
1001
ACAD
1000
MTEXTBEGIN
1070
    73
1070
     1
1070
    44
1040
1.0
1070
    74
1070
     0
1000
MTEXTEND
  0
POINT
  5
5990
330
54E8
100
AcDbEntity
  8
DEFPOINTS
 62
     0
100
AcDbPoint
 10
257.6999998213499
 20
137.5000001262203
 30
0.0
  0
POINT
  5
5991
330
54E8
100
AcDbEntity
  8
DEFPOINTS
 62
     0
100
AcDbPoint
 10
257.6999998213499
 20
93.50000021166165
 30
0.0
  0
POINT
  5
5992
330
54E8
100
AcDbEntity
  8
DEFPOINTS
 62
     0
100
AcDbPoint
 10
269.1693717610903
 20
93.50000021166165
 30
0.0
  0
ENDBLK
  5
54F3
330
54E8
100
AcDbEntity
  8
0
100
AcDbBlockEnd
  0
BLOCK
  5
5512
330
5508
100
AcDbEntity
  8
0
100
AcDbBlockBegin
  2
*D47
 70
     1
 10
0.0
 20
0.0
 30
0.0
  3
*D47
  1

  0
LINE
  5
595D
330
5508
100
AcDbEntity
  8
SUNPOU
 62
     0
370
    -2
100
AcDbLine
 10
39.00000007592576
 20
137.5000001737955
 30
0.0
 11
39.00000007592576
 21
155.5569964685318
 31
0.0
  0
LINE
  5
595E
330
5508
100
AcDbEntity
  8
SUNPOU
 62
     0
370
    -2
100
AcDbLine
 10
129.9999998992174
 20
137.5000001737955
 30
0.0
 11
129.9999998992174
 21
155.5569964685318
 31
0.0
  0
LINE
  5
595F
330
5508
100
AcDbEntity
  8
SUNPOU
 62
     0
370
    -2
100
AcDbLine
 10
41.50000007592575
 20
155.0569964685319
 30
0.0
 11
127.4999998992174
 21
155.0569964685319
 31
0.0
  0
INSERT
  5
5960
330
5508
100
AcDbEntity
  8
SUNPOU
 62
     0
370
    -2
100
AcDbBlockReference
  2
_OPEN
 10
39.00000007592576
 20
155.0569964685319
 30
0.0
 41
2.5
 42
2.5
 43
2.5
 50
180.0
  0
INSERT
  5
5961
330
5508
100
AcDbEntity
  8
SUNPOU
 62
     0
370
    -2
100
AcDbBlockReference
  2
_OPEN
 10
129.9999998992174
 20
155.0569964685319
 30
0.0
 41
2.5
 42
2.5
 43
2.5
  0
MTEXT
  5
5962
330
5508
100
AcDbEntity
  8
SUNPOU
 62
     0
100
AcDbMText
 10
84.49999998757162
 20
158.0569964685319
 30
0.0
 40
5.0
 41
0.0
 71
     5
 72
     1
  1
\A1;91
 73
     1
 44
1.0
1001
ACAD
1000
MTEXTBEGIN
1070
    73
1070
     1
1070
    44
1040
1.0
1070
    74
1070
     0
1000
MTEXTEND
  0
POINT
  5
5963
330
5508
100
AcDbEntity
  8
DEFPOINTS
 62
     0
100
AcDbPoint
 10
39.00000007592576
 20
137.0000001737955
 30
0.0
  0
POINT
  5
5964
330
5508
100
AcDbEntity
  8
DEFPOINTS
 62
     0
100
AcDbPoint
 10
129.9999998992174
 20
137.0000001737955
 30
0.0
  0
POINT
  5
5965
330
5508
100
AcDbEntity
  8
DEFPOINTS
 62
     0
100
AcDbPoint
 10
129.9999998992174
 20
155.0569964685319
 30
0.0
  0
ENDBLK
  5
5513
330
5508
100
AcDbEntity
  8
0
100
AcDbBlockEnd
  0
BLOCK
  5
551E
330
5514
100
AcDbEntity
  8
0
100
AcDbBlockBegin
  2
*D48
 70
     1
 10
0.0
 20
0.0
 30
0.0
  3
*D48
  1

  0
LINE
  5
5966
330
5514
100
AcDbEntity
  8
SUNPOU
 62
     0
370
    -2
100
AcDbLine
 10
130.4999998992175
 20
137.0000001737955
 30
0.0
 11
147.5634917681636
 21
137.0000001737955
 31
0.0
  0
LINE
  5
5967
330
5514
100
AcDbEntity
  8
SUNPOU
 62
     0
370
    -2
100
AcDbLine
 10
130.4999998992175
 20
94.00000025729505
 30
0.0
 11
147.5634917681636
 21
94.00000025729505
 31
0.0
  0
LINE
  5
5968
330
5514
100
AcDbEntity
  8
SUNPOU
 62
     0
370
    -2
100
AcDbLine
 10
147.0634917681636
 20
134.5000001737955
 30
0.0
 11
147.0634917681636
 21
96.50000025729505
 31
0.0
  0
INSERT
  5
5969
330
5514
100
AcDbEntity
  8
SUNPOU
 62
     0
370
    -2
100
AcDbBlockReference
  2
_OPEN
 10
147.0634917681636
 20
137.0000001737955
 30
0.0
 41
2.5
 42
2.5
 43
2.5
 50
90.0
  0
INSERT
  5
596A
330
5514
100
AcDbEntity
  8
SUNPOU
 62
     0
370
    -2
100
AcDbBlockReference
  2
_OPEN
 10
147.0634917681636
 20
94.00000025729505
 30
0.0
 41
2.5
 42
2.5
 43
2.5
 50
270.0
  0
MTEXT
  5
596B
330
5514
100
AcDbEntity
  8
SUNPOU
 62
     0
100
AcDbMText
 10
144.0634917681636
 20
115.5000002155453
 30
0.0
 40
5.0
 41
0.0
 71
     5
 72
     1
  1
\A1;43
 11
0.0000000000000001
 21
1.0
 31
0.0
 73
     1
 44
1.0
1001
ACAD
1000
MTEXTBEGIN
1070
    73
1070
     1
1070
    44
1040
1.0
1070
    74
1070
     0
1000
MTEXTEND
  0
POINT
  5
596C
330
5514
100
AcDbEntity
  8
DEFPOINTS
 62
     0
100
AcDbPoint
 10
129.9999998992174
 20
137.0000001737955
 30
0.0
  0
POINT
  5
596D
330
5514
100
AcDbEntity
  8
DEFPOINTS
 62
     0
100
AcDbPoint
 10
129.9999998992174
 20
94.00000025729505
 30
0.0
  0
POINT
  5
596E
330
5514
100
AcDbEntity
  8
DEFPOINTS
 62
     0
100
AcDbPoint
 10
147.0634917681636
 20
94.00000025729505
 30
0.0
  0
ENDBLK
  5
551F
330
5514
100
AcDbEntity
  8
0
100
AcDbBlockEnd
  0
ENDSEC
  0
SECTION
  2
ENTITIES
  0
LINE
  5
C9
330
1A
100
AcDbEntity
  8
WAKU
 62
     7
100
AcDbLine
 10
405.0
 20
280.0
 30
0.0
 11
20.0
 21
280.0
 31
0.0
  0
LINE
  5
CB
330
1A
100
AcDbEntity
  8
WAKU
 62
     7
100
AcDbLine
 10
20.0
 20
5.0
 30
0.0
 11
405.0
 21
5.0
 31
0.0
  0
LINE
  5
D4
330
1A
100
AcDbEntity
  8
WAKU
100
AcDbLine
 10
405.0
 20
5.0
 30
0.0
 11
405.0
 21
280.0
 31
0.0
  0
LINE
  5
D5
330
1A
100
AcDbEntity
  8
WAKU
100
AcDbLine
 10
20.0
 20
280.0
 30
0.0
 11
20.0
 21
5.0
 31
0.0
  0
MTEXT
  5
E9
330
1A
100
AcDbEntity
  8
WAKU
100
AcDbMText
 10
345.0
 20
43.0
 30
0.0
 40
4.0
 41
15.0
 71
     1
 72
     5
  1

 73
     1
 44
1.0
1001
ACAD
1000
MTEXTBEGIN
1070
    73
1070
     1
1070
    44
1040
1.0
1070
    74
1070
     0
1000
MTEXTEND
  0
MTEXT
  5
EA
330
1A
100
AcDbEntity
  8
WAKU
100
AcDbMText
 10
345.0
 20
49.0
 30
0.0
 40
4.0
 41
14.0
 71
     1
 72
     5
  1

 73
     1
 44
1.0
1001
ACAD
1000
MTEXTBEGIN
1070
    73
1070
     1
1070
    44
1040
1.0
1070
    74
1070
     0
1000
MTEXTEND
  0
MTEXT
  5
EE
330
1A
100
AcDbEntity
  8
WAKU
100
AcDbMText
 10
327.0
 20
82.0
 30
0.0
 40
3.0
 41
37.0
 71
     1
 72
     5
  1

 73
     1
 44
1.0
1001
ACAD
1000
MTEXTBEGIN
1070
    73
1070
     1
1070
    44
1040
1.0
1070
    74
1070
     0
1000
MTEXTEND
  0
MTEXT
  5
F5
330
1A
100
AcDbEntity
  8
WAKU
100
AcDbMText
 10
330.0
 20
85.0
 30
0.0
 40
3.0
 41
12.0
 71
     1
 72
     5
  1

 73
     1
 44
1.0
1001
ACAD
1000
MTEXTBEGIN
1070
    73
1070
     1
1070
    44
1040
1.0
1070
    74
1070
     0
1000
MTEXTEND
  0
MTEXT
  5
FF
330
1A
100
AcDbEntity
  8
WAKU
100
AcDbMText
 10
271.0
 20
82.0
 30
0.0
 40
3.0
 41
74.0
 71
     1
 72
     5
  1

 73
     1
 44
1.0
1001
ACAD
1000
MTEXTBEGIN
1070
    73
1070
     1
1070
    44
1040
1.0
1070
    74
1070
     0
1000
MTEXTEND
  0
POINT
  5
28FF
330
1A
100
AcDbEntity
  8
DEFPOINTS
  6
ByBlock
 62
     0
100
AcDbPoint
 10
232.8500007737773
 20
78.60050551230672
 30
0.0
  0
LINE
  5
3ABF
330
1A
100
AcDbEntity
  8
0
100
AcDbLine
 10
165.7
 20
93.50000021166165
 30
0.0
 11
257.6999998213499
 21
93.50000021166165
 31
0.0
  0
LINE
  5
3AC0
330
1A
100
AcDbEntity
  8
0
100
AcDbLine
 10
165.7
 20
137.5000001262202
 30
0.0
 11
257.6999998213499
 21
137.5000001262202
 31
0.0
  0
TEXT
  5
3B99
330
1A
100
AcDbEntity
  8
0
100
AcDbText
 10
73.50000000893198
 20
77.5000002893356
 30
0.0
 40
3.999999992232601
  1
Rear view
100
AcDbText
  0
TEXT
  5
3CC0
330
1A
100
AcDbEntity
  8
0
100
AcDbText
 10
70.50000001475753
 20
168.0000001135982
 30
0.0
 40
3.999999992232601
  1
Front view
100
AcDbText
  0
LINE
  5
3D16
330
1A
100
AcDbEntity
  8
0
100
AcDbLine
 10
165.7
 20
137.5000001262202
 30
0.0
 11
165.7
 21
93.50000021166165
 31
0.0
  0
TEXT
  5
3D42
330
1A
100
AcDbEntity
  8
0
100
AcDbText
 10
198.8499999356277
 20
82.50000023302197
 30
0.0
 40
3.999999992232601
  1
Panel cut
100
AcDbText
  0
TEXT
  5
3DD3
330
1A
100
AcDbEntity
  8
0
100
AcDbText
 10
201.7157286751391
 20
167.5000000679647
 30
0.0
 40
3.999999992232601
  1
Side view
100
AcDbText
  0
LINE
  5
3DE9
330
1A
100
AcDbEntity
  8
0
100
AcDbLine
 10
257.6999998213499
 20
137.5000001262202
 30
0.0
 11
257.6999998213499
 21
93.50000021166165
 31
0.0
  0
TEXT
  5
419B
330
1A
100
AcDbEntity
  8
0
100
AcDbText
 10
58.01499998757164
 20
141.0000002621497
 30
0.0
 40
2.5
  1
-EXC
 41
0.7
 72
     1
 11
61.63999998757164
 21
143.5000002621497
 31
0.0
100
AcDbText
 73
     3
  0
TEXT
  5
419C
330
1A
100
AcDbEntity
  8
0
100
AcDbText
 10
66.09333332090497
 20
141.0000002621497
 30
0.0
 40
2.5
  1
+SIG
 41
0.7
 72
     1
 11
69.25999998757164
 21
143.5000002621497
 31
0.0
100
AcDbText
 73
     3
  0
TEXT
  5
419D
330
1A
100
AcDbEntity
  8
0
100
AcDbText
 10
83.42857141614308
 20
141.0000002621497
 30
0.0
 40
2.5
  1
a
 72
     1
 11
84.49999998757165
 21
143.5000002621497
 31
0.0
100
AcDbText
 73
     3
  0
TEXT
  5
419E
330
1A
100
AcDbEntity
  8
0
100
AcDbText
 10
73.71333332090498
 20
141.0000002621497
 30
0.0
 40
2.5
  1
-SIG
 41
0.7
 72
     1
 11
76.87999998757165
 21
143.5000002621497
 31
0.0
100
AcDbText
 73
     3
  0
TEXT
  5
41A1
330
1A
100
AcDbEntity
  8
0
100
AcDbText
 10
98.86499998757166
 20
141.0000002621497
 30
0.0
 40
2.5
  1
E
 41
0.7
 72
     1
 11
99.73999998757165
 21
143.5000002621497
 31
0.0
100
AcDbText
 73
     3
  0
TEXT
  5
41A2
330
1A
100
AcDbEntity
  8
0
100
AcDbText
 10
91.04857141614308
 20
141.0000002621497
 30
0.0
 40
2.5
  1
c
 72
     1
 11
92.11999998757166
 21
143.5000002621497
 31
0.0
100
AcDbText
 73
     3
  0
LINE
  5
4617
330
1A
100
AcDbEntity
  8
0
100
AcDbLine
 10
165.7
 20
223.9999999533957
 30
0.0
 11
268.7000000000001
 21
223.9999999533957
 31
0.0
  0
LINE
  5
4618
330
1A
100
AcDbEntity
  8
0
100
AcDbLine
 10
165.7
 20
180.9999999533957
 30
0.0
 11
268.7000000000001
 21
180.9999999533957
 31
0.0
  0
ARC
  5
461F
330
1A
100
AcDbEntity
  8
0
100
AcDbCircle
 10
161.0
 20
225.4999999533957
 30
0.0
 40
1.0
100
AcDbArc
 50
90.0
 51
180.0
  0
ARC
  5
4620
330
1A
100
AcDbEntity
  8
0
100
AcDbCircle
 10
161.0
 20
179.4999999533956
 30
0.0
 40
1.0
100
AcDbArc
 50
180.0
 51
270.0
  0
LINE
  5
4621
330
1A
100
AcDbEntity
  8
0
100
AcDbLine
 10
160.0
 20
225.4999999533957
 30
0.0
 11
160.0
 21
179.4999999533956
 31
0.0
  0
LINE
  5
4622
330
1A
100
AcDbEntity
  8
0
100
AcDbLine
 10
165.2000000000001
 20
212.9999999533956
 30
0.0
 11
165.2000000000001
 21
191.9999999533956
 31
0.0
  0
LINE
  5
4625
330
1A
100
AcDbEntity
  8
0
100
AcDbLine
 10
166.0
 20
212.4999999533957
 30
0.0
 11
166.0
 21
192.4999999533957
 31
0.0
  0
LINE
  5
4626
330
1A
100
AcDbEntity
  8
0
100
AcDbLine
 10
164.7
 20
212.9999999533957
 30
0.0
 11
164.7
 21
191.9999999533956
 31
0.0
  0
LINE
  5
462E
330
1A
100
AcDbEntity
  8
0
100
AcDbLine
 10
165.7
 20
191.9999999533956
 30
0.0
 11
165.7
 21
178.4999999533956
 31
0.0
  0
LINE
  5
462F
330
1A
100
AcDbEntity
  8
0
100
AcDbLine
 10
161.0
 20
178.4999999533956
 30
0.0
 11
165.7
 21
178.4999999533956
 31
0.0
  0
LINE
  5
4631
330
1A
100
AcDbEntity
  8
0
100
AcDbLine
 10
165.2
 20
192.4999999533957
 30
0.0
 11
166.0
 21
192.4999999533957
 31
0.0
  0
LINE
  5
4632
330
1A
100
AcDbEntity
  8
0
100
AcDbLine
 10
164.7
 20
191.9999999533956
 30
0.0
 11
165.7
 21
191.9999999533956
 31
0.0
  0
LINE
  5
4637
330
1A
100
AcDbEntity
  8
0
100
AcDbLine
 10
165.7
 20
226.4999999533957
 30
0.0
 11
165.7
 21
212.9999999533957
 31
0.0
  0
LINE
  5
463A
330
1A
100
AcDbEntity
  8
0
100
AcDbLine
 10
165.2
 20
212.4999999533957
 30
0.0
 11
166.0
 21
212.4999999533957
 31
0.0
  0
LINE
  5
463B
330
1A
100
AcDbEntity
  8
0
100
AcDbLine
 10
165.7
 20
212.9999999533957
 30
0.0
 11
164.7
 21
212.9999999533957
 31
0.0
  0
LINE
  5
463C
330
1A
100
AcDbEntity
  8
0
100
AcDbLine
 10
161.0
 20
226.4999999533957
 30
0.0
 11
165.7
 21
226.4999999533957
 31
0.0
  0
LINE
  5
463E
330
1A
100
AcDbEntity
  8
0
100
AcDbLine
 10
270.0000000000001
 20
223.9999999533957
 30
0.0
 11
270.0000000000001
 21
209.9999999533957
 31
0.0
  0
LINE
  5
463F
330
1A
100
AcDbEntity
  8
0
100
AcDbLine
 10
268.7000000000001
 20
223.9999999533957
 30
0.0
 11
268.7000000000001
 21
209.9999999533957
 31
0.0
  0
LINE
  5
4645
330
1A
100
AcDbEntity
  8
0
100
AcDbLine
 10
268.7
 20
180.9999999533956
 30
0.0
 11
270.0000000000001
 21
180.9999999533957
 31
0.0
  0
LINE
  5
4648
330
1A
100
AcDbEntity
  8
0
100
AcDbLine
 10
270.0000000000001
 20
223.9999999533957
 30
0.0
 11
268.7
 21
223.9999999533956
 31
0.0
  0
LINE
  5
465A
330
1A
100
AcDbEntity
  8
0
100
AcDbLine
 10
161.0
 20
225.4999999533957
 30
0.0
 11
165.7
 21
225.4999999533957
 31
0.0
  0
LINE
  5
465B
330
1A
100
AcDbEntity
  8
0
100
AcDbLine
 10
161.0
 20
179.4999999533956
 30
0.0
 11
165.7
 21
179.4999999533956
 31
0.0
  0
LWPOLYLINE
  5
465D
330
1A
100
AcDbEntity
  8
0
100
AcDbPolyline
 90
        4
 70
     0
 43
0.0
 10
160.0
 20
188.8915789007641
 10
157.5
 20
188.7599999533956
 10
157.5
 20
185.7599999533956
 10
160.0
 20
185.6284210060272
  0
ELLIPSE
  5
465F
330
1A
100
AcDbEntity
  8
0
100
AcDbEllipse
 10
273.7499998839029
 20
202.4999999533957
 30
0.0
 11
0.0
 21
2.650000000000005
 31
0.0
210
0.0
220
0.0
230
1.0
 40
0.596226458904585
 41
2.81960193203065
 42
6.605176028738728
  0
LINE
  5
4660
330
1A
100
AcDbEntity
  8
0
100
AcDbLine
 10
272.0000000000001
 20
199.5999999533956
 30
0.0
 11
272.0000000000001
 21
205.3999999533957
 31
0.0
  0
LINE
  5
4661
330
1A
100
AcDbEntity
  8
0
100
AcDbLine
 10
272.5
 20
199.5999999533956
 30
0.0
 11
272.5
 21
205.3999999533957
 31
0.0
  0
LINE
  5
4662
330
1A
100
AcDbEntity
  8
0
100
AcDbLine
 10
273.2500000000001
 20
199.8499999533956
 30
0.0
 11
273.2500000000001
 21
205.1499999533957
 31
0.0
  0
LINE
  5
4663
330
1A
100
AcDbEntity
  8
0
100
AcDbLine
 10
272.5
 20
199.5999999533956
 30
0.0
 11
272.0000000000001
 21
199.5999999533956
 31
0.0
  0
LINE
  5
4664
330
1A
100
AcDbEntity
  8
0
100
AcDbLine
 10
273.2500000000001
 20
199.8499999533956
 30
0.0
 11
272.5
 21
199.8499999533956
 31
0.0
  0
LINE
  5
466D
330
1A
100
AcDbEntity
  8
0
100
AcDbLine
 10
272.5
 20
205.3999999533957
 30
0.0
 11
272.0000000000001
 21
205.3999999533957
 31
0.0
  0
LINE
  5
466E
330
1A
100
AcDbEntity
  8
0
100
AcDbLine
 10
273.2500000000001
 20
205.1499999533957
 30
0.0
 11
272.5
 21
205.1499999533957
 31
0.0
  0
LINE
  5
466F
330
1A
100
AcDbEntity
  8
0
100
AcDbLine
 10
272.5
 20
202.2787508875425
 30
0.0
 11
273.2500000000001
 21
203.0287508875426
 31
0.0
  0
LINE
  5
4670
330
1A
100
AcDbEntity
  8
0
100
AcDbLine
 10
272.5
 20
201.9251974969492
 30
0.0
 11
273.2500000000001
 21
202.6751974969493
 31
0.0
  0
ELLIPSE
  5
4671
330
1A
100
AcDbEntity
  8
0
100
AcDbEllipse
 10
271.5166665543825
 20
214.0999999533956
 30
0.0
 11
0.0
 21
2.296666649000004
 31
0.0
210
0.0
220
0.0
230
1.0
 40
0.596226458904585
 41
2.81960193203065
 42
6.605176028738728
  0
LINE
  5
4672
330
1A
100
AcDbEntity
  8
0
100
AcDbLine
 10
270.0000000000001
 20
211.5866666393957
 30
0.0
 11
270.0000000000001
 21
216.6133332673957
 31
0.0
  0
LINE
  5
4673
330
1A
100
AcDbEntity
  8
0
100
AcDbLine
 10
270.43333333
 20
211.5866666393957
 30
0.0
 11
270.4333333300001
 21
216.6133332673957
 31
0.0
  0
LINE
  5
4674
330
1A
100
AcDbEntity
  8
0
100
AcDbLine
 10
271.083333325
 20
211.8033333043956
 30
0.0
 11
271.083333325
 21
216.3966666023957
 31
0.0
  0
LINE
  5
4675
330
1A
100
AcDbEntity
  8
0
100
AcDbLine
 10
270.43333333
 20
211.5866666393957
 30
0.0
 11
270.0000000000001
 21
211.5866666393957
 31
0.0
  0
LINE
  5
4676
330
1A
100
AcDbEntity
  8
0
100
AcDbLine
 10
271.083333325
 20
211.8033333043956
 30
0.0
 11
270.43333333
 21
211.8033333043956
 31
0.0
  0
LINE
  5
467F
330
1A
100
AcDbEntity
  8
0
100
AcDbLine
 10
270.4333333300001
 20
216.6133332673957
 30
0.0
 11
270.0000000000001
 21
216.6133332673957
 31
0.0
  0
LINE
  5
4680
330
1A
100
AcDbEntity
  8
0
100
AcDbLine
 10
271.083333325
 20
216.3966666023957
 30
0.0
 11
270.43333333
 21
216.3966666023957
 31
0.0
  0
LINE
  5
4681
330
1A
100
AcDbEntity
  8
0
100
AcDbLine
 10
270.4333333300001
 20
213.9082507644646
 30
0.0
 11
271.083333325
 21
214.5582507594647
 31
0.0
  0
LINE
  5
4682
330
1A
100
AcDbEntity
  8
0
100
AcDbLine
 10
270.4333333300001
 20
213.6018378283075
 30
0.0
 11
271.083333325
 21
214.2518378233075
 31
0.0
  0
LINE
  5
4683
330
1A
100
AcDbEntity
  8
0
100
AcDbLine
 10
287.3
 20
219.5999999533956
 30
0.0
 11
287.3
 21
209.5999999533956
 31
0.0
  0
LINE
  5
4684
330
1A
100
AcDbEntity
  8
0
100
AcDbLine
 10
287.7000000000001
 20
219.5999999533956
 30
0.0
 11
287.7000000000001
 21
209.5999999533956
 31
0.0
  0
LINE
  5
4685
330
1A
100
AcDbEntity
  8
0
100
AcDbLine
 10
276.9000000000001
 20
219.0999999533957
 30
0.0
 11
276.9
 21
210.0999999533956
 31
0.0
  0
LINE
  5
4686
330
1A
100
AcDbEntity
  8
0
100
AcDbLine
 10
268.7000000000001
 20
194.9999999533956
 30
0.0
 11
268.7000000000001
 21
186.5999999533956
 31
0.0
  0
LINE
  5
4687
330
1A
100
AcDbEntity
  8
0
100
AcDbLine
 10
285.9
 20
220.5999999533956
 30
0.0
 11
285.9
 21
208.5999999533956
 31
0.0
  0
LINE
  5
468A
330
1A
100
AcDbEntity
  8
0
100
AcDbLine
 10
272.9000000000001
 20
220.5999999533956
 30
0.0
 11
274.4
 21
219.0999999533957
 31
0.0
  0
ARC
  5
468B
330
1A
100
AcDbEntity
  8
0
100
AcDbCircle
 10
285.8
 20
219.5999999533956
 30
0.0
 40
1.5
100
AcDbArc
 50
0.0
 51
172.0605795160218
  0
ARC
  5
468C
330
1A
100
AcDbEntity
  8
0
100
AcDbCircle
 10
285.8
 20
219.5999999533956
 30
0.0
 40
1.9
100
AcDbArc
 50
0.0
 51
180.0
  0
LINE
  5
468D
330
1A
100
AcDbEntity
  8
0
100
AcDbLine
 10
283.9
 20
219.5999999533956
 30
0.0
 11
285.9
 21
220.5999999533956
 31
0.0
  0
LINE
  5
468E
330
1A
100
AcDbEntity
  8
0
100
AcDbLine
 10
283.9
 20
220.5999999533956
 30
0.0
 11
283.9
 21
219.5999999533956
 31
0.0
  0
LINE
  5
468F
330
1A
100
AcDbEntity
  8
0
100
AcDbLine
 10
270.0000000000001
 20
220.5999999533956
 30
0.0
 11
283.9
 21
220.5999999533956
 31
0.0
  0
LINE
  5
4690
330
1A
100
AcDbEntity
  8
0
100
AcDbLine
 10
274.4
 20
219.0999999533957
 30
0.0
 11
276.9000000000001
 21
219.0999999533957
 31
0.0
  0
LINE
  5
4692
330
1A
100
AcDbEntity
  8
0
100
AcDbLine
 10
272.9
 20
208.5999999533956
 30
0.0
 11
274.4
 21
210.0999999533956
 31
0.0
  0
LINE
  5
4693
330
1A
100
AcDbEntity
  8
0
100
AcDbLine
 10
274.4
 20
210.0999999533956
 30
0.0
 11
276.9
 21
210.0999999533956
 31
0.0
  0
ARC
  5
4694
330
1A
100
AcDbEntity
  8
0
100
AcDbCircle
 10
285.8
 20
209.5999999533956
 30
0.0
 40
1.5
100
AcDbArc
 50
187.9394204839792
 51
0.0000000000011068
  0
ARC
  5
4695
330
1A
100
AcDbEntity
  8
0
100
AcDbCircle
 10
285.8
 20
209.5999999533956
 30
0.0
 40
1.9
100
AcDbArc
 50
179.9999999999992
 51
0.0000000000017175
  0
LINE
  5
4696
330
1A
100
AcDbEntity
  8
0
100
AcDbLine
 10
283.9
 20
209.5999999533956
 30
0.0
 11
283.9
 21
208.5999999533956
 31
0.0
  0
LINE
  5
4697
330
1A
100
AcDbEntity
  8
0
100
AcDbLine
 10
283.9
 20
209.5999999533956
 30
0.0
 11
285.9
 21
208.5999999533956
 31
0.0
  0
LINE
  5
4698
330
1A
100
AcDbEntity
  8
0
100
AcDbLine
 10
272.0000000000001
 20
208.5999999533956
 30
0.0
 11
283.9
 21
208.5999999533956
 31
0.0
  0
LINE
  5
4699
330
1A
100
AcDbEntity
  8
0
100
AcDbLine
 10
272.0000000000001
 20
209.9999999533957
 30
0.0
 11
272.0000000000001
 21
194.9999999533956
 31
0.0
  0
LINE
  5
469B
330
1A
100
AcDbEntity
  8
0
100
AcDbLine
 10
167.0
 20
209.9999999533957
 30
0.0
 11
166.5
 21
209.4999999533956
 31
0.0
  0
LINE
  5
469C
330
1A
100
AcDbEntity
  8
0
100
AcDbLine
 10
167.0
 20
194.9999999533956
 30
0.0
 11
166.5
 21
195.4999999533957
 31
0.0
  0
LINE
  5
469D
330
1A
100
AcDbEntity
  8
0
100
AcDbLine
 10
166.5
 20
195.4999999533957
 30
0.0
 11
166.5
 21
209.4999999533956
 31
0.0
  0
LINE
  5
469E
330
1A
100
AcDbEntity
  8
0
100
AcDbLine
 10
167.0
 20
209.9999999533957
 30
0.0
 11
272.0000000000001
 21
209.9999999533957
 31
0.0
  0
LINE
  5
469F
330
1A
100
AcDbEntity
  8
0
100
AcDbLine
 10
167.0
 20
194.9999999533956
 30
0.0
 11
272.0000000000001
 21
194.9999999533956
 31
0.0
  0
LINE
  5
46A0
330
1A
100
AcDbEntity
  8
0
100
AcDbLine
 10
270.0000000000001
 20
194.9999999533956
 30
0.0
 11
270.0000000000001
 21
180.9999999533957
 31
0.0
  0
LINE
  5
46A1
330
1A
100
AcDbEntity
  8
0
100
AcDbLine
 10
268.7000000000001
 20
194.9999999533956
 30
0.0
 11
268.7000000000001
 21
180.9999999533957
 31
0.0
  0
LINE
  5
46C3
330
1A
100
AcDbEntity
  8
0
100
AcDbLine
 10
129.9999999875716
 20
137.000000168941
 30
0.0
 11
38.99999998757161
 21
137.000000168941
 31
0.0
  0
LINE
  5
46C5
330
1A
100
AcDbEntity
  8
0
100
AcDbLine
 10
38.99999998757161
 20
94.00000016894097
 30
0.0
 11
129.9999999875716
 21
94.00000016894097
 31
0.0
  0
LINE
  5
46C7
330
1A
100
AcDbEntity
  8
0
100
AcDbLine
 10
132.4999999875716
 20
91.50000016894097
 30
0.0
 11
36.49999998757162
 21
91.50000016894097
 31
0.0
  0
LINE
  5
46C8
330
1A
100
AcDbEntity
  8
0
100
AcDbLine
 10
132.4999999875716
 20
139.5000001689409
 30
0.0
 11
36.49999998757162
 21
139.5000001689409
 31
0.0
  0
LINE
  5
46C9
330
1A
100
AcDbEntity
  8
0
100
AcDbLine
 10
132.4999999875716
 20
92.30000016894098
 30
0.0
 11
36.49999998757162
 21
92.30000016894098
 31
0.0
  0
LINE
  5
46CA
330
1A
100
AcDbEntity
  8
0
100
AcDbLine
 10
132.4999999875716
 20
138.7000001689409
 30
0.0
 11
36.49999998757162
 21
138.7000001689409
 31
0.0
  0
INSERT
  5
46CC
330
1A
100
AcDbEntity
  8
0
100
AcDbBlockReference
  2
A$C7DFB2200
 10
48.61999966132319
 20
133.6000005612979
 30
0.0
 50
270.0
  0
LINE
  5
46CD
330
1A
100
AcDbEntity
  8
0
100
AcDbLine
 10
36.49999998757162
 20
125.500000168941
 30
0.0
 11
36.49999998757162
 21
105.5000001689409
 31
0.0
  0
LINE
  5
46CE
330
1A
100
AcDbEntity
  8
0
100
AcDbLine
 10
38.99999998757161
 20
137.000000168941
 30
0.0
 11
38.99999998757161
 21
123.0000001689409
 31
0.0
  0
LINE
  5
46D1
330
1A
100
AcDbEntity
  8
0
100
AcDbLine
 10
47.99999998757161
 20
121.1000001689409
 30
0.0
 11
47.99999998757161
 21
137.000000168941
 31
0.0
  0
LINE
  5
46D6
330
1A
100
AcDbEntity
  8
0
100
AcDbLine
 10
37.29999998757163
 20
92.30000016894098
 30
0.0
 11
37.29999998757163
 21
105.5000001689409
 31
0.0
  0
LINE
  5
46D7
330
1A
100
AcDbEntity
  8
0
100
AcDbLine
 10
36.49999998757162
 20
91.50000016894097
 30
0.0
 11
36.49999998757162
 21
105.5000001689409
 31
0.0
  0
LINE
  5
46D8
330
1A
100
AcDbEntity
  8
0
100
AcDbLine
 10
38.99999998757161
 20
105.5000001689409
 30
0.0
 11
36.49999998757162
 21
105.5000001689409
 31
0.0
  0
LINE
  5
46DB
330
1A
100
AcDbEntity
  8
0
100
AcDbLine
 10
36.49999998757162
 20
125.500000168941
 30
0.0
 11
36.49999998757162
 21
139.5000001689409
 31
0.0
  0
LINE
  5
46DC
330
1A
100
AcDbEntity
  8
0
100
AcDbLine
 10
37.29999998757163
 20
125.500000168941
 30
0.0
 11
37.29999998757163
 21
138.7000001689409
 31
0.0
  0
LINE
  5
46DD
330
1A
100
AcDbEntity
  8
0
100
AcDbLine
 10
38.99999998757161
 20
125.500000168941
 30
0.0
 11
36.49999998757162
 21
125.500000168941
 31
0.0
  0
LINE
  5
46DE
330
1A
100
AcDbEntity
  8
0
100
AcDbLine
 10
129.9999999875716
 20
137.000000168941
 30
0.0
 11
129.9999999875716
 21
123.0000001689409
 31
0.0
  0
LINE
  5
46E1
330
1A
100
AcDbEntity
  8
0
100
AcDbLine
 10
120.9999999875716
 20
121.1000001689409
 30
0.0
 11
120.9999999875716
 21
137.000000168941
 31
0.0
  0
LINE
  5
46E3
330
1A
100
AcDbEntity
  8
0
100
AcDbLine
 10
132.4999999875716
 20
125.500000168941
 30
0.0
 11
132.4999999875716
 21
105.5000001689409
 31
0.0
  0
LINE
  5
46E9
330
1A
100
AcDbEntity
  8
0
100
AcDbLine
 10
131.6999999875716
 20
92.30000016894104
 30
0.0
 11
131.6999999875716
 21
105.5000001689409
 31
0.0
  0
LINE
  5
46EA
330
1A
100
AcDbEntity
  8
0
100
AcDbLine
 10
132.4999999875716
 20
91.50000016894097
 30
0.0
 11
132.4999999875716
 21
105.5000001689409
 31
0.0
  0
LINE
  5
46EB
330
1A
100
AcDbEntity
  8
0
100
AcDbLine
 10
132.4999999875716
 20
105.5000001689409
 30
0.0
 11
129.9999999875716
 21
105.5000001689409
 31
0.0
  0
LINE
  5
46EC
330
1A
100
AcDbEntity
  8
0
100
AcDbLine
 10
131.6999999875716
 20
125.500000168941
 30
0.0
 11
131.6999999875715
 21
138.7000001689409
 31
0.0
  0
LINE
  5
46ED
330
1A
100
AcDbEntity
  8
0
100
AcDbLine
 10
132.4999999875716
 20
139.5000001689409
 30
0.0
 11
132.4999999875716
 21
125.500000168941
 31
0.0
  0
LINE
  5
46EE
330
1A
100
AcDbEntity
  8
0
100
AcDbLine
 10
132.4999999875716
 20
125.500000168941
 30
0.0
 11
129.9999999875716
 21
125.500000168941
 31
0.0
  0
TEXT
  5
46EF
330
1A
100
AcDbEntity
  8
0
100
AcDbText
 10
50.39499998757164
 20
141.0000002621497
 30
0.0
 40
2.5
  1
+EXC
 41
0.7
 72
     1
 11
54.01999998757164
 21
143.5000002621497
 31
0.0
100
AcDbText
 73
     3
  0
INSERT
  5
46F0
330
1A
100
AcDbEntity
  8
0
100
AcDbBlockReference
  2
A$C78786D43
 10
128.7449998881398
 20
118.2450001639328
 30
0.0
 41
-1.0
 50
90.0
  0
INSERT
  5
46F1
330
1A
100
AcDbEntity
  8
0
100
AcDbBlockReference
  2
A$C78786D43
 10
40.25500008700331
 20
118.2450001639328
 30
0.0
 50
270.0
  0
INSERT
  5
471E
330
1A
100
AcDbEntity
  8
0
100
AcDbBlockReference
  2
A$C78786D43
 10
126.8789998830973
 20
129.4790000996962
 30
0.0
 41
-0.86666666
 42
0.86666666
 43
0.86666666
 50
90.0
  0
INSERT
  5
471F
330
1A
100
AcDbEntity
  8
0
100
AcDbBlockReference
  2
A$C78786D43
 10
42.1210000920457
 20
129.4790000996962
 30
0.0
 41
0.86666666
 42
0.86666666
 43
0.86666666
 50
270.0
  0
LINE
  5
4720
330
1A
100
AcDbEntity
  8
0
100
AcDbLine
 10
47.49999998757155
 20
108.5000001689409
 30
0.0
 11
46.99999998757156
 21
108.000000168941
 31
0.0
  0
LINE
  5
4722
330
1A
100
AcDbEntity
  8
0
100
AcDbLine
 10
47.49999998757155
 20
108.5000001689409
 30
0.0
 11
47.49999998757155
 21
122.500000168941
 31
0.0
  0
LINE
  5
4723
330
1A
100
AcDbEntity
  8
0
100
AcDbLine
 10
46.99999998757156
 20
108.000000168941
 30
0.0
 11
36.49999998757156
 21
108.000000168941
 31
0.0
  0
LINE
  5
4724
330
1A
100
AcDbEntity
  8
0
100
AcDbLine
 10
46.99999998757156
 20
123.0000001689409
 30
0.0
 11
36.49999998757156
 21
123.0000001689409
 31
0.0
  0
LINE
  5
4725
330
1A
100
AcDbEntity
  8
0
100
AcDbLine
 10
36.49999998757156
 20
123.0000001689409
 30
0.0
 11
36.49999998757156
 21
108.000000168941
 31
0.0
  0
LINE
  5
4727
330
1A
100
AcDbEntity
  8
0
100
AcDbLine
 10
46.99999998757156
 20
123.0000001689409
 30
0.0
 11
47.49999998757155
 21
122.500000168941
 31
0.0
  0
LINE
  5
4728
330
1A
100
AcDbEntity
  8
0
100
AcDbLine
 10
121.4999999875715
 20
108.5000001689409
 30
0.0
 11
121.9999999875715
 21
108.000000168941
 31
0.0
  0
LINE
  5
472A
330
1A
100
AcDbEntity
  8
0
100
AcDbLine
 10
121.4999999875715
 20
108.5000001689409
 30
0.0
 11
121.4999999875715
 21
122.500000168941
 31
0.0
  0
LINE
  5
472B
330
1A
100
AcDbEntity
  8
0
100
AcDbLine
 10
121.9999999875715
 20
108.000000168941
 30
0.0
 11
132.4999999875715
 21
108.000000168941
 31
0.0
  0
LINE
  5
472C
330
1A
100
AcDbEntity
  8
0
100
AcDbLine
 10
121.9999999875715
 20
123.0000001689409
 30
0.0
 11
132.4999999875715
 21
123.0000001689409
 31
0.0
  0
LINE
  5
472D
330
1A
100
AcDbEntity
  8
0
100
AcDbLine
 10
132.4999999875715
 20
123.0000001689409
 30
0.0
 11
132.4999999875715
 21
108.000000168941
 31
0.0
  0
LINE
  5
472F
330
1A
100
AcDbEntity
  8
0
100
AcDbLine
 10
121.9999999875715
 20
123.0000001689409
 30
0.0
 11
121.4999999875715
 21
122.500000168941
 31
0.0
  0
LINE
  5
4730
330
1A
100
AcDbEntity
  8
0
100
AcDbLine
 10
129.9999999875716
 20
108.000000168941
 30
0.0
 11
129.9999999875716
 21
94.00000016894097
 31
0.0
  0
LINE
  5
4731
330
1A
100
AcDbEntity
  8
0
100
AcDbLine
 10
38.99999998757161
 20
108.000000168941
 30
0.0
 11
38.99999998757161
 21
94.00000016894097
 31
0.0
  0
LINE
  5
4733
330
1A
100
AcDbEntity
  8
0
100
AcDbLine
 10
47.99999998757161
 20
134.1000001689409
 30
0.0
 11
120.9999999875716
 21
134.1000001689409
 31
0.0
  0
LINE
  5
4735
330
1A
100
AcDbEntity
  8
0
100
AcDbLine
 10
47.99999998757161
 20
121.1000001689409
 30
0.0
 11
120.9999999875716
 21
121.1000001689409
 31
0.0
  0
TEXT
  5
4739
330
1A
100
AcDbEntity
  8
0
100
AcDbText
 10
86.55999998757165
 20
144.5000002621497
 30
0.0
 40
2.5
  1
RY
 41
0.7
 72
     1
 11
88.30999998757166
 21
147.0000002621497
 31
0.0
100
AcDbText
 73
     3
  0
LINE
  5
473A
330
1A
100
AcDbEntity
  8
0
100
AcDbLine
 10
81.29999998757162
 20
141.1005055589111
 30
0.0
 11
81.29999998757162
 21
146.1005055589111
 31
0.0
  0
LINE
  5
473B
330
1A
100
AcDbEntity
  8
0
100
AcDbLine
 10
95.31999998757159
 20
141.1005055589111
 30
0.0
 11
95.31999998757161
 21
146.1005055589111
 31
0.0
  0
LINE
  5
473C
330
1A
100
AcDbEntity
  8
0
100
AcDbLine
 10
81.29999998757162
 20
146.1005055589111
 30
0.0
 11
85.30999998757163
 21
146.1005055589111
 31
0.0
  0
LINE
  5
4740
330
1A
100
AcDbEntity
  8
0
100
AcDbLine
 10
91.30999998757161
 20
146.1005055589111
 30
0.0
 11
95.31999998757161
 21
146.1005055589111
 31
0.0
  0
INSERT
  5
4743
330
1A
100
AcDbEntity
  8
0
100
AcDbBlockReference
  2
A$C78786D43
 10
51.27500008700335
 20
113.2450001639328
 30
0.0
 50
270.0
  0
TEXT
  5
4744
330
1A
100
AcDbEntity
  8
0
100
AcDbText
 10
51.47833332090497
 20
104.1005055589111
 30
0.0
 40
2.5
  1
SHL
 41
0.7
 72
     1
 11
54.01999998757164
 21
106.6005055589111
 31
0.0
100
AcDbText
 73
     3
  0
LINE
  5
475A
330
1A
100
AcDbEntity
  8
0
100
AcDbLine
 10
36.49999998757164
 20
178.5
 30
0.0
 11
132.4999999875716
 21
178.5
 31
0.0
  0
LINE
  5
475B
330
1A
100
AcDbEntity
  8
0
100
AcDbLine
 10
36.49999998757164
 20
226.5
 30
0.0
 11
132.4999999875716
 21
226.5
 31
0.0
  0
TEXT
  5
475C
330
1A
100
AcDbEntity
  8
0
100
AcDbText
 10
41.49999998757166
 20
221.0
 30
0.0
 40
3.0
  1
DLS-5011A
100
AcDbText
  0
TEXT
  5
475D
330
1A
100
AcDbEntity
  8
0
100
AcDbText
 10
47.16666665423833
 20
201.5
 30
0.0
 40
2.0
  1
AZ
 72
     2
 11
50.49999998757167
 21
202.5
 31
0.0
100
AcDbText
 73
     2
  0
TEXT
  5
475E
330
1A
100
AcDbEntity
  8
0
100
AcDbText
 10
42.11904760661929
 20
210.16
 30
0.0
 40
2.0
  1
POINT
 72
     2
 11
50.49999998757167
 21
212.16
 31
0.0
100
AcDbText
 73
     3
  0
LINE
  5
4760
330
1A
100
AcDbEntity
  8
0
100
AcDbLine
 10
36.49999998757164
 20
226.5
 30
0.0
 11
36.49999998757164
 21
178.5
 31
0.0
  0
TEXT
  5
4761
330
1A
100
AcDbEntity
  8
0
100
AcDbText
 10
42.1332807586367
 20
213.16
 30
0.0
 40
2.0
  1
SET
 72
     2
 11
47.27613790149385
 21
213.16
 31
0.0
100
AcDbText
 73
     1
  0
LINE
  5
4763
330
1A
100
AcDbEntity
  8
0
100
AcDbLine
 10
117.4999999875716
 20
219.08
 30
0.0
 11
51.49999998757164
 21
219.08
 31
0.0
  0
LINE
  5
4764
330
1A
100
AcDbEntity
  8
0
100
AcDbLine
 10
117.4999999875716
 20
196.08
 30
0.0
 11
51.49999998757164
 21
196.08
 31
0.0
  0
TEXT
  5
4765
330
1A
100
AcDbEntity
  8
0
100
AcDbText
 10
101.9857142732859
 20
221.0
 30
0.0
 40
3.0
  1
TOYO SOKKI
 72
     2
 11
127.4999999875716
 21
221.0
 31
0.0
100
AcDbText
 73
     1
  0
LINE
  5
4766
330
1A
100
AcDbEntity
  8
0
100
AcDbLine
 10
51.49999998757164
 20
196.08
 30
0.0
 11
51.4999999875717
 21
219.08
 31
0.0
  0
LINE
  5
4767
330
1A
100
AcDbEntity
  8
0
100
AcDbLine
 10
96.24999998757161
 20
190.2599999999999
 30
0.0
 11
102.2499999875716
 21
190.2599999999999
 31
0.0
  0
LINE
  5
4768
330
1A
100
AcDbEntity
  8
0
100
AcDbLine
 10
96.24999998757161
 20
181.26
 30
0.0
 11
102.2499999875716
 21
181.26
 31
0.0
  0
LINE
  5
4769
330
1A
100
AcDbEntity
  8
0
100
AcDbLine
 10
51.49999998757164
 20
181.76
 30
0.0
 11
51.49999998757164
 21
189.76
 31
0.0
  0
LWPOLYLINE
  5
476A
330
1A
100
AcDbEntity
  8
0
100
AcDbPolyline
 90
        4
 70
     0
 43
0.0
 10
68.74999998757163
 20
184.76
 10
68.74999998757163
 20
181.76
 10
71.24999998757163
 20
183.26
 10
68.74999998757163
 20
184.76
  0
LINE
  5
476B
330
1A
100
AcDbEntity
  8
0
100
AcDbLine
 10
66.24999998757163
 20
181.76
 30
0.0
 11
66.24999998757163
 21
189.76
 31
0.0
  0
LINE
  5
476C
330
1A
100
AcDbEntity
  8
0
100
AcDbLine
 10
58.49999998757164
 20
181.76
 30
0.0
 11
58.49999998757164
 21
189.76
 31
0.0
  0
LINE
  5
476D
330
1A
100
AcDbEntity
  8
0
100
AcDbLine
 10
80.9999999875716
 20
181.76
 30
0.0
 11
80.9999999875716
 21
189.76
 31
0.0
  0
LINE
  5
476E
330
1A
100
AcDbEntity
  8
0
100
AcDbLine
 10
73.24999998757163
 20
181.76
 30
0.0
 11
73.24999998757163
 21
189.76
 31
0.0
  0
LINE
  5
476F
330
1A
100
AcDbEntity
  8
0
100
AcDbLine
 10
95.74999998757162
 20
181.76
 30
0.0
 11
95.74999998757162
 21
189.76
 31
0.0
  0
LINE
  5
4770
330
1A
100
AcDbEntity
  8
0
100
AcDbLine
 10
87.99999998757161
 20
181.76
 30
0.0
 11
87.99999998757161
 21
189.76
 31
0.0
  0
LINE
  5
4771
330
1A
100
AcDbEntity
  8
0
100
AcDbLine
 10
66.74999998757162
 20
181.26
 30
0.0
 11
72.74999998757163
 21
181.26
 31
0.0
  0
LINE
  5
4772
330
1A
100
AcDbEntity
  8
0
100
AcDbLine
 10
51.99999998757164
 20
181.26
 30
0.0
 11
57.99999998757164
 21
181.26
 31
0.0
  0
LINE
  5
4773
330
1A
100
AcDbEntity
  8
0
100
AcDbLine
 10
51.49999998757164
 20
181.76
 30
0.0
 11
51.99999998757164
 21
181.26
 31
0.0
  0
LINE
  5
4774
330
1A
100
AcDbEntity
  8
0
100
AcDbLine
 10
66.24999998757163
 20
181.76
 30
0.0
 11
66.74999998757162
 21
181.26
 31
0.0
  0
LINE
  5
4775
330
1A
100
AcDbEntity
  8
0
100
AcDbLine
 10
58.49999998757164
 20
181.76
 30
0.0
 11
57.99999998757164
 21
181.26
 31
0.0
  0
LINE
  5
4776
330
1A
100
AcDbEntity
  8
0
100
AcDbLine
 10
81.49999998757161
 20
181.26
 30
0.0
 11
87.49999998757161
 21
181.26
 31
0.0
  0
LINE
  5
4777
330
1A
100
AcDbEntity
  8
0
100
AcDbLine
 10
73.24999998757163
 20
181.76
 30
0.0
 11
72.74999998757163
 21
181.26
 31
0.0
  0
LINE
  5
4778
330
1A
100
AcDbEntity
  8
0
100
AcDbLine
 10
80.9999999875716
 20
181.76
 30
0.0
 11
81.49999998757161
 21
181.26
 31
0.0
  0
LINE
  5
4779
330
1A
100
AcDbEntity
  8
0
100
AcDbLine
 10
95.74999998757162
 20
181.76
 30
0.0
 11
96.24999998757161
 21
181.26
 31
0.0
  0
LINE
  5
477A
330
1A
100
AcDbEntity
  8
0
100
AcDbLine
 10
87.99999998757161
 20
181.76
 30
0.0
 11
87.49999998757161
 21
181.26
 31
0.0
  0
TEXT
  5
477B
330
1A
100
AcDbEntity
  8
0
100
AcDbText
 10
68.03571427328593
 20
191.26
 30
0.0
 40
2.0
  1
AZ
 72
     1
 11
69.74999998757164
 21
191.26
 31
0.0
100
AcDbText
 73
     1
  0
LINE
  5
477C
330
1A
100
AcDbEntity
  8
0
100
AcDbLine
 10
66.74999998757162
 20
190.2599999999999
 30
0.0
 11
72.74999998757163
 21
190.2599999999999
 31
0.0
  0
CIRCLE
  5
477D
330
1A
100
AcDbEntity
  8
0
100
AcDbCircle
 10
69.74999998757164
 20
187.26
 30
0.0
 40
2.0
  0
LINE
  5
477E
330
1A
100
AcDbEntity
  8
0
100
AcDbLine
 10
51.99999998757164
 20
190.26
 30
0.0
 11
57.99999998757164
 21
190.2599999999999
 31
0.0
  0
CIRCLE
  5
477F
330
1A
100
AcDbEntity
  8
0
100
AcDbCircle
 10
54.99999998757165
 20
187.26
 30
0.0
 40
2.0
  0
ELLIPSE
  5
4780
330
1A
100
AcDbEntity
  8
0
100
AcDbEllipse
 10
54.99999998757164
 20
183.26
 30
0.0
 11
-1.5
 21
0.0000000000000005
 31
0.0
210
0.0
220
0.0
230
1.0
 40
0.7453559924999299
 41
2.031964065796924
 42
7.392813894972616
  0
LINE
  5
4781
330
1A
100
AcDbEntity
  8
0
100
AcDbLine
 10
55.69999998757168
 20
182.26
 30
0.0
 11
56.2999999875717
 21
182.26
 31
0.0
  0
LINE
  5
4782
330
1A
100
AcDbEntity
  8
0
100
AcDbLine
 10
55.69999998757168
 20
182.26
 30
0.0
 11
55.99999998757164
 21
182.86
 31
0.0
  0
LINE
  5
4783
330
1A
100
AcDbEntity
  8
0
100
AcDbLine
 10
51.99999998757164
 20
190.26
 30
0.0
 11
51.49999998757164
 21
189.76
 31
0.0
  0
LINE
  5
4784
330
1A
100
AcDbEntity
  8
0
100
AcDbLine
 10
66.74999998757162
 20
190.2599999999999
 30
0.0
 11
66.24999998757163
 21
189.76
 31
0.0
  0
LINE
  5
4785
330
1A
100
AcDbEntity
  8
0
100
AcDbLine
 10
57.99999998757164
 20
190.2599999999999
 30
0.0
 11
58.49999998757164
 21
189.76
 31
0.0
  0
CIRCLE
  5
4786
330
1A
100
AcDbEntity
  8
0
100
AcDbCircle
 10
55.29999998757162
 20
202.5
 30
0.0
 40
1.5
  0
LINE
  5
4787
330
1A
100
AcDbEntity
  8
0
100
AcDbLine
 10
81.49999998757161
 20
190.2599999999999
 30
0.0
 11
87.49999998757161
 21
190.2599999999999
 31
0.0
  0
CIRCLE
  5
4788
330
1A
100
AcDbEntity
  8
0
100
AcDbCircle
 10
84.49999998757164
 20
187.26
 30
0.0
 40
2.0
  0
LWPOLYLINE
  5
4789
330
1A
100
AcDbEntity
  8
0
100
AcDbPolyline
 90
        4
 70
     0
 43
0.0
 10
84.49999998757162
 20
184.76
 10
82.99999998757161
 20
182.26
 10
85.9999999875716
 20
182.26
 10
84.49999998757162
 20
184.76
  0
TEXT
  5
478A
330
1A
100
AcDbEntity
  8
0
100
AcDbText
 10
81.30952379709546
 20
191.26
 30
0.0
 40
2.0
  1
AZ.R
 72
     1
 11
84.49999998757164
 21
191.26
 31
0.0
100
AcDbText
 73
     1
  0
LINE
  5
478B
330
1A
100
AcDbEntity
  8
0
100
AcDbLine
 10
72.74999998757163
 20
190.2599999999999
 30
0.0
 11
73.24999998757163
 21
189.76
 31
0.0
  0
LINE
  5
478C
330
1A
100
AcDbEntity
  8
0
100
AcDbLine
 10
81.49999998757161
 20
190.2599999999999
 30
0.0
 11
80.9999999875716
 21
189.76
 31
0.0
  0
LINE
  5
478D
330
1A
100
AcDbEntity
  8
0
100
AcDbLine
 10
96.24999998757161
 20
190.2599999999999
 30
0.0
 11
95.74999998757162
 21
189.76
 31
0.0
  0
LINE
  5
478E
330
1A
100
AcDbEntity
  8
0
100
AcDbLine
 10
87.49999998757161
 20
190.2599999999999
 30
0.0
 11
87.99999998757161
 21
189.76
 31
0.0
  0
LINE
  5
478F
330
1A
100
AcDbEntity
  8
0
100
AcDbLine
 10
110.4999999875716
 20
181.76
 30
0.0
 11
110.4999999875716
 21
189.76
 31
0.0
  0
LINE
  5
4790
330
1A
100
AcDbEntity
  8
0
100
AcDbLine
 10
102.7499999875716
 20
181.76
 30
0.0
 11
102.7499999875716
 21
189.76
 31
0.0
  0
LINE
  5
4791
330
1A
100
AcDbEntity
  8
0
100
AcDbLine
 10
117.4999999875716
 20
181.76
 30
0.0
 11
117.4999999875716
 21
189.76
 31
0.0
  0
LINE
  5
4792
330
1A
100
AcDbEntity
  8
0
100
AcDbLine
 10
117.4999999875716
 20
181.76
 30
0.0
 11
116.9999999875716
 21
181.26
 31
0.0
  0
LINE
  5
4793
330
1A
100
AcDbEntity
  8
0
100
AcDbLine
 10
102.7499999875716
 20
181.76
 30
0.0
 11
102.2499999875716
 21
181.26
 31
0.0
  0
LINE
  5
4794
330
1A
100
AcDbEntity
  8
0
100
AcDbLine
 10
110.9999999875716
 20
181.26
 30
0.0
 11
116.9999999875716
 21
181.26
 31
0.0
  0
LINE
  5
4795
330
1A
100
AcDbEntity
  8
0
100
AcDbLine
 10
110.4999999875716
 20
181.76
 30
0.0
 11
110.9999999875716
 21
181.26
 31
0.0
  0
LINE
  5
4796
330
1A
100
AcDbEntity
  8
0
100
AcDbLine
 10
116.9999999875716
 20
190.2599999999999
 30
0.0
 11
117.4999999875716
 21
189.76
 31
0.0
  0
CIRCLE
  5
4797
330
1A
100
AcDbEntity
  8
0
100
AcDbCircle
 10
99.24999998757165
 20
187.26
 30
0.0
 40
2.0
  0
TEXT
  5
4798
330
1A
100
AcDbEntity
  8
0
100
AcDbText
 10
96.24999998757164
 20
182.26
 30
0.0
 40
2.0
  1
ESC
100
AcDbText
  0
LINE
  5
4799
330
1A
100
AcDbEntity
  8
0
100
AcDbLine
 10
102.2499999875716
 20
190.2599999999999
 30
0.0
 11
102.7499999875716
 21
189.76
 31
0.0
  0
CIRCLE
  5
479A
330
1A
100
AcDbEntity
  8
0
100
AcDbCircle
 10
113.9999999875716
 20
187.26
 30
0.0
 40
2.0
  0
LWPOLYLINE
  5
479B
330
1A
100
AcDbEntity
  8
0
100
AcDbPolyline
 90
       11
 70
     0
 43
0.0
 10
112.4999999875716
 20
183.26
 10
113.4999999875716
 20
184.26
 10
113.4999999875716
 20
183.76
 10
114.4999999875716
 20
183.76
 10
114.4999999875716
 20
184.76
 10
115.4999999875716
 20
184.76
 10
115.4999999875716
 20
183.26
 42
-0.4142135623730951
 10
114.9999999875716
 20
182.76
 10
113.4999999875716
 20
182.76
 10
113.4999999875716
 20
182.26
 10
112.4999999875716
 20
183.26
  0
LINE
  5
479C
330
1A
100
AcDbEntity
  8
0
100
AcDbLine
 10
110.9999999875716
 20
190.2599999999999
 30
0.0
 11
116.9999999875716
 21
190.2599999999999
 31
0.0
  0
LINE
  5
479D
330
1A
100
AcDbEntity
  8
0
100
AcDbLine
 10
110.9999999875716
 20
190.2599999999999
 30
0.0
 11
110.4999999875716
 21
189.76
 31
0.0
  0
CIRCLE
  5
479E
330
1A
100
AcDbEntity
  8
0
100
AcDbCircle
 10
55.29999998757162
 20
212.66
 30
0.0
 40
1.5
  0
LINE
  5
479F
330
1A
100
AcDbEntity
  8
0
100
AcDbLine
 10
132.4999999875716
 20
178.5
 30
0.0
 11
132.4999999875716
 21
226.5
 31
0.0
  0
LINE
  5
47A0
330
1A
100
AcDbEntity
  8
0
100
AcDbLine
 10
117.4999999875716
 20
196.08
 30
0.0
 11
117.4999999875716
 21
219.08
 31
0.0
  0
TEXT
  5
47A2
330
1A
100
AcDbEntity
  8
0
100
AcDbText
 10
119.0000005208509
 20
200.6005055589111
 30
0.0
 40
4.0
  1
kg
100
AcDbText
  0
INSERT
  5
482C
330
1A
100
AcDbEntity
  8
0
100
AcDbBlockReference
  2
A$C398F0387
 10
65.11699971413282
 20
202.139999526976
 30
0.0
 50
90.0
  0
INSERT
  5
482E
330
1A
100
AcDbEntity
  8
0
100
AcDbBlockReference
  2
GL8T156
 10
109.8999999875716
 20
207.58
 30
0.0
  0
INSERT
  5
482F
330
1A
100
AcDbEntity
  8
0
100
AcDbBlockReference
  2
GL8T156
 10
71.7999999875716
 20
207.58
 30
0.0
  0
INSERT
  5
4830
330
1A
100
AcDbEntity
  8
0
100
AcDbBlockReference
  2
GL8T156
 10
97.1999999875716
 20
207.58
 30
0.0
  0
INSERT
  5
4831
330
1A
100
AcDbEntity
  8
0
100
AcDbBlockReference
  2
GL8T156
 10
84.49999998757165
 20
207.58
 30
0.0
  0
LINE
  5
540A
330
1A
100
AcDbEntity
  8
WAKU
 62
     7
100
AcDbLine
 10
225.0
 20
50.0
 30
0.0
 11
405.0
 21
50.0
 31
0.0
  0
LINE
  5
540B
330
1A
100
AcDbEntity
  8
WAKU
100
AcDbLine
 10
225.0
 20
5.0
 30
0.0
 11
225.0
 21
50.0
 31
0.0
  0
LINE
  5
540C
330
1A
100
AcDbEntity
  8
WAKU
100
AcDbLine
 10
345.0
 20
5.0
 30
0.0
 11
345.0
 21
50.0
 31
0.0
  0
LINE
  5
540D
330
1A
100
AcDbEntity
  8
WAKU
 62
     7
100
AcDbLine
 10
345.0
 20
15.0
 30
0.0
 11
405.0
 21
15.0
 31
0.0
  0
LINE
  5
540E
330
1A
100
AcDbEntity
  8
WAKU
 62
     7
100
AcDbLine
 10
345.0
 20
22.0
 30
0.0
 11
405.0
 21
22.0
 31
0.0
  0
LINE
  5
540F
330
1A
100
AcDbEntity
  8
WAKU
 62
     7
100
AcDbLine
 10
345.0
 20
29.0
 30
0.0
 11
405.0
 21
29.0
 31
0.0
  0
LINE
  5
5410
330
1A
100
AcDbEntity
  8
WAKU
 62
     7
100
AcDbLine
 10
345.0
 20
36.0
 30
0.0
 11
405.0
 21
36.0
 31
0.0
  0
LINE
  5
5411
330
1A
100
AcDbEntity
  8
WAKU
 62
     7
100
AcDbLine
 10
345.0
 20
43.0
 30
0.0
 11
405.0
 21
43.0
 31
0.0
  0
LINE
  5
5412
330
1A
100
AcDbEntity
  8
WAKU
100
AcDbLine
 10
360.0
 20
15.0
 30
0.0
 11
360.0
 21
50.0
 31
0.0
  0
LINE
  5
5413
330
1A
100
AcDbEntity
  8
WAKU
100
AcDbLine
 10
352.0
 20
5.0
 30
0.0
 11
352.0
 21
15.0
 31
0.0
  0
LINE
  5
5414
330
1A
100
AcDbEntity
  8
WAKU
100
AcDbLine
 10
330.0
 20
13.0
 30
0.0
 11
330.0
 21
28.0
 31
0.0
  0
LINE
  5
5415
330
1A
100
AcDbEntity
  8
WAKU
100
AcDbLine
 10
315.0
 20
13.0
 30
0.0
 11
315.0
 21
34.0
 31
0.0
  0
LINE
  5
5416
330
1A
100
AcDbEntity
  8
WAKU
100
AcDbLine
 10
300.0
 20
13.0
 30
0.0
 11
300.0
 21
50.0
 31
0.0
  0
LINE
  5
5417
330
1A
100
AcDbEntity
  8
WAKU
100
AcDbLine
 10
285.0
 20
13.0
 30
0.0
 11
285.0
 21
50.0
 31
0.0
  0
LINE
  5
5418
330
1A
100
AcDbEntity
  8
WAKU
100
AcDbLine
 10
345.0
 20
40.0
 30
0.0
 11
285.0
 21
40.0
 31
0.0
  0
LINE
  5
5419
330
1A
100
AcDbEntity
  8
WAKU
100
AcDbLine
 10
345.0
 20
34.0
 30
0.0
 11
285.0
 21
34.0
 31
0.0
  0
LINE
  5
541A
330
1A
100
AcDbEntity
  8
WAKU
100
AcDbLine
 10
345.0
 20
28.0
 30
0.0
 11
285.0
 21
28.0
 31
0.0
  0
LINE
  5
541B
330
1A
100
AcDbEntity
  8
WAKU
100
AcDbLine
 10
345.0
 20
13.0
 30
0.0
 11
225.0
 21
13.0
 31
0.0
  0
MTEXT
  5
541C
330
1A
100
AcDbEntity
  8
WAKU
100
AcDbMText
 10
347.3192310662242
 20
34.48051906497278
 30
0.0
 40
3.0
 41
11.0
 71
     1
 72
     5
  1
部品表
 73
     1
 44
1.0
1001
ACAD
1000
MTEXTBEGIN
1070
    73
1070
     1
1070
    44
1040
1.0
1070
    74
1070
     0
1000
MTEXTEND
  0
MTEXT
  5
541D
330
1A
100
AcDbEntity
  8
WAKU
100
AcDbMText
 10
347.2
 20
47.69999999999998
 30
0.0
 40
3.0
 41
10.0
 71
     1
 72
     5
  1
機種名
 73
     1
 44
1.0
1001
ACAD
1000
MTEXTBEGIN
1070
    73
1070
     1
1070
    44
1040
1.0
1070
    74
1070
     0
1000
MTEXTEND
  0
MTEXT
  5
541E
330
1A
100
AcDbEntity
  8
WAKU
100
AcDbMText
 10
347.2999999999999
 20
40.69999999999999
 30
0.0
 40
3.0
 41
10.0
 71
     1
 72
     5
  1
部　名
 73
     1
 44
1.0
1001
ACAD
1000
MTEXTBEGIN
1070
    73
1070
     1
1070
    44
1040
1.0
1070
    74
1070
     0
1000
MTEXTEND
  0
MTEXT
  5
541F
330
1A
100
AcDbEntity
  8
WAKU
100
AcDbMText
 10
346.0
 20
27.0
 30
0.0
 40
3.0
 41
10.0
 71
     1
 72
     5
  1
ｽﾄｯｸNo.
 73
     1
 44
1.0
1001
ACAD
1000
MTEXTBEGIN
1070
    73
1070
     1
1070
    44
1040
1.0
1070
    74
1070
     0
1000
MTEXTEND
  0
MTEXT
  5
5420
330
1A
100
AcDbEntity
  8
WAKU
100
AcDbMText
 10
347.0
 20
20.0
 30
0.0
 40
3.0
 41
12.0
 71
     1
 72
     5
  1
適用ﾛｯﾄ
 73
     1
 44
1.0
1001
ACAD
1000
MTEXTBEGIN
1070
    73
1070
     1
1070
    44
1040
1.0
1070
    74
1070
     0
1000
MTEXTEND
  0
LINE
  5
5421
330
1A
100
AcDbEntity
  8
WAKU
100
AcDbLine
 10
285.0
 20
17.0
 30
0.0
 11
225.0
 21
17.0
 31
0.0
  0
LINE
  5
5422
330
1A
100
AcDbEntity
  8
WAKU
100
AcDbLine
 10
285.0
 20
21.0
 30
0.0
 11
225.0
 21
21.0
 31
0.0
  0
LINE
  5
5423
330
1A
100
AcDbEntity
  8
WAKU
100
AcDbLine
 10
285.0
 20
25.0
 30
0.0
 11
225.0
 21
25.0
 31
0.0
  0
LINE
  5
5424
330
1A
100
AcDbEntity
  8
WAKU
100
AcDbLine
 10
285.0
 20
29.0
 30
0.0
 11
225.0
 21
29.0
 31
0.0
  0
LINE
  5
5425
330
1A
100
AcDbEntity
  8
WAKU
100
AcDbLine
 10
285.0
 20
33.0
 30
0.0
 11
225.0
 21
33.0
 31
0.0
  0
LINE
  5
5426
330
1A
100
AcDbEntity
  8
WAKU
100
AcDbLine
 10
285.0
 20
37.0
 30
0.0
 11
225.0
 21
37.0
 31
0.0
  0
LINE
  5
5427
330
1A
100
AcDbEntity
  8
WAKU
100
AcDbLine
 10
285.0
 20
41.0
 30
0.0
 11
225.0
 21
41.0
 31
0.0
  0
LINE
  5
5428
330
1A
100
AcDbEntity
  8
WAKU
100
AcDbLine
 10
285.0
 20
45.0
 30
0.0
 11
225.0
 21
45.0
 31
0.0
  0
LINE
  5
5429
330
1A
100
AcDbEntity
  8
WAKU
100
AcDbLine
 10
233.0
 20
13.0
 30
0.0
 11
233.0
 21
50.0
 31
0.0
  0
LINE
  5
542A
330
1A
100
AcDbEntity
  8
WAKU
100
AcDbLine
 10
246.0
 20
13.0
 30
0.0
 11
246.0
 21
50.0
 31
0.0
  0
LINE
  5
542B
330
1A
100
AcDbEntity
  8
WAKU
100
AcDbLine
 10
256.0
 20
13.0
 30
0.0
 11
256.0
 21
50.0
 31
0.0
  0
TEXT
  5
542C
330
1A
100
AcDbEntity
  8
WAKU
100
AcDbText
 10
226.0
 20
46.0
 30
0.0
 40
3.0
  1
記号
100
AcDbText
  0
TEXT
  5
542D
330
1A
100
AcDbEntity
  8
WAKU
100
AcDbText
 10
234.5
 20
46.0
 30
0.0
 40
3.0
  1
年月日
100
AcDbText
  0
TEXT
  5
542E
330
1A
100
AcDbEntity
  8
WAKU
100
AcDbText
 10
248.0
 20
46.0
 30
0.0
 40
3.0
  1
担当
100
AcDbText
  0
TEXT
  5
542F
330
1A
100
AcDbEntity
  8
WAKU
100
AcDbText
 10
263.5
 20
46.0
 30
0.0
 40
3.0
  1
改連No.
100
AcDbText
  0
TEXT
  5
5430
330
1A
100
AcDbEntity
  8
WAKU
100
AcDbText
 10
226.0
 20
13.5
 30
0.0
 40
3.0
  1
設置
100
AcDbText
  0
TEXT
  5
5431
330
1A
100
AcDbEntity
  8
WAKU
100
AcDbText
 10
287.5
 20
35.5
 30
0.0
 40
3.0
  1
尺　度
 72
     4
 11
292.5
 21
37.0
 31
0.0
100
AcDbText
  0
LINE
  5
5432
330
1A
100
AcDbEntity
  8
WAKU
100
AcDbLine
 10
298.0
 20
48.0
 30
0.0
 11
287.0
 21
42.0
 31
0.0
  0
TEXT
  5
5433
330
1A
100
AcDbEntity
  8
WAKU
100
AcDbText
 10
346.5
 20
10.5
 30
0.0
 40
3.0
  1
図
100
AcDbText
  0
TEXT
  5
5434
330
1A
100
AcDbEntity
  8
WAKU
100
AcDbText
 10
346.5
 20
6.0
 30
0.0
 40
3.0
  1
番
100
AcDbText
  0
TEXT
  5
5435
330
1A
100
AcDbEntity
  8
WAKU
100
AcDbText
 10
256.5
 20
6.0
 30
0.0
 40
6.0
  1
東洋測器株式会社
100
AcDbText
  0
TEXT
  5
5436
330
1A
100
AcDbEntity
  8
0
100
AcDbText
 10
293.0
 20
41.5
 30
0.0
 40
3.0
  1
1
100
AcDbText
  0
TEXT
  5
5437
330
1A
100
AcDbEntity
  8
0
100
AcDbText
 10
311.5
 20
42.5
 30
0.0
 40
4.0
  1
外観図
100
AcDbText
  0
TEXT
  5
5438
330
1A
100
AcDbEntity
  8
0
100
AcDbText
 10
361.6633838602885
 20
44.5
 30
0.0
 40
3.0
  1
DLS-5011A
100
AcDbText
  0
TEXT
  5
5439
330
1A
100
AcDbEntity
  8
0
100
AcDbText
 10
287.5
 20
44.5
 30
0.0
 40
3.0
  1
1
100
AcDbText
  0
TEXT
  5
543A
330
1A
100
AcDbEntity
  8
0
100
AcDbText
 10
358.0
 20
7.5
 30
0.0
 40
3.0
  1
EA3-00034
100
AcDbText
  0
TEXT
  5
543C
330
1A
100
AcDbEntity
  8
WAKU
100
AcDbText
 10
288.0
 20
19.0
 30
0.0
 40
4.0
  1
大野
100
AcDbText
  0
LWPOLYLINE
  5
543F
330
1A
100
AcDbEntity
  8
0
100
AcDbPolyline
 90
        3
 70
     1
 43
0.0
 10
398.0002991937029
 20
13.75002575180713
 10
393.6701721747807
 20
6.250025751807129
 10
402.330426212625
 20
6.250025751807129
  0
LWPOLYLINE
  5
5440
330
1A
100
AcDbEntity
  8
0
100
AcDbPolyline
 90
        3
 70
     1
 43
0.0
 10
229.0
 20
37.0
 10
226.8349364905389
 20
33.25
 10
231.1650635094611
 20
33.25
  0
TEXT
  5
5441
330
1A
100
AcDbEntity
  8
WAKU
100
AcDbText
 10
228.0
 20
17.5
 30
0.0
 40
2.0
  1
1
100
AcDbText
  0
LWPOLYLINE
  5
5442
330
1A
100
AcDbEntity
  8
0
100
AcDbPolyline
 90
        3
 70
     1
 43
0.0
 10
229.0
 20
21.0
 10
226.8349364905389
 20
17.25
 10
231.1650635094611
 20
17.25
  0
LWPOLYLINE
  5
5443
330
1A
100
AcDbEntity
  8
0
100
AcDbPolyline
 90
        3
 70
     1
 43
0.0
 10
229.0
 20
25.0
 10
226.8349364905389
 20
21.25
 10
231.1650635094611
 20
21.25
  0
TEXT
  5
5444
330
1A
100
AcDbEntity
  8
WAKU
100
AcDbText
 10
228.0
 20
21.5
 30
0.0
 40
2.0
  1
2
100
AcDbText
  0
TEXT
  5
5445
330
1A
100
AcDbEntity
  8
WAKU
100
AcDbText
 10
228.0
 20
29.5
 30
0.0
 40
2.0
  1
4
100
AcDbText
  0
LWPOLYLINE
  5
5446
330
1A
100
AcDbEntity
  8
0
100
AcDbPolyline
 90
        3
 70
     1
 43
0.0
 10
229.0
 20
33.0
 10
226.8349364905389
 20
29.25
 10
231.1650635094611
 20
29.25
  0
LWPOLYLINE
  5
5447
330
1A
100
AcDbEntity
  8
0
100
AcDbPolyline
 90
        3
 70
     1
 43
0.0
 10
229.0
 20
29.0
 10
226.8349364905389
 20
25.25
 10
231.1650635094611
 20
25.25
  0
TEXT
  5
5448
330
1A
100
AcDbEntity
  8
WAKU
100
AcDbText
 10
228.0
 20
25.5
 30
0.0
 40
2.0
  1
3
100
AcDbText
  0
TEXT
  5
5449
330
1A
100
AcDbEntity
  8
WAKU
100
AcDbText
 10
228.0
 20
33.5
 30
0.0
 40
2.0
  1
5
100
AcDbText
  0
TEXT
  5
544A
330
1A
100
AcDbEntity
  8
WAKU
100
AcDbText
 10
228.0
 20
41.5
 30
0.0
 40
2.0
  1
7
100
AcDbText
  0
LWPOLYLINE
  5
544B
330
1A
100
AcDbEntity
  8
0
100
AcDbPolyline
 90
        3
 70
     1
 43
0.0
 10
229.0
 20
45.0
 10
226.8349364905389
 20
41.25
 10
231.1650635094611
 20
41.25
  0
LWPOLYLINE
  5
544C
330
1A
100
AcDbEntity
  8
0
100
AcDbPolyline
 90
        3
 70
     1
 43
0.0
 10
229.0
 20
41.0
 10
226.8349364905389
 20
37.25
 10
231.1650635094611
 20
37.25
  0
TEXT
  5
544D
330
1A
100
AcDbEntity
  8
WAKU
100
AcDbText
 10
228.0
 20
37.5
 30
0.0
 40
2.0
  1
6
100
AcDbText
  0
TEXT
  5
544E
330
1A
100
AcDbEntity
  8
0
100
AcDbText
 10
396.5
 20
7.5
 30
0.0
 40
3.0
  1
1
100
AcDbText
  0
TEXT
  5
5450
330
1A
100
AcDbEntity
  8
WAKU
100
AcDbText
 10
303.0
 20
19.0
 30
0.0
 40
4.0
  1
横山
100
AcDbText
  0
TEXT
  5
5452
330
1A
100
AcDbEntity
  8
WAKU
100
AcDbText
 10
333.0
 20
19.0
 30
0.0
 40
4.0
  1
串田
100
AcDbText
  0
TEXT
  5
5453
330
1A
100
AcDbEntity
  8
WAKU
100
AcDbText
 10
287.5
 20
29.5
 30
0.0
 40
3.0
  1
設　計
 72
     4
 11
292.5
 21
31.0
 31
0.0
100
AcDbText
  0
TEXT
  5
5454
330
1A
100
AcDbEntity
  8
WAKU
100
AcDbText
 10
302.6
 20
29.5
 30
0.0
 40
3.0
  1
検　図
 72
     4
 11
307.5
 21
31.0
 31
0.0
100
AcDbText
  0
TEXT
  5
5455
330
1A
100
AcDbEntity
  8
WAKU
100
AcDbText
 10
325.0
 20
29.5
 30
0.0
 40
3.0
  1
承　認
 72
     4
 11
330.0
 21
31.0
 31
0.0
100
AcDbText
  0
TEXT
  5
5456
330
1A
100
AcDbEntity
  8
WAKU
100
AcDbText
 10
317.5
 20
35.5
 30
0.0
 40
3.0
  1
名　称
 72
     4
 11
322.5
 21
37.0
 31
0.0
100
AcDbText
  0
TEXT
  5
5461
330
1A
100
AcDbEntity
  8
WAKU
100
AcDbText
 10
331.0
 20
15.03689667871305
 30
0.0
 40
2.0
  1
08.03.13
100
AcDbText
  0
TEXT
  5
5462
330
1A
100
AcDbEntity
  8
WAKU
100
AcDbText
 10
301.0
 20
15.03689667871305
 30
0.0
 40
2.0
  1
08.03.13
100
AcDbText
  0
TEXT
  5
5463
330
1A
100
AcDbEntity
  8
WAKU
100
AcDbText
 10
286.0
 20
15.03689667871305
 30
0.0
 40
2.0
  1
08.03.13
100
AcDbText
  0
TEXT
  5
5464
330
1A
100
AcDbEntity
  8
WAKU
100
AcDbText
 10
247.5
 20
13.5
 30
0.0
 40
3.0
  1
大野
100
AcDbText
  0
TEXT
  5
5465
330
1A
100
AcDbEntity
  8
WAKU
100
AcDbText
 10
234.0
 20
14.0
 30
0.0
 40
2.0
  1
01.09.20
 41
0.8
100
AcDbText
  0
TEXT
  5
5466
330
1A
100
AcDbEntity
  8
WAKU
100
AcDbText
 10
234.0
 20
18.0
 30
0.0
 40
2.0
  1
08.03.13
 41
0.8
100
AcDbText
  0
TEXT
  5
5467
330
1A
100
AcDbEntity
  8
WAKU
100
AcDbText
 10
247.5
 20
17.5
 30
0.0
 40
3.0
  1
大野
100
AcDbText
  0
DIMENSION
  5
5468
330
1A
100
AcDbEntity
  8
SUNPOU
100
AcDbDimension
  2
*D41
 10
147.0634917681636
 20
178.5000000932087
 30
0.0
 11
144.0634917681636
 21
202.5000000466044
 31
0.0
 70
    32
  1
48
 71
     5
 42
47.99999990679123
  3
STANDARD
100
AcDbAlignedDimension
 13
132.4999998943628
 23
226.5
 33
0.0
 14
132.4999998943628
 24
178.5000000932087
 34
0.0
 50
90.0
100
AcDbRotatedDimension
1001
ACAD
1000
DSTYLE
1002
{
1070
   140
1040
5.0
1070
    74
1070
     0
1070
    73
1070
     0
1070
   272
1070
     0
1070
    77
1070
     1
1070
   173
1070
     1
1070
   147
1040
0.5
1070
    42
1040
0.5
1070
    44
1040
0.5
1070
    43
1040
10.0
1070
   271
1070
     0
1070
   141
1040
0.0
1070
     7
1000
_OPEN
1070
     6
1000
_OPEN
1070
    41
1040
2.5
1002
}
  0
DIMENSION
  5
5469
330
1A
100
AcDbEntity
  8
SUNPOU
100
AcDbDimension
  2
*D40
 10
132.4999998943628
 20
237.4604615161373
 30
0.0
 11
84.49999998757164
 21
240.4604615161373
 31
0.0
 70
    32
  1
96
 71
     5
 42
95.99999981358246
  3
STANDARD
100
AcDbAlignedDimension
 13
36.50000008078041
 23
226.5
 33
0.0
 14
132.4999998943628
 24
226.5
 34
0.0
100
AcDbRotatedDimension
1001
ACAD
1000
DSTYLE
1002
{
1070
   140
1040
5.0
1070
    74
1070
     0
1070
    73
1070
     0
1070
   272
1070
     0
1070
    77
1070
     1
1070
   173
1070
     1
1070
   147
1040
0.5
1070
    42
1040
0.5
1070
    44
1040
0.5
1070
    43
1040
10.0
1070
   271
1070
     0
1070
   141
1040
0.0
1070
     7
1000
_OPEN
1070
     6
1000
_OPEN
1070
    41
1040
2.5
1002
}
  0
DIMENSION
  5
5494
330
1A
100
AcDbEntity
  8
SUNPOU
100
AcDbDimension
  2
*D44
 10
287.7000000000001
 20
237.460461469533
 30
0.0
 11
278.85
 21
240.460461469533
 31
0.0
 70
    32
  1
17
 71
     5
 42
17.70000000000004
  3
STANDARD
100
AcDbAlignedDimension
 13
270.0
 23
223.9999999533957
 33
0.0
 14
287.7000000000001
 24
219.5999999533956
 34
0.0
100
AcDbRotatedDimension
1001
ACAD
1000
DSTYLE
1002
{
1070
   140
1040
5.0
1070
    74
1070
     0
1070
    73
1070
     0
1070
   272
1070
     0
1070
    77
1070
     1
1070
   173
1070
     1
1070
   147
1040
0.5
1070
    42
1040
0.5
1070
    44
1040
0.5
1070
    43
1040
10.0
1070
   271
1070
     0
1070
   141
1040
0.0
1070
     7
1000
_OPEN
1070
     6
1000
_OPEN
1070
    41
1040
2.5
1002
}
  0
DIMENSION
  5
5495
330
1A
100
AcDbEntity
  8
SUNPOU
100
AcDbDimension
  2
*D43
 10
165.7
 20
237.460461469533
 30
0.0
 11
162.8500000055343
 21
240.460461469533
 31
0.0
 70
    32
  1
6
 71
     5
 42
5.699999988931438
  3
STANDARD
100
AcDbAlignedDimension
 13
160.0000000110686
 23
225.4999999553375
 33
0.0
 14
165.7
 24
226.4999999533957
 34
0.0
100
AcDbRotatedDimension
1001
ACAD
1000
DSTYLE
1002
{
1070
   140
1040
5.0
1070
    74
1070
     0
1070
    73
1070
     0
1070
   272
1070
     0
1070
    77
1070
     1
1070
   173
1070
     1
1070
   147
1040
0.5
1070
    42
1040
0.5
1070
    44
1040
0.5
1070
    43
1040
10.0
1070
   271
1070
     0
1070
   141
1040
0.0
1070
     7
1000
_OPEN
1070
     6
1000
_OPEN
1070
    41
1040
2.5
1002
}
  0
DIMENSION
  5
5496
330
1A
100
AcDbEntity
  8
SUNPOU
100
AcDbDimension
  2
*D42
 10
270.0
 20
237.460461469533
 30
0.0
 11
217.85
 21
240.460461469533
 31
0.0
 70
    32
  1
104
 71
     5
 42
104.2999999999999
  3
STANDARD
100
AcDbAlignedDimension
 13
165.7
 23
226.4999999533957
 33
0.0
 14
270.0
 24
223.9999999582503
 34
0.0
100
AcDbRotatedDimension
1001
ACAD
1000
DSTYLE
1002
{
1070
    41
1040
2.5
1070
    42
1040
0.5
1070
    43
1040
10.0
1070
    44
1040
0.5
1070
    73
1070
     0
1070
    74
1070
     0
1070
    75
1070
     1
1070
    77
1070
     1
1070
   140
1040
5.0
1070
   141
1040
0.0
1070
   147
1040
0.5
1070
   173
1070
     1
1070
   271
1070
     0
1070
   272
1070
     0
1070
   279
1070
     1
1070
   343
1005
BA
1070
   344
1005
BA
1002
}
  0
TEXT
  5
54D6
330
1A
100
AcDbEntity
  8
SUNPOU
100
AcDbText
 10
266.6999993187756
 20
119.6997474856069
 30
0.0
 40
2.999999994174451
  1
-0
 50
90.0
100
AcDbText
  0
DIMENSION
  5
54D7
330
1A
100
AcDbEntity
  8
SUNPOU
100
AcDbDimension
  2
*D46
 10
269.1693717610903
 20
93.50000021166165
 30
0.0
 11
266.1693717610902
 21
115.500000168941
 31
0.0
 70
    32
  1
44
 71
     5
 42
43.99999991455863
  3
STANDARD
100
AcDbAlignedDimension
 13
257.6999998213499
 23
137.5000001262203
 33
0.0
 14
257.6999998213499
 24
93.50000021166165
 34
0.0
 50
90.0
100
AcDbRotatedDimension
1001
ACAD
1000
DSTYLE
1002
{
1070
   140
1040
5.0
1070
    74
1070
     0
1070
    73
1070
     0
1070
   272
1070
     0
1070
    77
1070
     1
1070
   173
1070
     1
1070
   147
1040
0.5
1070
    42
1040
0.5
1070
    44
1040
0.5
1070
    43
1040
10.0
1070
   271
1070
     0
1070
   141
1040
0.0
1070
     7
1000
_OPEN
1070
     6
1000
_OPEN
1070
    41
1040
2.5
1002
}
  0
DIMENSION
  5
54D8
330
1A
100
AcDbEntity
  8
SUNPOU
100
AcDbDimension
  2
*D45
 10
165.7
 20
147.6579004095329
 30
0.0
 11
211.8937225810901
 21
147.6579004095329
 31
0.0
 70
   160
  1
92
 71
     5
 42
91.99999982134992
  3
STANDARD
100
AcDbAlignedDimension
 13
257.6999998213499
 23
137.5000001262203
 33
0.0
 14
165.7
 24
137.5000001262203
 34
0.0
100
AcDbRotatedDimension
1001
ACAD
1000
DSTYLE
1002
{
1070
   140
1040
5.0
1070
    74
1070
     0
1070
    73
1070
     0
1070
   272
1070
     0
1070
    77
1070
     1
1070
   173
1070
     1
1070
   147
1040
0.5
1070
    42
1040
0.5
1070
    44
1040
0.5
1070
    43
1040
10.0
1070
   271
1070
     0
1070
   141
1040
0.0
1070
     7
1000
_OPEN
1070
     6
1000
_OPEN
1070
    41
1040
2.5
1002
}
  0
TEXT
  5
54D9
330
1A
100
AcDbEntity
  8
SUNPOU
100
AcDbText
 10
216.5
 20
150.349747396476
 30
0.0
 40
2.999999994174451
  1
-0
100
AcDbText
  0
TEXT
  5
54DA
330
1A
100
AcDbEntity
  8
SUNPOU
100
AcDbText
 10
216.5
 20
153.9497473894853
 30
0.0
 40
2.999999994174451
  1
+1
100
AcDbText
  0
TEXT
  5
54DB
330
1A
100
AcDbEntity
  8
SUNPOU
100
AcDbText
 10
263.0999993257662
 20
119.6997474856069
 30
0.0
 40
2.999999994174451
  1
+1
 50
90.0
100
AcDbText
  0
DIMENSION
  5
5506
330
1A
100
AcDbEntity
  8
SUNPOU
100
AcDbDimension
  2
*D48
 10
147.0634917681636
 20
94.00000025729505
 30
0.0
 11
144.0634917681636
 21
115.5000002155453
 31
0.0
 70
    32
  1
43
 71
     5
 42
42.99999991650048
  3
STANDARD
100
AcDbAlignedDimension
 13
129.9999998992174
 23
137.0000001737955
 33
0.0
 14
129.9999998992174
 24
94.00000025729505
 34
0.0
 50
90.0
100
AcDbRotatedDimension
1001
ACAD
1000
DSTYLE
1002
{
1070
   140
1040
5.0
1070
    74
1070
     0
1070
    73
1070
     0
1070
   272
1070
     0
1070
    77
1070
     1
1070
   173
1070
     1
1070
   147
1040
0.5
1070
    42
1040
0.5
1070
    44
1040
0.5
1070
    43
1040
10.0
1070
   271
1070
     0
1070
   141
1040
0.0
1070
     7
1000
_OPEN
1070
     6
1000
_OPEN
1070
    41
1040
2.5
1002
}
  0
DIMENSION
  5
5507
330
1A
100
AcDbEntity
  8
SUNPOU
100
AcDbDimension
  2
*D47
 10
129.9999998992174
 20
155.0569964685319
 30
0.0
 11
84.49999998757162
 21
158.0569964685319
 31
0.0
 70
    32
  1
91
 71
     5
 42
90.99999982329171
  3
STANDARD
100
AcDbAlignedDimension
 13
39.00000007592576
 23
137.0000001737955
 33
0.0
 14
129.9999998992174
 24
137.0000001737955
 34
0.0
100
AcDbRotatedDimension
1001
ACAD
1000
DSTYLE
1002
{
1070
   140
1040
5.0
1070
    74
1070
     0
1070
    73
1070
     0
1070
   272
1070
     0
1070
    77
1070
     1
1070
   173
1070
     1
1070
   147
1040
0.5
1070
    42
1040
0.5
1070
    44
1040
0.5
1070
    43
1040
10.0
1070
   271
1070
     0
1070
   141
1040
0.0
1070
     7
1000
_OPEN
1070
     6
1000
_OPEN
1070
    41
1040
2.5
1002
}
  0
LINE
  5
5532
330
1A
100
AcDbEntity
  8
0
100
AcDbLine
 10
102.8999999875718
 20
115.0000001223365
 30
0.0
 11
119.3999999875718
 21
115.0000001223365
 31
0.0
  0
LINE
  5
5533
330
1A
100
AcDbEntity
  8
0
100
AcDbLine
 10
102.8999999875718
 20
118.9999999533955
 30
0.0
 11
119.3999999875718
 21
118.9999999533955
 31
0.0
  0
LINE
  5
5534
330
1A
100
AcDbEntity
  8
0
100
AcDbLine
 10
119.3999999875718
 20
118.9999999533955
 30
0.0
 11
119.3999999875718
 21
115.0000001223365
 31
0.0
  0
LINE
  5
5535
330
1A
100
AcDbEntity
  8
0
100
AcDbLine
 10
102.8999999875718
 20
118.9999999533955
 30
0.0
 11
102.8999999875718
 21
115.0000001223365
 31
0.0
  0
TEXT
  5
5536
330
1A
100
AcDbEntity
  8
0
100
AcDbText
 10
103.5249999875718
 20
115.750000037866
 30
0.0
 40
2.5
  1
AC85-132V
 41
0.7
 72
     1
 11
111.1499999875718
 21
117.000000037866
 31
0.0
100
AcDbText
 73
     2
  0
TEXT
  5
5537
330
1A
100
AcDbEntity
  8
0
100
AcDbText
 10
118.5971428447144
 20
146.3505055589111
 30
0.0
 40
2.5
  1
AC model
 41
0.6
 72
     1
 11
123.6899999875716
 21
147.6005055589111
 31
0.0
100
AcDbText
 73
     2
  0
LINE
  5
5538
330
1A
100
AcDbEntity
  8
SUNPOU
100
AcDbLine
 10
104.1599999875717
 20
150.1005055589111
 30
0.0
 11
104.1599999875717
 21
140.1005055589111
 31
0.0
  0
LINE
  5
5539
330
1A
100
AcDbEntity
  8
SUNPOU
100
AcDbLine
 10
118.1799999875716
 20
150.1005055589111
 30
0.0
 11
118.1799999875716
 21
140.1005055589111
 31
0.0
  0
LINE
  5
553A
330
1A
100
AcDbEntity
  8
SUNPOU
100
AcDbLine
 10
111.1699999875717
 20
150.1005055589111
 30
0.0
 11
111.1699999875717
 21
140.1005055589111
 31
0.0
  0
LINE
  5
553B
330
1A
100
AcDbEntity
  8
SUNPOU
100
AcDbLine
 10
104.1599999875717
 20
145.1005055589111
 30
0.0
 11
129.5000005208509
 21
145.1005055589111
 31
0.0
  0
LINE
  5
553C
330
1A
100
AcDbEntity
  8
SUNPOU
100
AcDbLine
 10
104.1599999875717
 20
150.1005055589111
 30
0.0
 11
129.5000005208509
 21
150.1005055589111
 31
0.0
  0
LINE
  5
553D
330
1A
100
AcDbEntity
  8
SUNPOU
100
AcDbLine
 10
104.1599999875717
 20
140.1005055589111
 30
0.0
 11
129.5000005208509
 21
140.1005055589111
 31
0.0
  0
LINE
  5
553E
330
1A
100
AcDbEntity
  8
SUNPOU
100
AcDbLine
 10
129.5000005208509
 20
150.1005055589111
 30
0.0
 11
129.5000005208509
 21
140.1005055589111
 31
0.0
  0
TEXT
  5
553F
330
1A
100
AcDbEntity
  8
0
100
AcDbText
 10
118.3828571304287
 20
141.3505055589111
 30
0.0
 40
2.5
  1
DC model
 41
0.6
 72
     1
 11
123.6899999875716
 21
142.6005055589111
 31
0.0
100
AcDbText
 73
     2
  0
TEXT
  5
5540
330
1A
100
AcDbEntity
  8
0
100
AcDbText
 10
113.1273809399526
 20
141.3505055589111
 30
0.0
 40
2.5
  1
-
 72
     1
 11
114.6749999875717
 21
142.6005055589111
 31
0.0
100
AcDbText
 73
     2
  0
TEXT
  5
5541
330
1A
100
AcDbEntity
  8
0
100
AcDbText
 10
113.3654761780478
 20
146.3505055589111
 30
0.0
 40
2.5
  1
N
 72
     1
 11
114.6749999875717
 21
147.6005055589111
 31
0.0
100
AcDbText
 73
     2
  0
TEXT
  5
5542
330
1A
100
AcDbEntity
  8
0
100
AcDbText
 10
106.1173809399526
 20
141.3505055589111
 30
0.0
 40
2.5
  1
+
 72
     1
 11
107.6649999875717
 21
142.6005055589111
 31
0.0
100
AcDbText
 73
     2
  0
TEXT
  5
5543
330
1A
100
AcDbEntity
  8
0
100
AcDbText
 10
106.4745237970955
 20
146.3505055589111
 30
0.0
 40
2.5
  1
L
 72
     1
 11
107.6649999875717
 21
147.6005055589111
 31
0.0
100
AcDbText
 73
     2
  0
TEXT
  5
564D
330
1A
100
AcDbEntity
  8
0
100
AcDbText
 10
312.9631408212716
 20
142.3658013578346
 30
0.0
 40
3.0
  1
1
100
AcDbText
  0
TEXT
  5
564E
330
1A
100
AcDbEntity
  8
0
100
AcDbText
 10
320.4631408212715
 20
142.3658013578346
 30
0.0
 40
3.0
  1
2
100
AcDbText
  0
TEXT
  5
564F
330
1A
100
AcDbEntity
  8
0
100
AcDbText
 10
328.4631408212715
 20
142.3658013578346
 30
0.0
 40
3.0
  1
3
100
AcDbText
  0
TEXT
  5
5650
330
1A
100
AcDbEntity
  8
0
100
AcDbText
 10
335.9631408212715
 20
142.3658013578346
 30
0.0
 40
3.0
  1
4
100
AcDbText
  0
TEXT
  5
5651
330
1A
100
AcDbEntity
  8
0
100
AcDbText
 10
343.4631408212715
 20
142.3658013578346
 30
0.0
 40
3.0
  1
5
100
AcDbText
  0
TEXT
  5
5652
330
1A
100
AcDbEntity
  8
0
100
AcDbText
 10
350.9631408212715
 20
142.3658013578346
 30
0.0
 40
3.0
  1
6
100
AcDbText
  0
TEXT
  5
5653
330
1A
100
AcDbEntity
  8
0
100
AcDbText
 10
358.9631408212715
 20
142.3658013578346
 30
0.0
 40
3.0
  1
7
100
AcDbText
  0
TEXT
  5
5654
330
1A
100
AcDbEntity
  8
0
100
AcDbText
 10
366.4631408212715
 20
142.3658013578346
 30
0.0
 40
3.0
  1
8
100
AcDbText
  0
TEXT
  5
5655
330
1A
100
AcDbEntity
  8
0
100
AcDbText
 10
373.9631408212715
 20
142.3658013578346
 30
0.0
 40
3.0
  1
9
100
AcDbText
  0
LINE
  5
5656
330
1A
100
AcDbEntity
  8
0
100
AcDbLine
 10
314.4964076418012
 20
133.6173072123059
 30
0.0
 11
314.4964076418012
 21
137.009146940739
 31
0.0
  0
TEXT
  5
5657
330
1A
100
AcDbEntity
  8
0
100
AcDbText
 10
319.1871428571428
 20
135.759146940739
 30
0.0
 40
2.5
  1
Load Cell
 41
0.8
 72
     1
 11
325.93
 21
137.009146940739
 31
0.0
100
AcDbText
 73
     2
  0
LINE
  5
5658
330
1A
100
AcDbEntity
  8
0
100
AcDbLine
 10
311.2999999999999
 20
138.5091469407391
 30
0.0
 11
311.2999999999999
 21
137.009146940739
 31
0.0
  0
LINE
  5
5659
330
1A
100
AcDbEntity
  8
0
100
AcDbLine
 10
311.2999999999999
 20
137.009146940739
 30
0.0
 11
317.7
 21
137.009146940739
 31
0.0
  0
LINE
  5
565A
330
1A
100
AcDbEntity
  8
0
100
AcDbLine
 10
340.56
 20
138.5091469407391
 30
0.0
 11
340.56
 21
137.009146940739
 31
0.0
  0
LINE
  5
565B
330
1A
100
AcDbEntity
  8
0
100
AcDbLine
 10
340.56
 20
137.009146940739
 30
0.0
 11
334.16
 21
137.009146940739
 31
0.0
  0
TEXT
  5
565C
330
1A
100
AcDbEntity
  8
0
100
AcDbText
 10
319.2414076418012
 20
129.1223072123059
 30
0.0
 40
2.5
  1
Shield
 41
0.8
 11
319.2414076418012
 21
130.3723072123059
 31
0.0
100
AcDbText
 73
     2
  0
INSERT
  5
565D
330
1A
100
AcDbEntity
  8
0
100
AcDbBlockReference
  2
A$C78786D43
 10
311.7514077412329
 20
133.1173072072977
 30
0.0
 50
270.0
  0
LINE
  5
565E
330
1A
100
AcDbEntity
  8
0
100
AcDbLine
 10
346.8779163375605
 20
129.559588524757
 30
0.0
 11
345.005832675121
 21
129.559588524757
 31
0.0
  0
LINE
  5
565F
330
1A
100
AcDbEntity
  8
0
100
AcDbLine
 10
355.8564758676084
 20
151.086839728433
 30
0.0
 11
355.8564758676084
 21
152.586839728433
 31
0.0
  0
LINE
  5
5660
330
1A
100
AcDbEntity
  8
0
100
AcDbLine
 10
355.8564758676084
 20
152.586839728433
 30
0.0
 11
354.3564758676084
 21
152.586839728433
 31
0.0
  0
LINE
  5
5661
330
1A
100
AcDbEntity
  8
0
100
AcDbLine
 10
341.8364758676085
 20
151.086839728433
 30
0.0
 11
341.8364758676085
 21
152.586839728433
 31
0.0
  0
LINE
  5
5662
330
1A
100
AcDbEntity
  8
0
100
AcDbLine
 10
341.8364758676085
 20
152.586839728433
 30
0.0
 11
343.3364758676085
 21
152.586839728433
 31
0.0
  0
TEXT
  5
5663
330
1A
100
AcDbEntity
  8
0
100
AcDbText
 10
343.9214758676085
 20
151.336839728433
 30
0.0
 40
2.5
  1
RY-out
 41
0.7
 72
     4
 11
348.7964758676085
 21
152.586839728433
 31
0.0
100
AcDbText
  0
CIRCLE
  5
5664
330
1A
100
AcDbEntity
  8
0
100
AcDbCircle
 10
350.2537490126815
 20
131.2200000000001
 30
0.0
 40
0.5
  0
LINE
  5
5665
330
1A
100
AcDbEntity
  8
0
100
AcDbLine
 10
352.625832675121
 20
139.5091469407392
 30
0.0
 11
352.625832675121
 21
131.2200000000001
 31
0.0
  0
CIRCLE
  5
5666
330
1A
100
AcDbEntity
  8
0
100
AcDbCircle
 10
347.3779163375605
 20
132.8804114752432
 30
0.0
 40
0.5
  0
CIRCLE
  5
5667
330
1A
100
AcDbEntity
  8
0
100
AcDbCircle
 10
347.3779163375605
 20
129.559588524757
 30
0.0
 40
0.5
  0
LINE
  5
5668
330
1A
100
AcDbEntity
  8
0
100
AcDbLine
 10
349.796943729058
 20
131.423295186499
 30
0.0
 11
346.143081754735
 21
132.7976341356418
 31
0.0
  0
LINE
  5
5669
330
1A
100
AcDbEntity
  8
0
100
AcDbLine
 10
345.005832675121
 20
139.5091469407392
 30
0.0
 11
345.005832675121
 21
129.559588524757
 31
0.0
  0
LINE
  5
566A
330
1A
100
AcDbEntity
  8
0
100
AcDbLine
 10
350.7537490126815
 20
131.2200000000001
 30
0.0
 11
352.625832675121
 21
131.2200000000001
 31
0.0
  0
TEXT
  5
566B
330
1A
100
AcDbEntity
  8
0
100
AcDbText
 10
351.7594250333194
 20
147.6605191852993
 30
0.0
 40
2.0
  1
c
100
AcDbText
  0
TEXT
  5
566C
330
1A
100
AcDbEntity
  8
0
100
AcDbText
 10
344.0094250333194
 20
147.6605191852993
 30
0.0
 40
2.0
  1
a
100
AcDbText
  0
LINE
  5
566D
330
1A
100
AcDbEntity
  8
0
  6
DASHED2
100
AcDbLine
 10
371.6950000000001
 20
136.05
 30
0.0
 11
371.6950000000001
 21
139.5091469407389
 31
0.0
  0
LINE
  5
566E
330
1A
100
AcDbEntity
  8
0
  6
DASHED2
100
AcDbLine
 10
378.75
 20
136.05
 30
0.0
 11
364.64
 21
136.05
 31
0.0
  0
LINE
  5
566F
330
1A
100
AcDbEntity
  8
0
100
AcDbLine
 10
378.75
 20
131.3
 30
0.0
 11
364.64
 21
131.3
 31
0.0
  0
LWPOLYLINE
  5
5670
330
1A
100
AcDbEntity
  8
0
100
AcDbPolyline
 90
        4
 70
     0
 43
0.0
 10
364.64
 20
139.5091469407389
 10
364.64
 20
126.3
 10
378.75
 20
126.3
 10
378.75
 20
139.5091469407389
  0
TEXT
  5
5671
330
1A
100
AcDbEntity
  8
0
100
AcDbText
 10
373.75
 20
136.55
 30
0.0
 40
2.5
  1
-
100
AcDbText
  0
TEXT
  5
5672
330
1A
100
AcDbEntity
  8
0
100
AcDbText
 10
365.5
 20
132.3
 30
0.0
 40
2.5
  1
DC24V
100
AcDbText
  0
TEXT
  5
5673
330
1A
100
AcDbEntity
  8
0
100
AcDbText
 10
365.5
 20
127.55
 30
0.0
 40
2.5
  1
AC100V
 41
0.9
100
AcDbText
  0
LINE
  5
5674
102
{ACAD_REACTORS
330
575A
102
}
330
1A
100
AcDbEntity
  8
0
100
AcDbLine
 10
382.25
 20
137.3
 30
0.0
 11
378.75
 21
137.3
 31
0.0
  0
LINE
  5
5675
102
{ACAD_REACTORS
330
575A
102
}
330
1A
100
AcDbEntity
  8
0
100
AcDbLine
 10
378.75
 20
132.3
 30
0.0
 11
382.25
 21
132.3
 31
0.0
  0
LINE
  5
5676
102
{ACAD_REACTORS
330
575A
102
}
330
1A
100
AcDbEntity
  8
0
100
AcDbLine
 10
382.25
 20
131.3
 30
0.0
 11
378.75
 21
131.3
 31
0.0
  0
LINE
  5
5677
102
{ACAD_REACTORS
330
575A
102
}
330
1A
100
AcDbEntity
  8
0
100
AcDbLine
 10
378.75
 20
126.3
 30
0.0
 11
382.25
 21
126.3
 31
0.0
  0
LINE
  5
567B
102
{ACAD_REACTORS
330
575A
102
}
330
1A
100
AcDbEntity
  8
0
100
AcDbLine
 10
378.75
 20
131.3
 30
0.0
 11
378.75
 21
126.3
 31
0.0
  0
LINE
  5
5686
102
{ACAD_REACTORS
330
575A
102
}
330
1A
100
AcDbEntity
  8
0
100
AcDbLine
 10
382.25
 20
126.3
 30
0.0
 11
382.25
 21
131.3
 31
0.0
  0
LINE
  5
5687
102
{ACAD_REACTORS
330
575A
102
}
330
1A
100
AcDbEntity
  8
0
100
AcDbLine
 10
382.25
 20
132.3
 30
0.0
 11
382.25
 21
137.3
 31
0.0
  0
LINE
  5
5688
102
{ACAD_REACTORS
330
575A
102
}
330
1A
100
AcDbEntity
  8
0
100
AcDbLine
 10
378.75
 20
137.3
 30
0.0
 11
378.75
 21
132.3
 31
0.0
  0
TEXT
  5
5697
330
1A
100
AcDbEntity
  8
0
100
AcDbText
 10
366.5
 20
136.55
 30
0.0
 40
2.5
  1
+
100
AcDbText
  0
LINE
  5
5698
330
1A
100
AcDbEntity
  8
0
100
AcDbLine
 10
340.56
 20
152.55
 30
0.0
 11
337.0
 21
152.55
 31
0.0
  0
LINE
  5
5699
330
1A
100
AcDbEntity
  8
0
100
AcDbLine
 10
340.56
 20
151.05
 30
0.0
 11
340.56
 21
152.55
 31
0.0
  0
LINE
  5
569A
330
1A
100
AcDbEntity
  8
0
100
AcDbLine
 10
326.54
 20
152.55
 30
0.0
 11
330.0
 21
152.55
 31
0.0
  0
LINE
  5
569B
330
1A
100
AcDbEntity
  8
0
100
AcDbLine
 10
325.32
 20
151.05
 30
0.0
 11
325.32
 21
152.55
 31
0.0
  0
LINE
  5
569C
330
1A
100
AcDbEntity
  8
0
100
AcDbLine
 10
326.54
 20
151.05
 30
0.0
 11
326.54
 21
152.55
 31
0.0
  0
LINE
  5
569D
330
1A
100
AcDbEntity
  8
0
100
AcDbLine
 10
325.32
 20
152.55
 30
0.0
 11
323.0
 21
152.55
 31
0.0
  0
TEXT
  5
569E
330
1A
100
AcDbEntity
  8
0
100
AcDbText
 10
330.5
 20
151.3
 30
0.0
 40
2.5
  1
SIG
100
AcDbText
  0
LINE
  5
569F
330
1A
100
AcDbEntity
  8
0
100
AcDbLine
 10
311.2999999999999
 20
151.05
 30
0.0
 11
311.2999999999999
 21
152.55
 31
0.0
  0
LINE
  5
56A0
330
1A
100
AcDbEntity
  8
0
100
AcDbLine
 10
311.2999999999999
 20
152.55
 30
0.0
 11
314.0
 21
152.55
 31
0.0
  0
TEXT
  5
56A1
330
1A
100
AcDbEntity
  8
0
100
AcDbText
 10
315.0
 20
151.3
 30
0.0
 40
2.5
  1
EXC
100
AcDbText
  0
TEXT
  5
56A2
330
1A
100
AcDbEntity
  8
0
100
AcDbText
 10
335.7966692995176
 20
147.3410016218856
 30
0.0
 40
2.5
  1
-
100
AcDbText
  0
TEXT
  5
56A3
330
1A
100
AcDbEntity
  8
0
100
AcDbText
 10
320.5566692995176
 20
147.3410016218856
 30
0.0
 40
2.5
  1
-
100
AcDbText
  0
TEXT
  5
56A4
330
1A
100
AcDbEntity
  8
0
100
AcDbText
 10
312.9366692995176
 20
147.3410016218856
 30
0.0
 40
2.5
  1
+
100
AcDbText
  0
TEXT
  5
56A5
330
1A
100
AcDbEntity
  8
0
100
AcDbText
 10
328.1766692995176
 20
147.3410016218856
 30
0.0
 40
2.5
  1
+
100
AcDbText
  0
LINE
  5
56D3
102
{ACAD_REACTORS
330
5762
102
}
330
1A
100
AcDbEntity
  8
0
100
AcDbLine
 10
383.25
 20
166.8
 30
0.0
 11
306.75
 21
166.8
 31
0.0
  0
LINE
  5
56D4
102
{ACAD_REACTORS
330
5762
102
}
330
1A
100
AcDbEntity
  8
0
100
AcDbLine
 10
306.75
 20
166.8
 30
0.0
 11
306.75
 21
125.3
 31
0.0
  0
LINE
  5
56D5
102
{ACAD_REACTORS
330
5762
102
}
330
1A
100
AcDbEntity
  8
0
100
AcDbLine
 10
383.25
 20
166.8
 30
0.0
 11
383.25
 21
125.3
 31
0.0
  0
LINE
  5
56D8
330
1A
100
AcDbEntity
  8
0
100
AcDbLine
 10
379.86
 20
139.5091469407389
 30
0.0
 11
310.08
 21
139.5091469407391
 31
0.0
  0
LINE
  5
56D9
330
1A
100
AcDbEntity
  8
0
100
AcDbLine
 10
378.6783985297114
 20
141.0091469407389
 30
0.0
 11
372.2783985297115
 21
141.0091469407389
 31
0.0
  0
CIRCLE
  5
56DA
330
1A
100
AcDbEntity
  8
0
100
AcDbCircle
 10
375.4783985297115
 20
144.0091469407389
 30
0.0
 40
2.75
  0
LINE
  5
56DB
330
1A
100
AcDbEntity
  8
0
100
AcDbLine
 10
372.2783985297115
 20
147.0091469407389
 30
0.0
 11
378.6783985297114
 21
147.0091469407389
 31
0.0
  0
LINE
  5
56DE
102
{ACAD_REACTORS
330
5761
102
}
330
1A
100
AcDbEntity
  8
0
100
AcDbLine
 10
380.5
 20
159.3
 30
0.0
 11
358.5
 21
159.3
 31
0.0
  0
LINE
  5
56DF
102
{ACAD_REACTORS
330
5761
102
}
330
1A
100
AcDbEntity
  8
0
100
AcDbLine
 10
380.5
 20
155.3
 30
0.0
 11
380.5
 21
159.3
 31
0.0
  0
LINE
  5
56E0
102
{ACAD_REACTORS
330
5761
102
}
330
1A
100
AcDbEntity
  8
0
100
AcDbLine
 10
358.5
 20
155.3
 30
0.0
 11
380.5
 21
155.3
 31
0.0
  0
LINE
  5
56E1
102
{ACAD_REACTORS
330
5761
102
}
330
1A
100
AcDbEntity
  8
0
100
AcDbLine
 10
358.5
 20
159.3
 30
0.0
 11
358.5
 21
155.3
 31
0.0
  0
TEXT
  5
56E2
330
1A
100
AcDbEntity
  8
0
100
AcDbText
 10
349.5
 20
155.8
 30
0.0
 40
3.0
  1
No.
100
AcDbText
  0
TEXT
  5
56E3
330
1A
100
AcDbEntity
  8
0
100
AcDbText
 10
337.0
 20
161.55
 30
0.0
 40
3.0
  1
TOYO SOKKI CO.,LTD
100
AcDbText
  0
TEXT
  5
56E4
330
1A
100
AcDbEntity
  8
0
100
AcDbText
 10
309.0
 20
155.8
 30
0.0
 40
4.0
  1
DLS-5011A
100
AcDbText
  0
TEXT
  5
56E5
330
1A
100
AcDbEntity
  8
0
100
AcDbText
 10
365.0
 20
151.05
 30
0.0
 40
2.5
  1
POWER
100
AcDbText
  0
TEXT
  5
56E6
330
1A
100
AcDbEntity
  8
0
100
AcDbText
 10
359.25
 20
151.05
 30
0.0
 40
2.5
  1
E
100
AcDbText
  0
LINE
  5
56E7
102
{ACAD_REACTORS
330
5762
102
}
330
1A
100
AcDbEntity
  8
0
100
AcDbLine
 10
383.25
 20
125.3
 30
0.0
 11
306.75
 21
125.3
 31
0.0
  0
LINE
  5
56E8
330
1A
100
AcDbEntity
  8
0
100
AcDbLine
 10
310.08
 20
139.5091469407391
 30
0.0
 11
310.08
 21
150.05
 31
0.0
  0
CIRCLE
  5
56E9
330
1A
100
AcDbEntity
  8
0
100
AcDbCircle
 10
314.4964076418012
 20
143.9723072123058
 30
0.0
 40
2.75
  0
CIRCLE
  5
56EA
330
1A
100
AcDbEntity
  8
0
100
AcDbCircle
 10
314.4964076418012
 20
143.9723072123058
 30
0.0
 40
2.75
  0
CIRCLE
  5
56EB
330
1A
100
AcDbEntity
  8
0
100
AcDbCircle
 10
314.4964076418012
 20
143.9723072123058
 30
0.0
 40
2.75
  0
LINE
  5
56EC
330
1A
100
AcDbEntity
  8
0
100
AcDbLine
 10
311.2964076418011
 20
146.9723072123058
 30
0.0
 11
317.6964076418011
 21
146.9723072123058
 31
0.0
  0
LINE
  5
56ED
330
1A
100
AcDbEntity
  8
0
100
AcDbLine
 10
317.6964076418011
 20
140.9723072123058
 30
0.0
 11
311.2964076418011
 21
140.9723072123058
 31
0.0
  0
LINE
  5
56EE
330
1A
100
AcDbEntity
  8
0
100
AcDbLine
 10
317.6964076418011
 20
140.9723072123058
 30
0.0
 11
311.2964076418011
 21
140.9723072123058
 31
0.0
  0
LINE
  5
56EF
330
1A
100
AcDbEntity
  8
0
100
AcDbLine
 10
311.2964076418011
 20
146.9723072123058
 30
0.0
 11
317.6964076418011
 21
146.9723072123058
 31
0.0
  0
LINE
  5
56F0
330
1A
100
AcDbEntity
  8
0
100
AcDbLine
 10
317.6964076418011
 20
140.9723072123058
 30
0.0
 11
311.2964076418011
 21
140.9723072123058
 31
0.0
  0
LINE
  5
56F1
330
1A
100
AcDbEntity
  8
0
100
AcDbLine
 10
311.2964076418011
 20
146.9723072123058
 30
0.0
 11
317.6964076418011
 21
146.9723072123058
 31
0.0
  0
LINE
  5
56F2
330
1A
100
AcDbEntity
  8
0
100
AcDbLine
 10
317.7
 20
139.5091469407391
 30
0.0
 11
317.7
 21
150.05
 31
0.0
  0
LINE
  5
56F3
330
1A
100
AcDbEntity
  8
0
100
AcDbLine
 10
311.2999999999999
 20
139.5091469407391
 30
0.0
 11
311.2999999999999
 21
150.05
 31
0.0
  0
LINE
  5
56F4
330
1A
100
AcDbEntity
  8
0
100
AcDbLine
 10
332.9093568075121
 20
141.045986669172
 30
0.0
 11
326.509356807512
 21
141.045986669172
 31
0.0
  0
LINE
  5
56F5
330
1A
100
AcDbEntity
  8
0
100
AcDbLine
 10
348.2058326751205
 20
141.082826397605
 30
0.0
 11
341.8058326751205
 21
141.082826397605
 31
0.0
  0
LINE
  5
56F6
330
1A
100
AcDbEntity
  8
0
100
AcDbLine
 10
340.5760243306807
 20
141.0091469407388
 30
0.0
 11
334.1760243306806
 21
141.0091469407388
 31
0.0
  0
LINE
  5
56F7
330
1A
100
AcDbEntity
  8
0
100
AcDbLine
 10
326.509356807512
 20
147.045986669172
 30
0.0
 11
332.9093568075121
 21
147.045986669172
 31
0.0
  0
LINE
  5
56F8
330
1A
100
AcDbEntity
  8
0
100
AcDbLine
 10
341.8058326751205
 20
147.082826397605
 30
0.0
 11
348.2058326751205
 21
147.082826397605
 31
0.0
  0
LINE
  5
56F9
330
1A
100
AcDbEntity
  8
0
100
AcDbLine
 10
334.1760243306806
 20
147.0091469407388
 30
0.0
 11
340.5760243306807
 21
147.0091469407388
 31
0.0
  0
CIRCLE
  5
56FA
330
1A
100
AcDbEntity
  8
0
100
AcDbCircle
 10
345.0058326751206
 20
144.082826397605
 30
0.0
 40
2.75
  0
CIRCLE
  5
56FB
330
1A
100
AcDbEntity
  8
0
100
AcDbCircle
 10
337.3760243306807
 20
144.0091469407388
 30
0.0
 40
2.75
  0
CIRCLE
  5
56FC
330
1A
100
AcDbEntity
  8
0
100
AcDbCircle
 10
329.7093568075121
 20
144.045986669172
 30
0.0
 40
2.75
  0
CIRCLE
  5
56FD
330
1A
100
AcDbEntity
  8
0
100
AcDbCircle
 10
322.1164076418012
 20
143.9723072123058
 30
0.0
 40
2.75
  0
LINE
  5
56FE
330
1A
100
AcDbEntity
  8
0
100
AcDbLine
 10
318.9164076418011
 20
146.9723072123058
 30
0.0
 11
325.3164076418011
 21
146.9723072123058
 31
0.0
  0
LINE
  5
56FF
330
1A
100
AcDbEntity
  8
0
100
AcDbLine
 10
325.3164076418011
 20
140.9723072123058
 30
0.0
 11
318.9164076418011
 21
140.9723072123058
 31
0.0
  0
LINE
  5
5700
330
1A
100
AcDbEntity
  8
0
100
AcDbLine
 10
363.4285901852718
 20
141.0459866691721
 30
0.0
 11
357.0285901852718
 21
141.0459866691721
 31
0.0
  0
LINE
  5
5701
330
1A
100
AcDbEntity
  8
0
100
AcDbLine
 10
371.0583985297114
 20
141.0091469407389
 30
0.0
 11
364.6583985297115
 21
141.0091469407389
 31
0.0
  0
LINE
  5
5702
330
1A
100
AcDbEntity
  8
0
100
AcDbLine
 10
357.0285901852718
 20
147.0459866691721
 30
0.0
 11
363.4285901852718
 21
147.0459866691721
 31
0.0
  0
LINE
  5
5703
330
1A
100
AcDbEntity
  8
0
100
AcDbLine
 10
364.6583985297115
 20
147.0091469407389
 30
0.0
 11
371.0583985297114
 21
147.0091469407389
 31
0.0
  0
CIRCLE
  5
5704
330
1A
100
AcDbEntity
  8
0
100
AcDbCircle
 10
367.8583985297115
 20
144.0091469407389
 30
0.0
 40
2.75
  0
CIRCLE
  5
5705
330
1A
100
AcDbEntity
  8
0
100
AcDbCircle
 10
360.2285901852718
 20
144.0459866691721
 30
0.0
 40
2.75
  0
CIRCLE
  5
5706
330
1A
100
AcDbEntity
  8
0
100
AcDbCircle
 10
352.598781840832
 20
144.0459866691721
 30
0.0
 40
2.75
  0
LINE
  5
5707
330
1A
100
AcDbEntity
  8
0
100
AcDbLine
 10
349.3987818408319
 20
147.0459866691721
 30
0.0
 11
355.7987818408319
 21
147.0459866691721
 31
0.0
  0
LINE
  5
5708
330
1A
100
AcDbEntity
  8
0
100
AcDbLine
 10
355.7987818408319
 20
141.0459866691721
 30
0.0
 11
349.3987818408319
 21
141.0459866691721
 31
0.0
  0
LINE
  5
5709
330
1A
100
AcDbEntity
  8
0
100
AcDbLine
 10
379.86
 20
150.05
 30
0.0
 11
310.08
 21
150.05
 31
0.0
  0
LINE
  5
570A
330
1A
100
AcDbEntity
  8
0
100
AcDbLine
 10
332.9093568075121
 20
141.045986669172
 30
0.0
 11
326.509356807512
 21
141.045986669172
 31
0.0
  0
LINE
  5
570B
330
1A
100
AcDbEntity
  8
0
100
AcDbLine
 10
348.2058326751205
 20
141.082826397605
 30
0.0
 11
341.8058326751205
 21
141.082826397605
 31
0.0
  0
LINE
  5
570C
330
1A
100
AcDbEntity
  8
0
100
AcDbLine
 10
340.5760243306807
 20
141.0091469407388
 30
0.0
 11
334.1760243306806
 21
141.0091469407388
 31
0.0
  0
LINE
  5
570D
330
1A
100
AcDbEntity
  8
0
100
AcDbLine
 10
326.509356807512
 20
147.045986669172
 30
0.0
 11
332.9093568075121
 21
147.045986669172
 31
0.0
  0
LINE
  5
570E
330
1A
100
AcDbEntity
  8
0
100
AcDbLine
 10
341.8058326751205
 20
147.082826397605
 30
0.0
 11
348.2058326751205
 21
147.082826397605
 31
0.0
  0
LINE
  5
570F
330
1A
100
AcDbEntity
  8
0
100
AcDbLine
 10
334.1760243306806
 20
147.0091469407388
 30
0.0
 11
340.5760243306807
 21
147.0091469407388
 31
0.0
  0
CIRCLE
  5
5710
330
1A
100
AcDbEntity
  8
0
100
AcDbCircle
 10
345.0058326751206
 20
144.082826397605
 30
0.0
 40
2.75
  0
CIRCLE
  5
5711
330
1A
100
AcDbEntity
  8
0
100
AcDbCircle
 10
337.3760243306807
 20
144.0091469407388
 30
0.0
 40
2.75
  0
CIRCLE
  5
5712
330
1A
100
AcDbEntity
  8
0
100
AcDbCircle
 10
329.7093568075121
 20
144.045986669172
 30
0.0
 40
2.75
  0
CIRCLE
  5
5713
330
1A
100
AcDbEntity
  8
0
100
AcDbCircle
 10
322.1164076418012
 20
143.9723072123058
 30
0.0
 40
2.75
  0
LINE
  5
5714
330
1A
100
AcDbEntity
  8
0
100
AcDbLine
 10
318.9164076418011
 20
146.9723072123058
 30
0.0
 11
325.3164076418011
 21
146.9723072123058
 31
0.0
  0
LINE
  5
5715
330
1A
100
AcDbEntity
  8
0
100
AcDbLine
 10
325.3164076418011
 20
140.9723072123058
 30
0.0
 11
318.9164076418011
 21
140.9723072123058
 31
0.0
  0
LINE
  5
5716
330
1A
100
AcDbEntity
  8
0
100
AcDbLine
 10
363.4285901852718
 20
141.0459866691721
 30
0.0
 11
357.0285901852718
 21
141.0459866691721
 31
0.0
  0
LINE
  5
5717
330
1A
100
AcDbEntity
  8
0
100
AcDbLine
 10
371.0583985297114
 20
141.0091469407389
 30
0.0
 11
364.6583985297115
 21
141.0091469407389
 31
0.0
  0
LINE
  5
5718
330
1A
100
AcDbEntity
  8
0
100
AcDbLine
 10
357.0285901852718
 20
147.0459866691721
 30
0.0
 11
363.4285901852718
 21
147.0459866691721
 31
0.0
  0
LINE
  5
5719
330
1A
100
AcDbEntity
  8
0
100
AcDbLine
 10
364.6583985297115
 20
147.0091469407389
 30
0.0
 11
371.0583985297114
 21
147.0091469407389
 31
0.0
  0
CIRCLE
  5
571A
330
1A
100
AcDbEntity
  8
0
100
AcDbCircle
 10
367.8583985297115
 20
144.0091469407389
 30
0.0
 40
2.75
  0
CIRCLE
  5
571B
330
1A
100
AcDbEntity
  8
0
100
AcDbCircle
 10
360.2285901852718
 20
144.0459866691721
 30
0.0
 40
2.75
  0
CIRCLE
  5
571C
330
1A
100
AcDbEntity
  8
0
100
AcDbCircle
 10
352.598781840832
 20
144.0459866691721
 30
0.0
 40
2.75
  0
LINE
  5
571D
330
1A
100
AcDbEntity
  8
0
100
AcDbLine
 10
349.3987818408319
 20
147.0459866691721
 30
0.0
 11
355.7987818408319
 21
147.0459866691721
 31
0.0
  0
LINE
  5
571E
330
1A
100
AcDbEntity
  8
0
100
AcDbLine
 10
355.7987818408319
 20
141.0459866691721
 30
0.0
 11
349.3987818408319
 21
141.0459866691721
 31
0.0
  0
LINE
  5
571F
330
1A
100
AcDbEntity
  8
0
100
AcDbLine
 10
379.86
 20
150.05
 30
0.0
 11
317.7599999999999
 21
150.05
 31
0.0
  0
LINE
  5
5720
330
1A
100
AcDbEntity
  8
0
100
AcDbLine
 10
318.92
 20
139.509146940739
 30
0.0
 11
318.92
 21
150.05
 31
0.0
  0
LINE
  5
5721
330
1A
100
AcDbEntity
  8
0
100
AcDbLine
 10
332.9093568075121
 20
141.045986669172
 30
0.0
 11
326.509356807512
 21
141.045986669172
 31
0.0
  0
LINE
  5
5722
330
1A
100
AcDbEntity
  8
0
100
AcDbLine
 10
348.2058326751205
 20
141.082826397605
 30
0.0
 11
341.8058326751205
 21
141.082826397605
 31
0.0
  0
LINE
  5
5723
330
1A
100
AcDbEntity
  8
0
100
AcDbLine
 10
340.5760243306807
 20
141.0091469407388
 30
0.0
 11
334.1760243306806
 21
141.0091469407388
 31
0.0
  0
LINE
  5
5724
330
1A
100
AcDbEntity
  8
0
100
AcDbLine
 10
326.509356807512
 20
147.045986669172
 30
0.0
 11
332.9093568075121
 21
147.045986669172
 31
0.0
  0
LINE
  5
5725
330
1A
100
AcDbEntity
  8
0
100
AcDbLine
 10
341.8058326751205
 20
147.082826397605
 30
0.0
 11
348.2058326751205
 21
147.082826397605
 31
0.0
  0
LINE
  5
5726
330
1A
100
AcDbEntity
  8
0
100
AcDbLine
 10
334.1760243306806
 20
147.0091469407388
 30
0.0
 11
340.5760243306807
 21
147.0091469407388
 31
0.0
  0
CIRCLE
  5
5727
330
1A
100
AcDbEntity
  8
0
100
AcDbCircle
 10
329.7093568075121
 20
144.045986669172
 30
0.0
 40
2.75
  0
CIRCLE
  5
5728
330
1A
100
AcDbEntity
  8
0
100
AcDbCircle
 10
337.3760243306807
 20
144.0091469407388
 30
0.0
 40
2.75
  0
CIRCLE
  5
5729
330
1A
100
AcDbEntity
  8
0
100
AcDbCircle
 10
345.0058326751206
 20
144.082826397605
 30
0.0
 40
2.75
  0
LINE
  5
572A
330
1A
100
AcDbEntity
  8
0
100
AcDbLine
 10
325.32
 20
139.509146940739
 30
0.0
 11
325.32
 21
150.05
 31
0.0
  0
LINE
  5
572B
330
1A
100
AcDbEntity
  8
0
100
AcDbLine
 10
332.94
 20
139.509146940739
 30
0.0
 11
332.94
 21
150.05
 31
0.0
  0
LINE
  5
572C
330
1A
100
AcDbEntity
  8
0
100
AcDbLine
 10
340.56
 20
139.509146940739
 30
0.0
 11
340.56
 21
150.05
 31
0.0
  0
LINE
  5
572D
330
1A
100
AcDbEntity
  8
0
100
AcDbLine
 10
348.18
 20
139.509146940739
 30
0.0
 11
348.18
 21
150.05
 31
0.0
  0
LINE
  5
572E
330
1A
100
AcDbEntity
  8
0
100
AcDbLine
 10
326.54
 20
139.509146940739
 30
0.0
 11
326.54
 21
150.05
 31
0.0
  0
LINE
  5
572F
330
1A
100
AcDbEntity
  8
0
100
AcDbLine
 10
334.16
 20
139.509146940739
 30
0.0
 11
334.16
 21
150.05
 31
0.0
  0
LINE
  5
5730
330
1A
100
AcDbEntity
  8
0
100
AcDbLine
 10
341.78
 20
139.509146940739
 30
0.0
 11
341.78
 21
150.05
 31
0.0
  0
LINE
  5
5731
330
1A
100
AcDbEntity
  8
0
100
AcDbLine
 10
349.4
 20
139.509146940739
 30
0.0
 11
349.4
 21
150.05
 31
0.0
  0
LINE
  5
5732
330
1A
100
AcDbEntity
  8
0
100
AcDbLine
 10
325.3164076418011
 20
140.9723072123058
 30
0.0
 11
318.9164076418011
 21
140.9723072123058
 31
0.0
  0
LINE
  5
5733
330
1A
100
AcDbEntity
  8
0
100
AcDbLine
 10
318.9164076418011
 20
146.9723072123058
 30
0.0
 11
325.3164076418011
 21
146.9723072123058
 31
0.0
  0
CIRCLE
  5
5734
330
1A
100
AcDbEntity
  8
0
100
AcDbCircle
 10
322.1164076418012
 20
143.9723072123058
 30
0.0
 40
2.75
  0
LINE
  5
5735
330
1A
100
AcDbEntity
  8
0
100
AcDbLine
 10
363.4285901852718
 20
141.0459866691721
 30
0.0
 11
357.0285901852718
 21
141.0459866691721
 31
0.0
  0
LINE
  5
5736
330
1A
100
AcDbEntity
  8
0
100
AcDbLine
 10
371.0583985297114
 20
141.0091469407389
 30
0.0
 11
364.6583985297115
 21
141.0091469407389
 31
0.0
  0
LINE
  5
5737
330
1A
100
AcDbEntity
  8
0
100
AcDbLine
 10
357.0285901852718
 20
147.0459866691721
 30
0.0
 11
363.4285901852718
 21
147.0459866691721
 31
0.0
  0
LINE
  5
5738
330
1A
100
AcDbEntity
  8
0
100
AcDbLine
 10
364.6583985297115
 20
147.0091469407389
 30
0.0
 11
371.0583985297114
 21
147.0091469407389
 31
0.0
  0
CIRCLE
  5
5739
330
1A
100
AcDbEntity
  8
0
100
AcDbCircle
 10
360.2285901852718
 20
144.0459866691721
 30
0.0
 40
2.75
  0
CIRCLE
  5
573A
330
1A
100
AcDbEntity
  8
0
100
AcDbCircle
 10
367.8583985297115
 20
144.0091469407389
 30
0.0
 40
2.75
  0
LINE
  5
573B
330
1A
100
AcDbEntity
  8
0
100
AcDbLine
 10
355.8
 20
139.509146940739
 30
0.0
 11
355.8
 21
150.05
 31
0.0
  0
LINE
  5
573C
330
1A
100
AcDbEntity
  8
0
100
AcDbLine
 10
363.42
 20
139.5091469407389
 30
0.0
 11
363.42
 21
150.05
 31
0.0
  0
LINE
  5
573D
330
1A
100
AcDbEntity
  8
0
100
AcDbLine
 10
371.04
 20
139.5091469407389
 30
0.0
 11
371.04
 21
150.05
 31
0.0
  0
LINE
  5
573E
330
1A
100
AcDbEntity
  8
0
100
AcDbLine
 10
357.02
 20
139.5091469407389
 30
0.0
 11
357.02
 21
150.05
 31
0.0
  0
LINE
  5
573F
330
1A
100
AcDbEntity
  8
0
100
AcDbLine
 10
364.64
 20
139.5091469407389
 30
0.0
 11
364.64
 21
150.05
 31
0.0
  0
LINE
  5
5740
330
1A
100
AcDbEntity
  8
0
100
AcDbLine
 10
372.26
 20
139.5091469407389
 30
0.0
 11
372.26
 21
150.05
 31
0.0
  0
LINE
  5
5741
330
1A
100
AcDbEntity
  8
0
100
AcDbLine
 10
378.66
 20
139.5091469407389
 30
0.0
 11
378.66
 21
150.05
 31
0.0
  0
LINE
  5
5742
330
1A
100
AcDbEntity
  8
0
100
AcDbLine
 10
379.86
 20
139.5091469407389
 30
0.0
 11
379.86
 21
150.05
 31
0.0
  0
LINE
  5
5743
330
1A
100
AcDbEntity
  8
0
100
AcDbLine
 10
379.86
 20
150.05
 30
0.0
 11
317.7599999999999
 21
150.05
 31
0.0
  0
LINE
  5
5744
330
1A
100
AcDbEntity
  8
0
100
AcDbLine
 10
355.7987818408319
 20
141.0459866691721
 30
0.0
 11
349.3987818408319
 21
141.0459866691721
 31
0.0
  0
LINE
  5
5745
330
1A
100
AcDbEntity
  8
0
100
AcDbLine
 10
349.3987818408319
 20
147.0459866691721
 30
0.0
 11
355.7987818408319
 21
147.0459866691721
 31
0.0
  0
CIRCLE
  5
5746
330
1A
100
AcDbEntity
  8
0
100
AcDbCircle
 10
352.598781840832
 20
144.0459866691721
 30
0.0
 40
2.75
  0
LINE
  5
5756
102
{ACAD_REACTORS
330
5762
102
}
330
1A
100
AcDbEntity
  8
0
100
AcDbLine
 10
305.75
 20
167.8
 30
0.0
 11
384.25
 21
167.8
 31
0.0
  0
LINE
  5
5757
102
{ACAD_REACTORS
330
5762
102
}
330
1A
100
AcDbEntity
  8
0
100
AcDbLine
 10
305.75
 20
124.3
 30
0.0
 11
384.25
 21
124.3
 31
0.0
  0
LINE
  5
5758
102
{ACAD_REACTORS
330
5762
102
}
330
1A
100
AcDbEntity
  8
0
100
AcDbLine
 10
305.75
 20
167.8
 30
0.0
 11
305.75
 21
124.3
 31
0.0
  0
LINE
  5
5759
102
{ACAD_REACTORS
330
5762
102
}
330
1A
100
AcDbEntity
  8
0
100
AcDbLine
 10
384.25
 20
167.8
 30
0.0
 11
384.25
 21
124.3
 31
0.0
  0
HATCH
  5
575A
330
1A
100
AcDbEntity
  8
0
100
AcDbHatch
 10
0.0
 20
0.0
 30
0.0
210
0.0
220
0.0
230
1.0
  2
SOLID
 70
     1
 71
     1
 91
        2
 92
        1
 93
        4
 72
     1
 10
378.75
 20
137.3
 11
378.75
 21
132.3
 72
     1
 10
378.75
 20
132.3
 11
382.25
 21
132.3
 72
     1
 10
382.25
 20
132.3
 11
382.25
 21
137.3
 72
     1
 10
382.25
 20
137.3
 11
378.75
 21
137.3
 97
        4
330
5688
330
5675
330
5687
330
5674
 92
        1
 93
        4
 72
     1
 10
382.25
 20
131.3
 11
378.75
 21
131.3
 72
     1
 10
378.75
 20
131.3
 11
378.75
 21
126.3
 72
     1
 10
378.75
 20
126.3
 11
382.25
 21
126.3
 72
     1
 10
382.25
 20
126.3
 11
382.25
 21
131.3
 97
        4
330
5676
330
567B
330
5677
330
5686
 75
     0
 76
     1
 98
        1
 10
144.5
 20
209.3
  0
HATCH
  5
5761
330
1A
100
AcDbEntity
  8
0
100
AcDbHatch
 10
0.0
 20
0.0
 30
0.0
210
0.0
220
0.0
230
1.0
  2
SOLID
 70
     1
 71
     1
 91
        1
 92
        7
 72
     0
 73
     1
 93
        4
 10
358.5
 20
159.3
 10
358.5
 20
155.3
 10
380.5
 20
155.3
 10
380.5
 20
159.3
 97
        4
330
56DE
330
56E1
330
56E0
330
56DF
 75
     0
 76
     1
 47
0.0923154759186901
 98
        1
 10
363.8482138731562
 20
157.6980120938482
  0
HATCH
  5
5762
330
1A
100
AcDbEntity
  8
0
100
AcDbHatch
 10
0.0
 20
0.0
 30
0.0
210
0.0
220
0.0
230
1.0
  2
SOLID
 70
     1
 71
     1
 91
        2
 92
        1
 93
        4
 72
     1
 10
305.75
 20
124.3
 11
384.25
 21
124.3
 72
     1
 10
384.25
 20
124.3
 11
384.25
 21
167.8
 72
     1
 10
384.25
 20
167.8
 11
305.75
 21
167.8
 72
     1
 10
305.75
 20
167.8
 11
305.75
 21
124.3
 97
        4
330
5757
330
5759
330
5756
330
5758
 92
       16
 93
        4
 72
     1
 10
383.25
 20
125.3
 11
306.75
 21
125.3
 72
     1
 10
306.75
 20
125.3
 11
306.75
 21
166.8
 72
     1
 10
306.75
 20
166.8
 11
383.25
 21
166.8
 72
     1
 10
383.25
 20
166.8
 11
383.25
 21
125.3
 97
        4
330
56E7
330
56D4
330
56D3
330
56D5
 75
     0
 76
     1
 98
        1
 10
144.5
 20
209.3
  0
LINE
  5
5763
330
1A
100
AcDbEntity
  8
0
100
AcDbLine
 10
380.9
 20
109.9000000000001
 30
0.0
 11
380.9
 21
116.5000000000002
 31
0.0
  0
LINE
  5
5764
330
1A
100
AcDbEntity
  8
0
100
AcDbLine
 10
390.25
 20
116.5
 30
0.0
 11
390.25
 21
117.7000000000001
 31
0.0
  0
LINE
  5
5765
330
1A
100
AcDbEntity
  8
0
100
AcDbLine
 10
299.75
 20
116.5
 30
0.0
 11
390.25
 21
116.5
 31
0.0
  0
LINE
  5
5766
330
1A
100
AcDbEntity
  8
0
100
AcDbLine
 10
299.75
 20
117.7000000000001
 30
0.0
 11
299.75
 21
116.5
 31
0.0
  0
LINE
  5
5767
330
1A
100
AcDbEntity
  8
0
100
AcDbLine
 10
390.25
 20
117.7000000000001
 30
0.0
 11
299.75
 21
117.7000000000001
 31
0.0
  0
LINE
  5
5768
330
1A
100
AcDbEntity
  8
0
100
AcDbLine
 10
393.0
 20
226.5
 30
0.0
 11
297.0
 21
226.5
 31
0.0
  0
LINE
  5
5769
330
1A
100
AcDbEntity
  8
0
100
AcDbLine
 10
393.0
 20
226.5
 30
0.0
 11
393.0
 21
220.8
 31
0.0
  0
LINE
  5
576A
330
1A
100
AcDbEntity
  8
0
100
AcDbLine
 10
390.5
 20
220.8
 30
0.0
 11
390.5
 21
117.8
 31
0.0
  0
LINE
  5
576B
330
1A
100
AcDbEntity
  8
0
100
AcDbLine
 10
299.5
 20
220.8000000000001
 30
0.0
 11
299.5
 21
117.8
 31
0.0
  0
LINE
  5
576C
330
1A
100
AcDbEntity
  8
0
100
AcDbLine
 10
297.0
 20
226.5
 30
0.0
 11
297.0
 21
220.8
 31
0.0
  0
LINE
  5
576D
330
1A
100
AcDbEntity
  8
0
100
AcDbLine
 10
393.0
 20
220.5
 30
0.0
 11
390.5
 21
220.5
 31
0.0
  0
LINE
  5
576E
330
1A
100
AcDbEntity
  8
0
100
AcDbLine
 10
393.0
 20
220.5
 30
0.0
 11
393.0
 21
221.3
 31
0.0
  0
LINE
  5
576F
330
1A
100
AcDbEntity
  8
0
100
AcDbLine
 10
297.0
 20
221.3
 30
0.0
 11
297.0
 21
220.5
 31
0.0
  0
LINE
  5
5770
330
1A
100
AcDbEntity
  8
0
100
AcDbLine
 10
299.5
 20
220.5
 30
0.0
 11
297.0
 21
220.5
 31
0.0
  0
LINE
  5
5771
330
1A
100
AcDbEntity
  8
0
100
AcDbLine
 10
393.0
 20
220.8
 30
0.0
 11
297.0
 21
220.8
 31
0.0
  0
LINE
  5
5772
330
1A
100
AcDbEntity
  8
0
100
AcDbLine
 10
390.5
 20
117.8000000000001
 30
0.0
 11
299.5
 21
117.8
 31
0.0
  0
ELLIPSE
  5
5775
330
1A
100
AcDbEntity
  8
0
100
AcDbEllipse
 10
304.9999999999999
 20
112.9833334456178
 30
0.0
 11
2.296666648999985
 21
-0.0000000000000004
 31
0.0
210
0.0
220
0.0
230
0.9999999999999998
 40
0.5962264589045851
 41
2.81960193203065
 42
6.605176028738728
  0
LINE
  5
5776
330
1A
100
AcDbEntity
  8
0
100
AcDbLine
 10
302.486666686
 20
114.5000000000002
 30
0.0
 11
307.513333314
 21
114.5000000000002
 31
0.0
  0
LINE
  5
5777
330
1A
100
AcDbEntity
  8
0
100
AcDbLine
 10
302.486666686
 20
114.0666666700002
 30
0.0
 11
307.513333314
 21
114.0666666700002
 31
0.0
  0
LINE
  5
5778
330
1A
100
AcDbEntity
  8
0
100
AcDbLine
 10
302.703333351
 20
113.416666675
 30
0.0
 11
307.2966666489999
 21
113.4166666750001
 31
0.0
  0
LINE
  5
5779
330
1A
100
AcDbEntity
  8
0
100
AcDbLine
 10
302.486666686
 20
114.0666666700002
 30
0.0
 11
302.486666686
 21
114.5
 31
0.0
  0
LINE
  5
577A
330
1A
100
AcDbEntity
  8
0
100
AcDbLine
 10
302.703333351
 20
113.4166666750001
 30
0.0
 11
302.703333351
 21
114.0666666700002
 31
0.0
  0
LINE
  5
577B
330
1A
100
AcDbEntity
  8
0
100
AcDbLine
 10
307.5133333139999
 20
114.0666666700002
 30
0.0
 11
307.513333314
 21
114.5000000000002
 31
0.0
  0
LINE
  5
577C
330
1A
100
AcDbEntity
  8
0
100
AcDbLine
 10
307.2966666489999
 20
113.4166666750001
 30
0.0
 11
307.2966666489999
 21
114.0666666700002
 31
0.0
  0
LINE
  5
577D
330
1A
100
AcDbEntity
  8
0
100
AcDbLine
 10
304.8082508110689
 20
114.0666666700002
 30
0.0
 11
305.4582508060689
 21
113.4166666750001
 31
0.0
  0
LINE
  5
577E
330
1A
100
AcDbEntity
  8
0
100
AcDbLine
 10
304.5018378749118
 20
114.0666666700002
 30
0.0
 11
305.1518378699118
 21
113.4166666750001
 31
0.0
  0
ELLIPSE
  5
577F
330
1A
100
AcDbEntity
  8
0
100
AcDbEllipse
 10
385.0
 20
112.9833334456178
 30
0.0
 11
2.296666649000042
 21
-0.0000000000000417
 31
0.0
210
0.0
220
0.0
230
-1.0
 40
0.5962264589045679
 41
-0.3219907215591469
 42
3.463583375148879
  0
LINE
  5
5780
330
1A
100
AcDbEntity
  8
0
100
AcDbLine
 10
387.5133333140001
 20
114.5
 30
0.0
 11
382.4866666859999
 21
114.5
 31
0.0
  0
LINE
  5
5781
330
1A
100
AcDbEntity
  8
0
100
AcDbLine
 10
387.5133333140001
 20
114.0666666700002
 30
0.0
 11
382.4866666859999
 21
114.0666666700002
 31
0.0
  0
LINE
  5
5782
330
1A
100
AcDbEntity
  8
0
100
AcDbLine
 10
387.296666649
 20
113.416666675
 30
0.0
 11
382.703333351
 21
113.4166666750001
 31
0.0
  0
LINE
  5
5783
330
1A
100
AcDbEntity
  8
0
100
AcDbLine
 10
387.5133333140001
 20
114.0666666700002
 30
0.0
 11
387.5133333140001
 21
114.5
 31
0.0
  0
LINE
  5
5784
330
1A
100
AcDbEntity
  8
0
100
AcDbLine
 10
387.296666649
 20
113.4166666750001
 30
0.0
 11
387.296666649
 21
114.0666666700002
 31
0.0
  0
LINE
  5
5785
330
1A
100
AcDbEntity
  8
0
100
AcDbLine
 10
382.4866666859999
 20
114.0666666700002
 30
0.0
 11
382.4866666859999
 21
114.5
 31
0.0
  0
LINE
  5
5786
330
1A
100
AcDbEntity
  8
0
100
AcDbLine
 10
382.703333351
 20
113.4166666750001
 30
0.0
 11
382.703333351
 21
114.0666666700002
 31
0.0
  0
LINE
  5
5787
330
1A
100
AcDbEntity
  8
0
100
AcDbLine
 10
385.191749188931
 20
114.0666666700002
 30
0.0
 11
384.541749193931
 21
113.4166666750001
 31
0.0
  0
LINE
  5
5788
330
1A
100
AcDbEntity
  8
0
100
AcDbLine
 10
385.4981621250881
 20
114.0666666700002
 30
0.0
 11
384.8481621300881
 21
113.4166666750001
 31
0.0
  0
LINE
  5
57B2
330
1A
100
AcDbEntity
  8
0
100
AcDbLine
 10
311.32
 20
100.9000000000001
 30
0.0
 11
310.12
 21
100.9000000000001
 31
0.0
  0
LINE
  5
57B3
330
1A
100
AcDbEntity
  8
0
100
AcDbLine
 10
317.72
 20
113.4000000000001
 30
0.0
 11
311.32
 21
113.4000000000001
 31
0.0
  0
LINE
  5
57B4
330
1A
100
AcDbEntity
  8
0
100
AcDbLine
 10
311.92
 20
109.9000000000001
 30
0.0
 11
311.92
 21
107.4000000000001
 31
0.0
  0
LINE
  5
57B5
330
1A
100
AcDbEntity
  8
0
100
AcDbLine
 10
317.22
 20
107.3999999999999
 30
0.0
 11
317.22
 21
109.9000000000001
 31
0.0
  0
LINE
  5
57B6
330
1A
100
AcDbEntity
  8
0
100
AcDbLine
 10
317.22
 20
107.4000000000001
 30
0.0
 11
311.92
 21
107.4000000000001
 31
0.0
  0
ELLIPSE
  5
57B7
330
1A
100
AcDbEntity
  8
0
100
AcDbEllipse
 10
314.52
 20
106.6000000000002
 30
0.0
 11
-2.399999999999978
 21
0.0000000000000027
 31
0.0
210
0.0
220
0.0
230
-1.0
 40
0.5416666666666527
 41
2.478718829939671
 42
6.946059130829821
  0
LINE
  5
57B8
330
1A
100
AcDbEntity
  8
0
100
AcDbLine
 10
317.22
 20
108.9000000000001
 30
0.0
 11
311.92
 21
108.9000000000001
 31
0.0
  0
LINE
  5
57B9
330
1A
100
AcDbEntity
  8
0
100
AcDbLine
 10
317.72
 20
109.9000000000001
 30
0.0
 11
311.32
 21
109.9000000000001
 31
0.0
  0
LINE
  5
57BA
330
1A
100
AcDbEntity
  8
0
100
AcDbLine
 10
311.32
 20
100.9000000000001
 30
0.0
 11
311.32
 21
113.4
 31
0.0
  0
LINE
  5
57BB
330
1A
100
AcDbEntity
  8
0
100
AcDbLine
 10
317.72
 20
100.9000000000001
 30
0.0
 11
317.72
 21
113.4000000000001
 31
0.0
  0
LINE
  5
57BC
330
1A
100
AcDbEntity
  8
SUNPOU
100
AcDbLine
 10
309.1199999999999
 20
99.10000000000019
 30
0.0
 11
380.8799999999999
 21
99.10000000000019
 31
0.0
  0
LINE
  5
57BD
330
1A
100
AcDbEntity
  8
SUNPOU
100
AcDbLine
 10
309.1199999999999
 20
102.9000000000001
 30
0.0
 11
380.8799999999999
 21
102.9000000000001
 31
0.0
  0
LINE
  5
57BE
330
1A
100
AcDbEntity
  8
0
100
AcDbLine
 10
380.9000000000001
 20
116.5000000000002
 30
0.0
 11
380.9
 21
109.9000000000001
 31
0.0
  0
LINE
  5
57BF
330
1A
100
AcDbEntity
  8
0
100
AcDbLine
 10
379.9
 20
100.9000000000001
 30
0.0
 11
379.9000000000001
 21
116.5000000000002
 31
0.0
  0
LINE
  5
57C0
330
1A
100
AcDbEntity
  8
SUNPOU
100
AcDbLine
 10
380.8799999999999
 20
102.9000000000001
 30
0.0
 11
380.8799999999999
 21
99.10000000000009
 31
0.0
  0
LINE
  5
57C1
330
1A
100
AcDbEntity
  8
0
100
AcDbLine
 10
379.9
 20
100.9000000000001
 30
0.0
 11
378.6800000000001
 21
100.9000000000001
 31
0.0
  0
LINE
  5
57C2
330
1A
100
AcDbEntity
  8
0
100
AcDbLine
 10
378.6800000000001
 20
109.9000000000001
 30
0.0
 11
380.9
 21
109.9000000000001
 31
0.0
  0
LINE
  5
57C3
330
1A
100
AcDbEntity
  8
0
100
AcDbLine
 10
310.1199999999999
 20
100.9000000000001
 30
0.0
 11
310.12
 21
116.5000000000002
 31
0.0
  0
LINE
  5
57C4
330
1A
100
AcDbEntity
  8
0
100
AcDbLine
 10
309.1
 20
116.5000000000002
 30
0.0
 11
309.1
 21
109.9000000000001
 31
0.0
  0
LINE
  5
57C5
330
1A
100
AcDbEntity
  8
0
100
AcDbLine
 10
332.9600000000001
 20
100.9000000000001
 30
0.0
 11
332.9600000000001
 21
113.4000000000001
 31
0.0
  0
LINE
  5
57C6
330
1A
100
AcDbEntity
  8
0
100
AcDbLine
 10
334.18
 20
100.9000000000001
 30
0.0
 11
334.18
 21
113.4000000000001
 31
0.0
  0
LINE
  5
57C7
330
1A
100
AcDbEntity
  8
0
100
AcDbLine
 10
325.34
 20
100.9000000000001
 30
0.0
 11
325.34
 21
113.4000000000001
 31
0.0
  0
LINE
  5
57C8
330
1A
100
AcDbEntity
  8
0
100
AcDbLine
 10
326.56
 20
100.9000000000001
 30
0.0
 11
326.56
 21
113.4000000000001
 31
0.0
  0
LINE
  5
57C9
330
1A
100
AcDbEntity
  8
0
100
AcDbLine
 10
318.94
 20
100.9000000000001
 30
0.0
 11
318.94
 21
113.4
 31
0.0
  0
LINE
  5
57CA
330
1A
100
AcDbEntity
  8
0
100
AcDbLine
 10
378.6800000000001
 20
100.9000000000001
 30
0.0
 11
378.6800000000001
 21
113.4000000000001
 31
0.0
  0
LINE
  5
57CB
330
1A
100
AcDbEntity
  8
0
100
AcDbLine
 10
372.2800000000001
 20
100.9000000000001
 30
0.0
 11
372.2800000000001
 21
113.4
 31
0.0
  0
LINE
  5
57CC
330
1A
100
AcDbEntity
  8
0
100
AcDbLine
 10
340.5800000000001
 20
100.9000000000001
 30
0.0
 11
340.5800000000001
 21
113.4000000000001
 31
0.0
  0
LINE
  5
57CD
330
1A
100
AcDbEntity
  8
0
100
AcDbLine
 10
340.5800000000001
 20
109.9000000000001
 30
0.0
 11
334.18
 21
109.9000000000001
 31
0.0
  0
LINE
  5
57CE
330
1A
100
AcDbEntity
  8
0
100
AcDbLine
 10
340.0600000000001
 20
108.9000000000001
 30
0.0
 11
334.76
 21
108.9000000000001
 31
0.0
  0
ELLIPSE
  5
57CF
330
1A
100
AcDbEntity
  8
0
100
AcDbEllipse
 10
337.36
 20
106.6000000000002
 30
0.0
 11
-2.399999999999985
 21
0.0000000000000094
 31
0.0
210
0.0
220
0.0
230
-1.0
 40
0.5416666666666511
 41
2.478718829939666
 42
6.946059130829823
  0
LINE
  5
57D0
330
1A
100
AcDbEntity
  8
0
100
AcDbLine
 10
340.0600000000001
 20
107.4000000000001
 30
0.0
 11
334.76
 21
107.4
 31
0.0
  0
LINE
  5
57D1
330
1A
100
AcDbEntity
  8
0
100
AcDbLine
 10
378.6800000000001
 20
109.9000000000001
 30
0.0
 11
372.2800000000001
 21
109.9000000000001
 31
0.0
  0
LINE
  5
57D2
330
1A
100
AcDbEntity
  8
0
100
AcDbLine
 10
378.18
 20
108.9000000000001
 30
0.0
 11
372.88
 21
108.9000000000001
 31
0.0
  0
ELLIPSE
  5
57D3
330
1A
100
AcDbEntity
  8
0
100
AcDbEllipse
 10
375.48
 20
106.6000000000002
 30
0.0
 11
-2.399999999999985
 21
0.0000000000000094
 31
0.0
210
0.0
220
0.0
230
-1.0
 40
0.5416666666666511
 41
2.478718829939666
 42
6.946059130829823
  0
LINE
  5
57D4
330
1A
100
AcDbEntity
  8
0
100
AcDbLine
 10
378.18
 20
107.4000000000001
 30
0.0
 11
372.88
 21
107.4000000000001
 31
0.0
  0
LINE
  5
57D5
330
1A
100
AcDbEntity
  8
0
100
AcDbLine
 10
378.18
 20
107.4
 30
0.0
 11
378.18
 21
109.9000000000001
 31
0.0
  0
LINE
  5
57D6
330
1A
100
AcDbEntity
  8
0
100
AcDbLine
 10
341.8000000000001
 20
100.9000000000001
 30
0.0
 11
340.5800000000001
 21
100.9000000000001
 31
0.0
  0
LINE
  5
57D7
330
1A
100
AcDbEntity
  8
0
100
AcDbLine
 10
372.88
 20
109.9000000000001
 30
0.0
 11
372.88
 21
107.4000000000001
 31
0.0
  0
LINE
  5
57D8
330
1A
100
AcDbEntity
  8
0
100
AcDbLine
 10
340.0600000000001
 20
107.4
 30
0.0
 11
340.0600000000001
 21
109.9000000000001
 31
0.0
  0
LINE
  5
57D9
330
1A
100
AcDbEntity
  8
0
100
AcDbLine
 10
325.34
 20
109.9000000000001
 30
0.0
 11
318.94
 21
109.9000000000001
 31
0.0
  0
LINE
  5
57DA
330
1A
100
AcDbEntity
  8
0
100
AcDbLine
 10
324.84
 20
108.9000000000001
 30
0.0
 11
319.54
 21
108.9000000000001
 31
0.0
  0
ELLIPSE
  5
57DB
330
1A
100
AcDbEntity
  8
0
100
AcDbEllipse
 10
322.14
 20
106.6000000000002
 30
0.0
 11
-2.399999999999978
 21
0.0000000000000027
 31
0.0
210
0.0
220
0.0
230
-1.0
 40
0.5416666666666527
 41
2.478718829939671
 42
6.946059130829821
  0
LINE
  5
57DC
330
1A
100
AcDbEntity
  8
0
100
AcDbLine
 10
324.84
 20
107.4000000000001
 30
0.0
 11
319.54
 21
107.4000000000001
 31
0.0
  0
LINE
  5
57DD
330
1A
100
AcDbEntity
  8
0
100
AcDbLine
 10
334.18
 20
100.9
 30
0.0
 11
332.9600000000001
 21
100.9000000000001
 31
0.0
  0
LINE
  5
57DE
330
1A
100
AcDbEntity
  8
0
100
AcDbLine
 10
326.56
 20
100.9000000000001
 30
0.0
 11
325.34
 21
100.9000000000001
 31
0.0
  0
LINE
  5
57DF
330
1A
100
AcDbEntity
  8
0
100
AcDbLine
 10
324.84
 20
107.3999999999999
 30
0.0
 11
324.84
 21
109.9000000000001
 31
0.0
  0
LINE
  5
57E0
330
1A
100
AcDbEntity
  8
0
100
AcDbLine
 10
332.46
 20
107.3999999999999
 30
0.0
 11
332.46
 21
109.9000000000001
 31
0.0
  0
LINE
  5
57E1
330
1A
100
AcDbEntity
  8
0
100
AcDbLine
 10
334.76
 20
109.9000000000001
 30
0.0
 11
334.76
 21
107.4
 31
0.0
  0
LINE
  5
57E2
330
1A
100
AcDbEntity
  8
0
100
AcDbLine
 10
327.16
 20
109.9000000000001
 30
0.0
 11
327.16
 21
107.4000000000001
 31
0.0
  0
LINE
  5
57E3
330
1A
100
AcDbEntity
  8
0
100
AcDbLine
 10
332.9600000000001
 20
109.9000000000001
 30
0.0
 11
326.56
 21
109.9000000000001
 31
0.0
  0
LINE
  5
57E4
330
1A
100
AcDbEntity
  8
0
100
AcDbLine
 10
332.46
 20
108.9000000000001
 30
0.0
 11
327.16
 21
108.9000000000001
 31
0.0
  0
ELLIPSE
  5
57E5
330
1A
100
AcDbEntity
  8
0
100
AcDbEllipse
 10
329.76
 20
106.6000000000002
 30
0.0
 11
-2.399999999999978
 21
0.0000000000000027
 31
0.0
210
0.0
220
0.0
230
-1.0
 40
0.5416666666666527
 41
2.478718829939671
 42
6.946059130829821
  0
LINE
  5
57E6
330
1A
100
AcDbEntity
  8
0
100
AcDbLine
 10
332.46
 20
107.4000000000001
 30
0.0
 11
327.16
 21
107.4000000000001
 31
0.0
  0
LINE
  5
57E7
330
1A
100
AcDbEntity
  8
SUNPOU
100
AcDbLine
 10
309.1199999999999
 20
102.9000000000001
 30
0.0
 11
309.1199999999999
 21
99.10000000000019
 31
0.0
  0
LINE
  5
57E8
330
1A
100
AcDbEntity
  8
0
100
AcDbLine
 10
318.94
 20
100.9000000000001
 30
0.0
 11
317.74
 21
100.9000000000001
 31
0.0
  0
LINE
  5
57E9
330
1A
100
AcDbEntity
  8
0
100
AcDbLine
 10
310.1199999999999
 20
109.9000000000001
 30
0.0
 11
309.1
 21
109.9000000000001
 31
0.0
  0
LINE
  5
57EA
330
1A
100
AcDbEntity
  8
0
100
AcDbLine
 10
319.54
 20
109.9000000000001
 30
0.0
 11
319.54
 21
107.4000000000001
 31
0.0
  0
LINE
  5
57EB
330
1A
100
AcDbEntity
  8
0
100
AcDbLine
 10
340.5800000000001
 20
113.4000000000001
 30
0.0
 11
334.18
 21
113.4000000000001
 31
0.0
  0
LINE
  5
57EC
330
1A
100
AcDbEntity
  8
0
100
AcDbLine
 10
378.6800000000001
 20
113.4000000000001
 30
0.0
 11
372.2800000000001
 21
113.4000000000001
 31
0.0
  0
LINE
  5
57ED
330
1A
100
AcDbEntity
  8
0
100
AcDbLine
 10
325.34
 20
113.4000000000001
 30
0.0
 11
318.94
 21
113.4000000000001
 31
0.0
  0
LINE
  5
57EE
330
1A
100
AcDbEntity
  8
0
100
AcDbLine
 10
332.9600000000001
 20
113.4000000000001
 30
0.0
 11
326.56
 21
113.4000000000001
 31
0.0
  0
INSERT
  5
591C
330
1A
100
AcDbEntity
  8
0
100
AcDbBlockReference
  2
Side-plate
 10
299.5
 20
116.5
 30
0.0
 50
270.0
  0
INSERT
  5
591D
330
1A
100
AcDbEntity
  8
0
100
AcDbBlockReference
  2
Side-plate
 10
390.5
 20
116.4999999999999
 30
0.0
 41
-1.0
 50
90.0
  0
TEXT
  5
591E
330
1A
100
AcDbEntity
  8
0
100
AcDbText
 10
332.6500000249528
 20
82.50000023302197
 30
0.0
 40
3.999999992232601
  1
Top view
100
AcDbText
  0
LWPOLYLINE
  5
5925
330
1A
100
AcDbEntity
  8
0
100
AcDbPolyline
 90
        4
 70
     0
 43
0.0
 10
346.6111111111112
 20
226.5
 10
346.5
 20
228.5
 10
343.5
 20
228.5
 10
343.3888888888889
 20
226.5
  0
LINE
  5
5928
330
1A
100
AcDbEntity
  8
0
100
AcDbLine
 10
308.5
 20
117.7000000000001
 30
0.0
 11
308.5
 21
116.5000000000001
 31
0.0
  0
LINE
  5
5929
330
1A
100
AcDbEntity
  8
0
100
AcDbLine
 10
381.5
 20
117.7000000000001
 30
0.0
 11
381.5
 21
116.5
 31
0.0
  0
LINE
  5
592B
330
1A
100
AcDbEntity
  8
0
100
AcDbLine
 10
363.4400000000001
 20
113.4000000000001
 30
0.0
 11
357.0400000000001
 21
113.4000000000001
 31
0.0
  0
LINE
  5
592C
330
1A
100
AcDbEntity
  8
0
100
AcDbLine
 10
355.8200000000001
 20
113.4000000000001
 30
0.0
 11
349.4200000000001
 21
113.4000000000001
 31
0.0
  0
LINE
  5
592D
330
1A
100
AcDbEntity
  8
0
100
AcDbLine
 10
371.0600000000001
 20
113.4000000000001
 30
0.0
 11
364.6600000000001
 21
113.4000000000001
 31
0.0
  0
LINE
  5
592E
330
1A
100
AcDbEntity
  8
0
100
AcDbLine
 10
350.02
 20
109.9000000000001
 30
0.0
 11
350.02
 21
107.4000000000001
 31
0.0
  0
LINE
  5
592F
330
1A
100
AcDbEntity
  8
0
100
AcDbLine
 10
349.42
 20
100.9000000000001
 30
0.0
 11
348.22
 21
100.9000000000001
 31
0.0
  0
LINE
  5
5930
330
1A
100
AcDbEntity
  8
0
100
AcDbLine
 10
362.94
 20
107.4000000000001
 30
0.0
 11
357.64
 21
107.4000000000001
 31
0.0
  0
ELLIPSE
  5
5931
330
1A
100
AcDbEntity
  8
0
100
AcDbEllipse
 10
360.24
 20
106.6000000000002
 30
0.0
 11
-2.399999999999978
 21
0.0000000000000027
 31
0.0
210
0.0
220
0.0
230
-1.0
 40
0.5416666666666527
 41
2.478718829939671
 42
6.946059130829821
  0
LINE
  5
5932
330
1A
100
AcDbEntity
  8
0
100
AcDbLine
 10
362.94
 20
108.9000000000001
 30
0.0
 11
357.64
 21
108.9000000000001
 31
0.0
  0
LINE
  5
5933
330
1A
100
AcDbEntity
  8
0
100
AcDbLine
 10
363.4400000000001
 20
109.9000000000001
 30
0.0
 11
357.0400000000001
 21
109.9000000000001
 31
0.0
  0
LINE
  5
5934
330
1A
100
AcDbEntity
  8
0
100
AcDbLine
 10
357.64
 20
109.9000000000001
 30
0.0
 11
357.64
 21
107.4000000000001
 31
0.0
  0
LINE
  5
5935
330
1A
100
AcDbEntity
  8
0
100
AcDbLine
 10
365.24
 20
109.9000000000001
 30
0.0
 11
365.24
 21
107.4
 31
0.0
  0
LINE
  5
5936
330
1A
100
AcDbEntity
  8
0
100
AcDbLine
 10
362.94
 20
107.3999999999999
 30
0.0
 11
362.94
 21
109.9000000000001
 31
0.0
  0
LINE
  5
5937
330
1A
100
AcDbEntity
  8
0
100
AcDbLine
 10
355.32
 20
107.3999999999999
 30
0.0
 11
355.32
 21
109.9000000000001
 31
0.0
  0
LINE
  5
5938
330
1A
100
AcDbEntity
  8
0
100
AcDbLine
 10
357.0400000000001
 20
100.9000000000001
 30
0.0
 11
355.8200000000001
 21
100.9000000000001
 31
0.0
  0
LINE
  5
5939
330
1A
100
AcDbEntity
  8
0
100
AcDbLine
 10
364.6600000000001
 20
100.9
 30
0.0
 11
363.4400000000001
 21
100.9000000000001
 31
0.0
  0
LINE
  5
593A
330
1A
100
AcDbEntity
  8
0
100
AcDbLine
 10
355.32
 20
107.4000000000001
 30
0.0
 11
350.02
 21
107.4000000000001
 31
0.0
  0
ELLIPSE
  5
593B
330
1A
100
AcDbEntity
  8
0
100
AcDbEllipse
 10
352.62
 20
106.6000000000002
 30
0.0
 11
-2.399999999999978
 21
0.0000000000000027
 31
0.0
210
0.0
220
0.0
230
-1.0
 40
0.5416666666666527
 41
2.478718829939671
 42
6.946059130829821
  0
LINE
  5
593C
330
1A
100
AcDbEntity
  8
0
100
AcDbLine
 10
355.32
 20
108.9000000000001
 30
0.0
 11
350.02
 21
108.9000000000001
 31
0.0
  0
LINE
  5
593D
330
1A
100
AcDbEntity
  8
0
100
AcDbLine
 10
355.8200000000001
 20
109.9000000000001
 30
0.0
 11
349.4200000000001
 21
109.9000000000001
 31
0.0
  0
LINE
  5
593E
330
1A
100
AcDbEntity
  8
0
100
AcDbLine
 10
370.5400000000001
 20
107.4
 30
0.0
 11
370.5400000000001
 21
109.9000000000001
 31
0.0
  0
LINE
  5
593F
330
1A
100
AcDbEntity
  8
0
100
AcDbLine
 10
372.2800000000001
 20
100.9000000000001
 30
0.0
 11
371.0600000000001
 21
100.9000000000001
 31
0.0
  0
LINE
  5
5940
330
1A
100
AcDbEntity
  8
0
100
AcDbLine
 10
370.5400000000001
 20
107.4000000000001
 30
0.0
 11
365.24
 21
107.4
 31
0.0
  0
ELLIPSE
  5
5941
330
1A
100
AcDbEntity
  8
0
100
AcDbEllipse
 10
367.84
 20
106.6000000000002
 30
0.0
 11
-2.399999999999985
 21
0.0000000000000094
 31
0.0
210
0.0
220
0.0
230
-1.0
 40
0.5416666666666511
 41
2.478718829939666
 42
6.946059130829823
  0
LINE
  5
5942
330
1A
100
AcDbEntity
  8
0
100
AcDbLine
 10
370.5400000000001
 20
108.9000000000001
 30
0.0
 11
365.24
 21
108.9000000000001
 31
0.0
  0
LINE
  5
5943
330
1A
100
AcDbEntity
  8
0
100
AcDbLine
 10
371.0600000000001
 20
109.9000000000001
 30
0.0
 11
364.66
 21
109.9000000000001
 31
0.0
  0
LINE
  5
5944
330
1A
100
AcDbEntity
  8
0
100
AcDbLine
 10
371.0600000000001
 20
100.9000000000001
 30
0.0
 11
371.0600000000001
 21
113.4000000000001
 31
0.0
  0
LINE
  5
5945
330
1A
100
AcDbEntity
  8
0
100
AcDbLine
 10
349.4200000000001
 20
100.9000000000001
 30
0.0
 11
349.4200000000001
 21
113.4
 31
0.0
  0
LINE
  5
5946
330
1A
100
AcDbEntity
  8
0
100
AcDbLine
 10
357.0400000000001
 20
100.9000000000001
 30
0.0
 11
357.04
 21
113.4000000000001
 31
0.0
  0
LINE
  5
5947
330
1A
100
AcDbEntity
  8
0
100
AcDbLine
 10
355.8200000000001
 20
100.9000000000001
 30
0.0
 11
355.8200000000001
 21
113.4000000000001
 31
0.0
  0
LINE
  5
5948
330
1A
100
AcDbEntity
  8
0
100
AcDbLine
 10
364.6600000000001
 20
100.9000000000001
 30
0.0
 11
364.66
 21
113.4000000000001
 31
0.0
  0
LINE
  5
5949
330
1A
100
AcDbEntity
  8
0
100
AcDbLine
 10
363.4400000000001
 20
100.9000000000001
 30
0.0
 11
363.4400000000001
 21
113.4000000000001
 31
0.0
  0
LINE
  5
594A
330
1A
100
AcDbEntity
  8
0
100
AcDbLine
 10
348.2000000000001
 20
100.9000000000001
 30
0.0
 11
348.2000000000001
 21
113.4000000000001
 31
0.0
  0
LINE
  5
594B
330
1A
100
AcDbEntity
  8
0
100
AcDbLine
 10
347.7
 20
108.9000000000001
 30
0.0
 11
342.4
 21
108.9000000000001
 31
0.0
  0
ELLIPSE
  5
594C
330
1A
100
AcDbEntity
  8
0
100
AcDbEllipse
 10
345.0
 20
106.6000000000002
 30
0.0
 11
-2.399999999999978
 21
0.0000000000000027
 31
0.0
210
0.0
220
0.0
230
-1.0
 40
0.5416666666666527
 41
2.478718829939671
 42
6.946059130829821
  0
LINE
  5
594D
330
1A
100
AcDbEntity
  8
0
100
AcDbLine
 10
347.7
 20
107.4000000000001
 30
0.0
 11
342.4
 21
107.4000000000001
 31
0.0
  0
LINE
  5
594E
330
1A
100
AcDbEntity
  8
0
100
AcDbLine
 10
347.7
 20
107.3999999999999
 30
0.0
 11
347.7
 21
109.9000000000001
 31
0.0
  0
LINE
  5
594F
330
1A
100
AcDbEntity
  8
0
100
AcDbLine
 10
342.4
 20
109.9000000000001
 30
0.0
 11
342.4
 21
107.4000000000001
 31
0.0
  0
LINE
  5
5950
330
1A
100
AcDbEntity
  8
0
100
AcDbLine
 10
348.2000000000001
 20
109.9000000000001
 30
0.0
 11
341.8000000000001
 21
109.9000000000001
 31
0.0
  0
LINE
  5
5951
330
1A
100
AcDbEntity
  8
0
100
AcDbLine
 10
348.2000000000001
 20
113.4000000000001
 30
0.0
 11
341.8000000000001
 21
113.4000000000001
 31
0.0
  0
LINE
  5
5952
330
1A
100
AcDbEntity
  8
0
100
AcDbLine
 10
341.8000000000001
 20
100.9000000000001
 30
0.0
 11
341.8000000000001
 21
113.4
 31
0.0
  0
LWPOLYLINE
  5
59CA
330
1A
100
AcDbEntity
  8
0
100
AcDbPolyline
 90
        4
 70
     0
 43
0.0
 10
331.8611111111112
 20
226.5
 10
331.75
 20
228.5
 10
328.75
 20
228.5
 10
328.6388888888889
 20
226.5
  0
LWPOLYLINE
  5
59CB
330
1A
100
AcDbEntity
  8
0
100
AcDbPolyline
 90
        4
 70
     0
 43
0.0
 10
361.3611111111112
 20
226.5
 10
361.25
 20
228.5
 10
358.25
 20
228.5
 10
358.1388888888889
 20
226.5
  0
LWPOLYLINE
  5
59CC
330
1A
100
AcDbEntity
  8
0
100
AcDbPolyline
 90
        4
 70
     0
 43
0.0
 10
376.1111111111112
 20
226.5
 10
376.0
 20
228.5
 10
373.0
 20
228.5
 10
372.8888888888889
 20
226.5
  0
LWPOLYLINE
  5
59CD
330
1A
100
AcDbEntity
  8
0
100
AcDbPolyline
 90
        4
 70
     0
 43
0.0
 10
317.1111111111112
 20
226.5
 10
317.0
 20
228.5
 10
314.0
 20
228.5
 10
313.8888888888889
 20
226.5
  0
VIEWPORT
  5
22
102
{ACAD_XDICTIONARY
360
59DE
102
}
330
17
100
AcDbEntity
 67
     1
  8
0
100
AcDbViewport
 10
261.5176991150442
 20
154.7242978687078
 30
0.0
 40
523.0353982300885
 41
309.4485957374157
 68
     1
 69
     1
 12
261.5176991150442
 22
154.7242978687078
 13
0.0
 23
0.0
 14
1.0
 24
1.0
 15
10.0
 25
10.0
 16
0.0
 26
0.0
 36
1.0
 17
0.0
 27
0.0
 37
0.0
 42
50.0
 43
0.0
 44
0.0
 45
309.4485957374157
 50
0.0
 51
0.0
 72
   100
 90
    32768
  1

281
     0
 71
     1
 74
     0
110
0.0
120
0.0
130
0.0
111
1.0
121
0.0
131
0.0
112
0.0
122
1.0
132
0.0
 79
     0
146
0.0
  0
ENDSEC
  0
SECTION
  2
OBJECTS
  0
DICTIONARY
  5
C
330
0
100
AcDbDictionary
281
     1
  3
ACAD_COLOR
350
484B
  3
ACAD_GROUP
350
D
  3
ACAD_LAYOUT
350
483F
  3
ACAD_MATERIAL
350
484A
  3
ACAD_MLINESTYLE
350
E
  3
ACAD_PLOTSETTINGS
350
4840
  3
ACAD_PLOTSTYLENAME
350
483D
  3
ACDBHEADERROUNDTRIPXREC
350
59DB
  3
AcDbVariableDictionary
350
4847
  0
DICTIONARY
  5
59DE
330
22
100
AcDbDictionary
280
     1
281
     1
  3
ACAD_XREC_ROUNDTRIP
360
59DF
  0
DICTIONARY
  5
484B
102
{ACAD_REACTORS
330
C
102
}
330
C
100
AcDbDictionary
281
     1
  0
DICTIONARY
  5
D
102
{ACAD_REACTORS
330
C
102
}
330
C
100
AcDbDictionary
281
     1
  0
DICTIONARY
  5
483F
102
{ACAD_REACTORS
330
C
102
}
330
C
100
AcDbDictionary
281
     1
  3
Model
350
4841
  3
ﾚｲｱｳﾄ1
350
4842
  0
DICTIONARY
  5
484A
102
{ACAD_REACTORS
330
C
102
}
330
C
100
AcDbDictionary
281
     1
  0
DICTIONARY
  5
E
102
{ACAD_REACTORS
330
C
102
}
330
C
100
AcDbDictionary
281
     1
  3
STANDARD
350
13
  0
DICTIONARY
  5
4840
102
{ACAD_REACTORS
330
C
102
}
330
C
100
AcDbDictionary
281
     1
  0
ACDBDICTIONARYWDFLT
  5
483D
102
{ACAD_REACTORS
330
C
102
}
330
C
100
AcDbDictionary
281
     1
  3
Normal
350
483E
100
AcDbDictionaryWithDefault
340
483E
  0
DICTIONARY
  5
59DB
102
{ACAD_REACTORS
330
C
102
}
330
C
100
AcDbDictionary
281
     1
  3
COLORDICT
350
59DD
  3
MATERIALDICT
350
59DC
  0
DICTIONARY
  5
4847
102
{ACAD_REACTORS
330
C
102
}
330
C
100
AcDbDictionary
281
     1
  3
DIMASSOC
350
4848
  3
PROJECTNAME
350
59D9
  0
XRECORD
  5
59DF
102
{ACAD_REACTORS
330
59DE
102
}
330
59DE
100
AcDbXrecord
280
     1
102
SHADEPLOT
 70
     0
  0
LAYOUT
  5
4841
102
{ACAD_XDICTIONARY
360
59E0
102
}
102
{ACAD_REACTORS
330
483F
102
}
330
483F
100
AcDbPlotSettings
  1

  2
Canon LBP3800-A3 横.pc3
  4
A3
  6

 40
5.873749732971191
 41
5.873747825622558
 42
5.873748779296875
 43
5.873748779296875
 44
419.9466552734374
 45
296.9259948730469
 46
0.0
 47
0.0
 48
0.0
 49
0.0
140
0.0
141
0.0
142
1.0
143
1.0
 70
 11952
 72
     1
 73
     0
 74
     2
  7
TMI_pen_style.ctb
 75
    16
147
1.0
148
0.0
149
0.0
100
AcDbLayout
  1
Model
 70
     1
 71
     0
 10
0.0
 20
0.0
 11
12.0
 21
9.0
 12
0.0
 22
0.0
 32
0.0
 14
0.0
 24
0.0
 34
0.0
 15
0.0
 25
0.0
 35
0.0
146
0.0
 13
0.0
 23
0.0
 33
0.0
 16
1.0
 26
0.0
 36
0.0
 17
0.0
 27
1.0
 37
0.0
 76
     0
330
1A
  0
LAYOUT
  5
4842
102
{ACAD_XDICTIONARY
360
59E2
102
}
102
{ACAD_REACTORS
330
483F
102
}
330
483F
100
AcDbPlotSettings
  1

  2
EPSON LP-8300 (TMINETWORK)
  4

  6

 40
0.0
 41
0.0
 42
0.0
 43
0.0
 44
0.0
 45
0.0
 46
0.0
 47
0.0
 48
0.0
 49
0.0
140
0.0
141
0.0
142
1.0
143
1.0
 70
   688
 72
     0
 73
     0
 74
     5
  7
C:\PROGRAM FILES\AUTOCAD LT 2002\Plot Styles\TMI_pen_style.ctb
 75
    16
147
1.0
148
0.0
149
0.0
100
AcDbLayout
  1
ﾚｲｱｳﾄ1
 70
     1
 71
     1
 10
0.0
 20
0.0
 11
420.0
 21
297.0
 12
0.0
 22
0.0
 32
0.0
 14
1.000000000000000E+20
 24
1.000000000000000E+20
 34
1.000000000000000E+20
 15
-1.000000000000000E+20
 25
-1.000000000000000E+20
 35
-1.000000000000000E+20
146
0.0
 13
0.0
 23
0.0
 33
0.0
 16
1.0
 26
0.0
 36
0.0
 17
0.0
 27
1.0
 37
0.0
 76
     0
330
17
331
22
  0
MLINESTYLE
  5
13
102
{ACAD_REACTORS
330
E
102
}
330
E
100
AcDbMlineStyle
  2
STANDARD
 70
     0
  3

 62
     0
 51
90.0
 52
90.0
 71
     2
 49
0.5
 62
   256
  6
BYLAYER
 49
-0.5
 62
   256
  6
BYLAYER
  0
ACDBPLACEHOLDER
  5
483E
102
{ACAD_REACTORS
330
483D
102
}
330
483D
  0
XRECORD
  5
59DD
102
{ACAD_REACTORS
330
59DB
102
}
330
59DB
100
AcDbXrecord
280
     1
340
484B
  0
XRECORD
  5
59DC
102
{ACAD_REACTORS
330
59DB
102
}
330
59DB
100
AcDbXrecord
280
     1
340
484A
  0
DICTIONARYVAR
  5
4848
102
{ACAD_REACTORS
330
4847
102
}
330
4847
100
DictionaryVariables
280
     0
  1
1
  0
DICTIONARYVAR
  5
59D9
102
{ACAD_REACTORS
330
4847
102
}
330
4847
100
DictionaryVariables
280
     0
  1

  0
DICTIONARY
  5
59E0
330
4841
100
AcDbDictionary
280
     1
281
     1
  3
ACAD_XREC_ROUNDTRIP
360
59E1
  0
DICTIONARY
  5
59E2
330
4842
100
AcDbDictionary
280
     1
281
     1
  3
ACAD_XREC_ROUNDTRIP
360
59E3
  0
XRECORD
  5
59E1
102
{ACAD_REACTORS
330
59E0
102
}
330
59E0
100
AcDbXrecord
280
     1
102
SHADEPLOT
 70
     0
102
SHADEPLOTRESLEVEL
 70
     2
102
SHADEPLOTCUSTOMDPI
 70
   300
  0
XRECORD
  5
59E3
102
{ACAD_REACTORS
330
59E2
102
}
330
59E2
100
AcDbXrecord
280
     1
102
SHADEPLOT
 70
     0
102
SHADEPLOTRESLEVEL
 70
     2
102
SHADEPLOTCUSTOMDPI
 70
   300
  0
ENDSEC
  0
EOF
