  0
SECTION
  2
HEADER
  9
$ACADVER
  1
AC1015
  9
$ACADMAINTVER
 70
    20
  9
$DWGCODEPAGE
  3
ANSI_932
  9
$INSBASE
 10
0.0
 20
0.0
 30
0.0
  9
$EXTMIN
 10
20.0
 20
5.0
 30
0.0
  9
$EXTMAX
 10
405.0
 20
280.0
 30
0.0
  9
$LIMMIN
 10
0.0
 20
0.0
  9
$LIMMAX
 10
420.0
 20
297.0
  9
$ORTHOMODE
 70
     0
  9
$REGENMODE
 70
     1
  9
$FILLMODE
 70
     1
  9
$QTEXTMODE
 70
     0
  9
$MIRRTEXT
 70
     1
  9
$LTSCALE
 40
15.0
  9
$ATTMODE
 70
     1
  9
$TEXTSIZE
 40
4.0
  9
$TRACEWID
 40
1.0
  9
$TEXTSTYLE
  7
STANDARD
  9
$CLAYER
  8
0
  9
$CELTYPE
  6
BYLAYER
  9
$CECOLOR
 62
   256
  9
$CELTSCALE
 40
1.0
  9
$DISPSILH
 70
     0
  9
$DIMSCALE
 40
0.0
  9
$DIMASZ
 40
0.5
  9
$DIMEXO
 40
0.5
  9
$DIMDLI
 40
10.0
  9
$DIMRND
 40
0.0
  9
$DIMDLE
 40
0.0
  9
$DIMEXE
 40
0.5
  9
$DIMTP
 40
0.0
  9
$DIMTM
 40
0.0
  9
$DIMTXT
 40
2.0
  9
$DIMCEN
 40
0.0
  9
$DIMTSZ
 40
0.0
  9
$DIMTOL
 70
     0
  9
$DIMLIM
 70
     0
  9
$DIMTIH
 70
     0
  9
$DIMTOH
 70
     0
  9
$DIMSE1
 70
     0
  9
$DIMSE2
 70
     0
  9
$DIMTAD
 70
     1
  9
$DIMZIN
 70
     0
  9
$DIMBLK
  1

  9
$DIMASO
 70
     1
  9
$DIMSHO
 70
     1
  9
$DIMPOST
  1

  9
$DIMAPOST
  1

  9
$DIMALT
 70
     0
  9
$DIMALTD
 70
     2
  9
$DIMALTF
 40
25.4
  9
$DIMLFAC
 40
1.0
  9
$DIMTOFL
 70
     0
  9
$DIMTVP
 40
0.0
  9
$DIMTIX
 70
     0
  9
$DIMSOXD
 70
     0
  9
$DIMSAH
 70
     1
  9
$DIMBLK1
  1
DOT
  9
$DIMBLK2
  1
DOT
  9
$DIMSTYLE
  2
STANDARD
  9
$DIMCLRD
 70
     0
  9
$DIMCLRE
 70
     0
  9
$DIMCLRT
 70
     0
  9
$DIMTFAC
 40
1.0
  9
$DIMGAP
 40
0.5
  9
$DIMJUST
 70
     0
  9
$DIMSD1
 70
     0
  9
$DIMSD2
 70
     0
  9
$DIMTOLJ
 70
     1
  9
$DIMTZIN
 70
     0
  9
$DIMALTZ
 70
     0
  9
$DIMALTTZ
 70
     0
  9
$DIMUPT
 70
     0
  9
$DIMDEC
 70
     2
  9
$DIMTDEC
 70
     0
  9
$DIMALTU
 70
     2
  9
$DIMALTTD
 70
     2
  9
$DIMTXSTY
  7
STANDARD
  9
$DIMAUNIT
 70
     0
  9
$DIMADEC
 70
     0
  9
$DIMALTRND
 40
0.0
  9
$DIMAZIN
 70
     0
  9
$DIMDSEP
 70
    46
  9
$DIMATFIT
 70
     3
  9
$DIMFRAC
 70
     0
  9
$DIMLDRBLK
  1
DOT
  9
$DIMLUNIT
 70
     2
  9
$DIMLWD
 70
    -2
  9
$DIMLWE
 70
    -2
  9
$DIMTMOVE
 70
     0
  9
$LUNITS
 70
     2
  9
$LUPREC
 70
     4
  9
$SKETCHINC
 40
1.0
  9
$FILLETRAD
 40
1.5
  9
$AUNITS
 70
     0
  9
$AUPREC
 70
     0
  9
$MENU
  1
.
  9
$ELEVATION
 40
0.0
  9
$PELEVATION
 40
0.0
  9
$THICKNESS
 40
0.0
  9
$LIMCHECK
 70
     0
  9
$CHAMFERA
 40
2.0
  9
$CHAMFERB
 40
2.0
  9
$CHAMFERC
 40
20.0
  9
$CHAMFERD
 40
0.0
  9
$SKPOLY
 70
     0
  9
$TDCREATE
 40
2450857.620429745
  9
$TDUCREATE
 40
2450857.245429745
  9
$TDUPDATE
 40
2456644.448864016
  9
$TDUUPDATE
 40
2456644.073864016
  9
$TDINDWG
 40
6.7897748611
  9
$TDUSRTIMER
 40
6.7897748611
  9
$USRTIMER
 70
     1
  9
$ANGBASE
 50
0.0
  9
$ANGDIR
 70
     0
  9
$PDMODE
 70
     0
  9
$PDSIZE
 40
0.0
  9
$PLINEWID
 40
0.0
  9
$SPLFRAME
 70
     0
  9
$SPLINETYPE
 70
     6
  9
$SPLINESEGS
 70
     8
  9
$HANDSEED
  5
B22D
  9
$SURFTAB1
 70
     6
  9
$SURFTAB2
 70
     6
  9
$SURFTYPE
 70
     6
  9
$SURFU
 70
     6
  9
$SURFV
 70
     6
  9
$UCSBASE
  2

  9
$UCSNAME
  2

  9
$UCSORG
 10
0.0
 20
0.0
 30
0.0
  9
$UCSXDIR
 10
1.0
 20
0.0
 30
0.0
  9
$UCSYDIR
 10
0.0
 20
1.0
 30
0.0
  9
$UCSORTHOREF
  2

  9
$UCSORTHOVIEW
 70
     0
  9
$UCSORGTOP
 10
0.0
 20
0.0
 30
0.0
  9
$UCSORGBOTTOM
 10
0.0
 20
0.0
 30
0.0
  9
$UCSORGLEFT
 10
0.0
 20
0.0
 30
0.0
  9
$UCSORGRIGHT
 10
0.0
 20
0.0
 30
0.0
  9
$UCSORGFRONT
 10
0.0
 20
0.0
 30
0.0
  9
$UCSORGBACK
 10
0.0
 20
0.0
 30
0.0
  9
$PUCSBASE
  2

  9
$PUCSNAME
  2

  9
$PUCSORG
 10
0.0
 20
0.0
 30
0.0
  9
$PUCSXDIR
 10
1.0
 20
0.0
 30
0.0
  9
$PUCSYDIR
 10
0.0
 20
1.0
 30
0.0
  9
$PUCSORTHOREF
  2

  9
$PUCSORTHOVIEW
 70
     0
  9
$PUCSORGTOP
 10
0.0
 20
0.0
 30
0.0
  9
$PUCSORGBOTTOM
 10
0.0
 20
0.0
 30
0.0
  9
$PUCSORGLEFT
 10
0.0
 20
0.0
 30
0.0
  9
$PUCSORGRIGHT
 10
0.0
 20
0.0
 30
0.0
  9
$PUCSORGFRONT
 10
0.0
 20
0.0
 30
0.0
  9
$PUCSORGBACK
 10
0.0
 20
0.0
 30
0.0
  9
$USERI1
 70
     0
  9
$USERI2
 70
     0
  9
$USERI3
 70
     0
  9
$USERI4
 70
     0
  9
$USERI5
 70
     0
  9
$USERR1
 40
0.0
  9
$USERR2
 40
0.0
  9
$USERR3
 40
0.0
  9
$USERR4
 40
0.0
  9
$USERR5
 40
0.0
  9
$WORLDVIEW
 70
     1
  9
$SHADEDGE
 70
     3
  9
$SHADEDIF
 70
    70
  9
$TILEMODE
 70
     1
  9
$MAXACTVP
 70
    16
  9
$PINSBASE
 10
0.0
 20
0.0
 30
0.0
  9
$PLIMCHECK
 70
     0
  9
$PEXTMIN
 10
1.000000000000000E+20
 20
1.000000000000000E+20
 30
1.000000000000000E+20
  9
$PEXTMAX
 10
-1.000000000000000E+20
 20
-1.000000000000000E+20
 30
-1.000000000000000E+20
  9
$PLIMMIN
 10
0.0
 20
0.0
  9
$PLIMMAX
 10
420.0
 20
297.0
  9
$UNITMODE
 70
     0
  9
$VISRETAIN
 70
     0
  9
$PLINEGEN
 70
     0
  9
$PSLTSCALE
 70
     1
  9
$TREEDEPTH
 70
  3020
  9
$CMLSTYLE
  2
STANDARD
  9
$CMLJUST
 70
     0
  9
$CMLSCALE
 40
1.0
  9
$PROXYGRAPHICS
 70
     1
  9
$MEASUREMENT
 70
     1
  9
$CELWEIGHT
370
    -1
  9
$ENDCAPS
280
     0
  9
$JOINSTYLE
280
     0
  9
$LWDISPLAY
290
     0
  9
$INSUNITS
 70
     0
  9
$HYPERLINKBASE
  1

  9
$STYLESHEET
  1
TMI_pen_style.ctb
  9
$XEDIT
290
     1
  9
$CEPSNTYPE
380
     0
  9
$PSTYLEMODE
290
     1
  9
$FINGERPRINTGUID
  2
{6F5E2C63-407A-45B5-A475-DC585491272D}
  9
$VERSIONGUID
  2
{5CC6E65E-87E6-4F72-9AE2-6101A2F1B462}
  9
$EXTNAMES
290
     1
  9
$PSVPSCALE
 40
0.0
  9
$OLESTARTUP
290
     0
  0
ENDSEC
  0
SECTION
  2
CLASSES
  0
CLASS
  1
ACDBDICTIONARYWDFLT
  2
AcDbDictionaryWithDefault
  3
ObjectDBX Classes
 90
        0
280
     0
281
     0
  0
CLASS
  1
ACDBPLACEHOLDER
  2
AcDbPlaceHolder
  3
ObjectDBX Classes
 90
        0
280
     0
281
     0
  0
CLASS
  1
LAYOUT
  2
AcDbLayout
  3
ObjectDBX Classes
 90
        0
280
     0
281
     0
  0
CLASS
  1
DICTIONARYVAR
  2
AcDbDictionaryVar
  3
ObjectDBX Classes
 90
        0
280
     0
281
     0
  0
ENDSEC
  0
SECTION
  2
TABLES
  0
TABLE
  2
VPORT
  5
8
330
0
100
AcDbSymbolTable
 70
     2
  0
VPORT
  5
B223
330
8
100
AcDbSymbolTableRecord
100
AcDbViewportTableRecord
  2
*Active
 70
     0
 10
0.0
 20
0.0
 11
1.0
 21
1.0
 12
310.6808052857208
 22
142.5066153695884
 13
0.0
 23
0.0
 14
0.5
 24
0.5
 15
5.0
 25
5.0
 16
0.0
 26
0.0
 36
1.0
 17
0.0
 27
0.0
 37
0.0
 40
277.0811465009098
 41
2.184873949579831
 42
50.0
 43
0.0
 44
0.0
 50
0.0
 51
0.0
 71
     0
 72
   100
 73
     1
 74
     0
 75
     1
 76
     1
 77
     0
 78
     0
281
     0
 65
     1
110
0.0
120
0.0
130
0.0
111
1.0
121
0.0
131
0.0
112
0.0
122
1.0
132
0.0
 79
     0
146
0.0
  0
ENDTAB
  0
TABLE
  2
LTYPE
  5
5
330
0
100
AcDbSymbolTable
 70
     3
  0
LTYPE
  5
14
330
5
100
AcDbSymbolTableRecord
100
AcDbLinetypeTableRecord
  2
BYBLOCK
 70
     0
  3

 72
    65
 73
     0
 40
0.0
  0
LTYPE
  5
15
330
5
100
AcDbSymbolTableRecord
100
AcDbLinetypeTableRecord
  2
BYLAYER
 70
     0
  3

 72
    65
 73
     0
 40
0.0
  0
LTYPE
  5
16
330
5
100
AcDbSymbolTableRecord
100
AcDbLinetypeTableRecord
  2
CONTINUOUS
 70
     0
  3
Solid line
 72
    65
 73
     0
 40
0.0
  0
LTYPE
  5
61
330
5
100
AcDbSymbolTableRecord
100
AcDbLinetypeTableRecord
  2
CENTER2
 70
     0
  3
___ _ ___ _ ___ _ ___ _ ___ _ ___ _ ___ _ ___ _
 72
    65
 73
     4
 40
1.125
 49
0.75
 74
     0
 49
-0.125
 74
     0
 49
0.125
 74
     0
 49
-0.125
 74
     0
  0
LTYPE
  5
62
330
5
100
AcDbSymbolTableRecord
100
AcDbLinetypeTableRecord
  2
DASHED2
 70
     0
  3
_ _ _ _ _ _ _ _ _ _ _ _ _ _ _ _ _ _ _ _ _ _ _ _
 72
    65
 73
     2
 40
0.375
 49
0.25
 74
     0
 49
-0.125
 74
     0
  0
ENDTAB
  0
TABLE
  2
LAYER
  5
2
330
0
100
AcDbSymbolTable
 70
     6
  0
LAYER
  5
F
330
2
100
AcDbSymbolTableRecord
100
AcDbLayerTableRecord
  2
0
 70
     0
 62
     7
  6
CONTINUOUS
370
    -3
390
8D42
  0
LAYER
  5
63
330
2
100
AcDbSymbolTableRecord
100
AcDbLayerTableRecord
  2
WAKU
 70
     0
 62
     7
  6
CONTINUOUS
370
    -3
390
8D42
  0
LAYER
  5
64
330
2
100
AcDbSymbolTableRecord
100
AcDbLayerTableRecord
  2
SUNPOU
 70
     0
 62
     5
  6
CONTINUOUS
370
    -3
390
8D42
  0
LAYER
  5
65
330
2
100
AcDbSymbolTableRecord
100
AcDbLayerTableRecord
  2
CENTER
 70
     0
 62
    14
  6
CENTER2
370
    -3
390
8D42
  0
LAYER
  5
66
330
2
100
AcDbSymbolTableRecord
100
AcDbLayerTableRecord
  2
KAGESEN
 70
     0
 62
     5
  6
DASHED2
370
    -3
390
8D42
  0
LAYER
  5
7DC
330
2
100
AcDbSymbolTableRecord
100
AcDbLayerTableRecord
  2
DEFPOINTS
 70
     0
 62
     7
  6
CONTINUOUS
290
     0
370
    -3
390
8D42
  0
ENDTAB
  0
TABLE
  2
STYLE
  5
3
330
0
100
AcDbSymbolTable
 70
     1
  0
STYLE
  5
10
330
3
100
AcDbSymbolTableRecord
100
AcDbTextStyleTableRecord
  2
STANDARD
 70
     0
 40
0.0
 41
1.0
 50
0.0
 71
     0
 42
4.0
  3
C:\Program Files\AutoCAD LT\romans.shx
  4
C:\Program Files\AutoCAD LT\extfont.shx
  0
ENDTAB
  0
TABLE
  2
VIEW
  5
6
330
0
100
AcDbSymbolTable
 70
     0
  0
ENDTAB
  0
TABLE
  2
UCS
  5
7
330
0
100
AcDbSymbolTable
 70
     0
  0
ENDTAB
  0
TABLE
  2
APPID
  5
9
330
0
100
AcDbSymbolTable
 70
     3
  0
APPID
  5
11
330
9
100
AcDbSymbolTableRecord
100
AcDbRegAppTableRecord
  2
ACAD
 70
     0
  0
APPID
  5
5E9A
330
9
100
AcDbSymbolTableRecord
100
AcDbRegAppTableRecord
  2
CONTENTTABDATA
 70
     0
  0
APPID
  5
5E9B
330
9
100
AcDbSymbolTableRecord
100
AcDbRegAppTableRecord
  2
CONTENTCURRENTTAB
 70
     0
  0
ENDTAB
  0
TABLE
  2
DIMSTYLE
  5
A
330
0
100
AcDbSymbolTable
 70
     8
100
AcDbDimStyleTable
 71
     1
340
1D
  0
DIMSTYLE
105
1D
102
{ACAD_REACTORS
330
A443
330
A44E
330
A417
330
A415
330
AA37
102
}
330
A
100
AcDbSymbolTableRecord
100
AcDbDimStyleTableRecord
  2
STANDARD
 70
     0
340
10
  0
DIMSTYLE
105
24
330
A
100
AcDbSymbolTableRecord
100
AcDbDimStyleTableRecord
  2
ISO-25
 70
     0
 41
2.5
 42
0.625
 43
3.75
 44
1.25
 74
     0
 77
     1
 78
     8
140
2.5
141
2.5
143
0.0394
145
1.0
147
0.625
172
     1
340
10
  0
DIMSTYLE
105
25
330
A
100
AcDbSymbolTableRecord
100
AcDbDimStyleTableRecord
  2
ISO-35
 70
     0
 41
3.5
 42
0.875
 43
5.25
 44
1.75
 74
     0
 77
     1
 78
     8
140
3.5
141
3.5
143
0.0394
145
1.399999999999999
147
0.875
172
     1
340
10
  0
DIMSTYLE
105
26
330
A
100
AcDbSymbolTableRecord
100
AcDbDimStyleTableRecord
  2
ISO-5
 70
     0
 41
5.0
 42
1.25
 43
7.5
 44
2.5
 74
     0
 77
     1
 78
     8
140
5.0
141
5.0
143
0.0394
145
2.0
147
1.25
172
     1
340
10
  0
DIMSTYLE
105
27
330
A
100
AcDbSymbolTableRecord
100
AcDbDimStyleTableRecord
  2
ISO-7
 70
     0
 41
7.0
 42
1.75
 43
10.5
 44
3.5
 74
     0
 77
     1
 78
     8
140
7.0
141
7.0
143
0.0394
145
2.799999999999999
147
1.75
172
     1
340
10
  0
DIMSTYLE
105
28
330
A
100
AcDbSymbolTableRecord
100
AcDbDimStyleTableRecord
  2
ISO1
 70
     0
 41
10.0
 42
2.5
 43
15.0
 44
5.0
 74
     0
 77
     1
 78
     8
140
10.0
141
10.0
143
0.0394
145
4.0
147
2.5
172
     1
340
10
  0
DIMSTYLE
105
29
330
A
100
AcDbSymbolTableRecord
100
AcDbDimStyleTableRecord
  2
ISO1-4
 70
     0
 41
14.0
 42
3.5
 43
21.0
 44
7.0
 74
     0
 77
     1
 78
     8
140
14.0
141
14.0
143
0.0394
145
5.599999999999999
147
3.5
172
     1
340
10
  0
DIMSTYLE
105
2A
330
A
100
AcDbSymbolTableRecord
100
AcDbDimStyleTableRecord
  2
ISO2
 70
     0
 41
20.0
 42
5.0
 43
30.0
 44
10.0
 74
     0
 77
     1
 78
     8
140
20.0
141
20.0
143
0.0394
145
8.0
147
5.0
172
     1
340
10
  0
ENDTAB
  0
TABLE
  2
BLOCK_RECORD
  5
1
330
0
100
AcDbSymbolTable
 70
    10
  0
BLOCK_RECORD
  5
1A
330
1
100
AcDbSymbolTableRecord
100
AcDbBlockTableRecord
  2
*MODEL_SPACE
340
8D45
  0
BLOCK_RECORD
  5
17
330
1
100
AcDbSymbolTableRecord
100
AcDbBlockTableRecord
  2
*PAPER_SPACE
340
8D46
  0
BLOCK_RECORD
  5
BA
330
1
100
AcDbSymbolTableRecord
100
AcDbBlockTableRecord
  2
_OPEN
340
0
102
{BLKREFS
331
B1EE
331
B1EF
331
B1F7
331
B1F8
331
B200
331
B201
331
B209
331
B20A
331
B212
331
B213
102
}
  0
BLOCK_RECORD
  5
749F
330
1
100
AcDbSymbolTableRecord
100
AcDbBlockTableRecord
  2
_DOT
340
0
  0
BLOCK_RECORD
  5
A473
330
1
100
AcDbSymbolTableRecord
100
AcDbBlockTableRecord
  2
*D2
340
0
  0
BLOCK_RECORD
  5
A47F
330
1
100
AcDbSymbolTableRecord
100
AcDbBlockTableRecord
  2
*D3
340
0
  0
BLOCK_RECORD
  5
A48B
330
1
100
AcDbSymbolTableRecord
100
AcDbBlockTableRecord
  2
*D4
340
0
  0
BLOCK_RECORD
  5
A497
330
1
100
AcDbSymbolTableRecord
100
AcDbBlockTableRecord
  2
*D5
340
0
  0
BLOCK_RECORD
  5
A665
330
1
100
AcDbSymbolTableRecord
100
AcDbBlockTableRecord
  2
ML800-12P-1
340
0
310
28000000200000002000000001000800000000000004000000000000000000000000000000000000000000004000000080000000FF000000002000004020000080200000FF200000004000004040000080400000FF400000006000004060000080600000FF600000008000004080000080800000FF80000000A0000040A000
310
0080A00000FFA0000000C0000040C0000080C00000FFC0000000FF000040FF000080FF0000FFFF0000000020004000200080002000FF002000002020004020200080202000FF202000004020004040200080402000FF402000006020004060200080602000FF602000008020004080200080802000FF80200000A0200040A0
310
200080A02000FFA0200000C0200040C0200080C02000FFC0200000FF200040FF200080FF2000FFFF2000000040004000400080004000FF004000002040004020400080204000FF204000004040004040400080404000FF404000006040004060400080604000FF604000008040004080400080804000FF80400000A0400040
310
A0400080A04000FFA0400000C0400040C0400080C04000FFC0400000FF400040FF400080FF4000FFFF4000000060004000600080006000FF006000002060004020600080206000FF206000004060004040600080406000FF406000006060004060600080606000FF606000008060004080600080806000FF80600000A06000
310
40A0600080A06000FFA0600000C0600040C0600080C06000FFC0600000FF600040FF600080FF6000FFFF6000000080004000800080008000FF008000002080004020800080208000FF208000004080004040800080408000FF408000006080004060800080608000FF608000008080004080800080808000FF80800000A080
310
0040A0800080A08000FFA0800000C0800040C0800080C08000FFC0800000FF800040FF800080FF8000FFFF80000000A0004000A0008000A000FF00A0000020A0004020A0008020A000FF20A0000040A0004040A0008040A000FF40A0000060A0004060A0008060A000FF60A0000080A0004080A0008080A000FF80A00000A0
310
A00040A0A00080A0A000FFA0A00000C0A00040C0A00080C0A000FFC0A00000FFA00040FFA00080FFA000FFFFA0000000C0004000C0008000C000FF00C0000020C0004020C0008020C000FF20C0000040C0004040C0008040C000FF40C0000060C0004060C0008060C000FF60C0000080C0004080C0008080C000FF80C00000
310
A0C00040A0C00080A0C000FFA0C00000C0C00040C0C00080C0C000FFC0C00000FFC00040FFC00080FFC000FFFFC0000000FF004000FF008000FF00FF00FF000020FF004020FF008020FF00FF20FF000040FF004040FF008040FF00FF40FF000060FF004060FF008060FF00FF60FF000080FF004080FF008080FF00FF80FF00
310
00A0FF0040A0FF0080A0FF00FFA0FF0000C0FF0040C0FF0080C0FF00FFC0FF0000FFFF0040FFFF0080FFFF00FFFFFF00FFFFFFFFFFFFFFFFFFFFFFFFFFFFFFFFFFFFFFFFFFFFFFFFFFFFFFFFFFFFFFFFFFFFFFFFFFFFFFFFFFFFFFFF0000000000000000FFFFFFFFFFFFFFFFFFFFFFFFFFFFFFFFFFFFFFFFFFFFFFFF000000
310
0000000000FFFFFFFFFFFFFFFFFFFFFFFFFFFFFFFFFFFFFFFFFFFFFFFF0000000000FFFF00FFFFFFFFFFFFFFFFFFFFFFFFFFFFFFFFFFFFFFFFFFFFFFFF0000000000000000FFFFFFFFFFFFFFFFFFFFFFFFFFFFFFFFFFFFFFFFFFFFFFFF0000000000FFFF00FFFFFFFFFFFFFFFFFFFFFFFFFFFFFFFFFFFFFFFFFFFFFFFF0000
310
000000000000FFFFFFFFFFFFFFFFFFFFFFFFFFFFFFFFFFFFFFFFFFFFFFFF0000FF0000FFFF00FFFFFFFFFFFFFFFFFFFFFFFFFFFFFFFFFFFFFFFFFFFFFFFF0000000000FFFF00FFFFFFFFFFFFFFFFFFFFFFFFFFFFFFFFFFFFFFFFFFFFFFFF0000000000000000FFFFFFFFFFFFFFFFFFFFFFFFFFFFFFFFFFFFFFFFFFFFFFFF00
310
00000000FFFF00FFFFFFFFFFFFFFFFFFFFFFFFFFFFFFFFFFFFFFFFFFFFFFFF0000000000000000FFFFFFFFFFFFFFFFFFFFFFFFFFFFFFFFFFFFFFFFFFFFFFFF0000000000FFFF00FFFFFFFFFFFFFFFFFFFFFFFFFFFFFFFFFFFFFFFFFFFFFFFF0000000000000000FFFFFFFFFFFFFFFFFFFFFFFFFFFFFFFFFFFFFFFFFFFFFFFF
310
0000FF0000FFFF00FFFFFFFFFFFFFFFFFFFFFFFFFFFFFFFFFFFFFFFFFFFFFFFF0000000000FFFF00FFFFFFFFFFFFFFFFFFFFFFFFFFFFFFFFFFFFFFFFFFFFFFFF0000000000000000FFFFFFFFFFFFFFFFFFFFFFFFFFFFFFFFFFFFFFFFFFFFFFFF0000000000FFFF00FFFFFFFFFFFFFFFFFFFFFFFFFFFFFFFFFFFFFFFFFFFFFF
310
FF0000000000000000FFFFFFFFFFFFFFFFFFFFFFFFFFFFFFFFFFFFFFFFFFFFFFFF0000000000FFFF00FFFFFFFFFFFFFFFFFFFFFFFFFFFFFFFFFFFFFFFFFFFFFFFF0000000000000000FFFFFFFFFFFFFFFFFFFFFFFFFFFFFFFFFFFFFFFFFFFFFFFF0000FF0000FFFF00FFFFFFFFFFFFFFFFFFFFFFFFFFFFFFFFFFFFFFFFFFFF
310
FFFF0000000000FFFF00FFFFFFFFFFFFFFFFFFFFFFFFFFFFFFFFFFFFFFFFFFFFFFFF0000000000000000FFFFFFFFFFFFFFFFFFFFFFFFFFFFFFFFFFFFFFFFFFFFFFFF0000000000FFFF00FFFFFFFFFFFFFFFFFFFFFFFFFFFFFFFFFFFFFFFFFFFFFFFF0000000000000000FFFFFFFFFFFFFFFFFFFFFFFFFFFFFFFFFFFFFFFFFF
310
FFFFFF0000000000FFFF00FFFFFFFFFFFFFFFFFFFFFFFFFFFFFFFFFFFFFFFFFFFFFFFF0000000000000000FFFFFFFFFFFFFFFFFFFFFFFFFFFFFFFFFFFFFFFFFFFFFFFF0000000000FFFF00FFFFFFFFFFFFFFFFFFFFFFFFFFFFFFFFFFFFFFFFFFFFFFFF0000FF0000FFFF00FFFFFFFFFFFFFFFFFFFFFFFFFFFFFFFFFFFFFFFF
310
FFFFFFFF0000000000000000FFFFFFFFFFFFFFFFFFFFFFFFFFFFFFFFFFFFFFFFFFFFFFFFFFFFFFFFFFFFFFFFFFFFFFFFFFFFFFFFFFFFFFFF
102
{BLKREFS
331
A6DA
331
B163
102
}
  0
BLOCK_RECORD
  5
AA38
330
1
100
AcDbSymbolTableRecord
100
AcDbBlockTableRecord
  2
*D7
340
0
  0
BLOCK_RECORD
  5
AC93
330
1
100
AcDbSymbolTableRecord
100
AcDbBlockTableRecord
  2
M3-1
340
0
310
28000000200000002000000001000800000000000004000000000000000000000000000000000000000000004000000080000000FF000000002000004020000080200000FF200000004000004040000080400000FF400000006000004060000080600000FF600000008000004080000080800000FF80000000A0000040A000
310
0080A00000FFA0000000C0000040C0000080C00000FFC0000000FF000040FF000080FF0000FFFF0000000020004000200080002000FF002000002020004020200080202000FF202000004020004040200080402000FF402000006020004060200080602000FF602000008020004080200080802000FF80200000A0200040A0
310
200080A02000FFA0200000C0200040C0200080C02000FFC0200000FF200040FF200080FF2000FFFF2000000040004000400080004000FF004000002040004020400080204000FF204000004040004040400080404000FF404000006040004060400080604000FF604000008040004080400080804000FF80400000A0400040
310
A0400080A04000FFA0400000C0400040C0400080C04000FFC0400000FF400040FF400080FF4000FFFF4000000060004000600080006000FF006000002060004020600080206000FF206000004060004040600080406000FF406000006060004060600080606000FF606000008060004080600080806000FF80600000A06000
310
40A0600080A06000FFA0600000C0600040C0600080C06000FFC0600000FF600040FF600080FF6000FFFF6000000080004000800080008000FF008000002080004020800080208000FF208000004080004040800080408000FF408000006080004060800080608000FF608000008080004080800080808000FF80800000A080
310
0040A0800080A08000FFA0800000C0800040C0800080C08000FFC0800000FF800040FF800080FF8000FFFF80000000A0004000A0008000A000FF00A0000020A0004020A0008020A000FF20A0000040A0004040A0008040A000FF40A0000060A0004060A0008060A000FF60A0000080A0004080A0008080A000FF80A00000A0
310
A00040A0A00080A0A000FFA0A00000C0A00040C0A00080C0A000FFC0A00000FFA00040FFA00080FFA000FFFFA0000000C0004000C0008000C000FF00C0000020C0004020C0008020C000FF20C0000040C0004040C0008040C000FF40C0000060C0004060C0008060C000FF60C0000080C0004080C0008080C000FF80C00000
310
A0C00040A0C00080A0C000FFA0C00000C0C00040C0C00080C0C000FFC0C00000FFC00040FFC00080FFC000FFFFC0000000FF004000FF008000FF00FF00FF000020FF004020FF008020FF00FF20FF000040FF004040FF008040FF00FF40FF000060FF004060FF008060FF00FF60FF000080FF004080FF008080FF00FF80FF00
310
00A0FF0040A0FF0080A0FF00FFA0FF0000C0FF0040C0FF0080C0FF00FFC0FF0000FFFF0040FFFF0080FFFF00FFFFFF00FFFFFFFFFFFFFFFFFFFFFFFFFFFFFFFFFFFFFFFFFFFFFFFFFFFFFFFFFFFFFFFFFFFFFFFFFFFFFFFFFFFFFFFFFFFFFFFFFFFFFFFFFFFFFFFFFFFFFFFFFFFFFFFFFFFFFFFFFFFFFFFFFFFFFFFFFFFFFF
310
FFFFFFFFFFFFFFFFFFFFFFFFFFFFFFFFFFFFFFFFFFFFFFFFFFFFFFFFFFFFFFFFFFFFFFFFFFFFFFFFFFFFFFFFFFFFFFFFFFFFFFFFFFFFFFFFFFFFFFFFFFFFFFFFFFFFFFFFFFFFFFFFFFFFFFFFFFFFFFFFFFFFFFFFFFFFFFFFFFFFFFFFFFFFFFFFFFFFFFFFFFFFFFFFFFFFFFFFFFFFFFFFFFFFFFFFFFFFFFFFFFFFFFFFFFFFFF
310
FFFFFFFFFFFFFFFFFFFFFFFFFFFFFFFFFFFFFFFFFFFFFFFFFFFFFFFFFFFFFFFFFFFFFFFFFFFFFFFFFFFFFFFFFFFFFFFFFFFFFF000000000000000000000000000000000000000000000000000000000000FFFF00FFFFFFFFFFFFFFFFFFFFFFFFFFFFFFFFFFFFFFFFFFFFFFFFFFFFFFFF00FFFF000000000000000000000000
310
000000000000000000000000000000000000FFFFFFFF00FFFFFFFFFFFFFFFFFFFFFF00FF00FFFFFFFFFFFFFFFFFFFF00FFFFFFFFFFFF00FFFFFFFFFFFFFFFFFFFF00FF00FFFFFFFFFFFFFFFFFFFFFF00FFFFFFFFFFFF0000000000000000000000000000000000000000000000000000FFFFFFFFFFFF00FFFFFFFFFFFFFFFF
310
FFFFFFFFFFFFFFFFFFFFFFFFFFFFFFFF00FFFFFFFFFFFF00FFFFFFFFFFFFFFFFFFFFFFFFFFFFFFFFFFFFFFFFFFFFFFFF00FFFFFFFFFFFF00FFFFFFFFFFFFFFFFFFFFFFFFFFFFFFFFFFFFFFFFFFFFFFFF00FFFFFFFFFFFF00FFFFFFFFFFFFFFFFFFFFFFFFFFFFFFFFFFFFFFFFFFFFFFFF00FFFFFFFFFFFFFF00FFFFFFFFFFFF
310
FFFFFFFFFFFFFFFFFFFFFFFFFFFFFFFFFF00FFFFFFFFFFFFFF00FFFFFFFFFFFFFFFFFFFFFFFFFFFFFFFFFFFFFFFFFFFF00FFFFFFFFFFFFFFFFFF00FFFFFFFFFFFFFFFFFFFFFFFFFFFFFFFFFFFFFFFF00FFFFFFFFFFFFFFFFFFFFFF00FFFFFFFFFFFFFFFFFFFFFFFFFFFFFFFFFFFF00FFFFFFFFFFFFFFFFFFFFFFFFFF0000FF
310
FFFFFFFFFFFFFFFFFFFFFFFFFF0000FFFFFFFFFFFFFFFFFFFFFFFFFFFFFFFF0000000000000000000000000000FFFFFFFFFFFFFFFFFFFFFFFFFFFFFFFFFFFFFFFFFFFFFFFFFFFFFFFFFFFFFFFFFFFFFFFFFFFFFFFFFFFFFFFFFFFFFFFFFFFFFFFFFFFFFFFFFFFFFFFFFFFFFFFFFFFFFFFFFFFFFFFFFFFFFFFFFFFFFFFFFFFF
310
FFFFFFFFFFFFFFFFFFFFFFFFFFFFFFFFFFFFFFFFFFFFFFFFFFFFFFFFFFFFFFFFFFFFFFFFFFFFFFFFFFFFFFFFFFFFFFFFFFFFFFFFFFFFFFFFFFFFFFFFFFFFFFFFFFFFFFFFFFFFFFFFFFFFFFFFFFFFFFFFFFFFFFFFFFFFFFFFFFFFFFFFFFFFFFFFFFFFFFFFFFFFFFFFFFFFFFFFFFFFFFFFFFFFFFFFFFFFFFFFFFFFFFFFFFFFFF
310
FFFFFFFFFFFFFFFFFFFFFFFFFFFFFFFFFFFFFFFFFFFFFFFFFFFFFFFFFFFFFFFFFFFFFFFFFFFFFFFFFFFFFFFFFFFFFFFFFFFFFFFFFFFFFFFF
102
{BLKREFS
331
ADA9
331
ADB2
331
ADBB
331
ADC4
331
AECC
331
AED5
331
AEDE
331
AEE7
102
}
  0
BLOCK_RECORD
  5
AE46
330
1
100
AcDbSymbolTableRecord
100
AcDbBlockTableRecord
  2
17LE40360-1
340
0
310
28000000200000002000000001000800000000000004000000000000000000000000000000000000000000004000000080000000FF000000002000004020000080200000FF200000004000004040000080400000FF400000006000004060000080600000FF600000008000004080000080800000FF80000000A0000040A000
310
0080A00000FFA0000000C0000040C0000080C00000FFC0000000FF000040FF000080FF0000FFFF0000000020004000200080002000FF002000002020004020200080202000FF202000004020004040200080402000FF402000006020004060200080602000FF602000008020004080200080802000FF80200000A0200040A0
310
200080A02000FFA0200000C0200040C0200080C02000FFC0200000FF200040FF200080FF2000FFFF2000000040004000400080004000FF004000002040004020400080204000FF204000004040004040400080404000FF404000006040004060400080604000FF604000008040004080400080804000FF80400000A0400040
310
A0400080A04000FFA0400000C0400040C0400080C04000FFC0400000FF400040FF400080FF4000FFFF4000000060004000600080006000FF006000002060004020600080206000FF206000004060004040600080406000FF406000006060004060600080606000FF606000008060004080600080806000FF80600000A06000
310
40A0600080A06000FFA0600000C0600040C0600080C06000FFC0600000FF600040FF600080FF6000FFFF6000000080004000800080008000FF008000002080004020800080208000FF208000004080004040800080408000FF408000006080004060800080608000FF608000008080004080800080808000FF80800000A080
310
0040A0800080A08000FFA0800000C0800040C0800080C08000FFC0800000FF800040FF800080FF8000FFFF80000000A0004000A0008000A000FF00A0000020A0004020A0008020A000FF20A0000040A0004040A0008040A000FF40A0000060A0004060A0008060A000FF60A0000080A0004080A0008080A000FF80A00000A0
310
A00040A0A00080A0A000FFA0A00000C0A00040C0A00080C0A000FFC0A00000FFA00040FFA00080FFA000FFFFA0000000C0004000C0008000C000FF00C0000020C0004020C0008020C000FF20C0000040C0004040C0008040C000FF40C0000060C0004060C0008060C000FF60C0000080C0004080C0008080C000FF80C00000
310
A0C00040A0C00080A0C000FFA0C00000C0C00040C0C00080C0C000FFC0C00000FFC00040FFC00080FFC000FFFFC0000000FF004000FF008000FF00FF00FF000020FF004020FF008020FF00FF20FF000040FF004040FF008040FF00FF40FF000060FF004060FF008060FF00FF60FF000080FF004080FF008080FF00FF80FF00
310
00A0FF0040A0FF0080A0FF00FFA0FF0000C0FF0040C0FF0080C0FF00FFC0FF0000FFFF0040FFFF0080FFFF00FFFFFF00FFFFFFFFFFFFFFFFFFFFFFFFFFFFFFFFFFFFFFFFFFFFFFFFFFFFFFFFFFFFFFFFFFFFFFFFFFFFFFFFFFFFFFFFFFFFFFFFFFFFFFFFFFFFFFFFFFFFFFFFFFFFFFFFFFFFFFFFFFFFFFFFFFFFFFFFFFFFFF
310
0000FFFFFFFFFFFFFFFFFFFFFFFFFFFFFFFFFFFFFFFFFFFFFFFFFFFFFFFF0000FFFF0000FFFFFFFFFFFFFFFFFFFFFFFFFFFFFFFFFFFFFFFFFFFFFFFFFFFF000000000000FFFFFFFFFFFFFFFFFFFFFFFFFFFFFFFFFFFFFFFFFFFFFFFFFFFF000000000000FFFFFFFFFFFFFFFFFFFFFFFFFFFFFFFFFFFFFFFFFFFFFFFFFFFF00
310
0000000000FFFFFFFFFFFFFFFFFFFFFFFFFFFFFFFFFFFFFFFFFFFFFFFFFFFF00FFFFFFFF00FFFFFFFFFFFFFFFFFFFFFFFFFFFFFFFFFFFFFFFFFFFFFFFFFFFF00FF00000000FFFFFFFFFFFFFFFFFFFFFFFFFFFFFFFFFFFFFFFFFFFFFFFFFFFF0000FFFF0000FFFFFFFFFFFFFFFFFFFFFFFFFFFFFFFFFFFFFFFFFFFFFFFFFFFF
310
00FFFFFF0000FFFFFFFFFFFFFFFFFFFFFFFFFFFFFFFFFFFFFFFFFFFFFFFFFFFF00FFFFFF0000FFFFFFFFFFFFFFFFFFFFFFFFFFFFFFFFFFFFFFFFFFFFFFFFFFFF00FFFFFF0000FFFFFFFFFFFFFFFFFFFFFFFFFFFFFFFFFFFFFFFFFFFFFFFFFFFF00FFFFFF0000FFFFFFFFFFFFFFFFFFFFFFFFFFFFFFFFFFFFFFFFFFFFFFFFFF
310
FF00FFFFFF0000FFFFFFFFFFFFFFFFFFFFFFFFFFFFFFFFFFFFFFFFFFFFFFFFFFFF00FF03FF0000FFFFFFFFFFFFFFFFFFFFFFFFFFFFFFFFFFFFFFFFFFFFFFFFFFFF00FF03030000FFFFFFFFFFFFFFFFFFFFFFFFFFFFFFFFFFFFFFFFFFFFFFFFFFFF00FFFFFF0000FFFFFFFFFFFFFFFFFFFFFFFFFFFFFFFFFFFFFFFFFFFFFFFF
310
FFFF00FFFFFF0000FFFFFFFFFFFFFFFFFFFFFFFFFFFFFFFFFFFFFFFFFFFFFFFFFFFF00FFFFFF0000FFFFFFFFFFFFFFFFFFFFFFFFFFFFFFFFFFFFFFFFFFFFFFFFFFFF00FFFFFF0000FFFFFFFFFFFFFFFFFFFFFFFFFFFFFFFFFFFFFFFFFFFFFFFFFFFF00FFFFFF0000FFFFFFFFFFFFFFFFFFFFFFFFFFFFFFFFFFFFFFFFFFFFFF
310
FFFFFF00FFFFFF0000FFFFFFFFFFFFFFFFFFFFFFFFFFFFFFFFFFFFFFFFFFFFFFFFFFFF000000000000FFFFFFFFFFFFFFFFFFFFFFFFFFFFFFFFFFFFFFFFFFFFFFFFFFFF00FFFFFFFF00FFFFFFFFFFFFFFFFFFFFFFFFFFFFFFFFFFFFFFFFFFFFFFFFFFFF000000000000FFFFFFFFFFFFFFFFFFFFFFFFFFFFFFFFFFFFFFFFFFFF
310
FFFFFFFF000000000000FFFFFFFFFFFFFFFFFFFFFFFFFFFFFFFFFFFFFFFFFFFFFFFFFFFF000000000000FFFFFFFFFFFFFFFFFFFFFFFFFFFFFFFFFFFFFFFFFFFFFFFFFFFF00FFFFFF0000FFFFFFFFFFFFFFFFFFFFFFFFFFFFFFFFFFFFFFFFFFFFFFFFFFFFFF00000000FFFFFFFFFFFFFFFFFFFFFFFFFFFFFFFFFFFFFFFFFFFF
310
FFFFFFFFFFFFFFFFFFFFFFFFFFFFFFFFFFFFFFFFFFFFFFFFFFFFFFFFFFFFFFFFFFFFFFFFFFFFFFFFFFFFFFFFFFFFFFFFFFFFFFFFFFFFFFFF
102
{BLKREFS
331
AE93
102
}
  0
ENDTAB
  0
ENDSEC
  0
SECTION
  2
BLOCKS
  0
BLOCK
  5
1B
330
1A
100
AcDbEntity
  8
0
100
AcDbBlockBegin
  2
*MODEL_SPACE
 70
     0
 10
0.0
 20
0.0
 30
0.0
  3
*MODEL_SPACE
  1

  0
ENDBLK
  5
1C
330
1A
100
AcDbEntity
  8
0
100
AcDbBlockEnd
  0
BLOCK
  5
18
330
17
100
AcDbEntity
 67
     1
  8
0
100
AcDbBlockBegin
  2
*PAPER_SPACE
 70
     0
 10
0.0
 20
0.0
 30
0.0
  3
*PAPER_SPACE
  1

  0
ENDBLK
  5
19
330
17
100
AcDbEntity
 67
     1
  8
0
100
AcDbBlockEnd
  0
BLOCK
  5
BB
330
BA
100
AcDbEntity
  8
0
100
AcDbBlockBegin
  2
_OPEN
 70
     0
 10
0.0
 20
0.0
 30
0.0
  3
_OPEN
  1

  0
LINE
  5
BC
330
BA
100
AcDbEntity
  8
0
  6
ByBlock
 62
     0
100
AcDbLine
 10
-1.0
 20
0.1666666666666666
 30
0.0
 11
0.0
 21
0.0
 31
0.0
  0
LINE
  5
BD
330
BA
100
AcDbEntity
  8
0
  6
ByBlock
 62
     0
100
AcDbLine
 10
0.0
 20
0.0
 30
0.0
 11
-1.0
 21
-0.1666666666666666
 31
0.0
  0
LINE
  5
BE
330
BA
100
AcDbEntity
  8
0
  6
ByBlock
 62
     0
100
AcDbLine
 10
0.0
 20
0.0
 30
0.0
 11
-1.0
 21
0.0
 31
0.0
  0
ENDBLK
  5
BF
330
BA
100
AcDbEntity
  8
0
100
AcDbBlockEnd
  0
BLOCK
  5
74A0
330
749F
100
AcDbEntity
  8
0
100
AcDbBlockBegin
  2
_DOT
 70
     0
 10
0.0
 20
0.0
 30
0.0
  3
_DOT
  1

  0
LWPOLYLINE
  5
74A1
330
749F
100
AcDbEntity
  8
0
  6
ByBlock
 62
     0
100
AcDbPolyline
 90
        2
 70
     1
 43
0.5
 10
-0.25
 20
0.0
 42
1.0
 10
0.25
 20
0.0
 42
1.0
  0
LINE
  5
74A5
330
749F
100
AcDbEntity
  8
0
  6
ByBlock
 62
     0
100
AcDbLine
 10
-0.5
 20
0.0
 30
0.0
 11
-1.0
 21
0.0
 31
0.0
  0
ENDBLK
  5
74A6
330
749F
100
AcDbEntity
  8
0
100
AcDbBlockEnd
  0
BLOCK
  5
A47D
330
A473
100
AcDbEntity
  8
0
100
AcDbBlockBegin
  2
*D2
 70
     1
 10
0.0
 20
0.0
 30
0.0
  3
*D2
  1

  0
LINE
  5
B1FD
330
A473
100
AcDbEntity
  8
SUNPOU
 62
     0
370
    -2
100
AcDbLine
 10
282.5
 20
238.5
 30
0.0
 11
282.5
 21
260.5
 31
0.0
  0
LINE
  5
B1FE
330
A473
100
AcDbEntity
  8
SUNPOU
 62
     0
370
    -2
100
AcDbLine
 10
197.5
 20
238.5
 30
0.0
 11
197.5
 21
260.5
 31
0.0
  0
LINE
  5
B1FF
330
A473
100
AcDbEntity
  8
SUNPOU
 62
     0
370
    -2
100
AcDbLine
 10
280.0
 20
260.0
 30
0.0
 11
200.0
 21
260.0
 31
0.0
  0
INSERT
  5
B200
330
A473
100
AcDbEntity
  8
SUNPOU
 62
     0
370
    -2
100
AcDbBlockReference
  2
_OPEN
 10
282.5
 20
260.0
 30
0.0
 41
2.5
 42
2.5
 43
2.5
  0
INSERT
  5
B201
330
A473
100
AcDbEntity
  8
SUNPOU
 62
     0
370
    -2
100
AcDbBlockReference
  2
_OPEN
 10
197.5
 20
260.0
 30
0.0
 41
2.5
 42
2.5
 43
2.5
 50
180.0
  0
MTEXT
  5
B202
330
A473
100
AcDbEntity
  8
SUNPOU
 62
     0
100
AcDbMText
 10
240.0
 20
262.5
 30
0.0
 40
4.0
 41
0.0
 71
     5
 72
     1
  1
\A1;85
 73
     1
 44
1.0
1001
ACAD
1000
MTEXTBEGIN
1070
    73
1070
     1
1070
    44
1040
1.0
1070
    74
1070
     0
1000
MTEXTEND
  0
POINT
  5
B203
330
A473
100
AcDbEntity
  8
DEFPOINTS
 62
     0
100
AcDbPoint
 10
282.5
 20
238.0
 30
0.0
  0
POINT
  5
B204
330
A473
100
AcDbEntity
  8
DEFPOINTS
 62
     0
100
AcDbPoint
 10
197.5
 20
238.0
 30
0.0
  0
POINT
  5
B205
330
A473
100
AcDbEntity
  8
DEFPOINTS
 62
     0
100
AcDbPoint
 10
197.5
 20
260.0
 30
0.0
  0
ENDBLK
  5
A47E
330
A473
100
AcDbEntity
  8
0
100
AcDbBlockEnd
  0
BLOCK
  5
A489
330
A47F
100
AcDbEntity
  8
0
100
AcDbBlockBegin
  2
*D3
 70
     1
 10
0.0
 20
0.0
 30
0.0
  3
*D3
  1

  0
LINE
  5
B206
330
A47F
100
AcDbEntity
  8
SUNPOU
 62
     0
370
    -2
100
AcDbLine
 10
267.5
 20
236.5
 30
0.0
 11
267.5
 21
250.5
 31
0.0
  0
LINE
  5
B207
330
A47F
100
AcDbEntity
  8
SUNPOU
 62
     0
370
    -2
100
AcDbLine
 10
212.5
 20
236.5
 30
0.0
 11
212.5
 21
250.5
 31
0.0
  0
LINE
  5
B208
330
A47F
100
AcDbEntity
  8
SUNPOU
 62
     0
370
    -2
100
AcDbLine
 10
265.0
 20
250.0
 30
0.0
 11
215.0
 21
250.0
 31
0.0
  0
INSERT
  5
B209
330
A47F
100
AcDbEntity
  8
SUNPOU
 62
     0
370
    -2
100
AcDbBlockReference
  2
_OPEN
 10
267.5
 20
250.0
 30
0.0
 41
2.5
 42
2.5
 43
2.5
  0
INSERT
  5
B20A
330
A47F
100
AcDbEntity
  8
SUNPOU
 62
     0
370
    -2
100
AcDbBlockReference
  2
_OPEN
 10
212.5
 20
250.0
 30
0.0
 41
2.5
 42
2.5
 43
2.5
 50
180.0
  0
MTEXT
  5
B20B
330
A47F
100
AcDbEntity
  8
SUNPOU
 62
     0
100
AcDbMText
 10
240.0
 20
252.5
 30
0.0
 40
4.0
 41
0.0
 71
     5
 72
     1
  1
\A1;55
 73
     1
 44
1.0
1001
ACAD
1000
MTEXTBEGIN
1070
    73
1070
     1
1070
    44
1040
1.0
1070
    74
1070
     0
1000
MTEXTEND
  0
POINT
  5
B20C
330
A47F
100
AcDbEntity
  8
DEFPOINTS
 62
     0
100
AcDbPoint
 10
267.5
 20
236.0
 30
0.0
  0
POINT
  5
B20D
330
A47F
100
AcDbEntity
  8
DEFPOINTS
 62
     0
100
AcDbPoint
 10
212.5
 20
236.0
 30
0.0
  0
POINT
  5
B20E
330
A47F
100
AcDbEntity
  8
DEFPOINTS
 62
     0
100
AcDbPoint
 10
212.5
 20
250.0
 30
0.0
  0
ENDBLK
  5
A48A
330
A47F
100
AcDbEntity
  8
0
100
AcDbBlockEnd
  0
BLOCK
  5
A495
330
A48B
100
AcDbEntity
  8
0
100
AcDbBlockBegin
  2
*D4
 70
     1
 10
0.0
 20
0.0
 30
0.0
  3
*D4
  1

  0
LINE
  5
B1EB
330
A48B
100
AcDbEntity
  8
SUNPOU
 62
     0
370
    -2
100
AcDbLine
 10
268.0
 20
124.0
 30
0.0
 11
300.5366363948458
 21
124.0
 31
0.0
  0
LINE
  5
B1EC
330
A48B
100
AcDbEntity
  8
SUNPOU
 62
     0
370
    -2
100
AcDbLine
 10
268.0
 20
236.0
 30
0.0
 11
300.5366363948458
 21
236.0
 31
0.0
  0
LINE
  5
B1ED
330
A48B
100
AcDbEntity
  8
SUNPOU
 62
     0
370
    -2
100
AcDbLine
 10
300.0366363948458
 20
126.5
 30
0.0
 11
300.0366363948458
 21
233.5
 31
0.0
  0
INSERT
  5
B1EE
330
A48B
100
AcDbEntity
  8
SUNPOU
 62
     0
370
    -2
100
AcDbBlockReference
  2
_OPEN
 10
300.0366363948458
 20
124.0
 30
0.0
 41
2.5
 42
2.5
 43
2.5
 50
270.0
  0
INSERT
  5
B1EF
330
A48B
100
AcDbEntity
  8
SUNPOU
 62
     0
370
    -2
100
AcDbBlockReference
  2
_OPEN
 10
300.0366363948458
 20
236.0
 30
0.0
 41
2.5
 42
2.5
 43
2.5
 50
90.0
  0
MTEXT
  5
B1F0
330
A48B
100
AcDbEntity
  8
SUNPOU
 62
     0
100
AcDbMText
 10
297.5366363948457
 20
180.0
 30
0.0
 40
4.0
 41
0.0
 71
     5
 72
     1
  1
\A1;112
 11
0.0000000000000001
 21
1.0
 31
0.0
 73
     1
 44
1.0
1001
ACAD
1000
MTEXTBEGIN
1070
    73
1070
     1
1070
    44
1040
1.0
1070
    74
1070
     0
1000
MTEXTEND
  0
POINT
  5
B1F1
330
A48B
100
AcDbEntity
  8
DEFPOINTS
 62
     0
100
AcDbPoint
 10
267.5
 20
124.0
 30
0.0
  0
POINT
  5
B1F2
330
A48B
100
AcDbEntity
  8
DEFPOINTS
 62
     0
100
AcDbPoint
 10
267.5
 20
236.0
 30
0.0
  0
POINT
  5
B1F3
330
A48B
100
AcDbEntity
  8
DEFPOINTS
 62
     0
100
AcDbPoint
 10
300.0366363948458
 20
236.0
 30
0.0
  0
ENDBLK
  5
A496
330
A48B
100
AcDbEntity
  8
0
100
AcDbBlockEnd
  0
BLOCK
  5
A4A1
330
A497
100
AcDbEntity
  8
0
100
AcDbBlockBegin
  2
*D5
 70
     1
 10
0.0
 20
0.0
 30
0.0
  3
*D5
  1

  0
LINE
  5
B1F4
330
A497
100
AcDbEntity
  8
SUNPOU
 62
     0
370
    -2
100
AcDbLine
 10
281.0
 20
120.0
 30
0.0
 11
310.4402341967995
 21
120.0
 31
0.0
  0
LINE
  5
B1F5
330
A497
100
AcDbEntity
  8
SUNPOU
 62
     0
370
    -2
100
AcDbLine
 10
281.0
 20
240.0
 30
0.0
 11
310.4402341967996
 21
240.0
 31
0.0
  0
LINE
  5
B1F6
330
A497
100
AcDbEntity
  8
SUNPOU
 62
     0
370
    -2
100
AcDbLine
 10
309.9402341967995
 20
122.5
 30
0.0
 11
309.9402341967996
 21
237.5
 31
0.0
  0
INSERT
  5
B1F7
330
A497
100
AcDbEntity
  8
SUNPOU
 62
     0
370
    -2
100
AcDbBlockReference
  2
_OPEN
 10
309.9402341967995
 20
120.0
 30
0.0
 41
2.5
 42
2.5
 43
2.5
 50
270.0
  0
INSERT
  5
B1F8
330
A497
100
AcDbEntity
  8
SUNPOU
 62
     0
370
    -2
100
AcDbBlockReference
  2
_OPEN
 10
309.9402341967996
 20
240.0
 30
0.0
 41
2.5
 42
2.5
 43
2.5
 50
90.0
  0
MTEXT
  5
B1F9
330
A497
100
AcDbEntity
  8
SUNPOU
 62
     0
100
AcDbMText
 10
307.4402341967995
 20
180.0
 30
0.0
 40
4.0
 41
0.0
 71
     5
 72
     1
  1
\A1;120
 11
0.0000000000000001
 21
1.0
 31
0.0
 73
     1
 44
1.0
1001
ACAD
1000
MTEXTBEGIN
1070
    73
1070
     1
1070
    44
1040
1.0
1070
    74
1070
     0
1000
MTEXTEND
  0
POINT
  5
B1FA
330
A497
100
AcDbEntity
  8
DEFPOINTS
 62
     0
100
AcDbPoint
 10
280.5
 20
120.0
 30
0.0
  0
POINT
  5
B1FB
330
A497
100
AcDbEntity
  8
DEFPOINTS
 62
     0
100
AcDbPoint
 10
280.5
 20
240.0
 30
0.0
  0
POINT
  5
B1FC
330
A497
100
AcDbEntity
  8
DEFPOINTS
 62
     0
100
AcDbPoint
 10
309.9402341967996
 20
240.0
 30
0.0
  0
ENDBLK
  5
A4A2
330
A497
100
AcDbEntity
  8
0
100
AcDbBlockEnd
  0
BLOCK
  5
A666
330
A665
100
AcDbEntity
  8
0
100
AcDbBlockBegin
  2
ML800-12P-1
 70
     0
 10
0.0
 20
0.0
 30
0.0
  3
ML800-12P-1
  1

  0
LINE
  5
A668
330
A665
100
AcDbEntity
  8
0
100
AcDbLine
 10
0.0000000000000284
 20
30.0
 30
0.0
 11
-0.0000000000000426
 21
-31.0
 31
0.0
  0
LINE
  5
A669
330
A665
100
AcDbEntity
  8
0
100
AcDbLine
 10
1.500000000000028
 20
30.0
 30
0.0
 11
1.499999999999957
 21
-31.0
 31
0.0
  0
LINE
  5
A66A
330
A665
100
AcDbEntity
  8
0
100
AcDbLine
 10
5.899999999999934
 20
30.0
 30
0.0
 11
5.899999999999906
 21
-31.0
 31
0.0
  0
LINE
  5
A66B
330
A665
100
AcDbEntity
  8
0
100
AcDbLine
 10
12.99999999999998
 20
30.0
 30
0.0
 11
12.99999999999996
 21
-31.0
 31
0.0
  0
LINE
  5
A66C
330
A665
100
AcDbEntity
  8
0
100
AcDbLine
 10
6.399999999999934
 20
23.30000000000001
 30
0.0
 11
6.399999999999963
 21
20.5
 31
0.0
  0
LINE
  5
A66D
330
A665
100
AcDbEntity
  8
0
100
AcDbLine
 10
7.399999999999991
 20
23.30000000000001
 30
0.0
 11
7.399999999999963
 21
20.5
 31
0.0
  0
LINE
  5
A66E
330
A665
100
AcDbEntity
  8
0
100
AcDbLine
 10
7.899999999999991
 20
23.80000000000001
 30
0.0
 11
7.899999999999934
 21
20.0
 31
0.0
  0
CIRCLE
  5
A66F
330
A665
100
AcDbEntity
  8
0
100
AcDbCircle
 10
3.699999999999974
 20
22.5
 30
0.0
 40
1.7
  0
CIRCLE
  5
A670
330
A665
100
AcDbEntity
  8
0
100
AcDbCircle
 10
3.699999999999974
 20
22.5
 30
0.0
 40
1.0
  0
LINE
  5
A671
330
A665
100
AcDbEntity
  8
0
100
AcDbLine
 10
7.899999999999991
 20
-11.19999999999999
 30
0.0
 11
7.899999999999934
 21
-15.0
 31
0.0
  0
CIRCLE
  5
A672
330
A665
100
AcDbEntity
  8
0
100
AcDbCircle
 10
3.699999999999974
 20
-17.5
 30
0.0
 40
1.0
  0
CIRCLE
  5
A673
330
A665
100
AcDbEntity
  8
0
100
AcDbCircle
 10
3.699999999999974
 20
-27.5
 30
0.0
 40
1.7
  0
CIRCLE
  5
A674
330
A665
100
AcDbEntity
  8
0
100
AcDbCircle
 10
3.699999999999974
 20
-27.5
 30
0.0
 40
1.0
  0
CIRCLE
  5
A675
330
A665
100
AcDbEntity
  8
0
100
AcDbCircle
 10
3.699999999999974
 20
-22.5
 30
0.0
 40
1.7
  0
CIRCLE
  5
A676
330
A665
100
AcDbEntity
  8
0
100
AcDbCircle
 10
3.699999999999974
 20
-22.5
 30
0.0
 40
1.0
  0
CIRCLE
  5
A677
330
A665
100
AcDbEntity
  8
0
100
AcDbCircle
 10
3.699999999999974
 20
-17.5
 30
0.0
 40
1.7
  0
LINE
  5
A678
330
A665
100
AcDbEntity
  8
0
100
AcDbLine
 10
12.99999999999998
 20
-15.0
 30
0.0
 11
-0.0000000000000142
 21
-15.0
 31
0.0
  0
LINE
  5
A679
330
A665
100
AcDbEntity
  8
0
100
AcDbLine
 10
12.99999999999998
 20
-20.0
 30
0.0
 11
-0.0000000000000142
 21
-20.0
 31
0.0
  0
LINE
  5
A67A
330
A665
100
AcDbEntity
  8
0
100
AcDbLine
 10
12.99999999999996
 20
-25.0
 30
0.0
 11
-0.0000000000000142
 21
-25.0
 31
0.0
  0
LINE
  5
A67B
330
A665
100
AcDbEntity
  8
0
100
AcDbLine
 10
12.99999999999996
 20
-31.0
 30
0.0
 11
-0.0000000000000426
 21
-31.0
 31
0.0
  0
LINE
  5
A67C
330
A665
100
AcDbEntity
  8
0
100
AcDbLine
 10
12.99999999999996
 20
-30.0
 30
0.0
 11
-0.0000000000000426
 21
-30.0
 31
0.0
  0
LINE
  5
A67D
330
A665
100
AcDbEntity
  8
0
100
AcDbLine
 10
7.899999999999991
 20
-21.19999999999999
 30
0.0
 11
7.899999999999934
 21
-25.0
 31
0.0
  0
LINE
  5
A67E
330
A665
100
AcDbEntity
  8
0
100
AcDbLine
 10
7.899999999999963
 20
-26.19999999999999
 30
0.0
 11
7.899999999999906
 21
-30.0
 31
0.0
  0
LINE
  5
A67F
330
A665
100
AcDbEntity
  8
0
100
AcDbLine
 10
7.399999999999963
 20
-26.69999999999999
 30
0.0
 11
7.399999999999934
 21
-29.5
 31
0.0
  0
LINE
  5
A680
330
A665
100
AcDbEntity
  8
0
100
AcDbLine
 10
6.399999999999906
 20
-26.69999999999999
 30
0.0
 11
6.399999999999934
 21
-29.5
 31
0.0
  0
LINE
  5
A681
330
A665
100
AcDbEntity
  8
0
100
AcDbLine
 10
7.399999999999963
 20
-26.69999999999999
 30
0.0
 11
6.399999999999906
 21
-26.69999999999999
 31
0.0
  0
LINE
  5
A682
330
A665
100
AcDbEntity
  8
0
100
AcDbLine
 10
7.399999999999906
 20
-29.5
 30
0.0
 11
6.399999999999906
 21
-29.5
 31
0.0
  0
LINE
  5
A683
330
A665
100
AcDbEntity
  8
0
100
AcDbLine
 10
7.899999999999906
 20
-26.19999999999999
 30
0.0
 11
5.899999999999934
 21
-26.19999999999999
 31
0.0
  0
LINE
  5
A684
330
A665
100
AcDbEntity
  8
0
100
AcDbLine
 10
7.899999999999934
 20
-16.19999999999999
 30
0.0
 11
5.899999999999963
 21
-16.19999999999999
 31
0.0
  0
LINE
  5
A685
330
A665
100
AcDbEntity
  8
0
100
AcDbLine
 10
7.399999999999991
 20
-16.69999999999999
 30
0.0
 11
6.399999999999934
 21
-16.69999999999999
 31
0.0
  0
LINE
  5
A686
330
A665
100
AcDbEntity
  8
0
100
AcDbLine
 10
7.899999999999934
 20
-21.19999999999999
 30
0.0
 11
5.899999999999963
 21
-21.19999999999999
 31
0.0
  0
LINE
  5
A687
330
A665
100
AcDbEntity
  8
0
100
AcDbLine
 10
7.399999999999991
 20
-21.69999999999999
 30
0.0
 11
6.399999999999934
 21
-21.69999999999999
 31
0.0
  0
LINE
  5
A688
330
A665
100
AcDbEntity
  8
0
100
AcDbLine
 10
7.399999999999934
 20
-24.5
 30
0.0
 11
6.399999999999934
 21
-24.5
 31
0.0
  0
LINE
  5
A689
330
A665
100
AcDbEntity
  8
0
100
AcDbLine
 10
7.399999999999991
 20
-21.69999999999999
 30
0.0
 11
7.399999999999963
 21
-24.5
 31
0.0
  0
LINE
  5
A68A
330
A665
100
AcDbEntity
  8
0
100
AcDbLine
 10
6.399999999999934
 20
-21.69999999999999
 30
0.0
 11
6.399999999999963
 21
-24.5
 31
0.0
  0
LINE
  5
A68B
330
A665
100
AcDbEntity
  8
0
100
AcDbLine
 10
7.399999999999934
 20
-19.5
 30
0.0
 11
6.399999999999934
 21
-19.5
 31
0.0
  0
LINE
  5
A68C
330
A665
100
AcDbEntity
  8
0
100
AcDbLine
 10
7.399999999999991
 20
-16.69999999999999
 30
0.0
 11
7.399999999999963
 21
-19.5
 31
0.0
  0
LINE
  5
A68D
330
A665
100
AcDbEntity
  8
0
100
AcDbLine
 10
6.399999999999934
 20
-16.69999999999999
 30
0.0
 11
6.399999999999963
 21
-19.5
 31
0.0
  0
LINE
  5
A68E
330
A665
100
AcDbEntity
  8
0
100
AcDbLine
 10
7.899999999999991
 20
-16.19999999999999
 30
0.0
 11
7.899999999999934
 21
-20.0
 31
0.0
  0
CIRCLE
  5
A68F
330
A665
100
AcDbEntity
  8
0
100
AcDbCircle
 10
3.699999999999974
 20
2.5
 30
0.0
 40
1.7
  0
CIRCLE
  5
A690
330
A665
100
AcDbEntity
  8
0
100
AcDbCircle
 10
3.699999999999974
 20
-2.5
 30
0.0
 40
1.0
  0
CIRCLE
  5
A691
330
A665
100
AcDbEntity
  8
0
100
AcDbCircle
 10
3.699999999999974
 20
-2.5
 30
0.0
 40
1.7
  0
CIRCLE
  5
A692
330
A665
100
AcDbEntity
  8
0
100
AcDbCircle
 10
3.699999999999974
 20
2.5
 30
0.0
 40
1.0
  0
LINE
  5
A693
330
A665
100
AcDbEntity
  8
0
100
AcDbLine
 10
12.99999999999998
 20
-5.0
 30
0.0
 11
-0.0000000000000142
 21
-5.0
 31
0.0
  0
LINE
  5
A694
330
A665
100
AcDbEntity
  8
0
100
AcDbLine
 10
12.99999999999998
 20
0.0
 30
0.0
 11
-0.0000000000000142
 21
0.0
 31
0.0
  0
CIRCLE
  5
A695
330
A665
100
AcDbEntity
  8
0
100
AcDbCircle
 10
3.699999999999974
 20
-12.5
 30
0.0
 40
1.7
  0
CIRCLE
  5
A696
330
A665
100
AcDbEntity
  8
0
100
AcDbCircle
 10
3.699999999999974
 20
-12.5
 30
0.0
 40
1.0
  0
CIRCLE
  5
A697
330
A665
100
AcDbEntity
  8
0
100
AcDbCircle
 10
3.699999999999974
 20
-7.5
 30
0.0
 40
1.0
  0
CIRCLE
  5
A698
330
A665
100
AcDbEntity
  8
0
100
AcDbCircle
 10
3.699999999999974
 20
-7.5
 30
0.0
 40
1.7
  0
LINE
  5
A699
330
A665
100
AcDbEntity
  8
0
100
AcDbLine
 10
12.99999999999998
 20
-10.0
 30
0.0
 11
-0.0000000000000142
 21
-10.0
 31
0.0
  0
LINE
  5
A69A
330
A665
100
AcDbEntity
  8
0
100
AcDbLine
 10
7.899999999999934
 20
-11.19999999999999
 30
0.0
 11
5.899999999999963
 21
-11.19999999999999
 31
0.0
  0
LINE
  5
A69B
330
A665
100
AcDbEntity
  8
0
100
AcDbLine
 10
7.399999999999991
 20
-11.69999999999999
 30
0.0
 11
6.399999999999934
 21
-11.69999999999999
 31
0.0
  0
LINE
  5
A69C
330
A665
100
AcDbEntity
  8
0
100
AcDbLine
 10
7.899999999999934
 20
-6.199999999999988
 30
0.0
 11
5.899999999999963
 21
-6.199999999999988
 31
0.0
  0
LINE
  5
A69D
330
A665
100
AcDbEntity
  8
0
100
AcDbLine
 10
7.399999999999934
 20
-9.5
 30
0.0
 11
6.399999999999934
 21
-9.5
 31
0.0
  0
LINE
  5
A69E
330
A665
100
AcDbEntity
  8
0
100
AcDbLine
 10
7.399999999999991
 20
-6.699999999999988
 30
0.0
 11
6.399999999999934
 21
-6.699999999999988
 31
0.0
  0
LINE
  5
A69F
330
A665
100
AcDbEntity
  8
0
100
AcDbLine
 10
6.399999999999934
 20
-6.699999999999988
 30
0.0
 11
6.399999999999963
 21
-9.5
 31
0.0
  0
LINE
  5
A6A0
330
A665
100
AcDbEntity
  8
0
100
AcDbLine
 10
7.399999999999991
 20
-6.699999999999988
 30
0.0
 11
7.399999999999963
 21
-9.5
 31
0.0
  0
LINE
  5
A6A1
330
A665
100
AcDbEntity
  8
0
100
AcDbLine
 10
7.899999999999991
 20
-6.199999999999988
 30
0.0
 11
7.899999999999934
 21
-10.0
 31
0.0
  0
LINE
  5
A6A2
330
A665
100
AcDbEntity
  8
0
100
AcDbLine
 10
7.399999999999934
 20
-14.5
 30
0.0
 11
6.399999999999934
 21
-14.5
 31
0.0
  0
LINE
  5
A6A3
330
A665
100
AcDbEntity
  8
0
100
AcDbLine
 10
6.399999999999934
 20
-11.69999999999999
 30
0.0
 11
6.399999999999963
 21
-14.5
 31
0.0
  0
LINE
  5
A6A4
330
A665
100
AcDbEntity
  8
0
100
AcDbLine
 10
7.399999999999991
 20
-11.69999999999999
 30
0.0
 11
7.399999999999963
 21
-14.5
 31
0.0
  0
LINE
  5
A6A5
330
A665
100
AcDbEntity
  8
0
100
AcDbLine
 10
7.399999999999991
 20
3.300000000000011
 30
0.0
 11
6.399999999999934
 21
3.300000000000011
 31
0.0
  0
LINE
  5
A6A6
330
A665
100
AcDbEntity
  8
0
100
AcDbLine
 10
7.899999999999934
 20
3.800000000000011
 30
0.0
 11
5.899999999999963
 21
3.800000000000011
 31
0.0
  0
LINE
  5
A6A7
330
A665
100
AcDbEntity
  8
0
100
AcDbLine
 10
7.399999999999934
 20
0.5
 30
0.0
 11
6.399999999999934
 21
0.5
 31
0.0
  0
LINE
  5
A6A8
330
A665
100
AcDbEntity
  8
0
100
AcDbLine
 10
6.399999999999934
 20
-1.699999999999988
 30
0.0
 11
6.399999999999963
 21
-4.5
 31
0.0
  0
LINE
  5
A6A9
330
A665
100
AcDbEntity
  8
0
100
AcDbLine
 10
7.399999999999991
 20
-1.699999999999988
 30
0.0
 11
7.399999999999963
 21
-4.5
 31
0.0
  0
LINE
  5
A6AA
330
A665
100
AcDbEntity
  8
0
100
AcDbLine
 10
7.899999999999991
 20
-1.199999999999988
 30
0.0
 11
7.899999999999934
 21
-5.0
 31
0.0
  0
LINE
  5
A6AB
330
A665
100
AcDbEntity
  8
0
100
AcDbLine
 10
7.399999999999934
 20
-4.5
 30
0.0
 11
6.399999999999934
 21
-4.5
 31
0.0
  0
LINE
  5
A6AC
330
A665
100
AcDbEntity
  8
0
100
AcDbLine
 10
7.399999999999991
 20
-1.699999999999988
 30
0.0
 11
6.399999999999934
 21
-1.699999999999988
 31
0.0
  0
LINE
  5
A6AD
330
A665
100
AcDbEntity
  8
0
100
AcDbLine
 10
7.899999999999934
 20
-1.199999999999988
 30
0.0
 11
5.899999999999963
 21
-1.199999999999988
 31
0.0
  0
LINE
  5
A6AE
330
A665
100
AcDbEntity
  8
0
100
AcDbLine
 10
7.899999999999991
 20
3.800000000000011
 30
0.0
 11
7.899999999999934
 21
0.0
 31
0.0
  0
LINE
  5
A6AF
330
A665
100
AcDbEntity
  8
0
100
AcDbLine
 10
6.399999999999934
 20
3.300000000000011
 30
0.0
 11
6.399999999999963
 21
0.5
 31
0.0
  0
LINE
  5
A6B0
330
A665
100
AcDbEntity
  8
0
100
AcDbLine
 10
7.399999999999991
 20
3.300000000000011
 30
0.0
 11
7.399999999999963
 21
0.5
 31
0.0
  0
CIRCLE
  5
A6B1
330
A665
100
AcDbEntity
  8
0
100
AcDbCircle
 10
3.699999999999974
 20
17.5
 30
0.0
 40
1.7
  0
CIRCLE
  5
A6B2
330
A665
100
AcDbEntity
  8
0
100
AcDbCircle
 10
3.699999999999974
 20
17.5
 30
0.0
 40
1.0
  0
CIRCLE
  5
A6B3
330
A665
100
AcDbEntity
  8
0
100
AcDbCircle
 10
3.699999999999974
 20
12.5
 30
0.0
 40
1.0
  0
CIRCLE
  5
A6B4
330
A665
100
AcDbEntity
  8
0
100
AcDbCircle
 10
3.699999999999974
 20
12.5
 30
0.0
 40
1.7
  0
CIRCLE
  5
A6B5
330
A665
100
AcDbEntity
  8
0
100
AcDbCircle
 10
3.699999999999974
 20
7.5
 30
0.0
 40
1.0
  0
CIRCLE
  5
A6B6
330
A665
100
AcDbEntity
  8
0
100
AcDbCircle
 10
3.699999999999974
 20
7.5
 30
0.0
 40
1.7
  0
LINE
  5
A6B7
330
A665
100
AcDbEntity
  8
0
100
AcDbLine
 10
12.99999999999998
 20
5.0
 30
0.0
 11
-0.0000000000000142
 21
5.0
 31
0.0
  0
LINE
  5
A6B8
330
A665
100
AcDbEntity
  8
0
100
AcDbLine
 10
12.99999999999998
 20
10.0
 30
0.0
 11
-0.0000000000000142
 21
10.0
 31
0.0
  0
LINE
  5
A6B9
330
A665
100
AcDbEntity
  8
0
100
AcDbLine
 10
12.99999999999998
 20
15.0
 30
0.0
 11
-0.0000000000000142
 21
15.0
 31
0.0
  0
LINE
  5
A6BA
330
A665
100
AcDbEntity
  8
0
100
AcDbLine
 10
12.99999999999998
 20
20.0
 30
0.0
 11
-0.0000000000000142
 21
20.0
 31
0.0
  0
LINE
  5
A6BB
330
A665
100
AcDbEntity
  8
0
100
AcDbLine
 10
7.899999999999991
 20
13.80000000000001
 30
0.0
 11
7.899999999999934
 21
10.0
 31
0.0
  0
LINE
  5
A6BC
330
A665
100
AcDbEntity
  8
0
100
AcDbLine
 10
7.899999999999934
 20
8.800000000000011
 30
0.0
 11
5.899999999999963
 21
8.800000000000011
 31
0.0
  0
LINE
  5
A6BD
330
A665
100
AcDbEntity
  8
0
100
AcDbLine
 10
7.399999999999991
 20
13.30000000000001
 30
0.0
 11
7.399999999999963
 21
10.5
 31
0.0
  0
LINE
  5
A6BE
330
A665
100
AcDbEntity
  8
0
100
AcDbLine
 10
6.399999999999934
 20
13.30000000000001
 30
0.0
 11
6.399999999999963
 21
10.5
 31
0.0
  0
LINE
  5
A6BF
330
A665
100
AcDbEntity
  8
0
100
AcDbLine
 10
7.399999999999934
 20
10.5
 30
0.0
 11
6.399999999999934
 21
10.5
 31
0.0
  0
LINE
  5
A6C0
330
A665
100
AcDbEntity
  8
0
100
AcDbLine
 10
7.399999999999991
 20
13.30000000000001
 30
0.0
 11
6.399999999999934
 21
13.30000000000001
 31
0.0
  0
LINE
  5
A6C1
330
A665
100
AcDbEntity
  8
0
100
AcDbLine
 10
7.399999999999991
 20
8.300000000000011
 30
0.0
 11
7.399999999999963
 21
5.5
 31
0.0
  0
LINE
  5
A6C2
330
A665
100
AcDbEntity
  8
0
100
AcDbLine
 10
6.399999999999934
 20
8.300000000000011
 30
0.0
 11
6.399999999999963
 21
5.5
 31
0.0
  0
LINE
  5
A6C3
330
A665
100
AcDbEntity
  8
0
100
AcDbLine
 10
7.399999999999934
 20
5.5
 30
0.0
 11
6.399999999999934
 21
5.5
 31
0.0
  0
LINE
  5
A6C4
330
A665
100
AcDbEntity
  8
0
100
AcDbLine
 10
7.399999999999991
 20
8.300000000000011
 30
0.0
 11
6.399999999999934
 21
8.300000000000011
 31
0.0
  0
LINE
  5
A6C5
330
A665
100
AcDbEntity
  8
0
100
AcDbLine
 10
7.899999999999991
 20
8.800000000000011
 30
0.0
 11
7.899999999999934
 21
5.0
 31
0.0
  0
LINE
  5
A6C6
330
A665
100
AcDbEntity
  8
0
100
AcDbLine
 10
7.399999999999934
 20
20.5
 30
0.0
 11
6.399999999999934
 21
20.5
 31
0.0
  0
LINE
  5
A6C7
330
A665
100
AcDbEntity
  8
0
100
AcDbLine
 10
7.399999999999991
 20
18.30000000000001
 30
0.0
 11
6.399999999999934
 21
18.30000000000001
 31
0.0
  0
LINE
  5
A6C8
330
A665
100
AcDbEntity
  8
0
100
AcDbLine
 10
7.399999999999934
 20
15.5
 30
0.0
 11
6.399999999999934
 21
15.5
 31
0.0
  0
LINE
  5
A6C9
330
A665
100
AcDbEntity
  8
0
100
AcDbLine
 10
6.399999999999934
 20
18.30000000000001
 30
0.0
 11
6.399999999999963
 21
15.5
 31
0.0
  0
LINE
  5
A6CA
330
A665
100
AcDbEntity
  8
0
100
AcDbLine
 10
7.399999999999991
 20
18.30000000000001
 30
0.0
 11
7.399999999999963
 21
15.5
 31
0.0
  0
LINE
  5
A6CB
330
A665
100
AcDbEntity
  8
0
100
AcDbLine
 10
7.899999999999934
 20
18.80000000000001
 30
0.0
 11
5.899999999999963
 21
18.80000000000001
 31
0.0
  0
LINE
  5
A6CC
330
A665
100
AcDbEntity
  8
0
100
AcDbLine
 10
7.899999999999934
 20
13.80000000000001
 30
0.0
 11
5.899999999999963
 21
13.80000000000001
 31
0.0
  0
LINE
  5
A6CD
330
A665
100
AcDbEntity
  8
0
100
AcDbLine
 10
7.899999999999991
 20
18.80000000000001
 30
0.0
 11
7.899999999999934
 21
15.0
 31
0.0
  0
LINE
  5
A6CE
330
A665
100
AcDbEntity
  8
0
100
AcDbLine
 10
12.99999999999998
 20
30.0
 30
0.0
 11
-0.0000000000000142
 21
30.0
 31
0.0
  0
LINE
  5
A6CF
330
A665
100
AcDbEntity
  8
0
100
AcDbLine
 10
12.99999999999998
 20
25.0
 30
0.0
 11
-0.0000000000000142
 21
25.0
 31
0.0
  0
CIRCLE
  5
A6D0
330
A665
100
AcDbEntity
  8
0
100
AcDbCircle
 10
3.699999999999974
 20
27.5
 30
0.0
 40
1.0
  0
CIRCLE
  5
A6D1
330
A665
100
AcDbEntity
  8
0
100
AcDbCircle
 10
3.699999999999974
 20
27.5
 30
0.0
 40
1.7
  0
LINE
  5
A6D2
330
A665
100
AcDbEntity
  8
0
100
AcDbLine
 10
7.899999999999991
 20
28.80000000000001
 30
0.0
 11
7.899999999999934
 21
25.0
 31
0.0
  0
LINE
  5
A6D3
330
A665
100
AcDbEntity
  8
0
100
AcDbLine
 10
7.899999999999934
 20
23.80000000000001
 30
0.0
 11
5.899999999999963
 21
23.80000000000001
 31
0.0
  0
LINE
  5
A6D4
330
A665
100
AcDbEntity
  8
0
100
AcDbLine
 10
7.899999999999934
 20
28.80000000000001
 30
0.0
 11
5.899999999999963
 21
28.80000000000001
 31
0.0
  0
LINE
  5
A6D5
330
A665
100
AcDbEntity
  8
0
100
AcDbLine
 10
7.399999999999991
 20
28.30000000000001
 30
0.0
 11
7.399999999999963
 21
25.5
 31
0.0
  0
LINE
  5
A6D6
330
A665
100
AcDbEntity
  8
0
100
AcDbLine
 10
6.399999999999934
 20
28.30000000000001
 30
0.0
 11
6.399999999999963
 21
25.5
 31
0.0
  0
LINE
  5
A6D7
330
A665
100
AcDbEntity
  8
0
100
AcDbLine
 10
7.399999999999934
 20
25.5
 30
0.0
 11
6.399999999999934
 21
25.5
 31
0.0
  0
LINE
  5
A6D8
330
A665
100
AcDbEntity
  8
0
100
AcDbLine
 10
7.399999999999991
 20
28.30000000000001
 30
0.0
 11
6.399999999999934
 21
28.30000000000001
 31
0.0
  0
LINE
  5
A6D9
330
A665
100
AcDbEntity
  8
0
100
AcDbLine
 10
7.399999999999991
 20
23.30000000000001
 30
0.0
 11
6.399999999999934
 21
23.30000000000001
 31
0.0
  0
ENDBLK
  5
A667
330
A665
100
AcDbEntity
  8
0
100
AcDbBlockEnd
  0
BLOCK
  5
AA42
330
AA38
100
AcDbEntity
  8
0
100
AcDbBlockBegin
  2
*D7
 70
     1
 10
0.0
 20
0.0
 30
0.0
  3
*D7
  1

  0
LINE
  5
B20F
330
AA38
100
AcDbEntity
  8
SUNPOU
 62
     0
370
    -2
100
AcDbLine
 10
283.0
 20
54.0
 30
0.0
 11
300.5366363948458
 21
54.0
 31
0.0
  0
LINE
  5
B210
330
AA38
100
AcDbEntity
  8
SUNPOU
 62
     0
370
    -2
100
AcDbLine
 10
283.0
 20
104.0
 30
0.0
 11
300.5366363948458
 21
104.0
 31
0.0
  0
LINE
  5
B211
330
AA38
100
AcDbEntity
  8
SUNPOU
 62
     0
370
    -2
100
AcDbLine
 10
300.0366363948458
 20
56.5
 30
0.0
 11
300.0366363948458
 21
101.5
 31
0.0
  0
INSERT
  5
B212
330
AA38
100
AcDbEntity
  8
SUNPOU
 62
     0
370
    -2
100
AcDbBlockReference
  2
_OPEN
 10
300.0366363948458
 20
54.0
 30
0.0
 41
2.5
 42
2.5
 43
2.5
 50
270.0
  0
INSERT
  5
B213
330
AA38
100
AcDbEntity
  8
SUNPOU
 62
     0
370
    -2
100
AcDbBlockReference
  2
_OPEN
 10
300.0366363948458
 20
104.0
 30
0.0
 41
2.5
 42
2.5
 43
2.5
 50
90.0
  0
MTEXT
  5
B214
330
AA38
100
AcDbEntity
  8
SUNPOU
 62
     0
100
AcDbMText
 10
297.5366363948458
 20
79.00000000000004
 30
0.0
 40
4.0
 41
0.0
 71
     5
 72
     1
  1
\A1;50
 11
0.0000000000000001
 21
1.0
 31
0.0
 73
     1
 44
1.0
1001
ACAD
1000
MTEXTBEGIN
1070
    73
1070
     1
1070
    44
1040
1.0
1070
    74
1070
     0
1000
MTEXTEND
  0
POINT
  5
B215
330
AA38
100
AcDbEntity
  8
DEFPOINTS
 62
     0
100
AcDbPoint
 10
282.5
 20
54.0
 30
0.0
  0
POINT
  5
B216
330
AA38
100
AcDbEntity
  8
DEFPOINTS
 62
     0
100
AcDbPoint
 10
282.5
 20
104.0
 30
0.0
  0
POINT
  5
B217
330
AA38
100
AcDbEntity
  8
DEFPOINTS
 62
     0
100
AcDbPoint
 10
300.0366363948458
 20
104.0
 30
0.0
  0
ENDBLK
  5
AA43
330
AA38
100
AcDbEntity
  8
0
100
AcDbBlockEnd
  0
BLOCK
  5
AC94
330
AC93
100
AcDbEntity
  8
0
100
AcDbBlockBegin
  2
M3-1
 70
     0
 10
0.0
 20
0.0
 30
0.0
  3
M3-1
  1

  0
LINE
  5
AC96
330
AC93
100
AcDbEntity
  8
0
100
AcDbLine
 10
2.650000000000005
 20
1.200000000000059
 30
0.0
 11
-2.649999999999977
 21
1.200000000000002
 31
0.0
  0
LINE
  5
AC97
330
AC93
100
AcDbEntity
  8
0
100
AcDbLine
 10
2.900000000000034
 20
0.4999999999999432
 30
0.0
 11
-2.899999999999977
 21
0.5
 31
0.0
  0
LINE
  5
AC98
330
AC93
100
AcDbEntity
  8
0
100
AcDbLine
 10
2.900000000000005
 20
0.0
 30
0.0
 11
-2.900000000000005
 21
0.0
 31
0.0
  0
ELLIPSE
  5
AC99
330
AC93
100
AcDbEntity
  8
0
100
AcDbEllipse
 10
0.0
 20
1.699999883902833
 30
0.0
 11
-2.650000000000005
 21
0.0000000000000002
 31
0.0
210
0.0
220
0.0
230
1.0
 40
0.596226458904585
 41
2.81960193203065
 42
6.605176028738728
  0
LINE
  5
AC9A
330
AC93
100
AcDbEntity
  8
0
100
AcDbLine
 10
-2.649999999999977
 20
1.200000000000002
 30
0.0
 11
-2.649999999999948
 21
0.5
 31
0.0
  0
LINE
  5
AC9B
330
AC93
100
AcDbEntity
  8
0
100
AcDbLine
 10
-2.899999999999977
 20
0.5
 30
0.0
 11
-2.900000000000005
 21
0.0
 31
0.0
  0
LINE
  5
AC9C
330
AC93
100
AcDbEntity
  8
0
100
AcDbLine
 10
0.5248024564464516
 20
0.4999999999999858
 30
0.0
 11
-0.1751975435536792
 21
1.200000000000002
 31
0.0
  0
LINE
  5
AC9D
330
AC93
100
AcDbEntity
  8
0
100
AcDbLine
 10
0.1712490658532033
 20
0.4999999999999858
 30
0.0
 11
-0.5287509341469275
 21
1.200000000000002
 31
0.0
  0
LINE
  5
AC9E
330
AC93
100
AcDbEntity
  8
0
100
AcDbLine
 10
2.650000000000005
 20
1.200000000000002
 30
0.0
 11
2.650000000000005
 21
0.4999999999999432
 31
0.0
  0
LINE
  5
AC9F
330
AC93
100
AcDbEntity
  8
0
100
AcDbLine
 10
2.900000000000034
 20
0.4999999999999432
 30
0.0
 11
2.900000000000034
 21
0.0000000000000568
 31
0.0
  0
ENDBLK
  5
AC95
330
AC93
100
AcDbEntity
  8
0
100
AcDbBlockEnd
  0
BLOCK
  5
AE47
330
AE46
100
AcDbEntity
  8
0
100
AcDbBlockBegin
  2
17LE40360-1
 70
     0
 10
0.0
 20
0.0
 30
0.0
  3
17LE40360-1
  1

  0
LINE
  5
AE49
330
AE46
100
AcDbEntity
  8
0
100
AcDbLine
 10
-2.168150249962938
 20
-29.30679018699328
 30
0.0
 11
-6.529778496979308
 21
-33.70667833091335
 31
0.0
  0
LINE
  5
AE4A
330
AE46
100
AcDbEntity
  8
0
100
AcDbLine
 10
-5.911764701521295
 20
-31.11705882249442
 30
0.0
 11
-1.41176468172586
 21
-33.5170588235294
 31
0.0
  0
LINE
  5
AE4B
330
AE46
100
AcDbEntity
  8
0
100
AcDbLine
 10
1.411764730038836
 20
-33.5170588235294
 30
0.0
 11
5.911764705882372
 21
-31.11705882352942
 31
0.0
  0
LINE
  5
AE4C
330
AE46
100
AcDbEntity
  8
0
100
AcDbLine
 10
2.167639415789263
 20
-29.30627533880238
 30
0.0
 11
6.527566095360153
 21
-33.69647928698177
 31
0.0
  0
LINE
  5
AE4D
330
AE46
100
AcDbEntity
  8
0
100
AcDbLine
 10
1.600000000000019
 20
-29.87
 30
0.0
 11
5.959926679570795
 21
-34.26020394817931
 31
0.0
  0
LINE
  5
AE4E
330
AE46
100
AcDbEntity
  8
0
100
AcDbLine
 10
-1.600000000000026
 20
-29.87
 30
0.0
 11
-5.961628247016396
 21
-34.26988814391996
 31
0.0
  0
LINE
  5
AE4F
330
AE46
100
AcDbEntity
  8
0
100
AcDbLine
 10
8.130000000000027
 20
33.87
 30
0.0
 11
8.129999999999991
 21
-33.87
 31
0.0
  0
LINE
  5
AE50
330
AE46
100
AcDbEntity
  8
0
100
AcDbLine
 10
-7.549999999999978
 20
33.87
 30
0.0
 11
-7.550000000000001
 21
-33.87
 31
0.0
  0
ARC
  5
AE51
330
AE46
100
AcDbEntity
  8
0
100
AcDbCircle
 10
-4.399215059618375
 20
-35.81871512968846
 30
0.0
 40
2.2
100
AcDbArc
 50
135.2501983201966
 51
224.8621193703738
  0
LINE
  5
AE52
330
AE46
100
AcDbEntity
  8
0
100
AcDbLine
 10
-6.525634151669241
 20
-37.93492443997934
 30
0.0
 11
-2.127534204327679
 21
-42.35424329057539
 31
0.0
  0
LINE
  5
AE53
330
AE46
100
AcDbEntity
  8
0
100
AcDbLine
 10
-7.550000000000001
 20
-33.87
 30
0.0
 11
8.129999999999991
 21
-33.87
 31
0.0
  0
ARC
  5
AE54
330
AE46
100
AcDbEntity
  8
0
100
AcDbCircle
 10
-4.399215059618318
 20
-35.81871512968854
 30
0.0
 40
3.0
100
AcDbArc
 50
135.2501983201966
 51
224.862119370374
  0
ARC
  5
AE55
330
AE46
100
AcDbEntity
  8
0
100
AcDbCircle
 10
-0.001115112276755
 20
-40.23803398028462
 30
0.0
 40
3.0
100
AcDbArc
 50
224.8621193703738
 51
315.1788377948553
  0
LINE
  5
AE56
330
AE46
100
AcDbEntity
  8
0
100
AcDbLine
 10
1.559367836774123
 20
-41.78880571259106
 30
0.0
 11
5.959401235201422
 21
-37.36121849877924
 31
0.0
  0
LINE
  5
AE57
330
AE46
100
AcDbEntity
  8
0
100
AcDbLine
 10
-5.958589060455726
 20
-37.37060195723501
 30
0.0
 11
-1.560489113114391
 21
-41.7899208078312
 31
0.0
  0
ARC
  5
AE58
330
AE46
100
AcDbEntity
  8
0
100
AcDbCircle
 10
-0.0011151122770392
 20
-40.23803398028462
 30
0.0
 40
2.2
100
AcDbArc
 50
224.8621193703738
 51
315.1788377948553
  0
ARC
  5
AE59
330
AE46
100
AcDbEntity
  8
0
100
AcDbCircle
 10
-0.000000000000004
 20
-30.87000000000001
 30
0.0
 40
3.0
100
AcDbArc
 50
241.9275130641466
 51
298.0724869358533
  0
ARC
  5
AE5A
330
AE46
100
AcDbEntity
  8
0
100
AcDbCircle
 10
0.0000000241565163
 20
-30.87000000000001
 30
0.0
 40
3.0
100
AcDbArc
 50
241.9275130641466
 51
298.0724869358533
  0
ARC
  5
AE5B
330
AE46
100
AcDbEntity
  8
0
100
AcDbCircle
 10
-0.000000000000004
 20
-30.87000000000001
 30
0.0
 40
3.0
100
AcDbArc
 50
241.9275130641466
 51
298.0724869358533
  0
ARC
  5
AE5C
330
AE46
100
AcDbEntity
  8
0
100
AcDbCircle
 10
4.398918286150258
 20
-35.81044676647281
 30
0.0
 40
2.2
100
AcDbArc
 50
315.1788377948553
 51
44.80174549880152
  0
ARC
  5
AE5D
330
AE46
100
AcDbEntity
  8
0
100
AcDbCircle
 10
4.398918286150315
 20
-35.81044676647292
 30
0.0
 40
3.0
100
AcDbArc
 50
315.1788377948553
 51
44.80174549880152
  0
LINE
  5
AE5E
330
AE46
100
AcDbEntity
  8
0
100
AcDbLine
 10
2.12681618188389
 20
-42.35272270615704
 30
0.0
 11
6.526849580310962
 21
-37.92513549234528
 31
0.0
  0
LINE
  5
AE5F
330
AE46
100
AcDbEntity
  8
0
100
AcDbLine
 10
6.000000000000003
 20
19.62
 30
0.0
 11
5.999999999999996
 21
-19.62
 31
0.0
  0
LINE
  5
AE60
330
AE46
100
AcDbEntity
  8
0
100
AcDbLine
 10
7.500000000000003
 20
28.46999999999997
 30
0.0
 11
7.499999999999996
 21
-28.47000000000003
 31
0.0
  0
LINE
  5
AE61
330
AE46
100
AcDbEntity
  8
0
100
AcDbLine
 10
-5.999999999999997
 20
21.37
 30
0.0
 11
-6.000000000000002
 21
-21.37
 31
0.0
  0
LINE
  5
AE62
330
AE46
100
AcDbEntity
  8
0
100
AcDbLine
 10
-7.499999999999996
 20
28.46999999999997
 30
0.0
 11
-7.500000000000003
 21
-28.46999999663911
 31
0.0
  0
ARC
  5
AE63
330
AE46
100
AcDbEntity
  8
0
100
AcDbCircle
 10
-4.500000000000003
 20
-28.46999999663911
 30
0.0
 40
3.0
100
AcDbArc
 50
180.0
 51
241.9275131585431
  0
ARC
  5
AE64
330
AE46
100
AcDbEntity
  8
0
100
AcDbCircle
 10
-3.000000000000002
 20
-21.37
 30
0.0
 40
3.0
100
AcDbArc
 50
180.0
 51
286.2602047083117
  0
ARC
  5
AE65
330
AE46
100
AcDbEntity
  8
0
100
AcDbCircle
 10
2.999999999999998
 20
-19.62
 30
0.0
 40
3.0
100
AcDbArc
 50
286.2602047083117
 51
0.0
  0
LINE
  5
AE66
330
AE46
100
AcDbEntity
  8
0
100
AcDbLine
 10
-2.160000000000028
 20
-24.25
 30
0.0
 11
3.840000000000029
 21
-22.5
 31
0.0
  0
LINE
  5
AE67
330
AE46
100
AcDbEntity
  8
0
100
AcDbLine
 10
-6.000000000000003
 20
-27.87000000000001
 30
0.0
 11
-6.000000000000003
 21
-29.87
 31
0.0
  0
LINE
  5
AE68
330
AE46
100
AcDbEntity
  8
0
100
AcDbLine
 10
-2.500000000000003
 20
-29.87
 30
0.0
 11
-2.500000000000003
 21
-27.87000000000001
 31
0.0
  0
LINE
  5
AE69
330
AE46
100
AcDbEntity
  8
0
100
AcDbLine
 10
-6.000000000000003
 20
-29.87
 30
0.0
 11
-2.500000000000003
 21
-29.87
 31
0.0
  0
LINE
  5
AE6A
330
AE46
100
AcDbEntity
  8
0
100
AcDbLine
 10
-2.500000000000003
 20
-27.87000000000001
 30
0.0
 11
-6.000000000000003
 21
-27.87000000000001
 31
0.0
  0
CIRCLE
  5
AE6B
330
AE46
100
AcDbEntity
  8
0
100
AcDbCircle
 10
-0.0000000000000036
 20
-29.87
 30
0.0
 40
1.6
  0
ARC
  5
AE6C
330
AE46
100
AcDbEntity
  8
0
100
AcDbCircle
 10
4.499999999999996
 20
-28.47000000000003
 30
0.0
 40
3.0
100
AcDbArc
 50
298.0724869358533
 51
0.0
  0
LINE
  5
AE6D
330
AE46
100
AcDbEntity
  8
0
100
AcDbLine
 10
2.499999999999996
 20
-27.87000000000001
 30
0.0
 11
2.499999999999996
 21
-29.87
 31
0.0
  0
LINE
  5
AE6E
330
AE46
100
AcDbEntity
  8
0
100
AcDbLine
 10
5.999999999999996
 20
-29.87
 30
0.0
 11
5.999999999999996
 21
-27.87000000000001
 31
0.0
  0
LINE
  5
AE6F
330
AE46
100
AcDbEntity
  8
0
100
AcDbLine
 10
2.499999999999996
 20
-29.87
 30
0.0
 11
5.999999999999996
 21
-29.87
 31
0.0
  0
LINE
  5
AE70
330
AE46
100
AcDbEntity
  8
0
100
AcDbLine
 10
5.999999999999996
 20
-27.87000000000001
 30
0.0
 11
2.499999999999996
 21
-27.87000000000001
 31
0.0
  0
LINE
  5
AE71
330
AE46
100
AcDbEntity
  8
SUNPOU
100
AcDbLine
 10
-1.0
 20
0.0
 30
0.0
 11
1.0
 21
0.0
 31
0.0
  0
LINE
  5
AE72
330
AE46
100
AcDbEntity
  8
SUNPOU
100
AcDbLine
 10
0.0
 20
-1.0
 30
0.0
 11
0.0
 21
1.0
 31
0.0
  0
LINE
  5
AE73
330
AE46
100
AcDbEntity
  8
0
100
AcDbLine
 10
-5.958589060455717
 20
37.37060195723501
 30
0.0
 11
-1.56048911311438
 21
41.7899208078312
 31
0.0
  0
LINE
  5
AE74
330
AE46
100
AcDbEntity
  8
0
100
AcDbLine
 10
-6.525634151669232
 20
37.93492443997934
 30
0.0
 11
-2.127534204327668
 21
42.35424329057536
 31
0.0
  0
LINE
  5
AE75
330
AE46
100
AcDbEntity
  8
0
100
AcDbLine
 10
1.559367836774134
 20
41.78880571259106
 30
0.0
 11
5.959401235201429
 21
37.36121849877924
 31
0.0
  0
LINE
  5
AE76
330
AE46
100
AcDbEntity
  8
0
100
AcDbLine
 10
2.126816181883901
 20
42.35272270615701
 30
0.0
 11
6.526849580310969
 21
37.92513549234525
 31
0.0
  0
ARC
  5
AE77
330
AE46
100
AcDbEntity
  8
0
100
AcDbCircle
 10
-4.499999999999996
 20
28.46999999999997
 30
0.0
 40
3.0
100
AcDbArc
 50
118.0724869358533
 51
180.0
  0
ARC
  5
AE78
330
AE46
100
AcDbEntity
  8
0
100
AcDbCircle
 10
-2.999999999999997
 20
21.37
 30
0.0
 40
3.0
100
AcDbArc
 50
73.73979529168837
 51
180.0
  0
ARC
  5
AE79
330
AE46
100
AcDbEntity
  8
0
100
AcDbCircle
 10
-4.399215059618366
 20
35.81871512968843
 30
0.0
 40
2.2
100
AcDbArc
 50
135.1378806296261
 51
224.7498016798033
  0
LINE
  5
AE7A
330
AE46
100
AcDbEntity
  8
0
100
AcDbLine
 10
-2.168150249962931
 20
29.30679018699328
 30
0.0
 11
-6.529778496979299
 21
33.70667833091335
 31
0.0
  0
LINE
  5
AE7B
330
AE46
100
AcDbEntity
  8
0
100
AcDbLine
 10
-7.549999999999978
 20
33.87
 30
0.0
 11
8.130000000000013
 21
33.87
 31
0.0
  0
ARC
  5
AE7C
330
AE46
100
AcDbEntity
  8
0
100
AcDbCircle
 10
-4.399215059618309
 20
35.81871512968854
 30
0.0
 40
3.0
100
AcDbArc
 50
135.137880629626
 51
224.7498016798033
  0
LINE
  5
AE7D
330
AE46
100
AcDbEntity
  8
0
100
AcDbLine
 10
-2.159999999999965
 20
24.25
 30
0.0
 11
3.840000000000034
 21
22.5
 31
0.0
  0
ARC
  5
AE7E
330
AE46
100
AcDbEntity
  8
0
100
AcDbCircle
 10
3.000000000000001
 20
19.62
 30
0.0
 40
3.0
100
AcDbArc
 50
0.0
 51
73.73979529168837
  0
LINE
  5
AE7F
330
AE46
100
AcDbEntity
  8
0
100
AcDbLine
 10
1.600000000000026
 20
29.87
 30
0.0
 11
5.959926679570802
 21
34.26020394817931
 31
0.0
  0
LINE
  5
AE80
330
AE46
100
AcDbEntity
  8
0
100
AcDbLine
 10
1.411764705882323
 20
33.5170588235294
 30
0.0
 11
5.911764705882323
 21
31.11705882352942
 31
0.0
  0
LINE
  5
AE81
330
AE46
100
AcDbEntity
  8
0
100
AcDbLine
 10
-1.411764705882372
 20
33.5170588235294
 30
0.0
 11
-5.911764705882315
 21
31.11705882352942
 31
0.0
  0
LINE
  5
AE82
330
AE46
100
AcDbEntity
  8
0
100
AcDbLine
 10
-1.600000000000019
 20
29.87
 30
0.0
 11
-5.961628247016387
 21
34.26988814391996
 31
0.0
  0
LINE
  5
AE83
330
AE46
100
AcDbEntity
  8
0
100
AcDbLine
 10
-5.999999999999996
 20
27.87000000000001
 30
0.0
 11
-5.999999999999996
 21
29.87
 31
0.0
  0
LINE
  5
AE84
330
AE46
100
AcDbEntity
  8
0
100
AcDbLine
 10
-2.499999999999996
 20
29.87
 30
0.0
 11
-2.499999999999996
 21
27.87000000000001
 31
0.0
  0
LINE
  5
AE85
330
AE46
100
AcDbEntity
  8
0
100
AcDbLine
 10
-5.999999999999996
 20
29.87
 30
0.0
 11
-2.499999999999996
 21
29.87
 31
0.0
  0
LINE
  5
AE86
330
AE46
100
AcDbEntity
  8
0
100
AcDbLine
 10
-2.499999999999996
 20
27.87000000000001
 30
0.0
 11
-5.999999999999996
 21
27.87000000000001
 31
0.0
  0
CIRCLE
  5
AE87
330
AE46
100
AcDbEntity
  8
0
100
AcDbCircle
 10
0.0000000000000036
 20
29.87
 30
0.0
 40
1.6
  0
ARC
  5
AE88
330
AE46
100
AcDbEntity
  8
0
100
AcDbCircle
 10
0.000000000000004
 20
30.87000000000001
 30
0.0
 40
3.0
100
AcDbArc
 50
61.92751306414621
 51
118.0724869358533
  0
LINE
  5
AE89
330
AE46
100
AcDbEntity
  8
0
100
AcDbLine
 10
2.16763941578927
 20
29.30627533880238
 30
0.0
 11
6.52756609536016
 21
33.69647928698174
 31
0.0
  0
ARC
  5
AE8A
330
AE46
100
AcDbEntity
  8
0
100
AcDbCircle
 10
4.500000000000003
 20
28.46999999999997
 30
0.0
 40
3.0
100
AcDbArc
 50
0.0
 51
61.92751306414663
  0
LINE
  5
AE8B
330
AE46
100
AcDbEntity
  8
0
100
AcDbLine
 10
2.500000000000003
 20
27.87000000000001
 30
0.0
 11
2.500000000000003
 21
29.87
 31
0.0
  0
LINE
  5
AE8C
330
AE46
100
AcDbEntity
  8
0
100
AcDbLine
 10
6.000000000000003
 20
29.87
 30
0.0
 11
6.000000000000003
 21
27.87000000000001
 31
0.0
  0
LINE
  5
AE8D
330
AE46
100
AcDbEntity
  8
0
100
AcDbLine
 10
6.000000000000003
 20
27.87000000000001
 30
0.0
 11
2.500000000000003
 21
27.87000000000001
 31
0.0
  0
LINE
  5
AE8E
330
AE46
100
AcDbEntity
  8
0
100
AcDbLine
 10
2.500000000000003
 20
29.87
 30
0.0
 11
6.000000000000003
 21
29.87
 31
0.0
  0
ARC
  5
AE8F
330
AE46
100
AcDbEntity
  8
0
100
AcDbCircle
 10
4.398918286150267
 20
35.81044676647281
 30
0.0
 40
2.2
100
AcDbArc
 50
315.1982545011985
 51
44.82116220514468
  0
ARC
  5
AE90
330
AE46
100
AcDbEntity
  8
0
100
AcDbCircle
 10
4.398918286150323
 20
35.81044676647292
 30
0.0
 40
3.0
100
AcDbArc
 50
315.1982545011985
 51
44.82116220514254
  0
ARC
  5
AE91
330
AE46
100
AcDbEntity
  8
0
100
AcDbCircle
 10
-0.0011151122767452
 20
40.23803398028462
 30
0.0
 40
3.0
100
AcDbArc
 50
44.82116220514468
 51
135.1378806296261
  0
ARC
  5
AE92
330
AE46
100
AcDbEntity
  8
0
100
AcDbCircle
 10
-0.0011151122770294
 20
40.23803398028462
 30
0.0
 40
2.2
100
AcDbArc
 50
44.82116220514468
 51
135.1378806296261
  0
ENDBLK
  5
AE48
330
AE46
100
AcDbEntity
  8
0
100
AcDbBlockEnd
  0
ENDSEC
  0
SECTION
  2
ENTITIES
  0
LINE
  5
C9
330
1A
100
AcDbEntity
  8
WAKU
 62
     7
100
AcDbLine
 10
405.0
 20
280.0
 30
0.0
 11
20.0
 21
280.0
 31
0.0
  0
LINE
  5
CB
330
1A
100
AcDbEntity
  8
WAKU
 62
     7
100
AcDbLine
 10
20.0
 20
5.0
 30
0.0
 11
405.0
 21
5.0
 31
0.0
  0
LINE
  5
D4
330
1A
100
AcDbEntity
  8
WAKU
100
AcDbLine
 10
405.0
 20
5.0
 30
0.0
 11
405.0
 21
280.0
 31
0.0
  0
LINE
  5
D5
330
1A
100
AcDbEntity
  8
WAKU
100
AcDbLine
 10
20.0
 20
280.0
 30
0.0
 11
20.0
 21
5.0
 31
0.0
  0
LINE
  5
D6
330
1A
100
AcDbEntity
  8
WAKU
 62
     7
100
AcDbLine
 10
225.0
 20
50.0
 30
0.0
 11
405.0
 21
50.0
 31
0.0
  0
LINE
  5
D7
330
1A
100
AcDbEntity
  8
WAKU
100
AcDbLine
 10
225.0
 20
5.0
 30
0.0
 11
225.0
 21
50.0
 31
0.0
  0
LINE
  5
D8
330
1A
100
AcDbEntity
  8
WAKU
100
AcDbLine
 10
345.0
 20
5.0
 30
0.0
 11
345.0
 21
50.0
 31
0.0
  0
LINE
  5
D9
330
1A
100
AcDbEntity
  8
WAKU
 62
     7
100
AcDbLine
 10
345.0
 20
15.0
 30
0.0
 11
405.0
 21
15.0
 31
0.0
  0
LINE
  5
DA
330
1A
100
AcDbEntity
  8
WAKU
 62
     7
100
AcDbLine
 10
345.0
 20
22.0
 30
0.0
 11
405.0
 21
22.0
 31
0.0
  0
LINE
  5
DB
330
1A
100
AcDbEntity
  8
WAKU
 62
     7
100
AcDbLine
 10
345.0
 20
29.0
 30
0.0
 11
405.0
 21
29.0
 31
0.0
  0
LINE
  5
DC
330
1A
100
AcDbEntity
  8
WAKU
 62
     7
100
AcDbLine
 10
345.0
 20
36.0
 30
0.0
 11
405.0
 21
36.0
 31
0.0
  0
LINE
  5
DD
330
1A
100
AcDbEntity
  8
WAKU
 62
     7
100
AcDbLine
 10
345.0
 20
43.0
 30
0.0
 11
405.0
 21
43.0
 31
0.0
  0
LINE
  5
DE
330
1A
100
AcDbEntity
  8
WAKU
100
AcDbLine
 10
360.0
 20
15.0
 30
0.0
 11
360.0
 21
50.0
 31
0.0
  0
LINE
  5
DF
330
1A
100
AcDbEntity
  8
WAKU
100
AcDbLine
 10
352.0
 20
5.0
 30
0.0
 11
352.0
 21
15.0
 31
0.0
  0
LINE
  5
E0
330
1A
100
AcDbEntity
  8
WAKU
100
AcDbLine
 10
330.0
 20
13.0
 30
0.0
 11
330.0
 21
28.0
 31
0.0
  0
LINE
  5
E1
330
1A
100
AcDbEntity
  8
WAKU
100
AcDbLine
 10
315.0
 20
13.0
 30
0.0
 11
315.0
 21
34.0
 31
0.0
  0
LINE
  5
E2
330
1A
100
AcDbEntity
  8
WAKU
100
AcDbLine
 10
300.0
 20
13.0
 30
0.0
 11
300.0
 21
50.0
 31
0.0
  0
LINE
  5
E3
330
1A
100
AcDbEntity
  8
WAKU
100
AcDbLine
 10
285.0
 20
13.0
 30
0.0
 11
285.0
 21
50.0
 31
0.0
  0
LINE
  5
E4
330
1A
100
AcDbEntity
  8
WAKU
100
AcDbLine
 10
345.0
 20
40.0
 30
0.0
 11
285.0
 21
40.0
 31
0.0
  0
LINE
  5
E5
330
1A
100
AcDbEntity
  8
WAKU
100
AcDbLine
 10
345.0
 20
34.0
 30
0.0
 11
285.0
 21
34.0
 31
0.0
  0
LINE
  5
E6
330
1A
100
AcDbEntity
  8
WAKU
100
AcDbLine
 10
345.0
 20
28.0
 30
0.0
 11
285.0
 21
28.0
 31
0.0
  0
LINE
  5
E7
330
1A
100
AcDbEntity
  8
WAKU
100
AcDbLine
 10
345.0
 20
13.0
 30
0.0
 11
225.0
 21
13.0
 31
0.0
  0
MTEXT
  5
E9
330
1A
100
AcDbEntity
  8
WAKU
100
AcDbMText
 10
345.0
 20
43.0
 30
0.0
 40
4.0
 41
15.0
 71
     1
 72
     5
  1

 73
     1
 44
1.0
1001
ACAD
1000
MTEXTBEGIN
1070
    73
1070
     1
1070
    44
1040
1.0
1070
    74
1070
     0
1000
MTEXTEND
  0
MTEXT
  5
EA
330
1A
100
AcDbEntity
  8
WAKU
100
AcDbMText
 10
345.0
 20
49.0
 30
0.0
 40
4.0
 41
14.0
 71
     1
 72
     5
  1

 73
     1
 44
1.0
1001
ACAD
1000
MTEXTBEGIN
1070
    73
1070
     1
1070
    44
1040
1.0
1070
    74
1070
     0
1000
MTEXTEND
  0
MTEXT
  5
ED
330
1A
100
AcDbEntity
  8
WAKU
100
AcDbMText
 10
347.3192310662242
 20
34.48051906497278
 30
0.0
 40
3.0
 41
11.0
 71
     1
 72
     5
  1
部品表
 73
     1
 44
1.0
1001
ACAD
1000
MTEXTBEGIN
1070
    73
1070
     1
1070
    44
1040
1.0
1070
    74
1070
     0
1000
MTEXTEND
  0
MTEXT
  5
EE
330
1A
100
AcDbEntity
  8
WAKU
100
AcDbMText
 10
327.0
 20
82.0
 30
0.0
 40
3.0
 41
37.0
 71
     1
 72
     5
  1

 73
     1
 44
1.0
1001
ACAD
1000
MTEXTBEGIN
1070
    73
1070
     1
1070
    44
1040
1.0
1070
    74
1070
     0
1000
MTEXTEND
  0
MTEXT
  5
F0
330
1A
100
AcDbEntity
  8
WAKU
100
AcDbMText
 10
347.2
 20
47.7
 30
0.0
 40
3.0
 41
10.0
 71
     1
 72
     5
  1
機種名
 73
     1
 44
1.0
1001
ACAD
1000
MTEXTBEGIN
1070
    73
1070
     1
1070
    44
1040
1.0
1070
    74
1070
     0
1000
MTEXTEND
  0
MTEXT
  5
F1
330
1A
100
AcDbEntity
  8
WAKU
100
AcDbMText
 10
347.2999999999999
 20
40.69999999999999
 30
0.0
 40
3.0
 41
10.0
 71
     1
 72
     5
  1
部　名
 73
     1
 44
1.0
1001
ACAD
1000
MTEXTBEGIN
1070
    73
1070
     1
1070
    44
1040
1.0
1070
    74
1070
     0
1000
MTEXTEND
  0
MTEXT
  5
F2
330
1A
100
AcDbEntity
  8
WAKU
100
AcDbMText
 10
346.0
 20
27.0
 30
0.0
 40
3.0
 41
10.0
 71
     1
 72
     5
  1
ｽﾄｯｸNo.
 73
     1
 44
1.0
1001
ACAD
1000
MTEXTBEGIN
1070
    73
1070
     1
1070
    44
1040
1.0
1070
    74
1070
     0
1000
MTEXTEND
  0
MTEXT
  5
F3
330
1A
100
AcDbEntity
  8
WAKU
100
AcDbMText
 10
347.0
 20
20.0
 30
0.0
 40
3.0
 41
12.0
 71
     1
 72
     5
  1
適用ﾛｯﾄ
 73
     1
 44
1.0
1001
ACAD
1000
MTEXTBEGIN
1070
    73
1070
     1
1070
    44
1040
1.0
1070
    74
1070
     0
1000
MTEXTEND
  0
MTEXT
  5
F5
330
1A
100
AcDbEntity
  8
WAKU
100
AcDbMText
 10
330.0
 20
85.0
 30
0.0
 40
3.0
 41
12.0
 71
     1
 72
     5
  1

 73
     1
 44
1.0
1001
ACAD
1000
MTEXTBEGIN
1070
    73
1070
     1
1070
    44
1040
1.0
1070
    74
1070
     0
1000
MTEXTEND
  0
MTEXT
  5
FF
330
1A
100
AcDbEntity
  8
WAKU
100
AcDbMText
 10
271.0
 20
82.0
 30
0.0
 40
3.0
 41
74.0
 71
     1
 72
     5
  1

 73
     1
 44
1.0
1001
ACAD
1000
MTEXTBEGIN
1070
    73
1070
     1
1070
    44
1040
1.0
1070
    74
1070
     0
1000
MTEXTEND
  0
MTEXT
  5
102
330
1A
100
AcDbEntity
  8
WAKU
100
AcDbMText
 10
287.0
 20
32.51948100072616
 30
0.0
 40
3.0
 41
13.0
 71
     1
 72
     5
  1
設　計
 73
     1
 44
1.0
1001
ACAD
1000
MTEXTBEGIN
1070
    73
1070
     1
1070
    44
1040
1.0
1070
    74
1070
     0
1000
MTEXTEND
  0
MTEXT
  5
103
330
1A
100
AcDbEntity
  8
WAKU
100
AcDbMText
 10
302.0
 20
33.0
 30
0.0
 40
3.0
 41
13.0
 71
     1
 72
     5
  1
検　図
 73
     1
 44
1.0
1001
ACAD
1000
MTEXTBEGIN
1070
    73
1070
     1
1070
    44
1040
1.0
1070
    74
1070
     0
1000
MTEXTEND
  0
MTEXT
  5
104
330
1A
100
AcDbEntity
  8
WAKU
100
AcDbMText
 10
325.5
 20
32.51948100072616
 30
0.0
 40
3.0
 41
17.0
 71
     1
 72
     5
  1
承　認
 73
     1
 44
1.0
1001
ACAD
1000
MTEXTBEGIN
1070
    73
1070
     1
1070
    44
1040
1.0
1070
    74
1070
     0
1000
MTEXTEND
  0
MTEXT
  5
106
330
1A
100
AcDbEntity
  8
WAKU
100
AcDbMText
 10
314.791664707496
 20
38.86071114661275
 30
0.0
 40
3.0
 41
13.6217958711934
 71
     1
 72
     5
  1
名　　称
 73
     1
 44
1.0
1001
ACAD
1000
MTEXTBEGIN
1070
    73
1070
     1
1070
    44
1040
1.0
1070
    74
1070
     0
1000
MTEXTEND
  0
LINE
  5
78B
330
1A
100
AcDbEntity
  8
WAKU
100
AcDbLine
 10
285.0
 20
17.0
 30
0.0
 11
225.0
 21
17.0
 31
0.0
  0
LINE
  5
78C
330
1A
100
AcDbEntity
  8
WAKU
100
AcDbLine
 10
285.0
 20
21.0
 30
0.0
 11
225.0
 21
21.0
 31
0.0
  0
LINE
  5
78D
330
1A
100
AcDbEntity
  8
WAKU
100
AcDbLine
 10
285.0
 20
25.0
 30
0.0
 11
225.0
 21
25.0
 31
0.0
  0
LINE
  5
78E
330
1A
100
AcDbEntity
  8
WAKU
100
AcDbLine
 10
285.0
 20
29.0
 30
0.0
 11
225.0
 21
29.0
 31
0.0
  0
LINE
  5
78F
330
1A
100
AcDbEntity
  8
WAKU
100
AcDbLine
 10
285.0
 20
33.0
 30
0.0
 11
225.0
 21
33.0
 31
0.0
  0
LINE
  5
790
330
1A
100
AcDbEntity
  8
WAKU
100
AcDbLine
 10
285.0
 20
37.0
 30
0.0
 11
225.0
 21
37.0
 31
0.0
  0
LINE
  5
791
330
1A
100
AcDbEntity
  8
WAKU
100
AcDbLine
 10
285.0
 20
41.0
 30
0.0
 11
225.0
 21
41.0
 31
0.0
  0
LINE
  5
792
330
1A
100
AcDbEntity
  8
WAKU
100
AcDbLine
 10
285.0
 20
45.0
 30
0.0
 11
225.0
 21
45.0
 31
0.0
  0
LINE
  5
794
330
1A
100
AcDbEntity
  8
WAKU
100
AcDbLine
 10
233.0
 20
13.0
 30
0.0
 11
233.0
 21
50.0
 31
0.0
  0
LINE
  5
795
330
1A
100
AcDbEntity
  8
WAKU
100
AcDbLine
 10
246.0
 20
13.0
 30
0.0
 11
246.0
 21
50.0
 31
0.0
  0
LINE
  5
796
330
1A
100
AcDbEntity
  8
WAKU
100
AcDbLine
 10
256.0
 20
13.0
 30
0.0
 11
256.0
 21
50.0
 31
0.0
  0
TEXT
  5
797
330
1A
100
AcDbEntity
  8
WAKU
100
AcDbText
 10
226.0
 20
46.0
 30
0.0
 40
3.0
  1
記号
100
AcDbText
  0
TEXT
  5
798
330
1A
100
AcDbEntity
  8
WAKU
100
AcDbText
 10
234.5
 20
46.0
 30
0.0
 40
3.0
  1
年月日
100
AcDbText
  0
TEXT
  5
799
330
1A
100
AcDbEntity
  8
WAKU
100
AcDbText
 10
248.0
 20
46.0
 30
0.0
 40
3.0
  1
担当
100
AcDbText
  0
TEXT
  5
79A
330
1A
100
AcDbEntity
  8
WAKU
100
AcDbText
 10
263.5
 20
46.0
 30
0.0
 40
3.0
  1
改連No.
100
AcDbText
  0
TEXT
  5
7C5
330
1A
100
AcDbEntity
  8
WAKU
100
AcDbText
 10
228.0
 20
17.5
 30
0.0
 40
2.0
  1
1
100
AcDbText
  0
TEXT
  5
7C6
330
1A
100
AcDbEntity
  8
WAKU
100
AcDbText
 10
228.0
 20
21.5
 30
0.0
 40
2.0
  1
2
100
AcDbText
  0
TEXT
  5
7C7
330
1A
100
AcDbEntity
  8
WAKU
100
AcDbText
 10
228.0
 20
25.5
 30
0.0
 40
2.0
  1
3
100
AcDbText
  0
TEXT
  5
7C8
330
1A
100
AcDbEntity
  8
WAKU
100
AcDbText
 10
228.0
 20
29.5
 30
0.0
 40
2.0
  1
4
100
AcDbText
  0
TEXT
  5
7C9
330
1A
100
AcDbEntity
  8
WAKU
100
AcDbText
 10
228.0
 20
33.5
 30
0.0
 40
2.0
  1
5
100
AcDbText
  0
TEXT
  5
7CA
330
1A
100
AcDbEntity
  8
WAKU
100
AcDbText
 10
228.0
 20
37.5
 30
0.0
 40
2.0
  1
6
100
AcDbText
  0
TEXT
  5
7CB
330
1A
100
AcDbEntity
  8
WAKU
100
AcDbText
 10
228.0
 20
41.5
 30
0.0
 40
2.0
  1
7
100
AcDbText
  0
TEXT
  5
7CC
330
1A
100
AcDbEntity
  8
WAKU
100
AcDbText
 10
226.0
 20
13.5
 30
0.0
 40
3.0
  1
設置
100
AcDbText
  0
TEXT
  5
7CD
330
1A
100
AcDbEntity
  8
WAKU
100
AcDbText
 10
286.5
 20
35.5
 30
0.0
 40
3.0
  1
尺　度
100
AcDbText
  0
LINE
  5
7CE
330
1A
100
AcDbEntity
  8
WAKU
100
AcDbLine
 10
298.0
 20
48.0
 30
0.0
 11
287.0
 21
42.0
 31
0.0
  0
TEXT
  5
7CF
330
1A
100
AcDbEntity
  8
WAKU
100
AcDbText
 10
346.5
 20
10.5
 30
0.0
 40
3.0
  1
図
100
AcDbText
  0
TEXT
  5
7D0
330
1A
100
AcDbEntity
  8
WAKU
100
AcDbText
 10
346.5
 20
6.0
 30
0.0
 40
3.0
  1
番
100
AcDbText
  0
TEXT
  5
7D1
330
1A
100
AcDbEntity
  8
WAKU
100
AcDbText
 10
256.5
 20
6.0
 30
0.0
 40
6.0
  1
東洋測器株式会社
100
AcDbText
  0
TEXT
  5
8C1
330
1A
100
AcDbEntity
  8
0
100
AcDbText
 10
293.0
 20
41.5
 30
0.0
 40
3.0
  1
1
100
AcDbText
  0
TEXT
  5
8C4
330
1A
100
AcDbEntity
  8
0
100
AcDbText
 10
311.0
 20
42.5
 30
0.0
 40
4.0
  1
外 形 図
100
AcDbText
  0
TEXT
  5
8C5
330
1A
100
AcDbEntity
  8
0
100
AcDbText
 10
363.5
 20
44.5
 30
0.0
 40
3.0
  1
CV-3010
100
AcDbText
  0
TEXT
  5
8C6
330
1A
100
AcDbEntity
  8
0
100
AcDbText
 10
287.5
 20
44.5
 30
0.0
 40
3.0
  1
1
100
AcDbText
  0
TEXT
  5
222A
330
1A
100
AcDbEntity
  8
0
100
AcDbText
 10
358.0
 20
7.5
 30
0.0
 40
3.0
  1
EA3-00051
100
AcDbText
  0
TEXT
  5
222B
330
1A
100
AcDbEntity
  8
WAKU
100
AcDbText
 10
286.0
 20
14.0
 30
0.0
 40
2.0
  1
04.02.26
100
AcDbText
  0
TEXT
  5
2240
330
1A
100
AcDbEntity
  8
WAKU
100
AcDbText
 10
288.0
 20
19.0
 30
0.0
 40
4.0
  1
大野
100
AcDbText
  0
TEXT
  5
4C22
330
1A
100
AcDbEntity
  8
WAKU
100
AcDbText
 10
234.0
 20
14.0
 30
0.0
 40
2.0
  1
03.07.29
 41
0.8
100
AcDbText
  0
TEXT
  5
4C23
330
1A
100
AcDbEntity
  8
WAKU
100
AcDbText
 10
247.5
 20
13.5
 30
0.0
 40
3.0
  1
大野
100
AcDbText
  0
LWPOLYLINE
  5
8980
330
1A
100
AcDbEntity
  8
0
100
AcDbPolyline
 90
        3
 70
     1
 43
0.0
 10
398.0002991937029
 20
13.75002575180714
 10
393.6701721747807
 20
6.250025751807143
 10
402.330426212625
 20
6.250025751807143
  0
LWPOLYLINE
  5
89DF
330
1A
100
AcDbEntity
  8
0
100
AcDbPolyline
 90
        3
 70
     1
 43
0.0
 10
229.0
 20
45.0
 10
226.8349364905389
 20
41.25
 10
231.1650635094611
 20
41.25
  0
LWPOLYLINE
  5
89E0
330
1A
100
AcDbEntity
  8
0
100
AcDbPolyline
 90
        3
 70
     1
 43
0.0
 10
229.0
 20
41.0
 10
226.8349364905389
 20
37.25
 10
231.1650635094611
 20
37.25
  0
LWPOLYLINE
  5
89E1
330
1A
100
AcDbEntity
  8
0
100
AcDbPolyline
 90
        3
 70
     1
 43
0.0
 10
229.0
 20
33.0
 10
226.8349364905389
 20
29.25
 10
231.1650635094611
 20
29.25
  0
LWPOLYLINE
  5
89E2
330
1A
100
AcDbEntity
  8
0
100
AcDbPolyline
 90
        3
 70
     1
 43
0.0
 10
229.0
 20
37.0
 10
226.8349364905389
 20
33.25
 10
231.1650635094611
 20
33.25
  0
LWPOLYLINE
  5
89E3
330
1A
100
AcDbEntity
  8
0
100
AcDbPolyline
 90
        3
 70
     1
 43
0.0
 10
229.0
 20
21.0
 10
226.8349364905389
 20
17.25
 10
231.1650635094611
 20
17.25
  0
LWPOLYLINE
  5
89E4
330
1A
100
AcDbEntity
  8
0
100
AcDbPolyline
 90
        3
 70
     1
 43
0.0
 10
229.0
 20
25.0
 10
226.8349364905389
 20
21.25
 10
231.1650635094611
 20
21.25
  0
LWPOLYLINE
  5
89E5
330
1A
100
AcDbEntity
  8
0
100
AcDbPolyline
 90
        3
 70
     1
 43
0.0
 10
229.0
 20
29.0
 10
226.8349364905389
 20
25.25
 10
231.1650635094611
 20
25.25
  0
LEADER
  5
8A25
330
1A
100
AcDbEntity
  8
SUNPOU
100
AcDbLeader
  3
STANDARD
 73
     0
 75
     1
 40
3.0
 41
31.9714285714286
 76
     3
 10
188.5
 20
168.5
 30
0.0
 10
175.5
 20
152.84
 30
0.0
 10
173.0
 20
152.84
 30
0.0
340
8A26
1001
ACAD
1000
DSTYLE
1002
{
1070
   341
1005
BA
1070
    41
1040
2.5
1070
    42
1040
0.5
1070
    43
1040
10.0
1070
    44
1040
0.5
1070
    73
1070
     0
1070
    74
1070
     0
1070
    77
1070
     1
1070
   140
1040
2.0
1070
   141
1040
0.0
1070
   147
1040
0.5
1070
   173
1070
     1
1070
   271
1070
     1
1070
   272
1070
     0
1070
   343
1005
BA
1070
   344
1005
BA
1002
}
  0
MTEXT
  5
8A26
102
{ACAD_REACTORS
330
8A25
102
}
330
1A
100
AcDbEntity
  8
SUNPOU
100
AcDbMText
 10
172.5
 20
154.84
 30
0.0
 40
3.0
 41
0.0
 71
     6
 72
     1
  1
\A1;信号接続用コネクタ
 73
     1
 44
1.0
1001
ACAD
1000
MTEXTBEGIN
1070
    73
1070
     1
1070
    44
1040
1.0
1070
    74
1070
     0
1000
MTEXTEND
  0
MTEXT
  5
8A27
330
1A
100
AcDbEntity
  8
SUNPOU
100
AcDbMText
 10
173.0
 20
150.34
 30
0.0
 40
2.5
 41
0.0
 71
     6
 72
     1
  1
(57LE-40360)
 73
     1
 44
1.0
1001
ACAD
1000
MTEXTBEGIN
1070
    73
1070
     1
1070
    44
1040
1.0
1070
    74
1070
     0
1000
MTEXTEND
  0
LINE
  5
A125
330
1A
100
AcDbEntity
  8
0
100
AcDbLine
 10
118.63
 20
180.0
 30
0.0
 11
118.63
 21
129.8
 31
0.0
  0
LINE
  5
A128
330
1A
100
AcDbEntity
  8
0
100
AcDbLine
 10
125.53
 20
180.0
 30
0.0
 11
125.53
 21
129.8
 31
0.0
  0
LINE
  5
A12D
330
1A
100
AcDbEntity
  8
0
100
AcDbLine
 10
79.72999999999996
 20
130.0
 30
0.0
 11
79.73000000000002
 21
180.0
 31
0.0
  0
LINE
  5
A130
330
1A
100
AcDbEntity
  8
0
100
AcDbLine
 10
124.7299999999999
 20
129.8
 30
0.0
 11
76.32999999999999
 21
129.8
 31
0.0
  0
LINE
  5
A133
330
1A
100
AcDbEntity
  8
0
100
AcDbLine
 10
79.72999999999996
 20
130.0
 30
0.0
 11
118.63
 21
130.0
 31
0.0
  0
LINE
  5
A134
330
1A
100
AcDbEntity
  8
0
100
AcDbLine
 10
124.7299999999999
 20
129.0000000000001
 30
0.0
 11
76.32999999999999
 21
129.0
 31
0.0
  0
LINE
  5
A135
330
1A
100
AcDbEntity
  8
0
100
AcDbLine
 10
75.52999999999997
 20
120.0
 30
0.0
 11
75.52999999999997
 21
129.0
 31
0.0
  0
LINE
  5
A136
330
1A
100
AcDbEntity
  8
0
100
AcDbLine
 10
76.32999999999999
 20
120.0
 30
0.0
 11
76.32999999999999
 21
129.0
 31
0.0
  0
LINE
  5
A137
330
1A
100
AcDbEntity
  8
0
100
AcDbLine
 10
76.32999999999999
 20
120.0
 30
0.0
 11
75.52999999999997
 21
120.0
 31
0.0
  0
ARC
  5
A138
330
1A
100
AcDbEntity
  8
0
100
AcDbCircle
 10
76.32999999999999
 20
129.0
 30
0.0
 40
0.8
100
AcDbArc
 50
90.00000000000003
 51
180.0
  0
ARC
  5
A13D
330
1A
100
AcDbEntity
  8
0
100
AcDbCircle
 10
124.7299999999999
 20
129.8
 30
0.0
 40
0.8
100
AcDbArc
 50
270.0
 51
0.0
  0
LINE
  5
A140
330
1A
100
AcDbEntity
  8
0
100
AcDbLine
 10
124.7299999999999
 20
230.9999999999999
 30
0.0
 11
76.32999999999999
 21
231.0
 31
0.0
  0
LINE
  5
A141
330
1A
100
AcDbEntity
  8
0
100
AcDbLine
 10
79.72999999999996
 20
230.0
 30
0.0
 11
118.63
 21
230.0
 31
0.0
  0
LINE
  5
A144
330
1A
100
AcDbEntity
  8
0
100
AcDbLine
 10
124.7299999999999
 20
230.2
 30
0.0
 11
76.32999999999999
 21
230.2
 31
0.0
  0
ARC
  5
A146
330
1A
100
AcDbEntity
  8
0
100
AcDbCircle
 10
76.32999999999999
 20
231.0
 30
0.0
 40
0.8
100
AcDbArc
 50
180.0
 51
270.0
  0
LINE
  5
A148
330
1A
100
AcDbEntity
  8
0
100
AcDbLine
 10
79.72999999999996
 20
230.0
 30
0.0
 11
79.73000000000002
 21
180.0
 31
0.0
  0
LINE
  5
A14F
330
1A
100
AcDbEntity
  8
0
100
AcDbLine
 10
76.32999999999999
 20
240.0
 30
0.0
 11
76.32999999999999
 21
231.0
 31
0.0
  0
LINE
  5
A150
330
1A
100
AcDbEntity
  8
0
100
AcDbLine
 10
75.52999999999997
 20
240.0
 30
0.0
 11
75.52999999999997
 21
231.0
 31
0.0
  0
LINE
  5
A151
330
1A
100
AcDbEntity
  8
0
100
AcDbLine
 10
76.32999999999999
 20
240.0
 30
0.0
 11
75.52999999999997
 21
240.0
 31
0.0
  0
ARC
  5
A152
330
1A
100
AcDbEntity
  8
0
100
AcDbCircle
 10
124.7299999999999
 20
230.2
 30
0.0
 40
0.8
100
AcDbArc
 50
0.0
 51
90.0
  0
LINE
  5
A155
330
1A
100
AcDbEntity
  8
0
100
AcDbLine
 10
125.53
 20
180.0
 30
0.0
 11
125.53
 21
230.2
 31
0.0
  0
LINE
  5
A158
330
1A
100
AcDbEntity
  8
0
100
AcDbLine
 10
118.63
 20
180.0
 30
0.0
 11
118.63
 21
230.2
 31
0.0
  0
DIMENSION
  5
A415
330
1A
100
AcDbEntity
  8
SUNPOU
100
AcDbDimension
  2
*D5
 10
309.9402341967996
 20
240.0
 30
0.0
 11
307.4402341967995
 21
180.0
 31
0.0
 70
    32
 71
     5
 42
120.0
  3
STANDARD
100
AcDbAlignedDimension
 13
280.5
 23
120.0
 33
0.0
 14
280.5
 24
240.0
 34
0.0
 50
270.0
100
AcDbRotatedDimension
1001
ACAD
1000
DSTYLE
1002
{
1070
    41
1040
2.5
1070
    42
1040
0.5
1070
    43
1040
10.0
1070
    44
1040
0.5
1070
    73
1070
     0
1070
    74
1070
     0
1070
    77
1070
     1
1070
   140
1040
4.0
1070
   141
1040
0.0
1070
   147
1040
0.5
1070
   173
1070
     1
1070
   271
1070
     0
1070
   272
1070
     0
1070
   343
1005
BA
1070
   344
1005
BA
1002
}
  0
DIMENSION
  5
A417
330
1A
100
AcDbEntity
  8
SUNPOU
100
AcDbDimension
  2
*D4
 10
300.0366363948458
 20
236.0
 30
0.0
 11
297.5366363948457
 21
180.0
 31
0.0
 70
    32
 71
     5
 42
112.0
  3
STANDARD
100
AcDbAlignedDimension
 13
267.5
 23
124.0
 33
0.0
 14
267.5
 24
236.0
 34
0.0
 50
270.0
100
AcDbRotatedDimension
1001
ACAD
1000
DSTYLE
1002
{
1070
    41
1040
2.5
1070
    42
1040
0.5
1070
    43
1040
10.0
1070
    44
1040
0.5
1070
    73
1070
     0
1070
    74
1070
     0
1070
    77
1070
     1
1070
   140
1040
4.0
1070
   141
1040
0.0
1070
   147
1040
0.5
1070
   173
1070
     1
1070
   271
1070
     0
1070
   272
1070
     0
1070
   343
1005
BA
1070
   344
1005
BA
1002
}
  0
LINE
  5
A41C
330
1A
100
AcDbEntity
  8
0
100
AcDbLine
 10
197.5
 20
180.0
 30
0.0
 11
197.5
 21
238.0
 31
0.0
  0
LEADER
  5
A428
330
1A
100
AcDbEntity
  8
SUNPOU
100
AcDbLeader
  3
STANDARD
 73
     0
 75
     1
 40
3.0
 41
16.45714285714286
 76
     3
 10
211.0
 20
122.5
 30
0.0
 10
199.0
 20
112.5
 30
0.0
 10
196.5
 20
112.5
 30
0.0
340
A42F
1001
ACAD
1000
DSTYLE
1002
{
1070
   341
1005
BA
1070
    41
1040
2.5
1070
    42
1040
0.5
1070
    43
1040
10.0
1070
    44
1040
0.5
1070
    73
1070
     0
1070
    74
1070
     0
1070
    77
1070
     1
1070
   140
1040
2.0
1070
   141
1040
0.0
1070
   147
1040
0.5
1070
   173
1070
     1
1070
   271
1070
     1
1070
   272
1070
     0
1070
   343
1005
BA
1070
   344
1005
BA
1002
}
  0
MTEXT
  5
A42F
102
{ACAD_REACTORS
330
A428
102
}
330
1A
100
AcDbEntity
  8
SUNPOU
100
AcDbMText
 10
196.0
 20
114.5
 30
0.0
 40
3.0
 41
0.0
 71
     6
 72
     1
  1
4-φ3.5
 73
     1
 44
1.0
1001
ACAD
1000
MTEXTBEGIN
1070
    73
1070
     1
1070
    44
1040
1.0
1070
    74
1070
     0
1000
MTEXTEND
  0
MTEXT
  5
A430
330
1A
100
AcDbEntity
  8
SUNPOU
100
AcDbMText
 10
201.0
 20
110.0
 30
0.0
 40
2.5
 41
0.0
 71
     6
 72
     1
  1
\A1;(固定用穴)
 73
     1
 44
1.0
1001
ACAD
1000
MTEXTBEGIN
1070
    73
1070
     1
1070
    44
1040
1.0
1070
    74
1070
     0
1000
MTEXTEND
  0
DIMENSION
  5
A443
330
1A
100
AcDbEntity
  8
SUNPOU
100
AcDbDimension
  2
*D2
 10
197.5
 20
260.0
 30
0.0
 11
240.0
 21
262.5
 31
0.0
 70
    32
 71
     5
 42
85.00000000000003
  3
STANDARD
100
AcDbAlignedDimension
 13
282.5
 23
238.0
 33
0.0
 14
197.5
 24
238.0
 34
0.0
 50
180.0
100
AcDbRotatedDimension
1001
ACAD
1000
DSTYLE
1002
{
1070
    41
1040
2.5
1070
    42
1040
0.5
1070
    43
1040
10.0
1070
    44
1040
0.5
1070
    73
1070
     0
1070
    74
1070
     0
1070
    77
1070
     1
1070
   140
1040
4.0
1070
   141
1040
0.0
1070
   147
1040
0.5
1070
   173
1070
     1
1070
   271
1070
     0
1070
   272
1070
     0
1070
   343
1005
BA
1070
   344
1005
BA
1002
}
  0
LINE
  5
A444
330
1A
100
AcDbEntity
  8
0
100
AcDbLine
 10
199.4999999999999
 20
240.0
 30
0.0
 11
240.0
 21
240.0
 31
0.0
  0
LINE
  5
A445
330
1A
100
AcDbEntity
  8
0
100
AcDbLine
 10
240.0
 20
231.0
 30
0.0
 11
197.5
 21
231.0
 31
0.0
  0
LINE
  5
A44D
330
1A
100
AcDbEntity
  8
0
100
AcDbLine
 10
197.5
 20
238.0
 30
0.0
 11
199.4999999999999
 21
240.0
 31
0.0
  0
DIMENSION
  5
A44E
330
1A
100
AcDbEntity
  8
SUNPOU
100
AcDbDimension
  2
*D3
 10
212.5
 20
250.0
 30
0.0
 11
240.0
 21
252.5
 31
0.0
 70
    32
 71
     5
 42
55.00000000000003
  3
STANDARD
100
AcDbAlignedDimension
 13
267.5
 23
236.0
 33
0.0
 14
212.5
 24
236.0
 34
0.0
 50
180.0
100
AcDbRotatedDimension
1001
ACAD
1000
DSTYLE
1002
{
1070
    41
1040
2.5
1070
    42
1040
0.5
1070
    43
1040
10.0
1070
    44
1040
0.5
1070
    73
1070
     0
1070
    74
1070
     0
1070
    77
1070
     1
1070
   140
1040
4.0
1070
   141
1040
0.0
1070
   147
1040
0.5
1070
   173
1070
     1
1070
   271
1070
     0
1070
   272
1070
     0
1070
   343
1005
BA
1070
   344
1005
BA
1002
}
  0
CIRCLE
  5
A452
330
1A
100
AcDbEntity
  8
0
100
AcDbCircle
 10
212.5
 20
236.0
 30
0.0
 40
1.75
  0
LINE
  5
A555
330
1A
100
AcDbEntity
  8
0
100
AcDbLine
 10
197.5
 20
180.0
 30
0.0
 11
197.5
 21
122.0
 31
0.0
  0
LINE
  5
A55D
330
1A
100
AcDbEntity
  8
0
100
AcDbLine
 10
199.4999999999999
 20
120.0
 30
0.0
 11
240.0
 21
120.0
 31
0.0
  0
LINE
  5
A55E
330
1A
100
AcDbEntity
  8
0
100
AcDbLine
 10
240.0
 20
129.0
 30
0.0
 11
197.5
 21
129.0
 31
0.0
  0
CIRCLE
  5
A563
330
1A
100
AcDbEntity
  8
0
100
AcDbCircle
 10
212.5
 20
124.0
 30
0.0
 40
1.75
  0
LINE
  5
A566
330
1A
100
AcDbEntity
  8
0
100
AcDbLine
 10
197.5
 20
122.0
 30
0.0
 11
199.4999999999999
 21
120.0
 31
0.0
  0
INSERT
  5
A6DA
330
1A
100
AcDbEntity
  8
0
100
AcDbBlockReference
  2
ML800-12P-1
 10
88.13
 20
180.0
 30
0.0
  0
LINE
  5
A90E
330
1A
100
AcDbEntity
  8
0
100
AcDbLine
 10
282.5
 20
180.0
 30
0.0
 11
282.5
 21
122.0
 31
0.0
  0
LINE
  5
A910
330
1A
100
AcDbEntity
  8
0
100
AcDbLine
 10
280.5
 20
120.0
 30
0.0
 11
240.0
 21
120.0
 31
0.0
  0
LINE
  5
A915
330
1A
100
AcDbEntity
  8
0
100
AcDbLine
 10
240.0
 20
129.0
 30
0.0
 11
282.5
 21
129.0
 31
0.0
  0
LINE
  5
A917
330
1A
100
AcDbEntity
  8
0
100
AcDbLine
 10
282.5
 20
122.0
 30
0.0
 11
280.5
 21
120.0
 31
0.0
  0
CIRCLE
  5
A919
330
1A
100
AcDbEntity
  8
0
100
AcDbCircle
 10
267.5
 20
124.0
 30
0.0
 40
1.75
  0
LINE
  5
A91E
330
1A
100
AcDbEntity
  8
0
100
AcDbLine
 10
280.5
 20
240.0
 30
0.0
 11
240.0
 21
240.0
 31
0.0
  0
LINE
  5
A91F
330
1A
100
AcDbEntity
  8
0
100
AcDbLine
 10
240.0
 20
231.0
 30
0.0
 11
282.5
 21
231.0
 31
0.0
  0
LINE
  5
A927
330
1A
100
AcDbEntity
  8
0
100
AcDbLine
 10
282.5
 20
180.0
 30
0.0
 11
282.5
 21
238.0
 31
0.0
  0
LINE
  5
A92A
330
1A
100
AcDbEntity
  8
0
100
AcDbLine
 10
282.5
 20
238.0
 30
0.0
 11
280.5
 21
240.0
 31
0.0
  0
CIRCLE
  5
A930
330
1A
100
AcDbEntity
  8
0
100
AcDbCircle
 10
267.5
 20
236.0
 30
0.0
 40
1.75
  0
LINE
  5
A9DD
330
1A
100
AcDbEntity
  8
0
100
AcDbLine
 10
197.5
 20
104.0
 30
0.0
 11
240.0
 21
104.0
 31
0.0
  0
LINE
  5
A9E4
330
1A
100
AcDbEntity
  8
0
100
AcDbLine
 10
240.0
 20
54.80000000000001
 30
0.0
 11
197.5
 21
54.80000000000001
 31
0.0
  0
LINE
  5
A9E5
330
1A
100
AcDbEntity
  8
0
100
AcDbLine
 10
240.0
 20
54.0
 30
0.0
 11
197.5
 21
54.0
 31
0.0
  0
LINE
  5
AA01
330
1A
100
AcDbEntity
  8
0
100
AcDbLine
 10
197.5
 20
104.0
 30
0.0
 11
197.5
 21
54.0
 31
0.0
  0
LINE
  5
AA02
330
1A
100
AcDbEntity
  8
0
100
AcDbLine
 10
199.4999999999999
 20
54.80000000000001
 30
0.0
 11
199.4999999999999
 21
54.0
 31
0.0
  0
LINE
  5
AA1A
330
1A
100
AcDbEntity
  8
0
100
AcDbLine
 10
240.0
 20
54.0
 30
0.0
 11
282.5
 21
54.0
 31
0.0
  0
LINE
  5
AA1B
330
1A
100
AcDbEntity
  8
0
100
AcDbLine
 10
240.0
 20
54.80000000000001
 30
0.0
 11
282.5
 21
54.80000000000001
 31
0.0
  0
LINE
  5
AA1E
330
1A
100
AcDbEntity
  8
0
100
AcDbLine
 10
280.5
 20
54.80000000000001
 30
0.0
 11
280.5
 21
54.0
 31
0.0
  0
LINE
  5
AA1F
330
1A
100
AcDbEntity
  8
0
100
AcDbLine
 10
282.5
 20
104.0
 30
0.0
 11
282.5
 21
54.0
 31
0.0
  0
LINE
  5
AA24
330
1A
100
AcDbEntity
  8
0
100
AcDbLine
 10
282.5
 20
104.0
 30
0.0
 11
240.0
 21
104.0
 31
0.0
  0
DIMENSION
  5
AA37
330
1A
100
AcDbEntity
  8
SUNPOU
100
AcDbDimension
  2
*D7
 10
300.0366363948458
 20
104.0
 30
0.0
 11
297.5366363948458
 21
79.00000000000004
 31
0.0
 70
    32
 71
     5
 42
50.0
  3
STANDARD
100
AcDbAlignedDimension
 13
282.5
 23
54.0
 33
0.0
 14
282.5
 24
104.0
 34
0.0
 50
270.0
100
AcDbRotatedDimension
1001
ACAD
1000
DSTYLE
1002
{
1070
    41
1040
2.5
1070
    42
1040
0.5
1070
    43
1040
10.0
1070
    44
1040
0.5
1070
    73
1070
     0
1070
    74
1070
     0
1070
    77
1070
     1
1070
   140
1040
4.0
1070
   141
1040
0.0
1070
   147
1040
0.5
1070
   173
1070
     1
1070
   271
1070
     0
1070
   272
1070
     0
1070
   343
1005
BA
1070
   344
1005
BA
1002
}
  0
LINE
  5
AD7F
330
1A
100
AcDbEntity
  8
0
100
AcDbLine
 10
101.95
 20
210.5
 30
0.0
 11
87.63000000000003
 21
210.5
 31
0.0
  0
LINE
  5
AD80
330
1A
100
AcDbEntity
  8
0
100
AcDbLine
 10
118.6299999999999
 20
214.37
 30
0.0
 11
101.95
 21
214.37
 31
0.0
  0
LINE
  5
AD81
330
1A
100
AcDbEntity
  8
0
100
AcDbLine
 10
101.95
 20
148.5
 30
0.0
 11
87.62999999999999
 21
148.5
 31
0.0
  0
LINE
  5
AD82
330
1A
100
AcDbEntity
  8
0
100
AcDbLine
 10
118.6299999999999
 20
145.6299999999999
 30
0.0
 11
101.95
 21
145.6299999999999
 31
0.0
  0
LINE
  5
AD84
330
1A
100
AcDbEntity
  8
0
100
AcDbLine
 10
87.62999999999999
 20
148.5
 30
0.0
 11
87.63000000000003
 21
210.5
 31
0.0
  0
LINE
  5
AD85
330
1A
100
AcDbEntity
  8
0
100
AcDbLine
 10
101.95
 20
214.37
 30
0.0
 11
101.95
 21
210.5
 31
0.0
  0
LINE
  5
AD86
330
1A
100
AcDbEntity
  8
0
100
AcDbLine
 10
101.95
 20
148.5
 30
0.0
 11
101.95
 21
145.63
 31
0.0
  0
INSERT
  5
ADA9
330
1A
100
AcDbEntity
  8
0
100
AcDbBlockReference
  2
M3-1
 10
-92.72999999999999
 20
231.0
 30
0.0
 43
-1.0
210
0.0
220
0.0
230
-1.0
  0
INSERT
  5
ADB2
330
1A
100
AcDbEntity
  8
0
100
AcDbBlockReference
  2
M3-1
 10
92.72999999999999
 20
129.0
 30
0.0
 50
180.0
  0
INSERT
  5
ADBB
330
1A
100
AcDbEntity
  8
0
100
AcDbBlockReference
  2
M3-1
 10
-79.72999999999996
 20
137.9999999999999
 30
0.0
 43
-1.0
 50
270.0
210
0.0
220
0.0
230
-1.0
  0
INSERT
  5
ADC4
330
1A
100
AcDbEntity
  8
0
100
AcDbBlockReference
  2
M3-1
 10
79.72999999999996
 20
222.0
 30
0.0
 50
90.0
  0
INSERT
  5
AE93
330
1A
100
AcDbEntity
  8
0
100
AcDbBlockReference
  2
17LE40360-1
 10
110.0
 20
180.0
 30
0.0
  0
ARC
  5
AE94
330
1A
100
AcDbEntity
  8
0
100
AcDbCircle
 10
190.2999999999999
 20
92.96999999999997
 30
0.0
 40
1.5
100
AcDbArc
 50
90.0
 51
180.0
  0
ARC
  5
AE95
330
1A
100
AcDbEntity
  8
0
100
AcDbCircle
 10
189.5512848703114
 20
92.86921505961819
 30
0.0
 40
3.0
100
AcDbArc
 50
45.25019832019649
 51
134.8621193703737
  0
ARC
  5
AE96
330
1A
100
AcDbEntity
  8
0
100
AcDbCircle
 10
189.5512848703115
 20
92.86921505961826
 30
0.0
 40
2.2
100
AcDbArc
 50
45.25019832019649
 51
134.8621193703737
  0
ARC
  5
AE97
330
1A
100
AcDbEntity
  8
0
100
AcDbCircle
 10
190.2999999999999
 20
83.96999999999996
 30
0.0
 40
1.5
100
AcDbArc
 50
180.0
 51
270.0
  0
ARC
  5
AE98
330
1A
100
AcDbEntity
  8
0
100
AcDbCircle
 10
189.559553233527
 20
84.07108171384956
 30
0.0
 40
3.0
100
AcDbArc
 50
225.1788377948555
 51
314.8017454988018
  0
ARC
  5
AE99
330
1A
100
AcDbEntity
  8
0
100
AcDbCircle
 10
189.5595532335272
 20
84.07108171384962
 30
0.0
 40
2.2
100
AcDbArc
 50
225.1788377948555
 51
314.8017454988018
  0
LINE
  5
AE9A
330
1A
100
AcDbEntity
  8
0
100
AcDbLine
 10
188.7999999999999
 20
83.96999999999996
 30
0.0
 11
188.7999999999999
 21
92.96999999999997
 31
0.0
  0
LINE
  5
AE9B
330
1A
100
AcDbEntity
  8
0
100
AcDbLine
 10
183.5811942874089
 20
86.91063216322577
 30
0.0
 11
188.0087815012207
 21
82.51059876479848
 31
0.0
  0
LINE
  5
AE9C
330
1A
100
AcDbEntity
  8
0
100
AcDbLine
 10
183.0172772938429
 20
86.34318381811601
 30
0.0
 11
187.4448645076547
 21
81.94315041968893
 31
0.0
  0
LINE
  5
AE9D
330
1A
100
AcDbEntity
  8
0
100
AcDbLine
 10
187.9993980427649
 20
94.42858906045563
 30
0.0
 11
183.5800791921687
 21
90.03048911311429
 31
0.0
  0
LINE
  5
AE9E
330
1A
100
AcDbEntity
  8
0
100
AcDbLine
 10
187.4350755600206
 20
94.99563415166914
 30
0.0
 11
183.0157567094246
 21
90.59753420432757
 31
0.0
  0
ARC
  5
AE9F
330
1A
100
AcDbEntity
  8
0
100
AcDbCircle
 10
185.1319660197153
 20
88.47111511227693
 30
0.0
 40
2.2
100
AcDbArc
 50
134.8621193703737
 51
225.1788377948555
  0
ARC
  5
AEA0
330
1A
100
AcDbEntity
  8
0
100
AcDbCircle
 10
185.1319660197153
 20
88.47111511227664
 30
0.0
 40
3.0
100
AcDbArc
 50
134.8621193703737
 51
225.1788377948555
  0
LINE
  5
AEA1
330
1A
100
AcDbEntity
  8
0
100
AcDbLine
 10
197.5
 20
82.46999999999989
 30
0.0
 11
197.5
 21
85.96999999999988
 31
0.0
  0
LINE
  5
AEA2
330
1A
100
AcDbEntity
  8
0
100
AcDbLine
 10
195.5
 20
85.96999999999988
 30
0.0
 11
195.5
 21
82.46999999999989
 31
0.0
  0
LINE
  5
AEA3
330
1A
100
AcDbEntity
  8
0
100
AcDbLine
 10
195.5
 20
86.86999999999986
 30
0.0
 11
191.1097960518207
 21
82.51007332042908
 31
0.0
  0
LINE
  5
AEA4
330
1A
100
AcDbEntity
  8
0
100
AcDbLine
 10
196.0637246611976
 20
86.30236058421061
 30
0.0
 11
191.6735207130182
 21
81.94243390463972
 31
0.0
  0
LINE
  5
AEA8
330
1A
100
AcDbEntity
  8
0
100
AcDbLine
 10
197.4999999999999
 20
80.91999999999996
 30
0.0
 11
197.4999999999999
 21
95.96999999999997
 31
0.0
  0
LINE
  5
AEAA
330
1A
100
AcDbEntity
  8
0
100
AcDbLine
 10
195.5
 20
82.46999999999989
 30
0.0
 11
197.5
 21
82.46999999999989
 31
0.0
  0
LINE
  5
AEAB
330
1A
100
AcDbEntity
  8
0
100
AcDbLine
 10
192.2047504618184
 20
82.46999999999998
 30
0.0
 11
197.4999999999999
 21
82.46999999999996
 31
0.0
  0
LINE
  5
AEAC
330
1A
100
AcDbEntity
  8
0
100
AcDbLine
 10
190.2999999999999
 20
82.46999999999998
 30
0.0
 11
191.0683730854565
 21
82.46999999999998
 31
0.0
  0
LINE
  5
AEAF
330
1A
100
AcDbEntity
  8
0
100
AcDbLine
 10
195.5
 20
94.4699999999999
 30
0.0
 11
195.5
 21
90.96999999999988
 31
0.0
  0
LINE
  5
AEB0
330
1A
100
AcDbEntity
  8
0
100
AcDbLine
 10
197.5
 20
90.96999999999988
 30
0.0
 11
197.5
 21
94.4699999999999
 31
0.0
  0
LINE
  5
AEB1
330
1A
100
AcDbEntity
  8
0
100
AcDbLine
 10
195.5
 20
90.0699999999999
 30
0.0
 11
191.10011185608
 21
94.43162824701628
 31
0.0
  0
LINE
  5
AEB2
330
1A
100
AcDbEntity
  8
0
100
AcDbLine
 10
196.0632098130067
 20
90.63815024996282
 30
0.0
 11
191.6633216690866
 21
94.9997784969792
 31
0.0
  0
LINE
  5
AEB3
330
1A
100
AcDbEntity
  8
0
100
AcDbLine
 10
195.5
 20
90.96999999999988
 30
0.0
 11
197.5
 21
90.96999999999988
 31
0.0
  0
LINE
  5
AEB4
330
1A
100
AcDbEntity
  8
0
100
AcDbLine
 10
197.5
 20
85.96999999999988
 30
0.0
 11
195.5
 21
85.96999999999988
 31
0.0
  0
LINE
  5
AEB5
330
1A
100
AcDbEntity
  8
0
100
AcDbLine
 10
197.5
 20
94.4699999999999
 30
0.0
 11
195.5
 21
94.4699999999999
 31
0.0
  0
LINE
  5
AEB6
330
1A
100
AcDbEntity
  8
0
100
AcDbLine
 10
192.1977473458639
 20
94.46999999999995
 30
0.0
 11
197.4999999999999
 21
94.46999999999997
 31
0.0
  0
LINE
  5
AEB7
330
1A
100
AcDbEntity
  8
0
100
AcDbLine
 10
190.2999999999999
 20
94.46999999999997
 30
0.0
 11
191.0604195808815
 21
94.46999999999997
 31
0.0
  0
INSERT
  5
AECC
330
1A
100
AcDbEntity
  8
0
100
AcDbBlockReference
  2
M3-1
 10
-276.4
 20
129.0
 30
0.0
 43
-1.0
 50
180.0
210
0.0
220
0.0
230
-1.0
  0
INSERT
  5
AED5
330
1A
100
AcDbEntity
  8
0
100
AcDbBlockReference
  2
M3-1
 10
276.4
 20
231.0
 30
0.0
  0
INSERT
  5
AEDE
330
1A
100
AcDbEntity
  8
0
100
AcDbBlockReference
  2
M3-1
 10
203.6
 20
231.0
 30
0.0
  0
INSERT
  5
AEE7
330
1A
100
AcDbEntity
  8
0
100
AcDbBlockReference
  2
M3-1
 10
-203.6
 20
129.0
 30
0.0
 43
-1.0
 50
180.0
210
0.0
220
0.0
230
-1.0
  0
LINE
  5
AEE9
330
1A
100
AcDbEntity
  8
0
100
AcDbLine
 10
188.7999999999999
 20
157.429999996639
 30
0.0
 11
188.7999999999999
 21
202.57
 31
0.0
  0
LINE
  5
AEEA
330
1A
100
AcDbEntity
  8
0
100
AcDbLine
 10
197.4999999999999
 20
146.1299999983195
 30
0.0
 11
197.5
 21
213.8699999983195
 31
0.0
  0
LINE
  5
AEEE
330
1A
100
AcDbEntity
  8
0
100
AcDbLine
 10
193.0937555356414
 20
149.7666487527744
 30
0.0
 11
180.2390728009019
 21
136.9119660180349
 31
0.0
  0
LINE
  5
AEEF
330
1A
100
AcDbEntity
  8
0
100
AcDbLine
 10
192.1971800634734
 20
150.2842868429795
 30
0.0
 11
179.5319660197153
 21
137.6190727992214
 31
0.0
  0
ARC
  5
AEF0
330
1A
100
AcDbEntity
  8
0
100
AcDbCircle
 10
179.8855194103086
 20
137.2655194086281
 30
0.0
 40
0.5000000000000041
100
AcDbArc
 50
135.0
 51
315.0
  0
LINE
  5
AEF2
330
1A
100
AcDbEntity
  8
0
100
AcDbLine
 10
190.7999999999999
 20
155.429999996639
 30
0.0
 11
197.5
 21
155.429999996639
 31
0.0
  0
ARC
  5
AEF3
330
1A
100
AcDbEntity
  8
0
100
AcDbCircle
 10
196.25
 20
151.1299999983195
 30
0.0
 40
1.25
100
AcDbArc
 50
218.5781784782016
 51
171.4218215217958
  0
LINE
  5
AEF4
330
1A
100
AcDbEntity
  8
0
100
AcDbLine
 10
196.3794095225512
 20
150.6470370851749
 30
0.0
 11
193.0937555356414
 21
149.7666487527744
 31
0.0
  0
LINE
  5
AEF5
330
1A
100
AcDbEntity
  8
0
100
AcDbLine
 10
196.1205904774487
 20
151.612962911464
 30
0.0
 11
193.0937555356414
 21
150.8019249331845
 31
0.0
  0
ARC
  5
AEF6
330
1A
100
AcDbEntity
  8
0
100
AcDbCircle
 10
193.6113936258464
 20
148.8700732806064
 30
0.0
 40
2.0
100
AcDbArc
 50
105.0000000000011
 51
135.0
  0
ARC
  5
AEF7
330
1A
100
AcDbEntity
  8
0
100
AcDbCircle
 10
190.7999999999999
 20
157.429999996639
 30
0.0
 40
2.0
100
AcDbArc
 50
180.0
 51
270.0
  0
ARC
  5
AEF8
330
1A
100
AcDbEntity
  8
0
100
AcDbCircle
 10
196.25
 20
151.1299999983195
 30
0.0
 40
0.75
100
AcDbArc
 50
236.8103148957771
 51
153.1896851042172
  0
ARC
  5
AEF9
330
1A
100
AcDbEntity
  8
0
100
AcDbCircle
 10
196.25
 20
151.1299999983195
 30
0.0
 40
0.5000000000000116
100
AcDbArc
 50
284.9999999999996
 51
104.9999999999996
  0
LINE
  5
AEFA
330
1A
100
AcDbEntity
  8
0
100
AcDbLine
 10
196.9999999999999
 20
147.1299999983195
 30
0.0
 11
197.5
 21
147.1299999983195
 31
0.0
  0
LINE
  5
AEFB
330
1A
100
AcDbEntity
  8
0
100
AcDbLine
 10
196.9999999999999
 20
147.1299999983195
 30
0.0
 11
196.9999999999999
 21
150.1299999983195
 31
0.0
  0
LINE
  5
AEFD
330
1A
100
AcDbEntity
  8
0
100
AcDbLine
 10
192.1971800634734
 20
209.7157131536595
 30
0.0
 11
179.5319660197153
 21
222.3809271974176
 31
0.0
  0
LINE
  5
AEFE
330
1A
100
AcDbEntity
  8
0
100
AcDbLine
 10
193.0937555356414
 20
210.2333512438646
 30
0.0
 11
180.2390728009019
 21
223.0880339786041
 31
0.0
  0
ARC
  5
AF00
330
1A
100
AcDbEntity
  8
0
100
AcDbCircle
 10
196.25
 20
208.8699999983195
 30
0.0
 40
1.25
100
AcDbArc
 50
188.5781784782041
 51
141.4218215217984
  0
LINE
  5
AF01
330
1A
100
AcDbEntity
  8
0
100
AcDbLine
 10
196.1205904774487
 20
208.3870370851749
 30
0.0
 11
193.0937555356414
 21
209.1980750634545
 31
0.0
  0
LINE
  5
AF02
330
1A
100
AcDbEntity
  8
0
100
AcDbLine
 10
196.3794095225512
 20
209.3529629114641
 30
0.0
 11
193.0937555356414
 21
210.2333512438646
 31
0.0
  0
LINE
  5
AF03
330
1A
100
AcDbEntity
  8
0
100
AcDbLine
 10
190.7999999999999
 20
204.5699999999999
 30
0.0
 11
197.5
 21
204.5699999999999
 31
0.0
  0
ARC
  5
AF04
330
1A
100
AcDbEntity
  8
0
100
AcDbCircle
 10
190.7999999999999
 20
202.57
 30
0.0
 40
2.0
100
AcDbArc
 50
90.0
 51
180.0
  0
ARC
  5
AF05
330
1A
100
AcDbEntity
  8
0
100
AcDbCircle
 10
193.6113936258464
 20
211.1299267160326
 30
0.0
 40
2.0
100
AcDbArc
 50
225.0
 51
254.9999999999988
  0
LINE
  5
AF06
330
1A
100
AcDbEntity
  8
0
100
AcDbLine
 10
196.9999999999999
 20
212.8699999983195
 30
0.0
 11
197.5
 21
212.8699999983195
 31
0.0
  0
ARC
  5
AF07
330
1A
100
AcDbEntity
  8
0
100
AcDbCircle
 10
196.25
 20
208.8699999983195
 30
0.0
 40
0.75
100
AcDbArc
 50
206.8103148957828
 51
123.1896851042229
  0
ARC
  5
AF08
330
1A
100
AcDbEntity
  8
0
100
AcDbCircle
 10
196.25
 20
208.8699999983195
 30
0.0
 40
0.5000000000000116
100
AcDbArc
 50
255.0000000000004
 51
75.00000000000041
  0
LINE
  5
AF09
330
1A
100
AcDbEntity
  8
0
100
AcDbLine
 10
196.9999999999999
 20
212.8699999983195
 30
0.0
 11
196.9999999999999
 21
209.8699999983195
 31
0.0
  0
ARC
  5
AF32
330
1A
100
AcDbEntity
  8
0
100
AcDbCircle
 10
179.8855194103086
 20
222.7344805880108
 30
0.0
 40
0.5000000000000041
100
AcDbArc
 50
45.0
 51
225.0
  0
CIRCLE
  5
B015
330
1A
100
AcDbEntity
  8
0
100
AcDbCircle
 10
91.12999999999999
 20
214.29
 30
0.0
 40
2.0
  0
LEADER
  5
B016
330
1A
100
AcDbEntity
  8
SUNPOU
100
AcDbLeader
  3
STANDARD
 73
     0
 75
     1
 40
3.000000000000001
 41
32.5142857142857
 76
     3
 10
92.5
 20
216.0
 30
0.0
 10
103.5
 20
244.84
 30
0.0
 10
101.0
 20
244.84
 30
0.0
340
B017
1001
ACAD
1000
DSTYLE
1002
{
1070
   341
1005
BA
1070
    41
1040
2.5
1070
    42
1040
0.5
1070
    43
1040
10.0
1070
    44
1040
0.5
1070
    73
1070
     0
1070
    74
1070
     0
1070
    77
1070
     1
1070
   140
1040
2.0
1070
   141
1040
0.0
1070
   147
1040
0.5
1070
   173
1070
     1
1070
   271
1070
     1
1070
   272
1070
     0
1070
   343
1005
BA
1070
   344
1005
BA
1002
}
  0
MTEXT
  5
B017
102
{ACAD_REACTORS
330
B016
102
}
330
1A
100
AcDbEntity
  8
SUNPOU
100
AcDbMText
 10
100.5
 20
246.84
 30
0.0
 40
3.0
 41
0.0
 71
     6
 72
     1
  1
シリアルモニタLED
 73
     1
 44
1.0
1001
ACAD
1000
MTEXTBEGIN
1070
    73
1070
     1
1070
    44
1040
1.0
1070
    74
1070
     0
1000
MTEXTEND
  0
TEXT
  5
B018
330
1A
100
AcDbEntity
  8
0
100
AcDbText
 10
70.32999999999998
 20
205.75
 30
0.0
 40
3.5
  1
1
 11
70.32999999999998
 21
207.5
 31
0.0
100
AcDbText
 73
     2
  0
TEXT
  5
B019
330
1A
100
AcDbEntity
  8
0
100
AcDbText
 10
70.32999999999998
 20
200.75
 30
0.0
 40
3.5
  1
2
 11
70.32999999999998
 21
202.5
 31
0.0
100
AcDbText
 73
     2
  0
TEXT
  5
B01A
330
1A
100
AcDbEntity
  8
0
100
AcDbText
 10
70.32999999999998
 20
195.75
 30
0.0
 40
3.5
  1
3
 11
70.32999999999998
 21
197.5
 31
0.0
100
AcDbText
 73
     2
  0
TEXT
  5
B01B
330
1A
100
AcDbEntity
  8
0
100
AcDbText
 10
70.32999999999998
 20
190.75
 30
0.0
 40
3.5
  1
4
 11
70.32999999999998
 21
192.5
 31
0.0
100
AcDbText
 73
     2
  0
TEXT
  5
B01C
330
1A
100
AcDbEntity
  8
0
100
AcDbText
 10
70.32999999999995
 20
170.75
 30
0.0
 40
3.5
  1
8
 11
70.32999999999995
 21
172.5
 31
0.0
100
AcDbText
 73
     2
  0
TEXT
  5
B01D
330
1A
100
AcDbEntity
  8
0
100
AcDbText
 10
70.32999999999995
 20
185.75
 30
0.0
 40
3.5
  1
5
 11
70.32999999999995
 21
187.5
 31
0.0
100
AcDbText
 73
     2
  0
TEXT
  5
B01E
330
1A
100
AcDbEntity
  8
0
100
AcDbText
 10
70.32999999999995
 20
175.75
 30
0.0
 40
3.5
  1
7
 11
70.32999999999995
 21
177.5
 31
0.0
100
AcDbText
 73
     2
  0
TEXT
  5
B01F
330
1A
100
AcDbEntity
  8
0
100
AcDbText
 10
70.32999999999995
 20
180.75
 30
0.0
 40
3.5
  1
6
 11
70.32999999999995
 21
182.5
 31
0.0
100
AcDbText
 73
     2
  0
TEXT
  5
B020
330
1A
100
AcDbEntity
  8
0
100
AcDbText
 10
70.32999999999995
 20
150.75
 30
0.0
 40
3.5
  1
12
 11
70.32999999999995
 21
152.5
 31
0.0
100
AcDbText
 73
     2
  0
TEXT
  5
B021
330
1A
100
AcDbEntity
  8
0
100
AcDbText
 10
70.32999999999995
 20
160.75
 30
0.0
 40
3.5
  1
10
 11
70.32999999999995
 21
162.5
 31
0.0
100
AcDbText
 73
     2
  0
TEXT
  5
B022
330
1A
100
AcDbEntity
  8
0
100
AcDbText
 10
70.32999999999995
 20
155.75
 30
0.0
 40
3.5
  1
11
 11
70.32999999999995
 21
157.5
 31
0.0
100
AcDbText
 73
     2
  0
TEXT
  5
B023
330
1A
100
AcDbEntity
  8
0
100
AcDbText
 10
70.32999999999995
 20
165.75
 30
0.0
 40
3.5
  1
9
 11
70.32999999999995
 21
167.5
 31
0.0
100
AcDbText
 73
     2
  0
TEXT
  5
B024
330
1A
100
AcDbEntity
  8
0
100
AcDbText
 10
52.32999999999996
 20
170.75
 30
0.0
 40
3.5
  1
D.GND
 41
0.8
 11
52.32999999999996
 21
172.5
 31
0.0
100
AcDbText
 73
     2
  0
TEXT
  5
B025
330
1A
100
AcDbEntity
  8
0
100
AcDbText
 10
52.32999999999996
 20
155.75
 30
0.0
 40
3.5
  1
+24V
 11
52.32999999999996
 21
157.5
 31
0.0
100
AcDbText
 73
     2
  0
TEXT
  5
B026
330
1A
100
AcDbEntity
  8
0
100
AcDbText
 10
52.32999999999996
 20
150.75
 30
0.0
 40
3.5
  1
0V
 11
52.32999999999996
 21
152.5
 31
0.0
100
AcDbText
 73
     2
  0
TEXT
  5
B027
330
1A
100
AcDbEntity
  8
0
100
AcDbText
 10
52.32999999999996
 20
160.75
 30
0.0
 40
3.5
  1
E
 11
52.32999999999996
 21
162.5
 31
0.0
100
AcDbText
 73
     2
  0
TEXT
  5
B028
330
1A
100
AcDbEntity
  8
0
100
AcDbText
 10
52.32999999999996
 20
165.75
 30
0.0
 40
3.5
  1
Shield
 41
0.8
 11
52.32999999999996
 21
167.5
 31
0.0
100
AcDbText
 73
     2
  0
TEXT
  5
B029
330
1A
100
AcDbEntity
  8
0
100
AcDbText
 10
52.32999999999996
 20
180.75
 30
0.0
 40
3.5
  1
D.GND
 41
0.8
 11
52.32999999999996
 21
182.5
 31
0.0
100
AcDbText
 73
     2
  0
TEXT
  5
B02A
330
1A
100
AcDbEntity
  8
0
100
AcDbText
 10
52.32999999999996
 20
175.75
 30
0.0
 40
3.5
  1
TXD
 41
0.8
 11
52.32999999999996
 21
177.5
 31
0.0
100
AcDbText
 73
     2
  0
TEXT
  5
B02B
330
1A
100
AcDbEntity
  8
0
100
AcDbText
 10
52.32999999999996
 20
185.75
 30
0.0
 40
3.5
  1
RXD
 41
0.8
 11
52.32999999999996
 21
187.5
 31
0.0
100
AcDbText
 73
     2
  0
TEXT
  5
B02D
330
1A
100
AcDbEntity
  8
0
100
AcDbText
 10
52.32999999999998
 20
203.25
 30
0.0
 40
3.5
  1
IN
 11
52.32999999999998
 21
205.0
 31
0.0
100
AcDbText
 73
     2
  0
TEXT
  5
B02F
330
1A
100
AcDbEntity
  8
0
100
AcDbText
 10
52.32999999999998
 20
193.25
 30
0.0
 40
3.5
  1
OUT
 11
52.32999999999998
 21
195.0
 31
0.0
100
AcDbText
 73
     2
  0
LINE
  5
B030
330
1A
100
AcDbEntity
  8
0
100
AcDbLine
 10
67.0
 20
209.5
 30
0.0
 11
66.0
 21
209.5
 31
0.0
  0
LINE
  5
B031
330
1A
100
AcDbEntity
  8
0
100
AcDbLine
 10
66.0
 20
209.5
 30
0.0
 11
66.0
 21
200.5
 31
0.0
  0
LINE
  5
B032
330
1A
100
AcDbEntity
  8
0
100
AcDbLine
 10
67.0
 20
200.5
 30
0.0
 11
66.0
 21
200.5
 31
0.0
  0
LINE
  5
B034
330
1A
100
AcDbEntity
  8
0
100
AcDbLine
 10
66.0
 20
199.5
 30
0.0
 11
66.0
 21
190.5
 31
0.0
  0
LINE
  5
B035
330
1A
100
AcDbEntity
  8
0
100
AcDbLine
 10
67.0
 20
190.5
 30
0.0
 11
66.0
 21
190.5
 31
0.0
  0
LINE
  5
B036
330
1A
100
AcDbEntity
  8
0
100
AcDbLine
 10
67.0
 20
199.5
 30
0.0
 11
66.0
 21
199.5
 31
0.0
  0
LINE
  5
B037
330
1A
100
AcDbEntity
  8
0
100
AcDbLine
 10
50.0
 20
189.5
 30
0.0
 11
50.0
 21
170.5
 31
0.0
  0
LINE
  5
B038
330
1A
100
AcDbEntity
  8
0
100
AcDbLine
 10
51.0
 20
170.5
 30
0.0
 11
50.0
 21
170.5
 31
0.0
  0
LINE
  5
B039
330
1A
100
AcDbEntity
  8
0
100
AcDbLine
 10
51.0
 20
189.5
 30
0.0
 11
50.0
 21
189.5
 31
0.0
  0
TEXT
  5
B03A
330
1A
100
AcDbEntity
  8
0
100
AcDbText
 10
48.25
 20
170.0666666666666
 30
0.0
 40
3.5
  1
RS-232C
 50
90.0
 41
0.8
 72
     4
 11
46.5
 21
180.0
 31
0.0
100
AcDbText
  0
TEXT
  5
B03B
330
1A
100
AcDbEntity
  8
0
100
AcDbText
 10
48.0
 20
194.8333333333333
 30
0.0
 40
3.5
  1
C/L
 50
90.0
 72
     4
 11
46.5
 21
200.0
 31
0.0
100
AcDbText
  0
LINE
  5
B03C
330
1A
100
AcDbEntity
  8
0
100
AcDbLine
 10
50.0
 20
209.5
 30
0.0
 11
50.0
 21
190.5
 31
0.0
  0
LINE
  5
B03D
330
1A
100
AcDbEntity
  8
0
100
AcDbLine
 10
51.0
 20
190.5
 30
0.0
 11
50.0
 21
190.5
 31
0.0
  0
LINE
  5
B03E
330
1A
100
AcDbEntity
  8
0
100
AcDbLine
 10
51.0
 20
209.5
 30
0.0
 11
50.0
 21
209.5
 31
0.0
  0
HATCH
  5
B15D
330
1A
100
AcDbEntity
  8
SUNPOU
100
AcDbHatch
 10
0.0
 20
0.0
 30
0.0
210
0.0
220
0.0
230
1.0
  2
SOLID
 70
     1
 71
     1
 91
        2
 92
       16
 93
        4
 72
     1
 10
270.5
 20
218.0
 11
209.5
 21
218.0
 72
     1
 10
209.5
 20
218.0
 11
209.5
 21
142.0
 72
     1
 10
209.5
 20
142.0
 11
270.5
 21
142.0
 72
     1
 10
270.5
 20
142.0
 11
270.5
 21
218.0
 97
        4
330
B16C
330
B15F
330
B166
330
B15E
 92
        1
 93
        4
 72
     1
 10
271.5
 20
219.0
 11
208.5
 21
219.0
 72
     1
 10
208.5
 20
219.0
 11
208.5
 21
141.0
 72
     1
 10
208.5
 20
141.0
 11
271.5
 21
141.0
 72
     1
 10
271.5
 20
141.0
 11
271.5
 21
219.0
 97
        4
330
B171
330
B165
330
B168
330
B164
 75
     0
 76
     1
 98
        1
 10
-51.5
 20
4.0
  0
LINE
  5
B15E
102
{ACAD_REACTORS
330
B15D
102
}
330
1A
100
AcDbEntity
  8
SUNPOU
100
AcDbLine
 10
270.5
 20
142.0
 30
0.0
 11
270.5
 21
218.0
 31
0.0
  0
LINE
  5
B15F
102
{ACAD_REACTORS
330
B15D
102
}
330
1A
100
AcDbEntity
  8
SUNPOU
100
AcDbLine
 10
209.5
 20
218.0
 30
0.0
 11
209.5
 21
142.0
 31
0.0
  0
LINE
  5
B160
102
{ACAD_REACTORS
330
B162
102
}
330
1A
100
AcDbEntity
  8
SUNPOU
100
AcDbLine
 10
268.0
 20
151.0
 30
0.0
 11
268.0
 21
158.5
 31
0.0
  0
LINE
  5
B161
102
{ACAD_REACTORS
330
B162
102
}
330
1A
100
AcDbEntity
  8
SUNPOU
100
AcDbLine
 10
245.0
 20
158.5
 30
0.0
 11
245.0
 21
151.0
 31
0.0
  0
HATCH
  5
B162
330
1A
100
AcDbEntity
  8
SUNPOU
100
AcDbHatch
 10
0.0
 20
0.0
 30
0.0
210
0.0
220
0.0
230
1.0
  2
SOLID
 70
     1
 71
     1
 91
        1
 92
        7
 72
     0
 73
     1
 93
        4
 10
245.0
 20
158.5
 10
245.0
 20
151.0
 10
268.0
 20
151.0
 10
268.0
 20
158.5
 97
        4
330
B18B
330
B161
330
B169
330
B160
 75
     0
 76
     1
 47
0.3283882381781285
 98
        1
 10
262.5
 20
156.0
  0
INSERT
  5
B163
330
1A
100
AcDbEntity
  8
SUNPOU
100
AcDbBlockReference
  2
ML800-12P-1
 10
215.5
 20
178.0
 30
0.0
  0
LINE
  5
B164
102
{ACAD_REACTORS
330
B15D
102
}
330
1A
100
AcDbEntity
  8
SUNPOU
100
AcDbLine
 10
271.5
 20
141.0
 30
0.0
 11
271.5
 21
219.0
 31
0.0
  0
LINE
  5
B165
102
{ACAD_REACTORS
330
B15D
102
}
330
1A
100
AcDbEntity
  8
SUNPOU
100
AcDbLine
 10
208.5
 20
219.0
 30
0.0
 11
208.5
 21
141.0
 31
0.0
  0
LINE
  5
B166
102
{ACAD_REACTORS
330
B15D
102
}
330
1A
100
AcDbEntity
  8
SUNPOU
100
AcDbLine
 10
209.5
 20
142.0
 30
0.0
 11
270.5
 21
142.0
 31
0.0
  0
TEXT
  5
B167
330
1A
100
AcDbEntity
  8
SUNPOU
100
AcDbText
 10
223.25
 20
149.0
 30
0.0
 40
3.0
  1
12
 41
0.8
 11
223.25
 21
150.5
 31
0.0
100
AcDbText
 73
     2
  0
LINE
  5
B168
102
{ACAD_REACTORS
330
B15D
102
}
330
1A
100
AcDbEntity
  8
SUNPOU
100
AcDbLine
 10
208.5
 20
141.0
 30
0.0
 11
271.5
 21
141.0
 31
0.0
  0
LINE
  5
B169
102
{ACAD_REACTORS
330
B162
102
}
330
1A
100
AcDbEntity
  8
SUNPOU
100
AcDbLine
 10
245.0
 20
151.0
 30
0.0
 11
268.0
 21
151.0
 31
0.0
  0
TEXT
  5
B16A
330
1A
100
AcDbEntity
  8
SUNPOU
100
AcDbText
 10
238.7333333333333
 20
144.0
 30
0.0
 40
3.5
  1
TOYO SOKKI
 72
     2
 11
268.5
 21
144.0
 31
0.0
100
AcDbText
 73
     1
  0
TEXT
  5
B16B
330
1A
100
AcDbEntity
  8
SUNPOU
100
AcDbText
 10
229.5999999999999
 20
149.0
 30
0.0
 40
3.0
  1
0V
 41
0.8
 11
229.5999999999999
 21
150.5
 31
0.0
100
AcDbText
 73
     2
  0
LINE
  5
B16C
102
{ACAD_REACTORS
330
B15D
102
}
330
1A
100
AcDbEntity
  8
SUNPOU
100
AcDbLine
 10
270.5
 20
218.0
 30
0.0
 11
209.5
 21
218.0
 31
0.0
  0
TEXT
  5
B16D
330
1A
100
AcDbEntity
  8
SUNPOU
100
AcDbText
 10
221.25
 20
212.5399999999999
 30
0.0
 40
2.0
  1
SERIAL DATA
 41
0.8
 11
221.25
 21
213.54
 31
0.0
100
AcDbText
 73
     2
  0
TEXT
  5
B16E
330
1A
100
AcDbEntity
  8
SUNPOU
100
AcDbText
 10
221.25
 20
209.54
 30
0.0
 40
2.0
  1
MONITOR
 41
0.8
 11
221.25
 21
210.5399999999999
 31
0.0
100
AcDbText
 73
     2
  0
TEXT
  5
B16F
330
1A
100
AcDbEntity
  8
SUNPOU
100
AcDbText
 10
223.25
 20
159.0
 30
0.0
 40
3.0
  1
10
 41
0.8
 11
223.25
 21
160.5
 31
0.0
100
AcDbText
 73
     2
  0
TEXT
  5
B170
330
1A
100
AcDbEntity
  8
SUNPOU
100
AcDbText
 10
223.25
 20
154.0
 30
0.0
 40
3.0
  1
11
 41
0.8
 11
223.25
 21
155.5
 31
0.0
100
AcDbText
 73
     2
  0
LINE
  5
B171
102
{ACAD_REACTORS
330
B15D
102
}
330
1A
100
AcDbEntity
  8
SUNPOU
100
AcDbLine
 10
271.5
 20
219.0
 30
0.0
 11
208.5
 21
219.0
 31
0.0
  0
TEXT
  5
B172
330
1A
100
AcDbEntity
  8
SUNPOU
100
AcDbText
 10
214.5
 20
193.5714285714286
 30
0.0
 40
3.0
  1
C/L
 50
90.0
 72
     1
 11
214.5
 21
198.0
 31
0.0
100
AcDbText
 73
     1
  0
TEXT
  5
B173
330
1A
100
AcDbEntity
  8
SUNPOU
100
AcDbText
 10
214.5
 20
166.9857142857143
 30
0.0
 40
3.0
  1
RS-232C
 50
90.0
 41
0.8
 72
     1
 11
214.5
 21
175.5
 31
0.0
100
AcDbText
 73
     1
  0
LINE
  5
B174
330
1A
100
AcDbEntity
  8
SUNPOU
100
AcDbLine
 10
213.0
 20
165.5
 30
0.0
 11
213.0
 21
163.4999999999999
 31
0.0
  0
LINE
  5
B175
330
1A
100
AcDbEntity
  8
SUNPOU
100
AcDbLine
 10
214.0
 20
163.4999999999999
 30
0.0
 11
213.0
 21
163.4999999999999
 31
0.0
  0
LINE
  5
B176
330
1A
100
AcDbEntity
  8
SUNPOU
100
AcDbLine
 10
213.0
 20
187.4999999999999
 30
0.0
 11
213.0
 21
185.4999999999999
 31
0.0
  0
LINE
  5
B177
330
1A
100
AcDbEntity
  8
SUNPOU
100
AcDbLine
 10
214.0
 20
188.4999999999999
 30
0.0
 11
213.0
 21
188.4999999999999
 31
0.0
  0
LINE
  5
B178
330
1A
100
AcDbEntity
  8
SUNPOU
100
AcDbLine
 10
214.0
 20
187.4999999999999
 30
0.0
 11
213.0
 21
187.4999999999999
 31
0.0
  0
LINE
  5
B179
330
1A
100
AcDbEntity
  8
SUNPOU
100
AcDbLine
 10
213.0
 20
193.0
 30
0.0
 11
213.0
 21
188.4999999999999
 31
0.0
  0
LINE
  5
B17A
330
1A
100
AcDbEntity
  8
SUNPOU
100
AcDbLine
 10
213.0
 20
207.4999999999999
 30
0.0
 11
213.0
 21
202.9999999999999
 31
0.0
  0
LINE
  5
B17B
330
1A
100
AcDbEntity
  8
SUNPOU
100
AcDbLine
 10
214.0
 20
207.4999999999999
 30
0.0
 11
213.0
 21
207.4999999999999
 31
0.0
  0
CIRCLE
  5
B17C
330
1A
100
AcDbEntity
  8
SUNPOU
100
AcDbCircle
 10
218.5
 20
212.29
 30
0.0
 40
1.5
  0
TEXT
  5
B17D
330
1A
100
AcDbEntity
  8
SUNPOU
100
AcDbText
 10
248.5
 20
197.0399999999999
 30
0.0
 40
2.5
  1
BCD OUTPUT
 41
0.8
 11
248.5
 21
198.2899999999999
 31
0.0
100
AcDbText
 73
     2
  0
LINE
  5
B17E
330
1A
100
AcDbEntity
  8
SUNPOU
100
AcDbLine
 10
232.0
 20
198.4999999999999
 30
0.0
 11
232.0
 21
200.4999999999999
 31
0.0
  0
ARC
  5
B17F
330
1A
100
AcDbEntity
  8
SUNPOU
100
AcDbCircle
 10
257.4995539550892
 20
193.8452135921138
 30
0.0
 40
0.88
100
AcDbArc
 50
44.82116220514448
 51
135.1378806296234
  0
CIRCLE
  5
B180
330
1A
100
AcDbEntity
  8
SUNPOU
100
AcDbCircle
 10
257.5
 20
189.698
 30
0.0
 40
0.6400000000000002
  0
ARC
  5
B181
330
1A
100
AcDbEntity
  8
SUNPOU
100
AcDbCircle
 10
257.5
 20
190.098
 30
0.0
 40
1.2
100
AcDbArc
 50
61.9275130641455
 51
118.0724869358545
  0
ARC
  5
B182
330
1A
100
AcDbEntity
  8
SUNPOU
100
AcDbCircle
 10
257.4995539550893
 20
193.8452135921138
 30
0.0
 40
1.2
100
AcDbArc
 50
44.82116220514448
 51
135.1378806296234
  0
LINE
  5
B183
330
1A
100
AcDbEntity
  8
SUNPOU
100
AcDbLine
 10
256.636
 20
187.45
 30
0.0
 11
259.036
 21
186.75
 31
0.0
  0
ARC
  5
B184
330
1A
100
AcDbEntity
  8
SUNPOU
100
AcDbCircle
 10
257.5
 20
165.402
 30
0.0
 40
1.2
100
AcDbArc
 50
241.9275130641455
 51
298.0724869358508
  0
ARC
  5
B185
330
1A
100
AcDbEntity
  8
SUNPOU
100
AcDbCircle
 10
257.5000000096626
 20
165.402
 30
0.0
 40
1.2
100
AcDbArc
 50
241.9275130641455
 51
298.0724869358508
  0
ARC
  5
B186
330
1A
100
AcDbEntity
  8
SUNPOU
100
AcDbCircle
 10
257.5
 20
165.402
 30
0.0
 40
1.2
100
AcDbArc
 50
241.9275130641455
 51
298.0724869358508
  0
CIRCLE
  5
B187
330
1A
100
AcDbEntity
  8
SUNPOU
100
AcDbCircle
 10
257.5
 20
165.802
 30
0.0
 40
0.6400000000000002
  0
LINE
  5
B188
330
1A
100
AcDbEntity
  8
SUNPOU
100
AcDbLine
 10
256.6359999999999
 20
168.05
 30
0.0
 11
259.036
 21
168.75
 31
0.0
  0
ARC
  5
B189
330
1A
100
AcDbEntity
  8
SUNPOU
100
AcDbCircle
 10
257.4995539550892
 20
161.6547864078861
 30
0.0
 40
0.88
100
AcDbArc
 50
224.8621193703765
 51
315.1788377948555
  0
ARC
  5
B18A
330
1A
100
AcDbEntity
  8
SUNPOU
100
AcDbCircle
 10
257.4995539550893
 20
161.6547864078861
 30
0.0
 40
1.2
100
AcDbArc
 50
224.8621193703765
 51
315.1788377948555
  0
LINE
  5
B18B
102
{ACAD_REACTORS
330
B162
102
}
330
1A
100
AcDbEntity
  8
SUNPOU
100
AcDbLine
 10
268.0
 20
158.5
 30
0.0
 11
245.0
 21
158.5
 31
0.0
  0
LINE
  5
B18C
330
1A
100
AcDbEntity
  8
SUNPOU
100
AcDbLine
 10
255.1
 20
186.298
 30
0.0
 11
255.1
 21
169.202
 31
0.0
  0
LINE
  5
B18D
330
1A
100
AcDbEntity
  8
SUNPOU
100
AcDbLine
 10
254.5
 20
189.138
 30
0.0
 11
254.5
 21
166.3620000013444
 31
0.0
  0
TEXT
  5
B18E
330
1A
100
AcDbEntity
  8
SUNPOU
100
AcDbText
 10
225.5
 20
174.0
 30
0.0
 40
3.0
  1
7
 41
0.8
 11
225.5
 21
175.5
 31
0.0
100
AcDbText
 73
     2
  0
TEXT
  5
B18F
330
1A
100
AcDbEntity
  8
SUNPOU
100
AcDbText
 10
229.5999999999999
 20
174.0
 30
0.0
 40
3.0
  1
TXD
 41
0.8
 11
229.5999999999999
 21
175.5
 31
0.0
100
AcDbText
 73
     2
  0
TEXT
  5
B190
330
1A
100
AcDbEntity
  8
SUNPOU
100
AcDbText
 10
225.5
 20
164.0
 30
0.0
 40
3.0
  1
9
 41
0.8
 11
225.5
 21
165.5
 31
0.0
100
AcDbText
 73
     2
  0
TEXT
  5
B191
330
1A
100
AcDbEntity
  8
SUNPOU
100
AcDbText
 10
229.5999999999999
 20
164.0
 30
0.0
 40
3.0
  1
Shield
 41
0.8
 11
229.5999999999999
 21
165.5
 31
0.0
100
AcDbText
 73
     2
  0
TEXT
  5
B192
330
1A
100
AcDbEntity
  8
SUNPOU
100
AcDbText
 10
229.5999999999999
 20
154.0
 30
0.0
 40
3.0
  1
+24V
 41
0.8
 11
229.5999999999999
 21
155.5
 31
0.0
100
AcDbText
 73
     2
  0
TEXT
  5
B193
330
1A
100
AcDbEntity
  8
SUNPOU
100
AcDbText
 10
229.5999999999999
 20
159.0
 30
0.0
 40
3.0
  1
E
 41
0.8
 11
229.5999999999999
 21
160.5
 31
0.0
100
AcDbText
 73
     2
  0
TEXT
  5
B194
330
1A
100
AcDbEntity
  8
SUNPOU
100
AcDbText
 10
229.5999999999999
 20
169.0
 30
0.0
 40
3.0
  1
D.GND
 41
0.8
 11
229.5999999999999
 21
170.5
 31
0.0
100
AcDbText
 73
     2
  0
TEXT
  5
B195
330
1A
100
AcDbEntity
  8
SUNPOU
100
AcDbText
 10
225.5
 20
169.0
 30
0.0
 40
3.0
  1
8
 41
0.8
 11
225.5
 21
170.5
 31
0.0
100
AcDbText
 73
     2
  0
LINE
  5
B196
330
1A
100
AcDbEntity
  8
SUNPOU
100
AcDbLine
 10
256.86
 20
165.802
 30
0.0
 11
255.1153487011935
 21
164.042044742432
 31
0.0
  0
ARC
  5
B197
330
1A
100
AcDbEntity
  8
SUNPOU
100
AcDbCircle
 10
255.7403139761527
 20
163.4225139481246
 30
0.0
 40
1.2
100
AcDbArc
 50
135.2501983201959
 51
224.8621193703765
  0
TEXT
  5
B198
330
1A
100
AcDbEntity
  8
SUNPOU
100
AcDbText
 10
244.5
 20
159.5
 30
0.0
 40
3.0
  1
No.
100
AcDbText
  0
ARC
  5
B199
330
1A
100
AcDbEntity
  8
SUNPOU
100
AcDbCircle
 10
255.7403139761527
 20
163.4225139481246
 30
0.0
 40
0.88
100
AcDbArc
 50
135.2501983201959
 51
224.8621193703765
  0
LINE
  5
B19A
330
1A
100
AcDbEntity
  8
SUNPOU
100
AcDbLine
 10
254.8897463393323
 20
162.5760302240082
 30
0.0
 11
256.648986318269
 21
160.8083026837698
 31
0.0
  0
LINE
  5
B19B
330
1A
100
AcDbEntity
  8
SUNPOU
100
AcDbLine
 10
255.1165643758177
 20
162.801759217106
 30
0.0
 11
256.8758043547542
 21
161.0340316768675
 31
0.0
  0
TEXT
  5
B19C
330
1A
100
AcDbEntity
  8
SUNPOU
100
AcDbText
 10
249.9761904761905
 20
169.0000000006721
 30
0.0
 40
2.5
  1
18
 41
0.8
 72
     2
 11
253.5
 21
170.2500000006722
 31
0.0
100
AcDbText
 73
     2
  0
ARC
  5
B19D
330
1A
100
AcDbEntity
  8
SUNPOU
100
AcDbCircle
 10
256.3
 20
169.202
 30
0.0
 40
1.2
100
AcDbArc
 50
180.0
 51
286.2602047083103
  0
LINE
  5
B19E
330
1A
100
AcDbEntity
  8
SUNPOU
100
AcDbLine
 10
255.1
 20
166.602
 30
0.0
 11
255.1
 21
165.802
 31
0.0
  0
LINE
  5
B19F
330
1A
100
AcDbEntity
  8
SUNPOU
100
AcDbLine
 10
256.5
 20
165.802
 30
0.0
 11
256.5
 21
166.602
 31
0.0
  0
LINE
  5
B1A0
330
1A
100
AcDbEntity
  8
SUNPOU
100
AcDbLine
 10
255.1
 20
165.802
 30
0.0
 11
256.5
 21
165.802
 31
0.0
  0
LINE
  5
B1A1
330
1A
100
AcDbEntity
  8
SUNPOU
100
AcDbLine
 10
256.5
 20
166.602
 30
0.0
 11
255.1
 21
166.602
 31
0.0
  0
LINE
  5
B1A2
330
1A
100
AcDbEntity
  8
SUNPOU
100
AcDbLine
 10
255.9400455082332
 20
164.8739757319896
 30
0.0
 11
256.9352941273097
 21
164.3431764705882
 31
0.0
  0
LINE
  5
B1A3
330
1A
100
AcDbEntity
  8
SUNPOU
100
AcDbLine
 10
255.1352941193915
 20
165.3031764710022
 30
0.0
 11
255.6452942053748
 21
165.0311764262237
 31
0.0
  0
LINE
  5
B1A4
330
1A
100
AcDbEntity
  8
SUNPOU
100
AcDbLine
 10
256.6327399000148
 20
166.0272839252027
 30
0.0
 11
254.8880886012083
 21
164.2673286676346
 31
0.0
  0
ARC
  5
B1A5
330
1A
100
AcDbEntity
  8
SUNPOU
100
AcDbCircle
 10
255.7
 20
166.3620000013444
 30
0.0
 40
1.2
100
AcDbArc
 50
180.0
 51
241.9275131585428
  0
TEXT
  5
B1A6
330
1A
100
AcDbEntity
  8
SUNPOU
100
AcDbText
 10
229.5999999999999
 20
184.0
 30
0.0
 40
3.0
  1
RXD
 41
0.8
 11
229.5999999999999
 21
185.5
 31
0.0
100
AcDbText
 73
     2
  0
TEXT
  5
B1A7
330
1A
100
AcDbEntity
  8
SUNPOU
100
AcDbText
 10
229.5999999999999
 20
179.0
 30
0.0
 40
3.0
  1
D.GND
 41
0.8
 11
229.5999999999999
 21
180.5
 31
0.0
100
AcDbText
 73
     2
  0
TEXT
  5
B1A8
330
1A
100
AcDbEntity
  8
SUNPOU
100
AcDbText
 10
225.5
 20
179.0
 30
0.0
 40
3.0
  1
6
 41
0.8
 11
225.5
 21
180.5
 31
0.0
100
AcDbText
 73
     2
  0
TEXT
  5
B1A9
330
1A
100
AcDbEntity
  8
SUNPOU
100
AcDbText
 10
225.5
 20
184.0
 30
0.0
 40
3.0
  1
5
 41
0.8
 11
225.5
 21
185.5
 31
0.0
100
AcDbText
 73
     2
  0
TEXT
  5
B1AA
330
1A
100
AcDbEntity
  8
SUNPOU
100
AcDbText
 10
229.5
 20
191.5
 30
0.0
 40
3.0
  1
OUT
 41
0.8
 11
229.5
 21
193.0
 31
0.0
100
AcDbText
 73
     2
  0
TEXT
  5
B1AB
330
1A
100
AcDbEntity
  8
SUNPOU
100
AcDbText
 10
225.5
 20
189.0
 30
0.0
 40
3.0
  1
4
 41
0.8
 11
225.5
 21
190.5
 31
0.0
100
AcDbText
 73
     2
  0
LINE
  5
B1AC
330
1A
100
AcDbEntity
  8
SUNPOU
100
AcDbLine
 10
229.5
 20
188.4999999999999
 30
0.0
 11
232.0
 21
188.4999999999999
 31
0.0
  0
LINE
  5
B1AD
330
1A
100
AcDbEntity
  8
SUNPOU
100
AcDbLine
 10
232.0
 20
188.4999999999999
 30
0.0
 11
232.0
 21
190.4999999999999
 31
0.0
  0
TEXT
  5
B1AE
330
1A
100
AcDbEntity
  8
SUNPOU
100
AcDbText
 10
225.5
 20
194.0
 30
0.0
 40
3.0
  1
3
 41
0.8
 11
225.5
 21
195.5
 31
0.0
100
AcDbText
 73
     2
  0
LINE
  5
B1AF
330
1A
100
AcDbEntity
  8
SUNPOU
100
AcDbLine
 10
229.5
 20
198.4999999999999
 30
0.0
 11
232.0
 21
198.4999999999999
 31
0.0
  0
LINE
  5
B1B0
330
1A
100
AcDbEntity
  8
SUNPOU
100
AcDbLine
 10
229.5
 20
197.5
 30
0.0
 11
232.0
 21
197.5
 31
0.0
  0
LINE
  5
B1B1
330
1A
100
AcDbEntity
  8
SUNPOU
100
AcDbLine
 10
232.0
 20
197.5
 30
0.0
 11
232.0
 21
195.5
 31
0.0
  0
ARC
  5
B1B2
330
1A
100
AcDbEntity
  8
SUNPOU
100
AcDbCircle
 10
256.3
 20
186.298
 30
0.0
 40
1.2
100
AcDbArc
 50
73.73979529168967
 51
180.0
  0
TEXT
  5
B1B3
330
1A
100
AcDbEntity
  8
SUNPOU
100
AcDbText
 10
252.452380952381
 20
184.0000000006721
 30
0.0
 40
2.5
  1
1
 41
0.8
 72
     2
 11
253.5
 21
185.2500000006721
 31
0.0
100
AcDbText
 73
     2
  0
LINE
  5
B1B4
330
1A
100
AcDbEntity
  8
SUNPOU
100
AcDbLine
 10
255.1165643758177
 20
192.698240782894
 30
0.0
 11
256.8758043547542
 21
194.4659683231325
 31
0.0
  0
LINE
  5
B1B5
330
1A
100
AcDbEntity
  8
SUNPOU
100
AcDbLine
 10
254.8897463393323
 20
192.9239697759917
 30
0.0
 11
256.648986318269
 21
194.6916973162301
 31
0.0
  0
LINE
  5
B1B6
330
1A
100
AcDbEntity
  8
SUNPOU
100
AcDbLine
 10
256.86
 20
189.698
 30
0.0
 11
255.1153487011935
 21
191.457955257568
 31
0.0
  0
LINE
  5
B1B7
330
1A
100
AcDbEntity
  8
SUNPOU
100
AcDbLine
 10
255.1
 20
189.698
 30
0.0
 11
256.5
 21
189.698
 31
0.0
  0
LINE
  5
B1B8
330
1A
100
AcDbEntity
  8
SUNPOU
100
AcDbLine
 10
255.6452942038032
 20
190.4688235753617
 30
0.0
 11
255.1352941176471
 21
190.1968235294118
 31
0.0
  0
LINE
  5
B1B9
330
1A
100
AcDbEntity
  8
SUNPOU
100
AcDbLine
 10
256.9352941176471
 20
191.1568235294117
 30
0.0
 11
255.9400455062571
 21
190.6260242700037
 31
0.0
  0
ARC
  5
B1BA
330
1A
100
AcDbEntity
  8
SUNPOU
100
AcDbCircle
 10
255.7403139761527
 20
192.0774860518754
 30
0.0
 40
1.2
100
AcDbArc
 50
135.1378806296234
 51
224.749801679804
  0
ARC
  5
B1BB
330
1A
100
AcDbEntity
  8
SUNPOU
100
AcDbCircle
 10
255.7
 20
189.138
 30
0.0
 40
1.2
100
AcDbArc
 50
118.0724869358545
 51
180.0
  0
ARC
  5
B1BC
330
1A
100
AcDbEntity
  8
SUNPOU
100
AcDbCircle
 10
255.7403139761527
 20
192.0774860518753
 30
0.0
 40
0.88
100
AcDbArc
 50
135.1378806296234
 51
224.749801679804
  0
LINE
  5
B1BD
330
1A
100
AcDbEntity
  8
SUNPOU
100
AcDbLine
 10
256.6327399000148
 20
189.4727160747973
 30
0.0
 11
254.8880886012083
 21
191.2326713323653
 31
0.0
  0
LINE
  5
B1BE
330
1A
100
AcDbEntity
  8
SUNPOU
100
AcDbLine
 10
256.5
 20
188.898
 30
0.0
 11
255.1
 21
188.898
 31
0.0
  0
LINE
  5
B1BF
330
1A
100
AcDbEntity
  8
SUNPOU
100
AcDbLine
 10
255.1
 20
188.898
 30
0.0
 11
255.1
 21
189.698
 31
0.0
  0
LINE
  5
B1C0
330
1A
100
AcDbEntity
  8
SUNPOU
100
AcDbLine
 10
256.5
 20
189.698
 30
0.0
 11
256.5
 21
188.898
 31
0.0
  0
LINE
  5
B1C1
330
1A
100
AcDbEntity
  8
SUNPOU
100
AcDbLine
 10
259.9
 20
185.598
 30
0.0
 11
259.9
 21
169.902
 31
0.0
  0
LINE
  5
B1C2
330
1A
100
AcDbEntity
  8
SUNPOU
100
AcDbLine
 10
260.5
 20
189.138
 30
0.0
 11
260.5
 21
166.362
 31
0.0
  0
LINE
  5
B1C3
330
1A
100
AcDbEntity
  8
SUNPOU
100
AcDbLine
 10
258.14
 20
165.802
 30
0.0
 11
259.8839706718283
 21
164.0459184207282
 31
0.0
  0
ARC
  5
B1C4
330
1A
100
AcDbEntity
  8
SUNPOU
100
AcDbCircle
 10
259.2595673144601
 20
163.4258212934108
 30
0.0
 40
1.2
100
AcDbArc
 50
315.1788377948555
 51
44.80174549880122
  0
ARC
  5
B1C5
330
1A
100
AcDbEntity
  8
SUNPOU
100
AcDbCircle
 10
259.2595673144601
 20
163.4258212934109
 30
0.0
 40
0.88
100
AcDbArc
 50
315.1788377948555
 51
44.80174549880122
  0
LINE
  5
B1C6
330
1A
100
AcDbEntity
  8
SUNPOU
100
AcDbLine
 10
258.3507264727535
 20
160.8089109175372
 30
0.0
 11
260.1107398321244
 21
162.5799458030619
 31
0.0
  0
LINE
  5
B1C7
330
1A
100
AcDbEntity
  8
SUNPOU
100
AcDbLine
 10
258.1237471347097
 20
161.0344777149635
 30
0.0
 11
259.8837604940805
 21
162.8055126004883
 31
0.0
  0
TEXT
  5
B1C8
330
1A
100
AcDbEntity
  8
SUNPOU
100
AcDbText
 10
261.5
 20
169.0
 30
0.0
 40
2.5
  1
36
 41
0.8
 11
261.5
 21
170.25
 31
0.0
100
AcDbText
 73
     2
  0
ARC
  5
B1C9
330
1A
100
AcDbEntity
  8
SUNPOU
100
AcDbCircle
 10
258.7
 20
169.902
 30
0.0
 40
1.2
100
AcDbArc
 50
286.2602047083103
 51
0.0
  0
LINE
  5
B1CA
330
1A
100
AcDbEntity
  8
SUNPOU
100
AcDbLine
 10
258.3670557663158
 20
166.027489864479
 30
0.0
 11
260.111026438144
 21
164.2714082852073
 31
0.0
  0
ARC
  5
B1CB
330
1A
100
AcDbEntity
  8
SUNPOU
100
AcDbCircle
 10
259.3
 20
166.362
 30
0.0
 40
1.2
100
AcDbArc
 50
298.0724869358508
 51
0.0
  0
LINE
  5
B1CC
330
1A
100
AcDbEntity
  8
SUNPOU
100
AcDbLine
 10
258.5
 20
166.602
 30
0.0
 11
258.5
 21
165.802
 31
0.0
  0
LINE
  5
B1CD
330
1A
100
AcDbEntity
  8
SUNPOU
100
AcDbLine
 10
259.9
 20
165.802
 30
0.0
 11
259.9
 21
166.602
 31
0.0
  0
LINE
  5
B1CE
330
1A
100
AcDbEntity
  8
SUNPOU
100
AcDbLine
 10
258.5
 20
165.802
 30
0.0
 11
259.9
 21
165.802
 31
0.0
  0
LINE
  5
B1CF
330
1A
100
AcDbEntity
  8
SUNPOU
100
AcDbLine
 10
259.9
 20
166.602
 30
0.0
 11
258.5
 21
166.602
 31
0.0
  0
LINE
  5
B1D0
330
1A
100
AcDbEntity
  8
SUNPOU
100
AcDbLine
 10
259.3558774878743
 20
165.0318013254095
 30
0.0
 11
259.864705882353
 21
165.3031764705882
 31
0.0
  0
LINE
  5
B1D1
330
1A
100
AcDbEntity
  8
SUNPOU
100
AcDbLine
 10
258.0647058920155
 20
164.3431764705882
 30
0.0
 11
259.0610459888698
 21
164.8745578584296
 31
0.0
  0
ARC
  5
B1D2
330
1A
100
AcDbEntity
  8
SUNPOU
100
AcDbCircle
 10
258.7
 20
185.598
 30
0.0
 40
1.2
100
AcDbArc
 50
0.0
 51
73.73979529168967
  0
TEXT
  5
B1D3
330
1A
100
AcDbEntity
  8
SUNPOU
100
AcDbText
 10
261.5
 20
184.0
 30
0.0
 40
2.5
  1
19
 41
0.8
 11
261.5
 21
185.25
 31
0.0
100
AcDbText
 73
     2
  0
LINE
  5
B1D4
330
1A
100
AcDbEntity
  8
SUNPOU
100
AcDbLine
 10
258.3507264727535
 20
194.6910890824628
 30
0.0
 11
260.1107398321244
 21
192.9200541969381
 31
0.0
  0
LINE
  5
B1D5
330
1A
100
AcDbEntity
  8
SUNPOU
100
AcDbLine
 10
258.1237471347097
 20
194.4655222850364
 30
0.0
 11
259.8837604940805
 21
192.6944873995117
 31
0.0
  0
LINE
  5
B1D6
330
1A
100
AcDbEntity
  8
SUNPOU
100
AcDbLine
 10
258.3670557663158
 20
189.4725101355209
 30
0.0
 11
260.111026438144
 21
191.2285917147927
 31
0.0
  0
ARC
  5
B1D7
330
1A
100
AcDbEntity
  8
SUNPOU
100
AcDbCircle
 10
259.3
 20
189.138
 30
0.0
 40
1.2
100
AcDbArc
 50
0.0
 51
61.9275130641455
  0
LINE
  5
B1D8
330
1A
100
AcDbEntity
  8
SUNPOU
100
AcDbLine
 10
258.5
 20
189.698
 30
0.0
 11
259.9
 21
189.698
 31
0.0
  0
ARC
  5
B1D9
330
1A
100
AcDbEntity
  8
SUNPOU
100
AcDbCircle
 10
259.2595673144601
 20
192.0741787065891
 30
0.0
 40
0.88
100
AcDbArc
 50
315.1982545011988
 51
44.82116220514448
  0
ARC
  5
B1DA
330
1A
100
AcDbEntity
  8
SUNPOU
100
AcDbCircle
 10
259.2595673144601
 20
192.0741787065892
 30
0.0
 40
1.2
100
AcDbArc
 50
315.1982545011988
 51
44.82116220514333
  0
LINE
  5
B1DB
330
1A
100
AcDbEntity
  8
SUNPOU
100
AcDbLine
 10
259.3558774869285
 20
190.4681986736381
 30
0.0
 11
259.864705882353
 21
190.1968235294118
 31
0.0
  0
LINE
  5
B1DC
330
1A
100
AcDbEntity
  8
SUNPOU
100
AcDbLine
 10
258.14
 20
189.698
 30
0.0
 11
259.8839706718283
 21
191.4540815792717
 31
0.0
  0
LINE
  5
B1DD
330
1A
100
AcDbEntity
  8
SUNPOU
100
AcDbLine
 10
258.0647058823529
 20
191.1568235294117
 30
0.0
 11
259.061045987376
 21
190.6254421400661
 31
0.0
  0
LINE
  5
B1DE
330
1A
100
AcDbEntity
  8
SUNPOU
100
AcDbLine
 10
259.9
 20
188.898
 30
0.0
 11
258.5
 21
188.898
 31
0.0
  0
LINE
  5
B1DF
330
1A
100
AcDbEntity
  8
SUNPOU
100
AcDbLine
 10
258.5
 20
188.898
 30
0.0
 11
258.5
 21
189.698
 31
0.0
  0
LINE
  5
B1E0
330
1A
100
AcDbEntity
  8
SUNPOU
100
AcDbLine
 10
259.9
 20
189.698
 30
0.0
 11
259.9
 21
188.898
 31
0.0
  0
TEXT
  5
B1E1
330
1A
100
AcDbEntity
  8
SUNPOU
100
AcDbText
 10
240.4523809523809
 20
210.5
 30
0.0
 40
4.0
  1
CV-3010
 72
     2
 11
267.5
 21
214.5
 31
0.0
100
AcDbText
 73
     3
  0
TEXT
  5
B1E2
330
1A
100
AcDbEntity
  8
SUNPOU
100
AcDbText
 10
248.5
 20
201.04
 30
0.0
 40
2.5
  1
SERIAL INPUT
 41
0.8
 11
248.5
 21
202.2899999999999
 31
0.0
100
AcDbText
 73
     2
  0
TEXT
  5
B1E3
330
1A
100
AcDbEntity
  8
SUNPOU
100
AcDbText
 10
240.5428571428572
 20
205.79
 30
0.0
 40
2.5
  1
BCD CONVERTER
 41
0.9
 72
     2
 11
267.5
 21
205.79
 31
0.0
100
AcDbText
 73
     1
  0
TEXT
  5
B1E4
330
1A
100
AcDbEntity
  8
SUNPOU
100
AcDbText
 10
229.5
 20
201.5
 30
0.0
 40
3.0
  1
IN
 41
0.8
 11
229.5
 21
203.0
 31
0.0
100
AcDbText
 73
     2
  0
TEXT
  5
B1E5
330
1A
100
AcDbEntity
  8
SUNPOU
100
AcDbText
 10
225.5
 20
204.0
 30
0.0
 40
3.0
  1
1
 41
0.8
 11
225.5
 21
205.5
 31
0.0
100
AcDbText
 73
     2
  0
TEXT
  5
B1E6
330
1A
100
AcDbEntity
  8
SUNPOU
100
AcDbText
 10
225.5
 20
199.0
 30
0.0
 40
3.0
  1
2
 41
0.8
 11
225.5
 21
200.5
 31
0.0
100
AcDbText
 73
     2
  0
LINE
  5
B1E7
330
1A
100
AcDbEntity
  8
SUNPOU
100
AcDbLine
 10
229.5
 20
207.5
 30
0.0
 11
232.0
 21
207.5
 31
0.0
  0
LINE
  5
B1E8
330
1A
100
AcDbEntity
  8
SUNPOU
100
AcDbLine
 10
232.0
 20
207.5
 30
0.0
 11
232.0
 21
205.5
 31
0.0
  0
TEXT
  5
B218
330
1A
100
AcDbEntity
  8
WAKU
100
AcDbText
 10
247.5
 20
17.5
 30
0.0
 40
3.0
  1
大野
100
AcDbText
  0
TEXT
  5
B219
330
1A
100
AcDbEntity
  8
WAKU
100
AcDbText
 10
234.0
 20
18.0
 30
0.0
 40
2.0
  1
04.02.26
 41
0.8
100
AcDbText
  0
TEXT
  5
B21A
330
1A
100
AcDbEntity
  8
0
100
AcDbText
 10
396.5
 20
7.5
 30
0.0
 40
3.0
  1
1
100
AcDbText
  0
VIEWPORT
  5
22
102
{ACAD_XDICTIONARY
360
B227
102
}
330
17
100
AcDbEntity
 67
     1
  8
0
100
AcDbViewport
 10
261.5176991150442
 20
154.7242978687078
 30
0.0
 40
523.0353982300885
 41
309.4485957374157
 68
     1
 69
     1
 12
261.5176991150442
 22
154.7242978687078
 13
0.0
 23
0.0
 14
1.0
 24
1.0
 15
10.0
 25
10.0
 16
0.0
 26
0.0
 36
1.0
 17
0.0
 27
0.0
 37
0.0
 42
50.0
 43
0.0
 44
0.0
 45
309.4485957374157
 50
0.0
 51
0.0
 72
   100
 90
    32768
  1

281
     0
 71
     1
 74
     0
110
0.0
120
0.0
130
0.0
111
1.0
121
0.0
131
0.0
112
0.0
122
1.0
132
0.0
 79
     0
146
0.0
  0
ENDSEC
  0
SECTION
  2
OBJECTS
  0
DICTIONARY
  5
C
330
0
100
AcDbDictionary
281
     1
  3
ACAD_COLOR
350
B21E
  3
ACAD_GROUP
350
D
  3
ACAD_LAYOUT
350
8D43
  3
ACAD_MATERIAL
350
B21D
  3
ACAD_MLINESTYLE
350
E
  3
ACAD_PLOTSETTINGS
350
8D44
  3
ACAD_PLOTSTYLENAME
350
8D41
  3
ACDBHEADERROUNDTRIPXREC
350
B224
  3
AcDbVariableDictionary
350
8D4B
  3
CONTENTDICTIONARY
350
5E99
  0
DICTIONARY
  5
B227
330
22
100
AcDbDictionary
280
     1
281
     1
  3
ACAD_XREC_ROUNDTRIP
360
B228
  0
DICTIONARY
  5
B21E
102
{ACAD_REACTORS
330
C
102
}
330
C
100
AcDbDictionary
281
     1
  0
DICTIONARY
  5
D
102
{ACAD_REACTORS
330
C
102
}
330
C
100
AcDbDictionary
281
     1
  3
*A1
350
9117
  3
*A10
350
97F8
  3
*A11
350
A9F5
  3
*A2
350
A9F6
  3
*A3
350
AB79
  3
*A4
350
AB82
  3
*A5
350
AB8B
  3
*A6
350
AD8D
  3
*A7
350
AD8F
  3
*A8
350
9126
  3
*A9
350
97EF
  0
DICTIONARY
  5
8D43
102
{ACAD_REACTORS
330
C
102
}
330
C
100
AcDbDictionary
281
     1
  3
Model
350
8D45
  3
ﾚｲｱｳﾄ1
350
8D46
  0
DICTIONARY
  5
B21D
102
{ACAD_REACTORS
330
C
102
}
330
C
100
AcDbDictionary
281
     1
  0
DICTIONARY
  5
E
102
{ACAD_REACTORS
330
C
102
}
330
C
100
AcDbDictionary
281
     1
  3
STANDARD
350
13
  0
DICTIONARY
  5
8D44
102
{ACAD_REACTORS
330
C
102
}
330
C
100
AcDbDictionary
281
     1
  0
ACDBDICTIONARYWDFLT
  5
8D41
102
{ACAD_REACTORS
330
C
102
}
330
C
100
AcDbDictionary
281
     1
  3
Normal
350
8D42
100
AcDbDictionaryWithDefault
340
8D42
  0
DICTIONARY
  5
B224
102
{ACAD_REACTORS
330
C
102
}
330
C
100
AcDbDictionary
281
     1
  3
COLORDICT
350
B226
  3
MATERIALDICT
350
B225
  0
DICTIONARY
  5
8D4B
102
{ACAD_REACTORS
330
C
102
}
330
C
100
AcDbDictionary
281
     1
  3
DIMASSOC
350
8D4C
  3
PROJECTNAME
350
B222
  0
DICTIONARY
  5
5E99
102
{ACAD_REACTORS
330
C
102
}
330
C
100
AcDbDictionary
281
     1
  0
XRECORD
  5
B228
102
{ACAD_REACTORS
330
B227
102
}
330
B227
100
AcDbXrecord
280
     1
102
SHADEPLOT
 70
     0
  0
GROUP
  5
9117
102
{ACAD_REACTORS
330
D
102
}
330
D
100
AcDbGroup
300

 70
     1
 71
     1
  0
GROUP
  5
97F8
102
{ACAD_REACTORS
330
D
102
}
330
D
100
AcDbGroup
300

 70
     1
 71
     1
  0
GROUP
  5
A9F5
102
{ACAD_REACTORS
330
D
102
}
330
D
100
AcDbGroup
300

 70
     1
 71
     1
  0
GROUP
  5
A9F6
102
{ACAD_REACTORS
330
D
102
}
330
D
100
AcDbGroup
300

 70
     1
 71
     1
  0
GROUP
  5
AB79
102
{ACAD_REACTORS
330
D
102
}
330
D
100
AcDbGroup
300

 70
     1
 71
     1
  0
GROUP
  5
AB82
102
{ACAD_REACTORS
330
D
102
}
330
D
100
AcDbGroup
300

 70
     1
 71
     1
  0
GROUP
  5
AB8B
102
{ACAD_REACTORS
330
D
102
}
330
D
100
AcDbGroup
300

 70
     1
 71
     1
  0
GROUP
  5
AD8D
102
{ACAD_REACTORS
330
D
102
}
330
D
100
AcDbGroup
300

 70
     1
 71
     1
  0
GROUP
  5
AD8F
102
{ACAD_REACTORS
330
D
102
}
330
D
100
AcDbGroup
300

 70
     1
 71
     1
  0
GROUP
  5
9126
102
{ACAD_REACTORS
330
D
102
}
330
D
100
AcDbGroup
300

 70
     1
 71
     1
  0
GROUP
  5
97EF
102
{ACAD_REACTORS
330
D
102
}
330
D
100
AcDbGroup
300

 70
     1
 71
     1
  0
LAYOUT
  5
8D45
102
{ACAD_XDICTIONARY
360
B229
102
}
102
{ACAD_REACTORS
330
8D43
102
}
330
8D43
100
AcDbPlotSettings
  1

  2
EPSON LP-8300 (TMINETWORK)
  4
A4
  6

 40
5.873749732971191
 41
5.873747825622558
 42
5.873748779296875
 43
5.873748779296875
 44
297.0106506347656
 45
209.9733276367187
 46
0.0
 47
0.0
 48
0.0
 49
0.0
140
0.0
141
0.0
142
1.0
143
1.0
 70
 11952
 72
     1
 73
     0
 74
     0
  7
C:\PROGRAM FILES\AUTOCAD LT 2002\Plot Styles\TMI_pen_style.ctb
 75
     0
147
1.0
148
-73.94572991938989
149
-3.952954659742289
100
AcDbLayout
  1
Model
 70
     1
 71
     0
 10
0.0
 20
0.0
 11
12.0
 21
9.0
 12
0.0
 22
0.0
 32
0.0
 14
0.0
 24
0.0
 34
0.0
 15
0.0
 25
0.0
 35
0.0
146
0.0
 13
0.0
 23
0.0
 33
0.0
 16
1.0
 26
0.0
 36
0.0
 17
0.0
 27
1.0
 37
0.0
 76
     0
330
1A
  0
LAYOUT
  5
8D46
102
{ACAD_XDICTIONARY
360
B22B
102
}
102
{ACAD_REACTORS
330
8D43
102
}
330
8D43
100
AcDbPlotSettings
  1

  2
EPSON LP-8300 (TMINETWORK)
  4

  6

 40
0.0
 41
0.0
 42
0.0
 43
0.0
 44
0.0
 45
0.0
 46
0.0
 47
0.0
 48
0.0
 49
0.0
140
0.0
141
0.0
142
1.0
143
1.0
 70
   688
 72
     0
 73
     0
 74
     5
  7
C:\PROGRAM FILES\AUTOCAD LT 2002\Plot Styles\TMI_pen_style.ctb
 75
    16
147
1.0
148
0.0
149
0.0
100
AcDbLayout
  1
ﾚｲｱｳﾄ1
 70
     1
 71
     1
 10
0.0
 20
0.0
 11
420.0
 21
297.0
 12
0.0
 22
0.0
 32
0.0
 14
1.000000000000000E+20
 24
1.000000000000000E+20
 34
1.000000000000000E+20
 15
-1.000000000000000E+20
 25
-1.000000000000000E+20
 35
-1.000000000000000E+20
146
0.0
 13
0.0
 23
0.0
 33
0.0
 16
1.0
 26
0.0
 36
0.0
 17
0.0
 27
1.0
 37
0.0
 76
     0
330
17
331
22
  0
MLINESTYLE
  5
13
102
{ACAD_REACTORS
330
E
102
}
330
E
100
AcDbMlineStyle
  2
STANDARD
 70
     0
  3

 62
     0
 51
90.0
 52
90.0
 71
     2
 49
0.5
 62
   256
  6
BYLAYER
 49
-0.5
 62
   256
  6
BYLAYER
  0
ACDBPLACEHOLDER
  5
8D42
102
{ACAD_REACTORS
330
8D41
102
}
330
8D41
  0
XRECORD
  5
B226
102
{ACAD_REACTORS
330
B224
102
}
330
B224
100
AcDbXrecord
280
     1
340
B21E
  0
XRECORD
  5
B225
102
{ACAD_REACTORS
330
B224
102
}
330
B224
100
AcDbXrecord
280
     1
340
B21D
  0
DICTIONARYVAR
  5
8D4C
102
{ACAD_REACTORS
330
8D4B
102
}
330
8D4B
100
DictionaryVariables
280
     0
  1
1
  0
DICTIONARYVAR
  5
B222
102
{ACAD_REACTORS
330
8D4B
102
}
330
8D4B
100
DictionaryVariables
280
     0
  1

  0
DICTIONARY
  5
B229
330
8D45
100
AcDbDictionary
280
     1
281
     1
  3
ACAD_XREC_ROUNDTRIP
360
B22A
  0
DICTIONARY
  5
B22B
330
8D46
100
AcDbDictionary
280
     1
281
     1
  3
ACAD_XREC_ROUNDTRIP
360
B22C
  0
XRECORD
  5
B22A
102
{ACAD_REACTORS
330
B229
102
}
330
B229
100
AcDbXrecord
280
     1
102
SHADEPLOT
 70
     0
102
SHADEPLOTRESLEVEL
 70
     2
102
SHADEPLOTCUSTOMDPI
 70
   300
  0
XRECORD
  5
B22C
102
{ACAD_REACTORS
330
B22B
102
}
330
B22B
100
AcDbXrecord
280
     1
102
SHADEPLOT
 70
     0
102
SHADEPLOTRESLEVEL
 70
     2
102
SHADEPLOTCUSTOMDPI
 70
   300
  0
ENDSEC
  0
EOF
